osu file format v14

[General]
AudioFilename: audio.mp3
AudioLeadIn: 0
PreviewTime: 47916
Countdown: 0
SampleSet: Soft
StackLeniency: 0.4
Mode: 0
LetterboxInBreaks: 0
WidescreenStoryboard: 1

[Editor]
Bookmarks: 13463,25463,37463,49463,61463,73463,85463,97463,109463,119963,133463,145463,157463,166463,169463
DistanceSpacing: 1.4
BeatDivisor: 4
GridSize: 32
TimelineZoom: 2.9

[Metadata]
Title:Sunset Tea Cup
TitleUnicode:Sunset Tea Cup
Artist:YUC'e
ArtistUnicode:YUC'e
Creator:Rumia-
Version:Hyper
Source:
Tags:MoeMoeKyunNN walaowey [ -Scarlet- ] FREQUENCY BLITZ 5 Attack the Music [ATK-0014] yuce
BeatmapID:1349346
BeatmapSetID:634949

[Difficulty]
HPDrainRate:5
CircleSize:4
OverallDifficulty:7.5
ApproachRate:8.5
SliderMultiplier:1.64
SliderTickRate:1

[Events]
//Background and Video events
0,0,"bg.jpg",0,0
//Break Periods
//Storyboard Layer 0 (Background)
//Storyboard Layer 1 (Fail)
//Storyboard Layer 2 (Pass)
//Storyboard Layer 3 (Foreground)
//Storyboard Sound Samples

[TimingPoints]
1512,375,4,2,0,50,1,0
1512,-200,4,2,0,50,0,0
13512,-133.333333333333,4,2,10,60,0,0
22512,-200,4,2,10,60,0,0
25512,-100,4,2,10,70,0,0
46512,-66.6666666666667,4,2,10,70,0,0
48012,-100,4,2,10,30,0,0
49512,-83.3333333333333,4,2,10,80,0,1
60762,-166.666666666667,4,2,10,80,0,1
61512,-83.3333333333333,4,2,10,80,0,1
73512,-166.666666666667,4,2,10,50,0,0
84762,-200,4,2,10,50,0,0
85512,-100,4,2,10,60,0,0
86918,-100,4,2,10,5,0,0
87012,-100,4,2,10,60,0,0
88418,-100,4,2,10,5,0,0
88512,-100,4,2,10,60,0,0
89918,-100,4,2,10,5,0,0
90012,-100,4,2,10,60,0,0
91418,-100,4,2,10,5,0,0
91512,-100,4,2,10,60,0,0
91793,-100,4,2,10,5,0,0
91887,-100,4,2,10,60,0,0
92168,-100,4,2,10,5,0,0
92262,-100,4,2,10,60,0,0
92918,-100,4,2,10,5,0,0
93012,-100,4,2,10,60,0,0
94418,-100,4,2,10,5,0,0
94512,-142.857142857143,4,2,10,60,0,0
95262,-200,4,2,10,45,0,0
96012,-200,4,2,10,60,0,0
97137,-83.3333333333333,4,2,10,80,0,0
97512,-100,4,2,10,70,0,0
118512,-66.6666666666667,4,2,10,70,0,0
120012,-66.6666666666667,4,2,10,30,0,0
121512,-83.3333333333333,4,2,10,80,0,1
132762,-166.666666666667,4,2,10,80,0,1
133512,-83.3333333333333,4,2,10,80,0,1
145512,-100,4,2,10,75,0,0
145887,-100,4,2,11,75,0,0
160887,-100,4,2,0,75,0,0
160980,-100,4,2,11,75,0,0
167262,-100,4,2,11,75,0,0
168012,-100,4,2,11,60,0,0
168762,-100,4,2,11,50,0,0
169512,-100,4,2,11,60,0,0

[Colours]
Combo1 : 5,49,122
Combo2 : 224,163,71
Combo3 : 162,164,164
Combo4 : 0,191,255
Combo5 : 255,255,255
Combo6 : 249,79,125

[HitObjects]
46,187,1512,6,0,P|136:181|208:211,1,164,2|8,0:0|0:0,0:0:0:0:
361,329,3012,2,0,P|371:267|404:214,1,123,2|2,0:0|0:0,0:0:0:0:
453,121,3762,2,0,P|384:125|325:111,1,123,10|2,0:0|0:0,0:0:0:0:
232,35,4512,6,0,L|206:208,1,164,2|8,0:0|0:0,0:0:0:0:
41,285,6012,2,0,L|177:267,1,123,2|2,0:0|0:0,0:0:0:0:
251,263,6762,2,0,L|326:361,1,123,10|2,0:0|0:0,0:0:0:0:
462,316,7512,5,2,0:0:0:0:
462,316,7887,2,0,L|478:217,1,82,2|8,0:0|0:0,0:0:0:0:
494,149,9012,6,0,P|426:156|367:140,1,123,2|2,0:0|0:0,0:0:0:0:
307,66,9762,2,0,P|239:59|180:75,1,123,10|0,0:0|0:0,0:0:0:0:
132,145,10512,6,0,L|145:229,1,82,2|2,0:0|0:0,0:0:0:0:
81,277,11262,2,0,L|147:223,1,82,10|2,0:0|0:0,0:0:0:0:
261,262,12012,6,0,L|131:220,1,123,2|0,0:0|0:0,0:0:0:0:
226,155,12762,2,0,L|286:148,1,41,2|0,0:0|0:0,0:0:0:0:
344,140,13137,2,0,L|404:133,1,41,2|0,0:0|0:0,0:0:0:0:
496,101,13512,6,0,B|461:169|461:169|485:282,1,184.500007038117,4|0,1:2|0:0,0:0:0:0:
483,274,14262,2,0,L|416:266,1,61.5000023460389,10|2,0:0|0:0,0:0:0:0:
297,323,14824,1,2,0:0:0:0:
297,323,15012,2,0,L|163:312,1,123.000004692078,2|2,1:2|0:0,0:0:0:0:
121,214,15574,1,2,0:0:0:0:
121,214,15762,2,0,P|168:256|174:313,1,123.000004692078,8|2,0:0|0:0,0:0:0:0:
81,346,16324,1,2,0:0:0:0:
21,213,16512,6,0,P|53:148|122:117,1,123.000004692078,0|2,1:0|0:0,0:0:0:0:
215,159,17262,2,0,L|294:154,1,61.5000023460389,10|0,0:0|0:0,0:0:0:0:
374,104,17637,2,0,L|453:109,1,61.5000023460389,2|0,0:0|0:0,0:0:0:0:
474,207,18012,2,0,L|323:195,1,123.000004692078,2|2,1:2|0:0,0:0:0:0:
281,267,18574,1,2,0:0:0:0:
281,267,18762,2,0,L|139:264,1,123.000004692078,8|2,0:0|0:0,0:0:0:0:
69,308,19324,1,2,0:0:0:0:
15,193,19512,6,0,P|59:175|141:202,1,123.000004692078,0|2,1:0|0:0,0:0:0:0:
208,236,20074,1,0,0:0:0:0:
208,236,20262,2,0,L|191:304,1,61.5000023460389,10|0,0:0|0:0,0:0:0:0:
305,207,20637,2,0,L|325:272,1,61.5000023460389,2|0,0:0|0:0,0:0:0:0:
371,146,21012,6,0,L|508:157,1,123.000004692078,2|2,1:2|0:0,0:0:0:0:
494,46,21574,1,2,0:0:0:0:
494,46,21762,2,0,L|359:54,1,123.000004692078,8|2,0:0|0:0,0:0:0:0:
290,102,22324,1,2,0:0:0:0:
290,102,22512,6,0,L|202:98,1,82,0|2,1:0|0:0,0:0:0:0:
208,98,23262,2,0,L|120:94,1,82,8|2,0:0|0:0,0:0:0:0:
30,86,24012,1,4,1:0:0:0:
38,257,25512,6,0,P|77:228|105:191,1,82,6|0,0:0|0:0,0:0:0:0:
168,264,25887,2,0,P|187:219|193:173,1,82,8|0,0:0|0:0,0:0:0:0:
263,86,26262,1,10,0:0:0:0:
263,86,26449,1,2,0:0:0:0:
263,86,26637,2,0,L|147:91,1,82,10|0,0:0|0:0,0:0:0:0:
263,86,27012,6,0,P|292:125|329:153,1,82,10|0,0:0|0:0,0:0:0:0:
256,216,27387,2,0,P|300:235|346:241,1,82,10|0,0:0|0:0,0:0:0:0:
434,311,27762,1,10,0:0:0:0:
434,311,27949,1,2,0:0:0:0:
434,311,28137,2,0,L|429:195,1,82,10|0,0:0|0:0,0:0:0:0:
426,144,28512,5,8,0:0:0:0:
426,144,28887,2,0,P|377:157|326:155,1,82,10|2,0:0|0:0,0:0:0:0:
205,175,29262,2,0,P|292:173|364:210,1,164,10|8,0:0|0:0,0:0:0:0:
395,297,29824,1,2,0:0:0:0:
395,297,30012,6,0,L|298:305,1,82,10|0,0:0|0:0,0:0:0:0:
211,321,30387,2,0,L|114:329,1,82,10|0,0:0|0:0,0:0:0:0:
30,246,30762,1,10,0:0:0:0:
84,167,30949,1,2,0:0:0:0:
139,246,31137,2,0,L|126:350,1,82,10|0,0:0|0:0,0:0:0:0:
229,200,31512,6,0,L|316:208,1,82,14|0,0:0|0:0,0:0:0:0:
397,146,31887,2,0,L|484:154,1,82,10|0,0:0|0:0,0:0:0:0:
326,52,32262,2,0,L|244:44,2,82,10|2|10,0:0|0:0|0:0,0:0:0:0:
159,43,33012,6,0,L|167:130,1,82,10|0,0:0|0:0,0:0:0:0:
3,58,33387,2,0,L|11:140,1,82,10|0,0:0|0:0,0:0:0:0:
105,211,33762,2,0,L|113:298,2,82,10|2|8,0:0|0:0|0:0,0:0:0:0:
245,157,34512,5,8,3:2:0:0:
245,157,34887,2,0,P|295:164|335:152,1,82,10|2,0:0|0:0,0:0:0:0:
286,3,35262,2,0,P|294:43|287:84,1,82,10|2,0:0|0:0,0:0:0:0:
125,46,35637,2,0,P|165:38|206:46,1,82,10|2,0:0|0:0,0:0:0:0:
164,199,36012,6,0,P|156:159|164:119,1,82,8|0,3:2|3:0,0:0:0:0:
302,273,36387,2,0,P|252:266|212:278,1,82,10|0,0:0|0:0,0:0:0:0:
124,282,36762,1,10,0:0:0:0:
37,236,36949,1,2,0:0:0:0:
46,138,37137,2,0,L|59:71,3,41,10|0|0|0,0:0|0:0|0:0|0:0,0:0:0:0:
70,74,37512,6,0,P|113:77|185:66,1,82,14|0,0:0|0:0,0:0:0:0:
242,42,37887,2,0,P|282:38|323:42,1,82,10|0,0:0|0:0,0:0:0:0:
439,80,38262,1,10,0:0:0:0:
456,84,38449,1,2,0:0:0:0:
477,90,38637,2,0,L|359:85,1,82,10|0,3:2|3:0,0:0:0:0:
281,182,39012,6,0,L|381:179,1,82,10|0,0:0|0:0,0:0:0:0:
411,270,39387,2,0,L|511:267,1,82,10|0,0:0|0:0,0:0:0:0:
326,328,39762,1,10,0:0:0:0:
306,327,39949,1,2,0:0:0:0:
287,327,40137,2,0,L|191:324,1,82,10|0,3:2|3:0,0:0:0:0:
19,221,40512,5,10,0:0:0:0:
19,221,40887,2,0,B|81:219|81:219|120:236|120:236|218:228,1,164,10|10,0:0|0:0,0:0:0:0:
325,67,41637,1,8,0:0:0:0:
224,115,41824,1,2,0:0:0:0:
325,67,42012,6,0,L|308:174,1,82,10|0,0:0|0:0,0:0:0:0:
224,115,42387,2,0,L|235:204,1,82,10|0,0:0|0:0,0:0:0:0:
142,198,42762,2,0,L|176:274,1,82,10|2,0:0|0:0,0:0:0:0:
75,291,43137,2,0,L|131:356,1,82,10|0,0:0|0:0,0:0:0:0:
257,347,43512,6,0,L|360:347,1,82,10|0,0:0|0:0,0:0:0:0:
420,343,43887,2,0,L|523:343,1,82,10|0,0:0|0:0,0:0:0:0:
305,261,44262,1,10,0:0:0:0:
327,261,44449,1,2,0:0:0:0:
347,261,44637,2,0,L|443:259,1,82,10|0,0:0|0:0,0:0:0:0:
484,82,45012,6,0,L|473:177,1,82,10|0,0:0|0:0,0:0:0:0:
347,82,45387,2,0,L|336:177,1,82,10|0,0:0|0:0,0:0:0:0:
212,76,45762,2,0,L|201:171,2,82,10|2|10,0:0|0:0|0:0,0:0:0:0:
256,192,46512,12,0,48012,0:0:0:0:
13,139,49512,6,0,P|73:135|120:176,1,98.3999969970704,4|0,1:2|0:0,0:0:0:0:
154,212,49793,1,0,0:0:0:0:
154,212,49887,2,0,P|166:280|131:356,1,147.599995495606,10|0,1:2|0:0,0:0:0:0:
125,369,50262,2,0,L|224:375,1,98.3999969970704,2|2,1:2|0:0,0:0:0:0:
250,347,50543,2,0,L|367:354,1,98.3999969970704,0|0,1:0|0:0,0:0:0:0:
388,359,50824,1,2,1:2:0:0:
488,232,51012,6,0,L|346:220,1,98.3999969970704,0|2,1:0|0:0,0:0:0:0:
314,220,51293,1,0,0:0:0:0:
314,220,51387,2,0,L|469:202,1,147.599995495606,10|0,1:2|0:0,0:0:0:0:
426,101,51762,2,0,P|439:67|442:44,2,49.1999984985352,0|0|2,1:0|0:0|0:0,0:0:0:0:
383,113,52043,2,0,L|264:100,1,98.3999969970704,2|0,1:2|0:0,0:0:0:0:
215,51,52324,2,0,P|194:85|188:113,1,49.1999984985352,2|0,0:0|0:0,0:0:0:0:
181,134,52512,6,0,P|140:148|63:146,1,98.3999969970704,2|0,1:2|0:0,0:0:0:0:
12,173,52793,1,0,0:0:0:0:
12,173,52887,2,0,P|59:228|121:267,1,147.599995495606,10|0,1:2|0:0,0:0:0:0:
149,276,53262,2,0,L|259:262,1,98.3999969970704,2|2,1:2|0:0,0:0:0:0:
275,291,53543,2,0,L|385:277,1,98.3999969970704,0|0,1:0|0:0,0:0:0:0:
411,305,53824,1,2,1:2:0:0:
469,225,54012,6,0,B|488:175|488:175|470:50,2,147.599995495606,2|0|2,1:2|0:0|3:0,0:0:0:0:
310,213,54762,2,0,L|171:208,1,98.3999969970704,4|0,1:3|0:0,0:0:0:0:
188,210,55043,2,0,L|49:205,1,98.3999969970704,8|0,1:3|0:0,0:0:0:0:
62,206,55324,2,0,L|-8:204,1,49.1999984985352,8|8,3:0|3:0,0:0:0:0:
21,76,55512,6,0,P|67:65|128:103,1,98.3999969970704,6|0,0:0|0:0,0:0:0:0:
169,128,55793,1,0,0:0:0:0:
169,128,55887,2,0,P|243:127|304:71,1,147.599995495606,10|0,1:2|0:0,0:0:0:0:
315,50,56262,2,0,L|420:38,1,98.3999969970704,2|2,1:2|0:0,0:0:0:0:
465,94,56543,2,0,L|441:192,1,98.3999969970704,0|0,1:0|0:0,0:0:0:0:
431,226,56824,1,2,1:2:0:0:
442,330,57012,6,0,P|386:314|319:320,1,98.3999969970704,0|2,1:0|0:0,0:0:0:0:
277,326,57293,1,0,0:0:0:0:
277,326,57387,2,0,P|294:260|281:177,1,147.599995495606,10|0,1:2|0:0,0:0:0:0:
266,129,57762,2,0,L|293:89,2,49.1999984985352,0|0|2,1:0|0:0|0:0,0:0:0:0:
229,137,58043,2,0,P|176:141|93:127,1,98.3999969970704,2|0,1:2|0:0,0:0:0:0:
49,105,58324,1,2,1:2:0:0:
49,105,58418,1,0,0:0:0:0:
49,105,58512,6,0,P|59:154|43:258,1,147.599995495606,2|0,1:2|0:0,0:0:0:0:
25,270,58887,2,0,L|-6:279,4,24.5999992492676,10|0|0|0|2,0:0|0:0|0:0|0:0|0:0,0:0:0:0:
128,288,59262,2,0,L|287:319,1,147.599995495606,2|0,1:2|0:0,0:0:0:0:
284,324,59637,2,0,L|390:293,1,98.3999969970704,10|0,0:2|0:0,0:0:0:0:
461,207,60012,6,0,P|463:148|471:79,1,98.3999969970704,2|0,1:2|0:0,0:0:0:0:
461,60,60293,2,0,L|356:115,1,98.3999969970704
339,124,60574,1,0,0:0:0:0:
244,116,60762,6,0,L|125:103,1,98.3999969970704,0|0,0:0|0:0,0:0:0:0:
6,190,61512,6,0,P|57:183|104:143,1,98.3999969970704,6|0,1:2|0:0,0:0:0:0:
145,104,61793,1,0,0:0:0:0:
145,104,61887,2,0,L|127:252,1,147.599995495606,10|0,1:2|0:0,0:0:0:0:
125,289,62262,2,0,L|230:279,1,98.3999969970704,2|2,1:2|0:0,0:0:0:0:
262,353,62543,2,0,L|367:343,1,98.3999969970704,0|0,1:0|0:0,0:0:0:0:
394,338,62824,1,2,1:2:0:0:
504,237,63012,6,0,P|452:225|378:230,1,98.3999969970704,2|2,1:2|0:0,0:0:0:0:
335,227,63293,1,0,0:0:0:0:
335,227,63387,2,0,P|390:178|460:158,1,147.599995495606,10|0,1:2|0:0,0:0:0:0:
478,125,63762,1,0,1:0:0:0:
479,100,63855,1,0,0:0:0:0:
474,75,63949,1,2,0:0:0:0:
460,54,64043,2,0,P|406:67|344:57,1,98.3999969970704,2|0,1:2|0:0,0:0:0:0:
339,56,64324,2,0,L|276:37,1,49.1999984985352,2|0,1:2|0:0,0:0:0:0:
181,6,64512,6,0,L|194:120,1,98.3999969970704,2|0,1:2|0:0,0:0:0:0:
196,185,64793,1,0,0:0:0:0:
196,185,64887,2,0,L|172:336,1,147.599995495606,8|0,0:0|0:0,0:0:0:0:
170,355,65262,2,0,L|286:359,1,98.3999969970704,2|2,1:2|0:0,0:0:0:0:
290,262,65543,2,0,L|202:188,1,98.3999969970704,0|0,1:0|0:0,0:0:0:0:
196,185,65824,1,2,1:2:0:0:
318,168,66012,6,0,B|381:149|381:149|491:167,1,147.599995495606,2|0,1:2|0:0,0:0:0:0:
484,172,66387,2,0,B|455:248|455:248|407:293,1,147.599995495606,10|2,1:2|3:0,0:0:0:0:
384,283,66762,2,0,L|300:271,1,49.1999984985352,4|0,1:3|0:0,0:0:0:0:
229,321,67043,2,0,L|109:296,1,98.3999969970704,8|0,1:3|0:0,0:0:0:0:
96,290,67324,1,8,3:0:0:0:
96,290,67418,1,8,3:0:0:0:
96,290,67512,6,0,P|110:229|95:169,1,98.3999969970704,6|0,1:2|0:0,0:0:0:0:
99,100,67793,1,0,0:0:0:0:
99,100,67887,2,0,P|126:32|202:14,1,147.599995495606,10|0,1:2|0:0,0:0:0:0:
218,9,68262,2,0,L|352:5,1,98.3999969970704,2|2,1:2|0:0,0:0:0:0:
321,101,68543,2,0,L|426:95,1,98.3999969970704,0|0,1:2|0:0,0:0:0:0:
442,95,68824,1,2,1:2:0:0:
485,224,69012,6,0,L|365:214,1,98.3999969970704,0|2,1:0|0:0,0:0:0:0:
314,210,69293,1,0,0:0:0:0:
314,210,69387,2,0,L|146:227,1,147.599995495606,10|0,1:2|0:0,0:0:0:0:
65,261,69762,2,0,L|55:318,2,49.1999984985352,0|0|2,1:2|0:0|0:0,0:0:0:0:
50,237,70043,2,0,P|32:184|59:122,1,98.3999969970704,0|0,1:0|0:0,0:0:0:0:
65,135,70324,1,2,1:2:0:0:
89,130,70418,1,0,0:0:0:0:
113,126,70512,6,0,L|228:151,1,98.3999969970704,2|0,1:2|0:0,0:0:0:0:
279,166,70793,1,0,0:0:0:0:
279,166,70887,2,0,P|310:97|299:27,1,147.599995495606,8|2,0:0|0:0,0:0:0:0:
277,2,71262,1,2,1:2:0:0:
435,83,71543,2,0,L|416:180,1,98.3999969970704,0|0,0:0|0:0,0:0:0:0:
408,212,71824,1,0,0:0:0:0:
296,312,72012,6,0,L|474:331,1,147.599995495606,2|0,1:2|0:0,0:0:0:0:
470,330,72387,1,2,1:2:0:0:
296,312,72574,2,0,L|313:256,1,49.1999984985352,0|0,0:0|0:0,0:0:0:0:
241,223,72762,5,2,0:0:0:0:
164,236,72949,1,2,0:0:0:0:
121,301,73137,1,2,0:0:0:0:
148,379,73324,1,2,0:0:0:0:
296,312,73512,5,4,0:0:0:0:
40,210,74262,1,2,0:0:0:0:
148,138,74637,1,2,0:0:0:0:
148,138,75012,6,0,L|265:145,1,98.3999969970704,0|2,0:0|0:0,0:0:0:0:
369,152,75762,1,0,0:0:0:0:
291,325,76137,1,2,0:0:0:0:
291,325,76512,2,0,L|192:319,1,98.3999969970704,0|2,0:0|0:0,0:0:0:0:
74,216,77262,2,0,P|61:164|83:108,1,98.3999969970704,2|2,0:0|0:0,0:0:0:0:
242,61,78012,6,0,P|254:108|233:167,1,98.3999969970704,0|2,0:0|0:0,0:0:0:0:
159,202,78762,2,0,P|193:168|255:156,1,98.3999969970704,0|2,0:0|0:0,0:0:0:0:
321,203,79512,2,0,P|274:189|233:142,1,98.3999969970704,0|2,0:0|0:0,0:0:0:0:
339,79,80262,2,0,L|402:83,1,49.1999984985352,2|0,0:0|0:0,0:0:0:0:
478,107,80637,1,2,0:0:0:0:
478,107,81012,6,0,P|461:152|459:210,1,98.3999969970704,0|2,0:0|0:0,0:0:0:0:
472,295,81574,1,2,0:0:0:0:
472,295,81762,2,0,P|420:290|361:292,1,98.3999969970704,0|2,0:0|0:0,0:0:0:0:
271,324,82512,6,0,P|225:333|168:319,1,98.3999969970704,0|2,0:0|0:0,0:0:0:0:
243,139,83262,2,0,P|220:183|220:232,1,98.3999969970704,0|2,0:0|0:0,0:0:0:0:
313,213,84012,5,4,0:1:0:0:
360,302,84762,6,0,L|483:307,1,123
360,302,85512,6,0,L|190:297,1,164,0|0,1:0|1:0,0:0:0:0:
75,233,86262,2,0,P|63:166|74:111,2,123,8|0|0,1:2|1:0|1:0,0:0:0:0:
168,169,87012,2,0,L|336:169,1,164,0|0,1:0|1:0,0:0:0:0:
461,168,87762,2,0,P|473:106|455:48,2,123,8|0|0,1:2|1:0|1:0,0:0:0:0:
432,273,88512,6,0,P|334:272|259:298,1,164,0|0,1:0|1:0,0:0:0:0:
172,334,89262,2,0,P|97:346|35:337,2,123,8|0|0,1:2|1:0|1:2,0:0:0:0:
186,229,90012,2,0,L|181:48,1,164,0|0,1:0|1:0,0:0:0:0:
85,180,90762,2,0,L|83:51,2,123,8|0|0,1:2|1:0|1:0,0:0:0:0:
112,308,91512,6,0,P|156:327|285:282,1,164,0|0,1:0|1:0,0:0:0:0:
341,205,92262,2,0,P|401:189|467:200,2,123,8|0|0,1:2|1:0|1:0,0:0:0:0:
235,199,93012,2,0,P|220:120|239:30,1,164,0|0,1:0|1:0,0:0:0:0:
342,118,93762,2,0,L|469:116,2,123,8|0|0,1:2|1:0|1:0,0:0:0:0:
235,197,94512,6,0,P|178:205|103:185,1,114.799996496582,4|0,1:0|0:0,0:0:0:0:
183,242,95262,6,0,P|137:217|119:186,1,82,4|0,1:0|0:0,0:0:0:0:
80,106,96012,5,8,3:0:0:0:
157,93,96293,1,4,3:0:0:0:
0,124,96574,1,8,3:0:0:0:
80,106,96762,1,4,3:0:0:0:
157,93,96949,1,4,3:0:0:0:
237,80,97137,6,0,L|394:98,1,147.599995495606,4|0,0:0|0:0,0:0:0:0:
474,127,97512,6,0,P|435:156|407:193,1,82,6|0,0:0|0:0,0:0:0:0:
413,181,97887,2,0,P|396:218|389:259,1,82,10|0,0:0|0:0,0:0:0:0:
331,357,98262,1,10,0:0:0:0:
270,295,98449,1,2,0:0:0:0:
225,217,98637,2,0,P|212:166|213:128,1,82,10|0,0:0|0:0,0:0:0:0:
38,127,99012,6,0,P|77:156|105:193,1,82,10|0,0:0|0:0,0:0:0:0:
98,181,99387,2,0,P|115:218|123:259,1,82,10|0,0:0|0:0,0:0:0:0:
181,357,99762,1,10,0:0:0:0:
242,295,99949,1,2,0:0:0:0:
287,217,100137,2,0,P|300:166|299:128,1,82,10|0,0:0|0:0,0:0:0:0:
228,48,100512,5,10,0:0:0:0:
228,48,100887,2,0,P|277:35|328:37,1,82,10|2,0:0|0:0,0:0:0:0:
233,146,101262,2,0,P|146:148|74:111,1,164,10|8,0:0|0:0,0:0:0:0:
5,193,101824,1,2,0:0:0:0:
5,193,102012,6,0,L|13:290,1,82,10|0,0:0|0:0,0:0:0:0:
78,114,102387,2,0,L|175:106,1,82,10|0,0:0|0:0,0:0:0:0:
347,109,102762,1,10,0:0:0:0:
293,188,102949,1,2,0:0:0:0:
238,109,103137,2,0,L|251:5,1,82,10|0,0:0|0:0,0:0:0:0:
293,188,103512,6,0,L|206:180,1,82,14|0,0:0|0:0,0:0:0:0:
115,238,103887,2,0,L|28:230,1,82,10|0,0:0|0:0,0:0:0:0:
183,346,104262,2,0,L|191:264,2,82,10|2|10,0:0|0:0|0:0,0:0:0:0:
478,230,105012,6,0,L|397:238,1,82,10|0,0:0|0:0,0:0:0:0:
300,180,105387,2,0,L|219:188,1,82,10|0,0:0|0:0,0:0:0:0:
329,346,105762,2,0,L|321:264,2,82,10|2|10,0:0|0:0|0:0,0:0:0:0:
219,188,106512,5,10,3:2:0:0:
219,188,106887,2,0,P|169:181|129:193,1,82,10|2,0:0|0:0,0:0:0:0:
60,255,107262,1,10,0:0:0:0:
60,255,107449,1,2,0:0:0:0:
152,310,107637,2,0,P|202:317|242:305,1,82,10|2,0:0|0:0,0:0:0:0:
304,226,108012,6,0,P|311:176|299:136,1,82,10|0,0:0|0:0,0:0:0:0:
137,105,108387,2,0,P|187:112|227:100,1,82,10|0,0:0|0:0,0:0:0:0:
321,133,108762,1,10,0:0:0:0:
304,226,108949,1,2,0:0:0:0:
289,316,109137,2,0,L|276:383,3,41,10|0|0|0,0:0|0:0|0:0|0:0,0:0:0:0:
304,226,109512,6,0,P|261:223|189:234,1,82,14|0,0:0|0:0,0:0:0:0:
143,237,109887,2,0,P|103:241|62:237,1,82,10|0,0:0|0:0,0:0:0:0:
201,117,110262,1,10,0:0:0:0:
205,100,110449,1,2,0:0:0:0:
211,79,110637,2,0,L|206:197,1,82,8|0,0:0|0:0,0:0:0:0:
204,261,111012,6,0,L|199:379,1,82,10|0,0:0|0:0,0:0:0:0:
297,205,111387,2,0,L|292:323,1,82,10|0,0:0|0:0,0:0:0:0:
412,150,111762,1,10,0:0:0:0:
411,170,111949,1,2,0:0:0:0:
409,190,112137,2,0,L|404:308,1,82,10|0,0:0|0:0,0:0:0:0:
512,340,112512,5,10,0:0:0:0:
512,340,112887,2,0,B|450:338|450:338|411:355|411:355|313:347,1,164,10|10,0:0|0:0,0:0:0:0:
205,339,113637,1,10,0:0:0:0:
324,348,113824,1,2,0:0:0:0:
205,339,114012,6,0,P|230:298|265:272,1,82,10|0,0:0|0:0,0:0:0:0:
192,225,114387,2,0,P|234:201|277:196,1,82,10|0,0:0|0:0,0:0:0:0:
240,119,114762,2,0,P|288:120|328:137,1,82,10|0,0:0|0:0,0:0:0:0:
339,50,115137,2,0,P|379:75|405:110,1,82,10|0,0:0|0:0,0:0:0:0:
481,194,115512,6,0,L|378:194,1,82,10|0,0:0|0:0,0:0:0:0:
318,198,115887,2,0,L|215:198,1,82,10|0,0:0|0:0,0:0:0:0:
145,195,116262,1,10,0:0:0:0:
123,195,116449,1,2,0:0:0:0:
103,195,116637,2,0,L|7:197,1,82,10|0,0:0|0:0,0:0:0:0:
104,355,117012,6,0,L|115:260,1,82,10|0,0:0|0:0,0:0:0:0:
207,228,117387,2,0,L|218:133,1,82,10|0,0:0|0:0,0:0:0:0:
313,121,117762,2,0,L|324:26,2,82,10|2|10,0:0|0:0|0:0,0:0:0:0:
387,183,118324,1,0,0:0:0:0:
256,192,118512,12,0,120012,0:0:0:0:
505,245,121512,6,0,P|458:248|396:205,1,98.3999969970704,6|0,1:2|0:0,0:0:0:0:
358,172,121793,1,0,0:0:0:0:
358,172,121887,2,0,P|346:104|381:28,1,147.599995495606,10|0,1:2|0:0,0:0:0:0:
391,21,122262,2,0,P|365:73|322:106,1,98.3999969970704,2|2,1:2|0:0,0:0:0:0:
262,37,122543,2,0,L|145:30,1,98.3999969970704,0|0,1:0|0:0,0:0:0:0:
124,25,122824,1,2,1:2:0:0:
24,152,123012,6,0,L|166:164,1,98.3999969970704,0|2,1:0|0:0,0:0:0:0:
198,164,123293,1,0,0:0:0:0:
198,164,123387,2,0,L|43:182,1,147.599995495606,10|0,1:2|0:0,0:0:0:0:
94,268,123762,1,0,1:0:0:0:
106,268,123855,1,0,0:0:0:0:
118,269,123949,1,2,0:0:0:0:
129,271,124043,2,0,L|248:284,1,98.3999969970704,10|0,1:2|0:0,0:0:0:0:
286,344,124324,2,0,P|307:310|313:282,1,49.1999984985352,2|0,0:0|0:0,0:0:0:0:
320,271,124512,6,0,P|358:247|411:255,1,98.3999969970704,2|0,1:2|0:0,0:0:0:0:
477,209,124793,1,0,0:0:0:0:
477,209,124887,2,0,P|446:143|396:89,1,147.599995495606,8|0,1:2|0:0,0:0:0:0:
365,70,125262,1,2,1:2:0:0:
245,26,125543,2,0,L|135:40,1,98.3999969970704,0|0,1:0|0:0,0:0:0:0:
102,46,125824,1,2,1:2:0:0:
43,159,126012,6,0,B|24:209|24:209|42:334,2,147.599995495606,2|2|2,1:2|0:0|0:3,0:0:0:0:
157,157,126762,2,0,L|296:162,1,98.3999969970704,4|0,1:3|0:0,0:0:0:0:
281,162,127043,2,0,L|420:167,1,98.3999969970704,8|0,1:3|0:0,0:0:0:0:
407,166,127324,2,0,L|477:168,1,49.1999984985352,8|8,3:0|3:0,0:0:0:0:
491,308,127512,6,0,P|416:314|366:282,1,98.3999969970704,6|0,1:2|0:0,0:0:0:0:
343,256,127793,1,0,0:0:0:0:
343,256,127887,2,0,P|269:257|208:313,1,147.599995495606,10|0,1:2|0:0,0:0:0:0:
201,332,128262,2,0,P|157:297|106:298,1,98.3999969970704,2|2,1:2|0:0,0:0:0:0:
38,284,128543,2,0,L|62:186,1,98.3999969970704,0|0,1:0|0:0,0:0:0:0:
74,158,128824,1,2,1:2:0:0:
60,43,129012,6,0,P|132:59|166:55,1,98.3999969970704,0|2,1:0|0:0,0:0:0:0:
235,58,129293,1,0,0:0:0:0:
235,58,129387,2,0,P|218:124|231:207,1,147.599995495606,10|0,1:2|0:0,0:0:0:0:
258,268,129762,2,0,L|231:308,2,49.1999984985352,0|0|2,1:0|0:0|0:0,0:0:0:0:
283,247,130043,2,0,P|336:243|419:257,1,98.3999969970704,2|0,1:2|0:0,0:0:0:0:
463,279,130324,1,2,1:2:0:0:
463,279,130418,1,0,0:0:0:0:
463,279,130512,6,0,P|453:230|469:126,1,147.599995495606,0|0,1:0|0:0,0:0:0:0:
487,114,130887,2,0,L|518:105,4,24.5999992492676,8|0|0|0|2,0:0|0:0|0:0|0:0|0:0,0:0:0:0:
383,95,131262,2,0,L|246:77,1,98.3999969970704,0|0,1:0|0:0,0:0:0:0:
199,115,131543,1,0,0:0:0:0:
199,115,131637,2,0,L|62:97,1,98.3999969970704,10|0,0:0|0:0,0:0:0:0:
54,164,132012,6,0,P|52:223|44:292,1,98.3999969970704,0|0,1:0|0:0,0:0:0:0:
51,301,132293,2,0,L|156:246,1,98.3999969970704,0|0,0:0|0:0,0:0:0:0:
173,237,132574,1,0,0:0:0:0:
268,268,132762,6,0,L|387:281,1,98.3999969970704,0|0,0:0|0:0,0:0:0:0:
511,190,133512,6,0,P|460:197|408:236,1,98.3999969970704,6|0,1:2|0:0,0:0:0:0:
366,279,133793,1,0,0:0:0:0:
366,279,133887,2,0,P|305:206|299:130,1,147.599995495606,10|0,1:2|0:0,0:0:0:0:
298,121,134262,2,0,B|293:64|255:22,1,98.3999969970704,2|2,1:2|0:0,0:0:0:0:
183,59,134543,2,0,L|78:49,1,98.3999969970704,0|0,1:0|0:0,0:0:0:0:
51,44,134824,1,2,1:2:0:0:
26,135,135012,6,0,L|146:147,1,98.3999969970704,0|2,1:0|0:0,0:0:0:0:
190,179,135293,1,0,0:0:0:0:
190,179,135387,2,0,L|41:197,1,147.599995495606,10|0,1:2|0:0,0:0:0:0:
1,213,135762,1,0,1:0:0:0:
0,238,135855,1,0,0:0:0:0:
5,263,135949,1,2,0:0:0:0:
19,284,136043,2,0,P|73:271|135:281,1,98.3999969970704,2|0,1:2|0:0,0:0:0:0:
140,282,136324,2,0,L|203:301,1,49.1999984985352,2|0,1:2|0:0,0:0:0:0:
265,379,136512,6,0,P|255:326|270:253,1,98.3999969970704,2|0,1:2|0:0,0:0:0:0:
271,210,136793,1,0,0:0:0:0:
271,210,136887,2,0,P|293:140|295:59,1,147.599995495606,8|2,0:0|0:0,0:0:0:0:
295,24,137262,1,0,1:0:0:0:
380,139,137543,2,0,L|482:157,1,98.3999969970704,0|0,1:0|0:0,0:0:0:0:
512,163,137824,1,2,1:2:0:0:
377,326,138012,6,0,B|314:345|314:345|204:327,1,147.599995495606,0|0,1:0|0:0,0:0:0:0:
216,325,138387,2,0,B|245:249|245:249|293:204,1,147.599995495606,8|2,1:2|3:0,0:0:0:0:
311,211,138762,2,0,L|393:229,1,49.1999984985352,4|0,1:3|0:0,0:0:0:0:
294,66,139043,2,0,L|414:91,1,98.3999969970704,8|0,1:3|0:0,0:0:0:0:
473,113,139324,1,8,3:0:0:0:
473,113,139418,1,8,3:0:0:0:
473,113,139512,6,0,P|461:192|468:219,1,98.3999969970704,6|0,1:2|0:0,0:0:0:0:
483,290,139793,1,0,0:0:0:0:
483,290,139887,2,0,L|318:281,1,147.599995495606,10|0,1:2|0:0,0:0:0:0:
290,301,140262,2,0,L|185:295,1,98.3999969970704,2|2,1:2|0:0,0:0:0:0:
146,315,140543,2,0,L|41:309,1,98.3999969970704,0|0,1:0|0:0,0:0:0:0:
16,308,140824,1,2,1:2:0:0:
34,162,141012,6,0,P|70:129|135:138,1,98.3999969970704,0|2,1:0|0:0,0:0:0:0:
199,140,141293,1,0,0:0:0:0:
199,140,141387,2,0,P|280:120|359:162,1,147.599995495606,10|0,1:2|0:0,0:0:0:0:
428,116,141762,2,0,L|438:60,2,49.1999984985352,0|0|2,1:0|0:0|0:0,0:0:0:0:
462,147,142043,2,0,P|480:200|453:262,1,98.3999969970704,2|0,1:2|0:0,0:0:0:0:
447,249,142324,1,2,1:2:0:0:
423,254,142418,1,0,0:0:0:0:
399,258,142512,6,0,L|283:237,1,98.3999969970704,0|0,1:0|0:0,0:0:0:0:
229,222,142793,1,0,0:0:0:0:
229,222,142887,2,0,P|198:291|209:361,1,147.599995495606,8|2,0:0|0:0,0:0:0:0:
224,382,143262,1,0,1:0:0:0:
77,301,143543,2,0,L|96:204,1,98.3999969970704,0|0,0:0|0:0,0:0:0:0:
106,167,143824,1,0,0:0:0:0:
216,72,144012,6,0,L|102:62,1,98.3999969970704,0|0,1:0|0:0,0:0:0:0:
44,59,144293,1,0,0:0:0:0:
44,59,144387,1,0,1:0:0:0:
216,72,144574,2,0,L|199:128,1,49.1999984985352,0|0,0:0|0:0,0:0:0:0:
276,162,144762,5,2,0:0:0:0:
366,178,144949,1,2,0:0:0:0:
379,88,145137,1,2,0:0:0:0:
294,70,145324,1,2,0:0:0:0:
276,162,145512,6,0,L|294:271,1,82,4|0,1:0|0:0,0:0:0:0:
168,269,145887,2,0,L|186:378,1,82,2|0,1:2|0:0,0:0:0:0:
303,353,146262,1,10,1:2:0:0:
383,355,146449,1,2,0:0:0:0:
444,311,146637,1,2,1:2:0:0:
479,241,146824,1,2,0:0:0:0:
477,161,147012,5,4,1:0:0:0:
306,83,147199,1,0,0:0:0:0:
306,83,147293,1,0,0:0:0:0:
306,83,147387,2,0,L|283:161,1,82,0|0,1:0|0:0,0:0:0:0:
159,181,147762,1,8,1:2:0:0:
39,171,147949,1,2,0:0:0:0:
39,171,148043,1,0,0:0:0:0:
39,171,148137,2,0,L|51:269,1,82,0|2,1:2|1:2,0:0:0:0:
95,339,148512,6,0,L|274:338,1,164,2|2,1:2|0:0,0:0:0:0:
451,109,149262,1,10,0:0:0:0:
472,194,149450,1,2,0:0:0:0:
426,273,149637,2,0,L|330:257,1,82,2|2,1:2|0:1,0:0:0:0:
235,258,150012,6,0,L|296:182,1,82,2|0,1:2|0:0,0:0:0:0:
347,94,150387,2,0,L|381:185,1,82,2|0,1:2|0:0,0:0:0:0:
224,139,150762,2,0,L|115:166,1,82,10|0,1:2|0:0,0:0:0:0:
40,124,151137,2,0,P|31:74|42:30,1,82,2|2,1:2|0:0,0:0:0:0:
145,159,151512,5,0,1:0:0:0:
145,159,151887,1,2,1:2:0:0:
33,237,152262,1,10,1:2:0:0:
79,304,152449,1,2,0:0:0:0:
154,336,152637,1,2,1:2:0:0:
235,334,152824,1,2,0:0:0:0:
305,291,153012,5,4,1:0:0:0:
495,198,153199,1,0,0:0:0:0:
495,198,153293,1,0,0:0:0:0:
495,198,153387,2,0,L|512:278,1,82,2|0,1:2|0:0,0:0:0:0:
396,334,153762,1,8,1:2:0:0:
405,232,153949,1,2,0:0:0:0:
405,232,154043,1,2,0:0:0:0:
405,232,154137,2,0,L|410:134,1,82,2|2,1:2|1:2,0:0:0:0:
283,53,154512,6,0,L|292:231,1,164,2|0,1:2|0:0,0:0:0:0:
72,324,155262,2,0,L|180:327,1,82,2|2,1:2|0:1,0:0:0:0:
296,327,155637,1,0,0:0:0:0:
296,327,155824,1,2,0:1:0:0:
381,210,156012,6,0,P|393:115|370:43,1,164,2|10,1:2|1:2,0:0:0:0:
253,91,156574,1,2,0:0:0:0:
253,91,156668,1,0,0:0:0:0:
253,91,156762,2,0,L|152:76,1,82,2|2,1:2|1:2,0:0:0:0:
26,173,157137,2,0,L|118:155,1,82,12|12,0:3|0:3,0:0:0:0:
202,255,157512,6,0,L|184:146,1,82,2|0,1:2|0:0,0:0:0:0:
356,188,157887,2,0,L|338:79,1,82,2|0,1:2|0:0,0:0:0:0:
209,31,158262,1,10,1:2:0:0:
129,29,158449,1,2,0:0:0:0:
68,73,158637,1,2,1:2:0:0:
33,143,158824,1,2,0:0:0:0:
35,223,159012,5,4,1:0:0:0:
206,301,159199,1,0,0:0:0:0:
206,301,159293,1,0,0:0:0:0:
206,301,159387,2,0,L|228:222,1,82,2|0,1:2|0:0,0:0:0:0:
353,224,159762,1,10,1:2:0:0:
473,213,159949,1,2,0:0:0:0:
473,213,160043,1,0,0:0:0:0:
473,213,160137,2,0,L|461:115,1,82,2|2,1:2|1:2,0:0:0:0:
310,44,160512,6,0,P|351:45|392:53,1,82,2|0,1:2|0:0,0:0:0:0:
198,105,160887,2,0,P|160:136|133:174,1,82,2|0,0:1|0:0,0:0:0:0:
61,275,161262,1,10,1:2:0:0:
40,190,161450,1,2,0:0:0:0:
86,111,161637,2,0,L|182:127,1,82,2|2,1:2|0:1,0:0:0:0:
277,126,162012,6,0,L|215:201,1,82,2|2,1:2|0:0,0:0:0:0:
165,290,162387,2,0,L|130:198,1,82,2|0,1:2|0:0,0:0:0:0:
287,244,162762,2,0,L|396:217,1,82,10|0,1:2|0:0,0:0:0:0:
472,260,163137,2,0,P|481:310|470:354,1,82,2|2,1:2|0:0,0:0:0:0:
367,225,163512,5,2,1:2:0:0:
367,225,163887,1,2,1:2:0:0:
479,147,164262,1,10,1:2:0:0:
433,79,164449,1,2,0:0:0:0:
357,46,164637,1,2,1:2:0:0:
275,50,164824,1,2,0:0:0:0:
206,95,165012,5,4,1:0:0:0:
17,186,165199,1,0,0:0:0:0:
17,186,165293,1,0,0:0:0:0:
17,186,165387,2,0,L|0:105,1,82,2|0,1:2|0:0,0:0:0:0:
104,43,165762,1,10,1:2:0:0:
110,162,165949,1,2,0:0:0:0:
110,162,166043,1,2,0:0:0:0:
110,162,166137,2,0,L|105:260,1,82,2|2,1:2|1:2,0:0:0:0:
284,347,166512,6,0,L|275:169,1,164,2|0,1:2|0:0,0:0:0:0:
419,68,167262,2,0,L|329:65,1,82,2|2,1:2|0:1,0:0:0:0:
193,56,167637,1,2,0:1:0:0:
193,56,167824,1,2,0:1:0:0:
131,174,168012,6,0,P|116:231|119:280,1,82,2|0,1:2|0:0,0:0:0:0:
211,246,168387,2,0,P|226:302|253:343,1,82,2|0,0:0|0:0,0:0:0:0:
314,266,168762,1,2,0:0:0:0:
398,299,168949,1,2,0:0:0:0:
481,267,169137,2,0,P|496:207|497:167,1,82,2|0,0:0|0:0,0:0:0:0:
482,93,169512,5,4,0:0:0:0:
