osu file format v14

[General]
AudioFilename: audio.mp3
AudioLeadIn: 0
PreviewTime: 47916
Countdown: 0
SampleSet: Soft
StackLeniency: 0.3
Mode: 0
LetterboxInBreaks: 0
WidescreenStoryboard: 0

[Editor]
Bookmarks: 13463,25463,37463,49463,61463,73463,85463,97463,109463,119963,133463,145463,157463,166463,169463
DistanceSpacing: 0.8
BeatDivisor: 8
GridSize: 32
TimelineZoom: 5.399998

[Metadata]
Title:Sunset Tea Cup
TitleUnicode:Sunset Tea Cup
Artist:YUC'e
ArtistUnicode:YUC'e
Creator:Rumia-
Version:Extra
Source:
Tags:MoeMoeKyunNN walaowey [ -Scarlet- ] FREQUENCY BLITZ 5 Attack the Music [ATK-0014] yuce
BeatmapID:1347099
BeatmapSetID:634949

[Difficulty]
HPDrainRate:5
CircleSize:4.2
OverallDifficulty:8.5
ApproachRate:9.3
SliderMultiplier:1.92
SliderTickRate:1

[Events]
//Background and Video events
0,0,"bg.jpg",0,0
//Break Periods
//Storyboard Layer 0 (Background)
//Storyboard Layer 1 (Fail)
//Storyboard Layer 2 (Pass)
//Storyboard Layer 3 (Foreground)
//Storyboard Sound Samples

[TimingPoints]
1512,375,4,2,0,50,1,0
1512,-200,4,2,0,50,0,0
5543,-200,4,2,0,50,0,0
5637,-200,4,2,0,50,0,0
10512,-200,4,2,0,50,0,0
11262,-250,4,2,0,50,0,0
12012,-333.333333333333,4,2,0,50,0,0
12762,-133.333333333333,4,2,0,50,0,0
13512,-100,4,2,10,60,0,0
22512,-133.333333333333,4,2,10,60,0,0
25512,-100,4,2,10,70,0,0
36762,-80,4,2,10,70,0,0
46512,-66.6666666666667,4,2,10,70,0,0
47262,-50,4,2,10,70,0,0
47637,-41.6666666666667,4,2,10,70,0,0
48012,-80,4,2,10,30,0,0
49512,-41.6666666666667,4,2,10,80,0,1
54762,-250,4,2,10,80,0,1
55043,-50,4,2,10,80,0,1
55512,-41.6666666666667,4,2,10,80,0,1
58512,-57.1428571428571,4,2,10,80,0,1
60012,-41.6666666666667,4,2,10,80,0,1
60762,-500,4,2,10,80,0,1
61512,-41.6666666666667,4,2,10,80,0,1
66762,-250,4,2,10,80,0,1
67043,-50,4,2,10,80,0,1
67512,-41.6666666666667,4,2,10,80,0,1
70512,-57.1428571428571,4,2,10,80,0,1
72012,-41.6666666666667,4,2,10,80,0,1
73512,-200,4,2,10,50,0,0
83262,-250,4,2,10,50,0,0
84012,-333.333333333333,4,2,10,50,0,0
84762,-500,4,2,10,50,0,0
85512,-133.333333333333,4,2,10,60,0,0
86918,-133.333333333333,4,2,10,5,0,0
87012,-133.333333333333,4,2,10,60,0,0
88418,-133.333333333333,4,2,10,5,0,0
88512,-133.333333333333,4,2,10,60,0,0
89918,-133.333333333333,4,2,10,5,0,0
90012,-133.333333333333,4,2,10,60,0,0
91418,-133.333333333333,4,2,10,5,0,0
91512,-133.333333333333,4,2,10,60,0,0
91793,-133.333333333333,4,2,10,5,0,0
91887,-133.333333333333,4,2,10,60,0,0
92168,-133.333333333333,4,2,10,5,0,0
92262,-133.333333333333,4,2,10,60,0,0
92918,-133.333333333333,4,2,10,5,0,0
93012,-133.333333333333,4,2,10,60,0,0
94418,-133.333333333333,4,2,10,5,0,0
94512,-133.333333333333,4,2,10,60,0,0
95262,-200,4,2,10,45,0,0
96012,-200,4,2,10,60,0,0
97137,-33.3333333333333,4,2,10,80,0,0
97512,-100,4,2,10,70,0,0
106137,-66.6666666666667,4,2,10,70,0,0
119262,-41.6666666666667,4,2,10,70,0,0
120012,-41.6666666666667,4,2,10,30,0,0
121512,-41.6666666666667,4,2,10,80,0,1
122824,-66.6666666666667,4,2,10,80,0,1
123012,-41.6666666666667,4,2,10,80,0,1
124324,-66.6666666666667,4,2,10,80,0,1
124512,-41.6666666666667,4,2,10,80,0,1
125824,-66.6666666666667,4,2,10,80,0,1
126012,-41.6666666666667,4,2,10,80,0,1
126762,-57.1428571428571,4,2,10,80,0,1
127043,-250,4,2,10,80,0,1
127324,-41.6666666666667,4,2,10,80,0,1
129574,-66.6666666666667,4,2,10,80,0,1
129762,-41.6666666666667,4,2,10,80,0,1
132762,-500,4,2,10,80,0,1
133512,-41.6666666666667,4,2,10,80,0,1
134824,-66.6666666666667,4,2,10,80,0,1
135012,-41.6666666666667,4,2,10,80,0,1
136324,-66.6666666666667,4,2,10,80,0,1
136512,-41.6666666666667,4,2,10,80,0,1
137824,-50,4,2,10,80,0,1
138012,-41.6666666666667,4,2,10,80,0,1
140074,-66.6666666666667,4,2,10,80,0,1
140262,-41.6666666666667,4,2,10,80,0,1
142324,-66.6666666666667,4,2,10,80,0,1
142512,-41.6666666666667,4,2,10,80,0,1
145512,-100,4,2,10,75,0,0
145887,-100,4,2,11,75,0,0
148512,-133.333333333333,4,2,11,75,0,0
149824,-50,4,2,11,75,0,0
150012,-133.333333333333,4,2,11,75,0,0
151324,-66.6666666666667,4,2,11,75,0,0
151512,-100,4,2,11,75,0,0
153387,-50,4,2,11,75,0,0
153762,-100,4,2,11,75,0,0
154512,-133.333333333333,4,2,11,75,0,0
155637,-50,4,2,11,75,0,0
156012,-100,4,2,11,75,0,0
156574,-50,4,2,11,75,0,0
157512,-100,4,2,11,75,0,0
159387,-50,4,2,11,75,0,0
159762,-66.6666666666667,4,2,11,75,0,0
160512,-133.333333333333,4,2,11,75,0,0
160887,-66.6666666666667,4,2,0,75,0,0
160980,-133.333333333333,4,2,11,75,0,0
161824,-66.6666666666667,4,2,11,75,0,0
162012,-100,4,2,11,75,0,0
163324,-50,4,2,11,75,0,0
163512,-100,4,2,11,75,0,0
165387,-50,4,2,11,75,0,0
165762,-66.6666666666667,4,2,11,75,0,0
166512,-133.333333333333,4,2,11,75,0,0
167074,-100,4,2,11,75,0,0
167637,-50,4,2,11,75,0,0
168012,-50,4,2,11,60,0,0
168762,-50,4,2,11,50,0,0
169512,-50,4,2,11,60,0,0

[Colours]
Combo1 : 5,49,122
Combo2 : 224,163,71
Combo3 : 162,164,164
Combo4 : 0,191,255
Combo5 : 255,255,255
Combo6 : 249,79,125

[HitObjects]
492,182,1512,5,2,0:0:0:0:
492,182,2262,2,0,L|423:175,1,48,8|0,0:0|0:0,0:0:0:0:
296,124,2637,1,0,0:0:0:0:
296,124,3012,2,0,L|446:113,1,144,2|2,0:0|0:0,0:0:0:0:
310,303,3762,2,0,L|159:296,1,144,10|2,0:0|0:0,0:0:0:0:
182,63,4512,6,0,L|167:217,1,144,2|0,0:0|0:0,0:0:0:0:
169,207,5262,2,0,P|215:196|254:200,1,72,8|0,0:0|0:0,0:0:0:0:
269,204,5637,1,0,0:0:0:0:
169,207,5824,1,0,0:0:0:0:
169,207,6012,6,0,P|113:204|58:192,1,96,2|2,0:0|0:0,0:0:0:0:
199,124,6574,1,2,0:0:0:0:
199,124,6762,2,0,P|174:74|157:20,1,96,10|2,0:0|0:0,0:0:0:0:
318,233,7324,1,2,0:0:0:0:
318,233,7512,6,0,P|301:278|279:320,2,96,2|2|8,0:0|0:0|0:0,0:0:0:0:
290,143,8449,1,0,0:0:0:0:
425,245,8637,1,0,0:0:0:0:
281,319,8824,1,0,0:0:0:0:
362,366,9012,6,0,P|311:328|269:317,1,96,2|2,0:0|0:0,0:0:0:0:
281,319,9574,1,2,0:0:0:0:
189,343,9762,2,0,P|227:325|288:319,1,96,10|0,0:0|0:0,0:0:0:0:
302,219,10324,1,0,0:0:0:0:
159,250,10512,6,0,L|149:144,1,96,2|2,0:0|0:0,0:0:0:0:
276,280,11262,6,0,L|283:189,1,76.8,10|2,0:0|0:0,0:0:0:0:
388,341,12012,6,0,L|414:253,1,86.3999973632813,2|0,0:0|0:0,0:0:0:0:
506,156,12762,2,0,P|457:148|423:119,1,72.0000027465821,2|0,0:0|0:0,0:0:0:0:
283,104,13137,2,0,P|320:74|358:71,1,72.0000027465821,2|0,0:0|0:0,0:0:0:0:
414,125,13512,6,0,L|374:324,1,192,4|0,1:2|0:0,0:0:0:0:
377,314,14262,1,10,0:0:0:0:
302,354,14449,2,0,P|249:367|198:352,1,96,2|0,0:0|0:0,0:0:0:0:
167,160,14824,1,2,0:0:0:0:
62,304,15012,6,0,P|91:212|185:156,1,192,2|2,1:2|0:0,0:0:0:0:
209,357,15574,1,2,0:0:0:0:
62,304,15762,2,0,L|49:267,4,24,8|0|0|0|0,0:0|0:0|0:0|0:0|0:0,0:0:0:0:
167,160,16137,2,0,P|166:136|170:97,1,48,2|0,0:0|0:0,0:0:0:0:
167,160,16324,2,0,P|191:159|230:163,1,48,2|0,0:0|0:0,0:0:0:0:
383,275,16512,6,0,L|175:262,1,192,0|2,1:0|0:0,0:0:0:0:
416,358,17074,1,0,0:0:0:0:
416,358,17262,2,0,P|457:321|468:250,1,96,10|0,0:0|0:0,0:0:0:0:
388,168,17637,2,0,L|274:177,1,96,2|0,0:0|0:0,0:0:0:0:
192,264,18012,2,0,P|174:200|208:80,1,192,2|2,1:2|0:0,0:0:0:0:
303,355,18574,2,0,L|314:318,2,24,2|0|0,0:0|0:0|0:0,0:0:0:0:
303,355,18762,2,0,L|110:342,1,192,8|2,0:0|0:0,0:0:0:0:
26,291,19324,1,2,0:0:0:0:
170,87,19512,6,0,L|174:265,1,144,0|0,1:0|0:0,0:0:0:0:
146,268,19887,2,0,L|142:164,1,96,2|0,0:0|0:0,0:0:0:0:
170,87,20262,1,10,0:0:0:0:
257,170,20449,1,0,0:0:0:0:
142,172,20637,1,2,0:0:0:0:
286,61,20824,2,0,L|281:20,2,24,0|0|0,0:0|0:0|0:0,0:0:0:0:
286,61,21012,6,0,B|339:59|380:94|380:94|442:106|498:60,1,192,2|2,1:2|0:0,0:0:0:0:
467,80,21574,1,2,0:0:0:0:
452,268,21762,2,0,P|444:210|450:161,1,96,8|0,0:0|0:0,0:0:0:0:
375,338,22137,2,0,P|320:315|281:286,1,96,2|2,0:0|0:0,0:0:0:0:
79,239,22512,6,0,P|145:208|235:215,1,144.000005493164,0|2,1:0|0:0,0:0:0:0:
214,208,23074,1,0,0:0:0:0:
214,208,23262,2,0,L|202:131,1,72.0000027465821,8|0,0:0|0:0,0:0:0:0:
214,30,23637,1,2,0:0:0:0:
123,136,23824,1,0,0:0:0:0:
318,126,24012,6,0,L|479:117,1,144.000005493164,4|0,1:0|0:0,0:0:0:0:
461,117,24574,5,2,0:0:0:0:
472,186,24762,5,2,0:0:0:0:
440,279,24949,5,2,0:0:0:0:
348,328,25137,5,2,0:0:0:0:
232,316,25324,5,2,0:0:0:0:
232,316,25512,6,0,L|122:311,1,96,6|0,0:0|0:0,0:0:0:0:
40,308,25887,2,0,L|155:312,1,96,8|0,0:0|0:0,0:0:0:0:
354,184,26262,1,10,0:0:0:0:
354,184,26449,1,2,0:0:0:0:
354,184,26637,2,0,L|201:176,1,144,10|0,0:0|0:0,0:0:0:0:
210,176,27012,6,0,P|157:182|116:202,1,96,10|0,0:0|0:0,0:0:0:0:
196,268,27387,2,0,P|162:309|147:352,1,96,10|0,0:0|0:0,0:0:0:0:
289,112,27762,1,10,0:0:0:0:
289,112,27949,1,2,0:0:0:0:
289,112,28137,2,0,P|223:65|147:59,1,144,10|0,0:0|0:0,0:0:0:0:
387,47,28512,6,0,L|371:160,1,96,8|0,0:0|0:0,0:0:0:0:
306,235,28887,1,10,0:0:0:0:
480,221,29074,1,2,0:0:0:0:
306,235,29262,2,0,L|409:227,1,96,10|0,0:0|0:0,0:0:0:0:
272,305,29637,1,8,0:0:0:0:
195,183,29824,1,2,0:0:0:0:
210,51,30012,6,0,P|226:119|178:196,1,144,10|0,0:0|0:0,0:0:0:0:
195,183,30387,2,0,L|81:173,1,96,10|0,0:0|0:0,0:0:0:0:
49,249,30762,2,0,P|20:233|-4:208,1,48,10|0,0:0|0:0,0:0:0:0:
143,272,30949,2,0,P|127:301|102:325,1,48,2|0,0:0|0:0,0:0:0:0:
99,174,31137,1,10,0:0:0:0:
232,338,31324,2,0,P|229:304|233:278,1,48,0|0,0:0|0:0,0:0:0:0:
328,178,31512,6,0,B|351:231|331:293,1,96,14|0,0:0|0:0,0:0:0:0:
232,338,31887,2,0,L|106:331,1,96,10|0,0:0|0:0,0:0:0:0:
54,345,32262,2,0,L|-5:341,1,48,10|0,0:0|0:0,0:0:0:0:
79,268,32449,2,0,L|20:264,1,48,2|0,0:0|0:0,0:0:0:0:
143,196,32637,2,0,L|-36:182,1,144,10|0,0:0|0:0,0:0:0:0:
207,240,33012,6,0,P|190:174|203:89,1,144,10|0,0:0|0:0,0:0:0:0:
281,182,33387,2,0,P|284:139|312:91,1,96,10|0,0:0|0:0,0:0:0:0:
146,294,33762,2,0,P|126:263|117:228,1,48,10|0,0:0|0:0,0:0:0:0:
368,163,33949,2,0,P|389:144|426:131,1,48,2|0,0:0|0:0,0:0:0:0:
459,318,34137,2,0,L|296:310,1,144,8|0,0:0|0:0,0:0:0:0:
315,310,34512,2,0,L|330:271,6,24,8|0|0|0|0|0|0,3:2|3:0|3:0|3:0|3:0|0:0|0:0,0:0:0:0:
213,309,34887,6,0,P|202:276|206:242,1,48,10|0,0:0|0:0,0:0:0:0:
223,182,35074,2,0,P|220:205|211:227,1,48,2|0,0:0|0:0,0:0:0:0:
200,354,35262,2,0,P|209:332|213:309,1,48,10|0,0:0|0:0,0:0:0:0:
211,136,35449,2,0,P|213:159|223:182,1,48,2|0,0:0|0:0,0:0:0:0:
125,309,35637,2,0,L|45:301,1,48,10|0,0:0|0:0,0:0:0:0:
303,139,35824,2,0,L|383:147,1,48,2|0,0:0|0:0,0:0:0:0:
378,349,36012,6,0,L|246:337,1,96,8|0,3:2|3:0,0:0:0:0:
279,264,36293,1,0,0:0:0:0:
279,264,36387,2,0,L|411:276,1,96,10|0,0:0|0:0,0:0:0:0:
464,224,36762,6,0,P|478:192|480:148,1,60,10|0,0:0|0:0,0:0:0:0:
294,131,36949,2,0,P|298:160|311:187,1,60,2|0,0:0|0:0,0:0:0:0:
396,115,37137,1,10,0:0:0:0:
399,103,37230,1,0,0:0:0:0:
402,91,37324,1,0,0:0:0:0:
405,79,37418,1,0,0:0:0:0:
409,67,37512,6,0,L|393:210,1,120,14|0,0:0|0:0,0:0:0:0:
378,327,37793,1,0,0:0:0:0:
378,327,37887,1,10,0:0:0:0:
335,246,38074,1,0,0:0:0:0:
498,268,38262,2,0,L|429:260,1,60,10|0,0:0|0:0,0:0:0:0:
335,246,38449,2,0,L|266:238,1,60,2|0,0:0|0:0,0:0:0:0:
173,223,38637,2,0,L|124:216,4,30,10|0|0|0|0,3:2|3:0|3:0|3:0|3:0,0:0:0:0:
205,309,39012,6,0,L|66:297,1,120,10|0,0:0|0:0,0:0:0:0:
33,215,39293,1,0,0:0:0:0:
33,215,39387,1,10,0:0:0:0:
254,130,39574,2,0,L|259:94,2,30,0|0|0,0:0|0:0|0:0,0:0:0:0:
254,130,39762,2,0,L|176:121,1,60,10|0,0:0|0:0,0:0:0:0:
114,110,39949,1,2,0:0:0:0:
150,216,40137,2,0,L|145:180,2,30,10|0|0,3:2|3:0|3:0,0:0:0:0:
147,307,40324,2,0,L|142:343,2,30,10|0|0,3:2|3:0|3:0,0:0:0:0:
217,264,40512,6,0,L|338:256,1,120,10|0,0:0|0:0,0:0:0:0:
470,185,40793,1,0,0:0:0:0:
470,185,40887,2,0,L|463:258,1,60,10|0,0:0|0:0,0:0:0:0:
384,340,41074,1,2,0:0:0:0:
343,167,41262,2,0,L|348:107,2,60,10|0|0,0:0|0:0|0:0,0:0:0:0:
274,345,41637,2,0,L|278:374,2,30,8|0|0,0:0|0:0|0:0,0:0:0:0:
251,252,41824,2,0,L|255:222,2,30,2|0|0,0:0|0:0|0:0,0:0:0:0:
190,318,42012,6,0,L|63:307,1,120,10|0,0:0|0:0,0:0:0:0:
15,244,42293,1,0,0:0:0:0:
15,244,42387,1,10,0:0:0:0:
180,231,42574,2,0,L|99:237,1,60,0|0,0:0|0:0,0:0:0:0:
211,147,42762,1,10,0:0:0:0:
243,161,42855,1,0,0:0:0:0:
265,189,42949,1,2,0:0:0:0:
271,224,43043,1,0,0:0:0:0:
270,260,43137,2,0,L|252:345,1,60,10|0,0:0|0:0,0:0:0:0:
92,243,43324,2,0,L|97:273,2,30
126,179,43512,5,10,0:0:0:0:
116,349,43699,1,0,0:0:0:0:
271,224,43887,5,10,0:0:0:0:
335,353,44074,2,0,P|328:316|315:283,1,60,0|0,0:0|0:0,0:0:0:0:
271,224,44262,1,10,0:0:0:0:
427,221,44449,1,2,0:0:0:0:
271,224,44637,2,0,L|194:228,3,60,10|0|0|0,0:0|0:0|0:0|0:0,0:0:0:0:
67,135,45012,5,10,0:0:0:0:
97,273,45199,1,0,0:0:0:0:
160,39,45387,5,10,0:0:0:0:
143,204,45574,1,0,0:0:0:0:
319,18,45762,5,10,0:0:0:0:
226,159,45949,1,2,0:0:0:0:
334,172,46137,2,0,P|376:158|404:141,1,60,10|0,0:0|0:0,0:0:0:0:
512,97,46324,2,0,P|485:83|456:75,1,60,0|0,0:0|0:0,0:0:0:0:
319,18,46512,6,0,L|273:38,1,36.0000013732911,10|0,0:0|0:0,0:0:0:0:
301,58,46605,2,0,L|264:92,1,36.0000013732911,0|0,0:0|0:0,0:0:0:0:
307,106,46699,2,0,L|284:150,1,36.0000013732911,0|0,0:0|0:0,0:0:0:0:
339,137,46793,2,0,L|333:186,1,36.0000013732911,0|0,0:0|0:0,0:0:0:0:
368,181,46887,6,0,L|414:201,1,36.0000013732911,10|0,0:0|0:0,0:0:0:0:
386,221,46980,2,0,L|423:255,1,36.0000013732911,0|0,0:0|0:0,0:0:0:0:
380,269,47074,2,0,L|403:313,1,36.0000013732911,0|0,0:0|0:0,0:0:0:0:
348,300,47168,2,0,L|354:349,1,36.0000013732911,0|0,0:0|0:0,0:0:0:0:
299,299,47262,6,0,L|243:285,6,48,10|0|0|0|2|0|0,0:0|0:0|0:0|0:0|0:0|0:0|0:0,0:0:0:0:
227,292,47637,6,0,L|166:309,6,57.5999982421876,10|0|0|0|0|0|0,0:0|0:0|0:0|0:0|0:0|0:0|0:0,0:0:0:0:
152,322,48012,5,0,0:0:0:0:
150,330,48387,1,0,0:0:0:0:
148,338,48762,5,0,0:0:0:0:
146,346,48949,1,0,0:0:0:0:
144,354,49137,1,0,0:0:0:0:
140,365,49512,6,0,B|-4:335|-4:335|93:320,1,230.39999296875,4|0,1:2|0:0,0:0:0:0:
197,280,49793,1,0,0:0:0:0:
197,280,49887,2,0,B|399:255|399:255|320:271|239:225,1,345.599989453125,10|0,1:2|0:0,0:0:0:0:
159,112,50262,6,0,B|90:79|90:79|58:150|136:212,1,230.39999296875,2|2,1:2|0:0,0:0:0:0:
305,161,50543,2,0,B|393:197|464:134|464:134|375:105,1,230.39999296875,0|0,1:0|0:0,0:0:0:0:
245,98,50824,2,0,P|230:127|235:210,1,115.199996484375,2|0,1:2|0:0,0:0:0:0:
409,295,51012,6,0,P|358:272|270:273,1,115.199996484375,0|0,1:0|0:0,0:0:0:0:
139,273,51199,1,2,0:0:0:0:
139,273,51293,1,2,0:0:0:0:
139,273,51387,2,0,B|94:231|94:231|123:164|218:157|256:240,1,230.39999296875,10|2,1:2|0:0,0:0:0:0:
299,267,51668,1,0,0:0:0:0:
302,181,51762,6,0,L|309:64,2,115.199996484375,0|0|2,1:0|0:0|0:0,0:0:0:0:
486,133,52043,2,0,P|388:128|427:38,1,230.39999296875,2|0,1:2|0:0,0:0:0:0:
508,123,52324,1,2,0:0:0:0:
512,220,52418,1,0,0:0:0:0:
433,252,52512,6,0,B|363:244|317:193|317:193|255:184|196:215,1,230.39999296875,2|0,1:2|0:0,0:0:0:0:
140,240,52793,1,0,0:0:0:0:
140,240,52887,2,0,P|135:202|144:159,4,57.5999982421876,10|0|0|0|0,1:2|0:0|0:0|0:0|0:0,0:0:0:0:
225,303,53262,6,0,B|119:331|119:331|55:297|52:220,1,230.39999296875,2|2,1:2|0:0,0:0:0:0:
43,145,53543,2,0,B|70:100|121:89|121:89|186:133|263:117,1,230.39999296875,0|0,1:0|0:0,0:0:0:0:
245,119,53824,1,2,1:2:0:0:
393,32,54012,6,0,P|326:104|418:142,1,230.39999296875,2|0,1:2|0:0,0:0:0:0:
470,72,54293,1,0,0:0:0:0:
402,38,54387,2,0,P|352:56|349:135,1,115.199996484375,10|2,1:2|3:0,0:0:0:0:
362,204,54574,1,2,3:0:0:0:
277,196,54668,1,2,3:0:0:0:
245,119,54762,38,0,L|250:73,1,38.4,4|0,1:3|0:0,0:0:0:0:
155,10,55043,6,0,L|138:207,1,192,8|0,1:3|0:0,0:0:0:0:
148,294,55324,6,0,L|154:355,1,48,8|0,3:0|0:0,0:0:0:0:
134,309,55418,2,0,L|140:370,1,48,8|0,3:0|0:0,0:0:0:0:
76,251,55512,6,0,B|33:272|33:272|-4:197|34:137|34:137|70:156,1,230.39999296875,6|0,0:0|0:0,0:0:0:0:
206,248,55793,1,0,0:0:0:0:
206,248,55887,2,0,B|249:269|249:269|286:194|248:134|248:134|211:153,1,230.39999296875,10|0,1:2|0:0,0:0:0:0:
139,202,56168,1,0,0:0:0:0:
139,202,56262,2,0,B|122:140|122:140|149:64,1,115.199996484375,2|0,1:2|0:0,0:0:0:0:
370,56,56449,1,2,0:0:0:0:
370,56,56543,2,0,B|426:112|421:190|421:190|383:211|374:286,1,230.39999296875,0|0,1:0|0:0,0:0:0:0:
266,239,56824,2,0,P|324:241|379:258,1,115.199996484375,2|0,1:2|0:0,0:0:0:0:
511,314,57012,6,0,P|477:219|409:346,1,230.39999296875,0|2,1:0|0:0,0:0:0:0:
370,343,57293,1,2,0:0:0:0:
378,257,57387,2,0,L|384:136,1,115.199996484375,10|0,1:2|0:0,0:0:0:0:
446,55,57574,1,0,0:0:0:0:
420,46,57668,1,0,0:0:0:0:
395,44,57762,6,0,P|341:59|290:98,1,115.199996484375,0|0,1:0|0:0,0:0:0:0:
246,142,57949,1,2,0:0:0:0:
225,155,58043,2,0,P|155:160|23:75,1,230.39999296875,2|0,1:2|0:0,0:0:0:0:
24,77,58324,2,0,L|7:198,1,115.199996484375,2|0,1:2|0:0,0:0:0:0:
23,279,58512,6,0,P|103:237|235:271,1,168.000001602173,2|0,1:2|0:0,0:0:0:0:
258,277,58793,1,0,0:0:0:0:
258,277,58887,2,0,P|270:244|274:213,2,42.0000004005432,10|0|0,0:0|0:0|0:0,0:0:0:0:
167,314,59074,1,2,0:0:0:0:
234,363,59168,1,2,0:0:0:0:
317,356,59262,2,0,B|466:324|466:324|357:299,1,252.000002403259,2|0,1:2|0:0,0:0:0:0:
258,277,59637,5,10,0:2:0:0:
262,240,59730,1,0,0:0:0:0:
163,220,59824,5,0,0:0:0:0:
159,183,59917,1,0,0:0:0:0:
243,112,60012,6,0,B|302:68|302:68|376:144|376:144|352:225,1,230.39999296875,2|0,1:2|0:0,0:0:0:0:
403,299,60293,2,0,B|335:318|276:264|276:264|139:218|79:341,1,345.599989453125
93,316,60668,1,0,0:0:0:0:
30,245,60762,38,0,L|24:214,1,28.8,0|0,0:0|0:0,0:0:0:0:
193,333,61137,2,0,L|190:364,1,28.8,0|0,0:0|0:0,0:0:0:0:
166,210,61512,6,0,B|86:247|22:180|22:180|72:167|104:128,1,230.39999296875,6|0,1:2|0:0,0:0:0:0:
186,95,61793,1,0,0:0:0:0:
186,95,61887,2,0,B|276:80|330:150|330:150|279:157|261:180,1,230.39999296875,10|0,1:2|0:0,0:0:0:0:
164,292,62168,5,0,0:0:0:0:
164,292,62262,2,0,B|120:315|120:315|90:259|122:188|122:188|204:228,1,230.39999296875,2|2,1:2|0:0,0:0:0:0:
303,256,62543,2,0,B|391:292|391:292|462:229|462:229|373:200,1,230.39999296875,0|0,1:0|0:0,0:0:0:0:
352,186,62824,2,0,B|292:163|292:163|238:173,1,115.199996484375,2|0,1:2|0:0,0:0:0:0:
240,340,63012,6,0,B|290:349|290:349|350:326,1,115.199996484375,2|0,1:2|0:0,0:0:0:0:
469,254,63199,1,2,0:0:0:0:
386,254,63293,1,2,0:0:0:0:
303,256,63387,2,0,B|210:256|210:256|184:266|184:266|157:256|157:256|63:256,1,230.39999296875,10|2,1:2|0:0,0:0:0:0:
0,256,63668,1,0,0:0:0:0:
76,256,63762,6,0,L|220:256,1,115.199996484375,0|0,1:0|0:0,0:0:0:0:
344,129,63949,1,2,0:0:0:0:
344,129,64043,2,0,B|240:97|217:179|217:179|272:202|270:267,1,230.39999296875,2|0,1:2|0:0,0:0:0:0:
133,375,64324,1,2,1:2:0:0:
205,322,64418,1,0,0:0:0:0:
292,306,64512,6,0,B|346:330|346:330|364:375|364:375|442:363|442:363|453:305,1,230.39999296875,2|0,1:2|0:0,0:0:0:0:
457,245,64793,1,0,0:0:0:0:
461,171,64887,2,0,L|469:92,4,57.5999982421876,8|0|0|0|0,0:0|0:0|0:0|0:0|0:0,0:0:0:0:
360,156,65168,5,0,0:0:0:0:
360,156,65262,2,0,B|292:168|292:168|259:107|296:48|296:48|335:67,1,230.39999296875,2|2,1:2|0:0,0:0:0:0:
360,156,65543,2,0,B|350:205|379:240|379:240|359:319|277:327,1,230.39999296875,0|0,1:0|0:0,0:0:0:0:
245,330,65824,1,2,1:2:0:0:
475,342,66012,6,0,L|230:329,1,230.39999296875,2|0,1:2|0:0,0:0:0:0:
170,282,66293,1,0,0:0:0:0:
160,197,66387,2,0,P|110:222|86:275,1,115.199996484375,10|2,1:2|3:0,0:0:0:0:
46,356,66574,1,2,3:0:0:0:
37,281,66668,1,2,3:0:0:0:
30,206,66762,70,0,L|25:160,1,38.4,4|0,1:3|0:0,0:0:0:0:
150,81,67043,6,0,L|133:278,1,192,8|0,1:3|0:0,0:0:0:0:
177,338,67324,2,0,L|161:399,1,48,8|0,3:0|0:0,0:0:0:0:
185,327,67418,2,0,L|191:388,1,48,8|0,3:0|0:0,0:0:0:0:
260,326,67512,6,0,B|385:317|359:378|501:353,1,230.39999296875,6|0,1:2|0:0,0:0:0:0:
512,237,67793,1,0,0:0:0:0:
512,237,67887,2,0,P|394:248|302:179,1,230.39999296875,10|0,1:2|0:0,0:0:0:0:
220,184,68262,6,0,B|209:143|209:143|230:46,2,115.199996484375,2|0|2,1:2|0:0|0:0,0:0:0:0:
204,275,68543,2,0,B|157:266|133:224|133:224|57:208|-8:263,1,230.39999296875,0|0,1:2|0:0,0:0:0:0:
332,202,68824,2,0,P|269:184|200:187,1,115.199996484375,2|0,1:2|0:0,0:0:0:0:
81,142,69012,6,0,P|168:91|138:232,1,230.39999296875,0|2,1:0|0:0,0:0:0:0:
204,275,69293,1,2,0:0:0:0:
216,289,69387,2,0,L|79:277,1,115.199996484375,10|0,1:2|0:0,0:0:0:0:
397,243,69574,5,2,0:0:0:0:
409,227,69668,1,0,0:0:0:0:
423,210,69762,2,0,L|286:222,1,115.199996484375,0|0,1:2|0:0,0:0:0:0:
221,147,69949,1,2,0:0:0:0:
233,170,70043,2,0,L|-13:166,1,230.39999296875,0|0,1:0|0:0,0:0:0:0:
18,52,70324,2,0,L|1:173,1,115.199996484375,2|0,1:2|0:0,0:0:0:0:
90,310,70512,6,0,L|109:157,1,84.0000008010864,2|0,1:2|0:0,0:0:0:0:
106,134,70699,1,0,0:0:0:0:
108,122,70793,1,0,0:0:0:0:
110,112,70887,2,0,L|121:40,2,42.0000004005432,8|0|0,0:0|0:0|0:0,0:0:0:0:
169,171,71074,1,2,0:0:0:0:
248,177,71168,1,2,0:0:0:0:
332,161,71262,6,0,B|411:154|411:154|402:49|306:58|277:108,1,252.000002403259,2|0,1:2|0:0,0:0:0:0:
248,177,71637,5,10,0:0:0:0:
253,206,71730,1,0,0:0:0:0:
176,259,71824,5,0,0:0:0:0:
180,296,71917,1,0,0:0:0:0:
79,346,72012,6,0,B|104:280|81:229|81:229|60:176|88:100,1,230.39999296875,2|0,1:2|0:0,0:0:0:0:
44,31,72293,2,0,B|107:13|166:67|166:67|262:93|351:39,1,287.999991210938,0|0,0:0|0:0,0:0:0:0:
422,35,72574,2,0,P|396:94|400:156,1,115.199996484375,0|0,0:0|0:0,0:0:0:0:
461,288,72762,6,0,P|478:264|511:240,2,57.5999982421876,2|0|0,0:0|0:0|0:0,0:0:0:0:
379,269,72949,2,0,P|390:238|410:213,2,57.5999982421876,2|0|0,0:0|0:0|0:0,0:0:0:0:
295,279,73137,2,0,P|297:246|308:218,2,57.5999982421876,2|0|0,0:0|0:0|0:0,0:0:0:0:
218,322,73324,2,0,P|209:289|210:260,2,57.5999982421876,2|0|0,0:0|0:0|0:0,0:0:0:0:
165,382,73512,5,4,0:0:0:0:
379,269,74262,1,2,0:0:0:0:
168,193,74637,1,2,0:0:0:0:
168,193,75012,6,0,L|341:203,1,144.000005493164,0|2,0:0|0:0,0:0:0:0:
484,99,75762,1,0,0:0:0:0:
379,269,76137,1,2,0:0:0:0:
379,269,76512,6,0,L|219:262,1,144,0|0,0:0|0:0,0:0:0:0:
121,257,77262,2,0,P|105:214|101:193,1,48,2|0,0:0|0:0,0:0:0:0:
212,182,77637,2,0,P|219:136|226:116,1,48,2|2,0:0|0:0,0:0:0:0:
180,46,78012,6,0,P|110:61|40:51,1,144,0|2,0:0|0:0,0:0:0:0:
322,137,78762,1,0,0:0:0:0:
322,137,79137,1,2,0:0:0:0:
63,213,79512,6,0,P|28:174|6:130,1,96,0|2,0:0|0:0,0:0:0:0:
63,213,80262,2,0,L|129:214,1,48,2|0,0:0|0:0,0:0:0:0:
232,216,80637,1,2,0:0:0:0:
232,216,81012,6,0,P|225:173|198:103,1,96,0|2,0:0|0:0,0:0:0:0:
338,269,81574,1,2,0:0:0:0:
338,269,81762,2,0,P|353:228|365:154,1,96,0|2,0:0|0:0,0:0:0:0:
278,340,82512,6,0,P|225:351|163:341,1,96,0|2,0:0|0:0,0:0:0:0:
183,347,83262,6,0,P|137:330|106:304,1,76.8,0|2,0:0|0:0,0:0:0:0:
32,206,84012,5,4,0:1:0:0:
32,206,84762,6,0,L|88:197,1,57.6,0|0,0:0|0:0,0:0:0:0:
13,303,85512,6,0,L|156:321,2,144.000005493164,0|0|8,1:0|1:0|1:2,0:0:0:0:
275,334,86543,1,0,1:0:0:0:
275,334,86824,1,0,1:0:0:0:
317,111,87012,6,0,L|294:260,1,144.000005493164,0|0,1:0|1:0,0:0:0:0:
142,333,87762,1,8,1:2:0:0:
209,166,88043,1,0,1:0:0:0:
209,166,88324,1,0,1:0:0:0:
100,110,88512,6,0,L|123:259,1,144.000005493164,0|0,1:0|1:0,0:0:0:0:
512,283,89262,1,8,1:2:0:0:
297,262,89543,1,0,1:0:0:0:
297,262,89824,1,0,1:2:0:0:
512,283,90012,6,0,L|360:270,1,144.000005493164,0|0,1:0|1:0,0:0:0:0:
214,254,90762,1,8,1:2:0:0:
378,121,91043,1,0,1:0:0:0:
378,121,91324,1,0,1:0:0:0:
214,254,91512,6,0,P|166:265|97:253,1,108.000004119873,0|0,1:0|0:0,0:0:0:0:
3,254,91887,2,0,P|56:246|108:257,1,108.000004119873,0|0,1:0|0:0,0:0:0:0:
147,338,92262,1,8,1:2:0:0:
172,119,92543,1,0,1:0:0:0:
172,119,92824,1,0,1:0:0:0:
147,338,93012,6,0,L|163:184,2,144.000005493164,0|0|8,1:0|1:0|1:2,0:0:0:0:
8,272,94043,1,0,1:0:0:0:
8,272,94324,1,0,1:0:0:0:
232,329,94512,6,0,L|246:162,1,144.000005493164,4|0,1:0|0:0,0:0:0:0:
327,326,95262,6,0,L|336:209,1,96,4|0,1:0|0:0,0:0:0:0:
450,297,96012,5,8,3:0:0:0:
138,268,96293,1,4,3:0:0:0:
450,297,96574,1,8,3:0:0:0:
232,329,96762,1,4,3:0:0:0:
232,329,96949,1,4,3:0:0:0:
268,43,97137,6,0,L|231:332,1,288.000010986329,4|0,0:0|0:0,0:0:0:0:
231,328,97512,22,0,L|114:319,1,96,6|0,0:0|0:0,0:0:0:0:
421,249,97887,2,0,L|304:240,1,96,10|0,0:0|0:0,0:0:0:0:
220,114,98262,2,0,L|155:108,1,48,10|0,0:0|0:0,0:0:0:0:
139,293,98449,2,0,L|74:287,1,48,2|0,0:0|0:0,0:0:0:0:
231,207,98637,2,0,L|81:193,1,144,10|0,0:0|0:0,0:0:0:0:
88,194,99012,6,0,P|81:145|95:85,1,96,10|0,0:0|0:0,0:0:0:0:
231,207,99387,2,0,P|269:176|328:158,1,96,10|0,0:0|0:0,0:0:0:0:
169,357,99762,2,0,P|157:327|152:287,1,48,10|0,0:0|0:0,0:0:0:0:
322,276,99949,2,0,P|334:244|356:211,1,48,2|0,0:0|0:0,0:0:0:0:
252,346,100137,2,0,P|228:263|238:177,1,144,10|0,0:0|0:0,0:0:0:0:
247,123,100512,5,10,0:0:0:0:
247,123,100887,2,0,L|141:136,1,96,10|2,0:0|0:0,0:0:0:0:
25,233,101262,2,0,L|123:223,1,96,10|0,0:0|0:0,0:0:0:0:
197,215,101637,1,8,0:0:0:0:
73,129,101824,1,2,0:0:0:0:
174,39,102012,6,0,P|119:60|72:131,1,144,10|0,0:0|0:0,0:0:0:0:
305,82,102387,2,0,P|249:45|173:39,1,144,10|0,0:0|0:0,0:0:0:0:
339,115,102762,2,0,P|317:91|277:68,1,48,10|0,0:0|0:0,0:0:0:0:
352,160,102949,2,0,P|343:127|322:82,1,48,2|0,0:0|0:0,0:0:0:0:
403,234,103137,2,0,P|437:195|453:134,1,96,10|0,0:0|0:0,0:0:0:0:
283,214,103512,6,0,P|265:159|236:118,1,96,14|0,0:0|0:0,0:0:0:0:
207,284,103887,2,0,P|150:272|100:276,1,96,10|0,0:0|0:0,0:0:0:0:
291,332,104262,2,0,P|291:368|294:388,1,48,10|0,0:0|0:0,0:0:0:0:
374,287,104449,2,0,P|409:296|430:298,1,48,2|0,0:0|0:0,0:0:0:0:
385,199,104637,2,0,P|447:164|481:95,1,144,10|0,0:0|0:0,0:0:0:0:
385,199,105012,6,0,P|330:177|284:183,1,96,10|0,0:0|0:0,0:0:0:0:
294,179,105387,2,0,P|243:192|193:183,1,96,10|0,0:0|0:0,0:0:0:0:
200,185,105762,2,0,P|165:172|145:170,1,48,10|0,0:0|0:0,0:0:0:0:
65,183,105949,2,0,P|41:188|19:198,1,48,2|0,0:0|0:0,0:0:0:0:
13,284,106137,2,0,L|2:322,6,36.0000013732911,10|0|0|0|0|0|0,0:0|0:0|0:0|0:0|0:0|0:0|0:0,0:0:0:0:
13,284,106512,2,0,L|188:292,1,144.000005493164,10|0,3:2|3:0,0:0:0:0:
295,180,106887,6,0,P|321:148|320:41,1,144.000005493164,10|2,0:0|0:0,0:0:0:0:
222,183,107262,2,0,L|300:179,1,72.0000027465821,10|0,0:0|0:0,0:0:0:0:
387,174,107449,2,0,L|465:170,1,72.0000027465821,2|0,0:0|0:0,0:0:0:0:
271,329,107637,2,0,L|187:333,1,72.0000027465821,10|0,0:0|0:0,0:0:0:0:
108,336,107824,2,0,L|24:340,1,72.0000027465821,2|0,0:0|0:0,0:0:0:0:
17,188,108012,6,0,P|8:165|4:141,6,36.0000013732911,10|0|0|0|0|0|0,0:0|0:0|0:0|0:0|0:0|0:0|0:0,0:0:0:0:
94,127,108387,2,0,P|94:92|101:72,6,36.0000013732911,10|0|0|0|0|0|0,0:0|0:0|0:0|0:0|0:0|0:0|0:0,0:0:0:0:
186,115,108762,2,0,P|209:72|250:44,1,72.0000027465821,10|0,0:0|0:0,0:0:0:0:
232,216,108949,2,0,L|143:208,1,72.0000027465821,2|0,0:0|0:0,0:0:0:0:
261,138,109137,1,10,0:0:0:0:
307,171,109230,1,0,0:0:0:0:
317,227,109324,1,0,0:0:0:0:
296,280,109418,1,0,0:0:0:0:
245,307,109512,6,0,P|149:295|92:307,1,144.000005493164,14|0,0:0|0:0,0:0:0:0:
30,202,109793,1,0,0:0:0:0:
30,202,109887,2,0,P|103:198|175:161,1,144.000005493164,10|0,0:0|0:0,0:0:0:0:
433,113,110262,2,0,L|430:30,2,72.0000027465821,10|0|2,0:0|0:0|0:0,0:0:0:0:
348,106,110637,2,0,L|346:43,2,36.0000013732911,8|0|0,0:0|0:0|0:0,0:0:0:0:
254,206,110824,2,0,L|255:241,2,36.0000013732911,0|0|0,0:0|0:0|0:0,0:0:0:0:
254,206,111012,6,0,L|99:195,1,144.000005493164,10|0,0:0|0:0,0:0:0:0:
79,61,111293,1,0,0:0:0:0:
79,61,111387,2,0,L|228:54,1,144.000005493164,10|0,0:0|0:0,0:0:0:0:
334,138,111762,2,0,P|351:114|359:93,2,36.0000013732911,10|0|0,0:0|0:0|0:0,0:0:0:0:
334,138,111949,2,0,L|261:132,1,72.0000027465821,2|0,0:0|0:0,0:0:0:0:
112,219,112137,2,0,P|143:199|172:157,1,72.0000027465821,10|0,0:0|0:0,0:0:0:0:
197,262,112324,2,0,P|205:296|218:321,2,36.0000013732911
197,262,112512,6,0,L|341:263,1,144.000005493164,10|0,0:0|0:0,0:0:0:0:
334,140,112793,1,0,0:0:0:0:
334,140,112887,2,0,P|367:187|336:268,1,144.000005493164,10|2,0:0|0:0,0:0:0:0:
197,148,113262,1,10,0:0:0:0:
173,95,113355,1,0,0:0:0:0:
199,43,113449,1,0,0:0:0:0:
197,148,113637,2,0,L|36:162,1,144.000005493164,10|2,0:0|0:0,0:0:0:0:
6,69,114012,5,10,0:0:0:0:
36,250,114293,1,0,0:0:0:0:
36,250,114387,1,10,0:0:0:0:
197,148,114574,1,0,0:0:0:0:
6,69,114762,1,10,0:0:0:0:
6,69,114855,1,0,0:0:0:0:
6,69,114949,1,0,0:0:0:0:
181,262,115137,1,10,0:0:0:0:
181,262,115324,2,0,L|181:219,2,36.0000013732911,0|0|0,0:0|0:0|0:0,0:0:0:0:
107,338,115512,5,10,0:0:0:0:
269,257,115699,1,0,0:0:0:0:
431,338,115887,5,10,0:0:0:0:
269,257,116074,1,0,0:0:0:0:
387,158,116262,5,10,0:0:0:0:
153,155,116449,1,2,0:0:0:0:
411,52,116637,5,10,0:0:0:0:
126,48,116824,2,0,P|161:55|213:84,1,72.0000027465821,0|0,0:0|0:0,0:0:0:0:
300,171,117012,5,10,0:0:0:0:
210,322,117199,1,0,0:0:0:0:
153,155,117387,5,10,0:0:0:0:
210,322,117574,1,0,0:0:0:0:
48,266,117762,2,0,P|93:260|138:241,1,72.0000027465821,10|0,0:0|0:0,0:0:0:0:
300,171,117949,2,0,P|341:184|380:211,1,72.0000027465821,2|0,0:0|0:0,0:0:0:0:
467,324,118137,1,10,0:0:0:0:
205,231,118324,1,0,0:0:0:0:
405,113,118512,6,0,L|385:67,1,36.0000013732911,10|0,0:0|0:0,0:0:0:0:
373,104,118605,2,0,L|339:67,1,36.0000013732911,0|0,0:0|0:0,0:0:0:0:
336,111,118699,2,0,L|292:88,1,36.0000013732911,0|0,0:0|0:0,0:0:0:0:
314,126,118793,2,0,L|265:120,1,36.0000013732911,0|0,0:0|0:0,0:0:0:0:
300,171,118887,6,0,L|280:217,1,36.0000013732911,10|0,0:0|0:0,0:0:0:0:
256,191,118980,2,0,L|222:228,1,36.0000013732911,0|0,0:0|0:0,0:0:0:0:
212,176,119074,2,0,L|168:199,1,36.0000013732911,0|0,0:0|0:0,0:0:0:0:
190,153,119168,2,0,L|141:159,1,36.0000013732911,0|0,0:0|0:0,0:0:0:0:
173,78,119262,6,0,P|173:46|182:8,6,57.5999982421876,10|0|0|0|2|0|0,0:0|0:0|0:0|0:0|0:0|0:0|0:0,0:0:0:0:
67,152,119637,2,0,P|51:124|39:86,6,57.5999982421876,10|0|0|0|0|0|0,0:0|0:0|0:0|0:0|0:0|0:0|0:0,0:0:0:0:
106,270,120012,5,0,0:0:0:0:
123,265,120387,1,0,0:0:0:0:
139,261,120762,5,0,0:0:0:0:
151,257,120949,1,0,0:0:0:0:
165,252,121137,1,0,0:0:0:0:
394,277,121512,6,0,L|149:250,1,230.39999296875,6|0,1:2|0:0,0:0:0:0:
144,106,121793,1,0,0:0:0:0:
144,106,121887,2,0,P|215:178|208:82,1,230.39999296875,10|0,1:2|0:0,0:0:0:0:
97,214,122168,1,0,0:0:0:0:
97,214,122262,2,0,P|63:301|12:224,1,230.39999296875,2|2,1:2|0:0,0:0:0:0:
144,106,122543,2,0,B|96:98|43:101|43:101|10:151|12:224,1,230.39999296875,0|0,1:0|0:0,0:0:0:0:
144,106,122824,2,0,P|142:66|125:12,1,72.0000027465821,2|0,1:2|0:0,0:0:0:0:
11,223,123012,6,0,P|82:190|212:260,1,230.39999296875,0|2,1:0|0:0,0:0:0:0:
276,337,123293,1,2,0:0:0:0:
276,337,123387,2,0,P|401:347|478:255,1,230.39999296875,10|2,1:2|0:0,0:0:0:0:
448,182,123668,1,0,0:0:0:0:
448,182,123762,2,0,L|317:189,2,115.199996484375,0|0|2,1:0|0:0|0:0,0:0:0:0:
215,76,124043,6,0,P|300:68|313:208,1,230.39999296875,2|0,1:2|0:0,0:0:0:0:
254,241,124324,2,0,L|148:235,1,72.0000027465821,2|0,0:0|0:0,0:0:0:0:
29,158,124512,2,0,P|81:131|178:250,1,230.39999296875,2|0,1:2|0:0,0:0:0:0:
95,223,124793,1,0,0:0:0:0:
95,223,124887,2,0,P|59:256|31:269,4,57.5999982421876,8|0|0|0|0,1:2|0:0|0:0|0:0|0:0,0:0:0:0:
138,321,125262,6,0,P|204:303|268:309,1,115.199996484375,2|0,1:2|0:0,0:0:0:0:
312,357,125449,1,2,0:0:0:0:
250,305,125543,2,0,P|244:211|353:229,1,230.39999296875,0|0,1:0|0:0,0:0:0:0:
350,223,125824,2,0,P|397:202|446:190,1,72.0000027465821,2|0,1:2|0:0,0:0:0:0:
342,76,126012,6,0,B|274:74|274:74|219:104|219:104|178:54|109:53,1,230.39999296875,2|0,1:2|0:0,0:0:0:0:
51,59,126293,1,0,0:0:0:0:
51,59,126387,1,10,1:2:0:0:
51,302,126574,1,2,0:3:0:0:
51,302,126668,1,2,0:3:0:0:
51,302,126762,2,0,P|134:300|66:222,1,168.000001602173,4|0,1:3|0:0,0:0:0:0:
62,173,127043,38,0,P|82:164|101:159,1,38.4,8|0,1:3|0:0,0:0:0:0:
220,225,127324,6,0,P|206:189|186:164,1,57.5999982421876,8|0,3:0|0:0,0:0:0:0:
245,146,127418,2,0,P|208:168|176:177,1,57.5999982421876,8|0,3:0|0:0,0:0:0:0:
185,171,127512,6,0,B|269:178|269:178|302:164|302:164|333:181|333:181|415:177,1,230.39999296875,6|0,1:2|0:0,0:0:0:0:
402,272,127793,1,0,0:0:0:0:
402,272,127887,2,0,B|445:293|445:293|482:218|444:158|444:158|407:177,1,230.39999296875,10|0,1:2|0:0,0:0:0:0:
301,258,128168,1,0,0:0:0:0:
223,320,128262,6,0,P|151:332|103:315,2,115.199996484375,2|0|2,1:2|0:0|0:0,0:0:0:0:
23,322,128543,2,0,B|25:274|65:243|65:243|65:164|16:119,1,230.39999296875,0|0,1:0|0:0,0:0:0:0:
132,181,128824,2,0,P|189:182|244:199,1,115.199996484375,2|0,1:2|0:0,0:0:0:0:
378,257,129012,6,0,P|340:160|245:200,1,230.39999296875,0|2,1:0|0:0,0:0:0:0:
287,287,129293,1,2,0:0:0:0:
378,257,129387,2,0,P|394:198|384:136,1,115.199996484375,10|0,1:2|0:0,0:0:0:0:
329,83,129574,2,0,P|369:63|422:69,2,72.0000027465821,2|0|0,0:0|0:0|1:0,0:0:0:0:
251,138,129855,1,0,0:0:0:0:
240,146,129949,1,2,0:0:0:0:
228,154,130043,2,0,B|169:176|169:176|122:128|140:57|140:57|203:60,1,230.39999296875,2|0,1:2|0:0,0:0:0:0:
178,58,130324,2,0,L|57:55,1,115.199996484375,2|0,1:2|0:0,0:0:0:0:
22,206,130512,6,0,L|196:190,1,172.799994726563,0|0,1:0|0:0,0:0:0:0:
275,98,130793,1,0,0:0:0:0:
275,98,130887,2,0,P|287:65|290:43,2,57.5999982421876,8|0|0,0:0|0:0|0:0,0:0:0:0:
260,189,131074,1,2,0:0:0:0:
247,275,131168,1,2,0:0:0:0:
230,357,131262,6,0,P|190:300|270:359,1,345.599989453125,0|0,1:0|0:0,0:0:0:0:
169,316,131637,5,10,0:0:0:0:
152,356,131730,1,0,0:0:0:0:
93,327,131824,5,0,0:0:0:0:
78,356,131917,1,0,0:0:0:0:
30,345,132012,6,0,B|-14:293|6:244|6:244|61:191|150:233,1,230.39999296875,0|0,1:0|0:0,0:0:0:0:
428,203,132293,2,0,B|360:222|301:168|301:168|164:122|104:245,1,345.599989453125,0|0,0:0|0:0,0:0:0:0:
229,278,132668,1,0,0:0:0:0:
229,278,132762,70,0,L|223:247,1,28.8,0|0,0:0|0:0,0:0:0:0:
388,89,133137,2,0,L|385:120,1,28.8,0|0,0:0|0:0,0:0:0:0:
369,310,133512,6,0,B|375:220|375:220|392:197|392:197|381:173|381:173|389:62,1,230.39999296875,6|0,1:2|0:0,0:0:0:0:
412,58,133793,1,0,0:0:0:0:
409,83,133887,2,0,B|402:167|402:167|413:191|413:191|396:214|396:214|390:304,1,230.39999296875,10|0,1:2|0:0,0:0:0:0:
272,326,134168,1,0,0:0:0:0:
255,337,134262,2,0,B|204:364|156:353|156:353|116:288|14:281,1,230.39999296875,2|2,1:2|0:0,0:0:0:0:
36,194,134543,2,0,P|121:115|26:62,1,230.39999296875,0|0,1:0|0:0,0:0:0:0:
36,194,134824,2,0,P|103:208|145:235,1,72.0000027465821,2|0,1:2|0:0,0:0:0:0:
197,282,135012,6,0,B|229:226|212:167|212:167|188:106|217:41,1,230.39999296875,0|0,1:0|0:0,0:0:0:0:
315,107,135293,1,2,0:0:0:0:
315,107,135387,2,0,P|357:78|434:104,1,115.199996484375,10|0,1:2|0:0,0:0:0:0:
498,171,135574,1,2,0:0:0:0:
482,182,135668,1,0,0:0:0:0:
467,189,135762,6,0,L|335:185,1,115.199996484375,0|0,1:0|0:0,0:0:0:0:
278,257,135949,1,2,0:0:0:0:
295,268,136043,2,0,L|530:273,1,230.39999296875,2|0,1:2|0:0,0:0:0:0:
294,268,136324,2,0,P|285:217|251:184,1,72.0000027465821,2|0,1:2|0:0,0:0:0:0:
124,42,136512,6,0,P|80:111|109:252,1,230.39999296875,2|0,1:2|0:0,0:0:0:0:
189,280,136793,1,0,0:0:0:0:
107,250,136887,2,0,P|112:208|122:182,1,57.5999982421876,8|0,0:0|0:0,0:0:0:0:
91,251,136980,2,0,P|80:209|81:182,1,57.5999982421876,0|0,0:0|0:0,0:0:0:0:
73,256,137074,2,0,P|49:220|40:194,1,57.5999982421876,2|0,0:0|0:0,0:0:0:0:
57,266,137168,1,2,0:0:0:0:
35,354,137262,6,0,L|202:346,1,115.199996484375,0|0,1:0|0:0,0:0:0:0:
394,306,137449,1,0,0:0:0:0:
419,302,137543,2,0,L|178:279,1,230.39999296875,0|0,1:0|0:0,0:0:0:0:
204,188,137824,2,0,P|186:237|199:299,1,96,2|0,1:2|0:0,0:0:0:0:
340,183,138012,6,0,P|328:139|205:192,1,230.39999296875,0|0,1:0|0:0,0:0:0:0:
276,245,138293,1,0,0:0:0:0:
340,183,138387,2,0,P|359:97|209:63,1,230.39999296875,8|2,1:2|3:0,0:0:0:0:
152,66,138668,1,2,3:0:0:0:
138,73,138762,6,0,L|72:66,4,57.5999982421876,4|0|0|0|0,1:3|0:0|0:0|0:0|0:0,0:0:0:0:
148,164,139043,2,0,L|16:155,1,115.199996484375,8|0,1:3|0:0,0:0:0:0:
152,321,139324,2,0,L|73:315,1,57.5999982421876,8|0,3:0|0:0,0:0:0:0:
157,336,139418,2,0,L|99:340,1,57.5999982421876,8|0,3:0|0:0,0:0:0:0:
166,346,139512,6,0,P|222:307|303:314,1,115.199996484375,6|0,1:2|0:0,0:0:0:0:
447,342,139699,1,0,0:0:0:0:
461,344,139793,1,0,0:0:0:0:
473,348,139887,2,0,P|417:309|336:316,1,115.199996484375,10|0,1:2|0:0,0:0:0:0:
299,240,140074,2,0,P|329:208|343:148,1,72.0000027465821,0|0,0:0|0:0,0:0:0:0:
295,112,140262,2,0,P|291:47|392:101,1,230.39999296875,2|2,1:2|0:0,0:0:0:0:
295,112,140543,2,0,L|58:99,1,230.39999296875,0|0,1:0|0:0,0:0:0:0:
19,186,140824,1,2,1:2:0:0:
259,171,141012,6,0,P|147:218|17:184,1,230.39999296875,0|2,1:0|0:0,0:0:0:0:
271,86,141293,1,2,0:0:0:0:
292,83,141387,2,0,L|415:63,2,115.199996484375,10|0|2,1:2|0:0|0:0,0:0:0:0:
488,92,141668,1,0,0:0:0:0:
482,151,141762,1,0,1:0:0:0:
449,198,141855,6,0,L|330:189,1,115.199996484375,0|2,0:0|0:0,0:0:0:0:
162,155,142043,2,0,P|255:109|326:240,1,230.39999296875,2|0,1:2|0:0,0:0:0:0:
162,155,142324,2,0,P|155:111|159:62,1,72.0000027465821,2|0,1:2|0:0,0:0:0:0:
239,206,142512,5,0,1:0:0:0:
229,226,142605,1,0,0:0:0:0:
218,246,142699,1,0,0:0:0:0:
207,266,142793,1,0,0:0:0:0:
197,287,142887,2,0,L|134:263,4,57.5999982421876,8|0|0|0|2,0:0|0:0|0:0|0:0|0:0,0:0:0:0:
277,333,143168,1,2,0:0:0:0:
322,236,143262,6,0,B|350:164|431:149|431:149|493:196|509:259,1,230.39999296875,0|0,1:0|0:0,0:0:0:0:
507,339,143543,2,0,L|388:333,1,115.199996484375,0|10,0:0|0:0,0:0:0:0:
277,333,143730,1,0,0:0:0:0:
253,331,143824,1,0,0:0:0:0:
229,329,143918,1,0,0:0:0:0:
110,351,144012,6,0,P|124:277|216:361,1,230.39999296875,0|0,1:0|0:0,0:0:0:0:
110,351,144293,2,0,B|-28:287|-28:287|48:249,1,230.39999296875,0|0,0:0|0:0,0:0:0:0:
277,218,144574,2,0,B|227:192|227:192|139:219,1,115.199996484375
277,218,144762,5,2,0:0:0:0:
334,274,144855,1,0,0:0:0:0:
414,285,144949,1,2,0:0:0:0:
486,248,145043,1,0,0:0:0:0:
508,145,145137,6,0,P|508:106|516:80,1,57.5999982421876,2|0,0:0|0:0,0:0:0:0:
481,154,145230,2,0,P|474:115|477:88,1,57.5999982421876
452,165,145324,2,0,P|438:128|437:101,1,57.5999982421876,2|0,0:0|0:0,0:0:0:0:
423,172,145418,2,0,P|403:139|397:112,1,57.5999982421876
339,174,145512,6,0,P|300:121|281:40,1,144,4|0,1:0|0:0,0:0:0:0:
303,310,145887,2,0,P|308:237|347:163,1,144,2|0,1:2|0:0,0:0:0:0:
76,63,146262,2,0,L|17:49,1,48,10|0,1:2|0:0,0:0:0:0:
94,201,146449,2,0,L|35:187,1,48,2|0,0:0|0:0,0:0:0:0:
234,143,146637,2,0,L|175:129,1,48,2|0,1:2|0:0,0:0:0:0:
234,143,146824,2,0,P|201:198|205:257,1,96,2|0,0:0|1:0,0:0:0:0:
249,335,147199,5,2,0:0:0:0:
249,335,147293,1,2,0:0:0:0:
249,335,147387,2,0,L|289:328,6,24,0|0|0|0|0|0|0,1:0|0:0|0:0|0:0|0:0|0:0|0:0,0:0:0:0:
164,346,147762,2,0,L|55:337,1,96,8|2,1:2|0:0,0:0:0:0:
14,240,148043,1,2,0:0:0:0:
28,238,148137,2,0,L|94:230,1,48,0|0,1:2|0:0,0:0:0:0:
151,222,148324,2,0,L|217:214,1,48,2|0,1:2|0:0,0:0:0:0:
388,118,148512,6,0,P|334:86|250:120,1,144.000005493164,2|2,1:2|0:0,0:0:0:0:
319,353,149262,1,10,0:0:0:0:
333,244,149449,1,2,0:0:0:0:
319,353,149637,1,2,1:2:0:0:
333,244,149824,2,0,L|288:261,1,48,2|0,0:1|0:0,0:0:0:0:
215,299,150012,5,2,1:2:0:0:
426,317,150199,1,0,0:0:0:0:
215,299,150387,2,0,P|151:305|97:293,1,108.000004119873,2|0,1:2|0:0,0:0:0:0:
219,281,150762,2,0,P|177:246|163:202,1,72.0000027465821,10|0,1:2|0:0,0:0:0:0:
166,153,151043,1,0,0:0:0:0:
166,153,151137,2,0,L|181:109,1,36.0000013732911,2|0,1:2|0:0,0:0:0:0:
244,171,151324,2,0,L|258:120,2,48.0000018310548,2|0|0,0:0|0:0|0:0,0:0:0:0:
169,231,151512,6,0,L|12:209,1,144,0|0,1:0|0:0,0:0:0:0:
157,323,151887,2,0,P|151:269|181:219,1,96,2|0,1:2|0:0,0:0:0:0:
271,245,152168,1,0,0:0:0:0:
271,245,152262,2,0,P|255:264|244:285,1,48,10|0,1:2|0:0,0:0:0:0:
356,314,152449,2,0,P|368:334|383:353,1,48,2|0,0:0|0:0,0:0:0:0:
409,221,152637,2,0,P|434:192|452:168,1,48,2|0,1:2|0:0,0:0:0:0:
327,159,152824,2,0,P|292:125|249:105,1,96,2|0,0:0|0:0,0:0:0:0:
190,275,153199,5,2,0:0:0:0:
218,268,153293,1,2,0:0:0:0:
246,261,153387,2,0,L|294:249,6,48,2|0|0|0|0|0|0,1:2|0:0|0:0|0:0|0:0|0:0|0:0,0:0:0:0:
136,346,153762,2,0,P|99:324|82:304,1,48,8|0,1:2|0:0,0:0:0:0:
32,195,153949,1,2,0:0:0:0:
41,189,154043,1,2,0:0:0:0:
49,182,154137,2,0,L|40:229,1,48,2|0,1:2|0:0,0:0:0:0:
229,350,154324,2,0,L|224:289,1,48,2|0,1:2|0:0,0:0:0:0:
317,172,154512,6,0,P|250:151|186:180,1,144.000005493164,2|0,1:2|0:0,0:0:0:0:
395,252,155262,2,0,L|376:362,1,108.000004119873,2|0,1:2|0:0,0:0:0:0:
376,358,155637,6,0,L|266:342,1,96,2|0,0:1|0:0,0:0:0:0:
404,224,155824,2,0,L|506:241,1,96,2|0,0:1|0:0,0:0:0:0:
278,180,156012,6,0,P|345:178|411:238,1,144,2|0,1:2|0:0,0:0:0:0:
431,292,156387,1,10,1:2:0:0:
188,242,156574,6,0,P|175:211|175:192,1,48,2|0,0:0|0:0,0:0:0:0:
171,251,156668,2,0,P|158:220|158:201,1,48,2|0,0:0|0:0,0:0:0:0:
158,265,156762,1,2,1:2:0:0:
271,317,156949,2,0,P|284:286|284:267,1,48,2|0,1:2|0:0,0:0:0:0:
288,326,157043,2,0,P|301:295|301:276,1,48,0|0,0:0|0:0,0:0:0:0:
299,342,157137,6,0,L|178:351,1,96,12|0,0:3|0:0,0:0:0:0:
77,304,157324,2,0,L|44:209,1,96,12|0,0:3|0:0,0:0:0:0:
238,111,157512,6,0,P|173:104|94:128,1,144,2|0,1:2|0:0,0:0:0:0:
337,210,157887,2,0,P|277:169|233:98,1,144,2|0,1:2|0:0,0:0:0:0:
366,95,158262,2,0,L|380:36,1,48,10|0,1:2|0:0,0:0:0:0:
431,170,158449,2,0,L|445:111,1,48,2|0,0:0|0:0,0:0:0:0:
497,250,158637,2,0,L|511:191,1,48,2|0,1:2|0:0,0:0:0:0:
345,335,158824,2,0,L|483:319,1,96,2|0,0:0|1:0,0:0:0:0:
358,255,159199,5,2,0:0:0:0:
358,255,159293,1,2,0:0:0:0:
358,255,159387,2,0,L|408:248,6,48,2|0|0|0|0|0|0,1:2|0:0|0:0|0:0|0:0|0:0|0:0,0:0:0:0:
247,270,159762,2,0,L|151:285,1,72.0000027465821,10|0,1:2|0:0,0:0:0:0:
10,227,159949,5,2,0:0:0:0:
19,226,160043,1,2,0:0:0:0:
27,224,160137,2,0,L|117:210,1,72.0000027465821,2|0,1:2|0:0,0:0:0:0:
219,190,160324,1,2,1:2:0:0:
60,107,160512,6,0,P|125:83|174:109,1,108.000004119873,2|0,1:2|0:0,0:0:0:0:
352,63,160887,2,0,P|261:117|148:88,1,216.000008239746,2|0,0:1|0:0,0:0:0:0:
60,107,161262,1,10,1:2:0:0:
217,182,161449,1,2,0:0:0:0:
117,290,161637,1,2,1:2:0:0:
372,172,161824,2,0,L|316:195,1,36.0000013732911,2|0,0:1|0:0,0:0:0:0:
117,290,162012,5,2,1:2:0:0:
400,300,162199,1,2,0:0:0:0:
117,290,162387,2,0,L|-28:280,1,144,2|0,1:2|0:0,0:0:0:0:
173,362,162762,2,0,P|131:327|116:269,1,96,10|0,1:2|0:0,0:0:0:0:
100,201,163043,1,0,0:0:0:0:
100,201,163137,2,0,L|120:142,1,48,2|0,1:2|0:0,0:0:0:0:
222,183,163324,2,0,L|237:132,2,48,2|0|0,0:0|0:0|0:0,0:0:0:0:
222,183,163512,6,0,L|368:184,1,144,2|0,1:2|0:0,0:0:0:0:
354,274,163887,2,0,P|348:220|378:170,1,96,2|0,1:2|0:0,0:0:0:0:
483,93,164262,2,0,L|460:145,1,48,10|0,1:2|0:0,0:0:0:0:
381,48,164449,2,0,L|367:-10,1,48,2|0,0:0|0:0,0:0:0:0:
248,131,164637,2,0,L|225:183,1,48,2|0,1:2|0:0,0:0:0:0:
160,79,164824,2,0,L|146:21,1,48,2|0,0:0|0:0,0:0:0:0:
23,139,165012,5,0,1:0:0:0:
190,275,165199,1,2,0:0:0:0:
218,268,165293,1,2,0:0:0:0:
246,261,165387,2,0,L|291:247,6,48,2|0|0|0|0|0|0,1:2|0:0|0:0|0:0|0:0|0:0|0:0,0:0:0:0:
130,344,165762,2,0,L|64:297,1,72.0000027465821,10|0,1:2|0:0,0:0:0:0:
63,165,165949,1,2,0:0:0:0:
72,159,166043,1,2,0:0:0:0:
80,152,166137,2,0,L|65:231,1,72.0000027465821,2|0,1:2|0:0,0:0:0:0:
240,339,166324,2,0,L|174:292,1,72.0000027465821,2|0,1:2|0:0,0:0:0:0:
186,180,166512,6,0,P|252:145|320:168,1,144.000005493164,2|0,1:2|0:0,0:0:0:0:
462,341,167262,2,0,L|337:319,1,120,2|0,1:2|0:0,0:0:0:0:
344,321,167637,6,0,L|360:210,1,96,2|0,0:1|0:0,0:0:0:0:
199,83,167824,2,0,L|182:185,1,96,2|0,0:1|0:0,0:0:0:0:
18,157,168012,6,0,P|126:132|194:203,1,192,2|0,1:2|0:0,0:0:0:0:
304,253,168387,6,0,P|280:250|244:227,1,64,2|0,0:0|0:0,0:0:0:0:
295,270,168512,2,0,P|271:267|233:247,1,64,0|0,0:0|0:0,0:0:0:0:
287,288,168637,2,0,P|263:285|222:265,1,64,0|0,0:0|0:0,0:0:0:0:
281,314,168762,1,2,0:0:0:0:
133,313,168949,6,0,P|124:280|124:259,4,48,2|0|0|0|2,0:0|0:0|0:0|0:0|0:0,0:0:0:0:
205,373,169324,1,0,0:0:0:0:
17,279,169512,1,4,0:0:0:0:
