osu file format v14

[General]
AudioFilename: audio.mp3
AudioLeadIn: 0
PreviewTime: 47916
Countdown: 0
SampleSet: Soft
StackLeniency: 0.3
Mode: 0
LetterboxInBreaks: 0
WidescreenStoryboard: 1

[Editor]
Bookmarks: 73512,88230,145512,157512,169512
DistanceSpacing: 1.2
BeatDivisor: 4
GridSize: 32
TimelineZoom: 2.9

[Metadata]
Title:Sunset Tea Cup
TitleUnicode:Sunset Tea Cup
Artist:YUC'e
ArtistUnicode:YUC'e
Creator:Rumia-
Version:Collab Hard
Source:
Tags:MoeMoeKyunNN walaowey [ -Scarlet- ] FREQUENCY BLITZ 5 Attack the Music [ATK-0014] yuce
BeatmapID:1352576
BeatmapSetID:634949

[Difficulty]
HPDrainRate:4.2
CircleSize:3.5
OverallDifficulty:4.5
ApproachRate:8
SliderMultiplier:1.4
SliderTickRate:1

[Events]
//Background and Video events
0,0,"bg.jpg",0,0
//Break Periods
//Storyboard Layer 0 (Background)
//Storyboard Layer 1 (Fail)
//Storyboard Layer 2 (Pass)
//Storyboard Layer 3 (Foreground)
//Storyboard Sound Samples

[TimingPoints]
1512,375,4,2,0,50,1,0
1512,-100,4,2,0,50,0,0
12012,-133.333333333333,4,2,0,50,0,0
13512,-100,4,2,10,60,0,0
25512,-100,4,2,10,70,0,0
48012,-100,4,2,10,30,0,0
49512,-83.3333333333333,4,2,10,80,0,1
61043,-83.3333333333333,4,2,10,5,0,1
61137,-83.3333333333333,4,2,10,80,0,1
61324,-83.3333333333333,4,2,10,5,0,1
61418,-83.3333333333333,4,2,10,70,0,1
61512,-83.3333333333333,4,2,10,80,0,1
73512,-100,4,2,10,50,0,0
84012,-133.333333333333,4,2,10,50,0,0
85512,-100,4,2,10,60,0,0
86918,-100,4,2,10,5,0,0
87012,-100,4,2,10,60,0,0
88418,-100,4,2,10,5,0,0
88512,-100,4,2,10,60,0,0
89918,-100,4,2,10,5,0,0
90012,-100,4,2,10,60,0,0
91418,-100,4,2,10,5,0,0
91512,-100,4,2,10,60,0,0
91793,-100,4,2,10,5,0,0
91887,-100,4,2,10,60,0,0
92168,-100,4,2,10,5,0,0
92262,-100,4,2,10,60,0,0
92918,-100,4,2,10,5,0,0
93012,-100,4,2,10,60,0,0
94418,-100,4,2,10,5,0,0
94512,-100,4,2,10,60,0,0
95262,-100,4,2,10,45,0,0
96012,-100,4,2,10,60,0,0
97137,-100,4,2,10,80,0,0
97512,-100,4,2,10,70,0,0
120012,-100,4,2,10,30,0,0
121512,-83.3333333333333,4,2,10,80,0,1
133043,-83.3333333333333,4,2,10,5,0,1
133137,-83.3333333333333,4,2,10,80,0,1
133324,-83.3333333333333,4,2,10,5,0,1
133418,-83.3333333333333,4,2,10,80,0,1
145512,-100,4,2,10,75,0,0
145887,-100,4,2,11,75,0,0
160793,-100,4,2,11,5,0,0
160887,-100,4,2,0,75,0,0
160980,-100,4,2,11,75,0,0
167262,-100,4,2,11,75,0,0
168012,-100,4,2,11,60,0,0
168762,-100,4,2,11,50,0,0
169512,-100,4,2,10,40,0,0

[Colours]
Combo1 : 5,49,122
Combo2 : 224,163,71
Combo3 : 162,164,164
Combo4 : 0,191,255
Combo5 : 255,255,255
Combo6 : 249,79,125

[HitObjects]
57,189,1512,6,0,P|41:120|53:45,2,140,2|0|8,0:0|0:0|0:0,0:0:0:0:
388,246,3012,2,0,B|346:243|324:213|324:213|296:288|354:347,1,210,2|2,0:0|0:0,0:0:0:0:
428,317,3762,2,0,P|468:231|388:166,1,210,10|2,0:0|0:0,0:0:0:0:
309,145,4512,6,0,B|247:153|247:153|230:142|230:142|163:149,2,140,2|2|8,0:0|0:0|0:0,0:0:0:0:
96,284,6012,2,0,B|42:303|9:243|9:243|41:179|109:207,1,210,2|2,0:0|0:0,0:0:0:0:
166,156,6762,2,0,B|176:100|243:101|243:101|283:160|225:206,1,210,10|2,0:0|0:0,0:0:0:0:
233,281,7512,6,0,B|233:353|233:353|161:308,2,140,2|2|8,0:0|0:0|0:0,0:0:0:0:
319,66,9012,2,0,P|363:43|394:156,1,210,2|2,0:0|0:0,0:0:0:0:
444,223,9762,2,0,B|396:255|344:223|344:223|287:196|243:231,1,210,10|0,0:0|0:0,0:0:0:0:
173,272,10512,6,0,B|115:358|115:358|61:262,1,210,2|2,0:0|0:0,0:0:0:0:
65,181,11262,2,0,B|123:95|123:95|177:191,1,210,10|2,0:0|0:0,0:0:0:0:
247,235,12012,6,0,P|361:225|232:146,1,367.500014019013,2|0,0:0|0:0,0:0:0:0:
175,187,13512,6,0,L|34:186,1,140,4|0,1:2|0:0,0:0:0:0:
62,106,14074,1,0,0:0:0:0:
62,106,14262,2,0,L|61:32,2,70,10|2|0,0:0|0:0|0:0,0:0:0:0:
133,258,15012,6,0,P|169:271|251:215,1,140,2|2,1:2|0:0,0:0:0:0:
270,140,15574,1,2,0:0:0:0:
270,140,15762,2,0,P|319:93|386:103,1,140,8|2,0:0|0:0,0:0:0:0:
438,168,16324,1,2,0:0:0:0:
438,168,16512,6,0,L|433:245,1,70,0|0,1:0|0:0,0:0:0:0:
350,250,16887,2,0,L|345:173,1,70,2|0,0:0|0:0,0:0:0:0:
289,117,17262,2,0,P|261:90|212:89,2,70,10|0|2,0:0|0:0|0:0,0:0:0:0:
224,170,17824,1,0,0:0:0:0:
224,170,18012,6,0,L|74:160,1,140,2|2,1:2|0:0,0:0:0:0:
68,242,18574,1,2,0:0:0:0:
68,242,18762,2,0,L|207:251,1,140,8|2,0:0|0:0,0:0:0:0:
257,318,19324,1,2,0:0:0:0:
257,318,19512,6,0,P|289:274|268:193,1,140,0|2,1:0|0:0,0:0:0:0:
199,150,20074,1,0,0:0:0:0:
199,150,20262,2,0,L|121:154,2,70,10|0|2,0:0|0:0|0:0,0:0:0:0:
254,86,20824,1,0,0:0:0:0:
254,86,21012,6,0,B|290:78|317:53|317:53|340:77|388:81,1,140,2|2,1:2|0:0,0:0:0:0:
460,97,21574,1,2,0:0:0:0:
460,97,21762,2,0,P|441:173|447:238,1,140,8|2,0:0|0:0,0:0:0:0:
455,317,22324,1,2,0:0:0:0:
455,317,22512,6,0,P|390:326|331:262,1,140,0|2,1:0|0:0,0:0:0:0:
253,280,23074,1,0,0:0:0:0:
253,280,23262,2,0,P|277:219|362:200,1,140,8|2,0:0|0:0,0:0:0:0:
510,205,24012,5,4,1:0:0:0:
384,122,24387,2,0,L|372:37,2,70,0|2|2,0:0|0:0|0:0,0:0:0:0:
400,204,24949,1,2,0:0:0:0:
416,286,25137,1,2,0:0:0:0:
416,286,25512,6,8,L|316:273,1,70,14|8,0:0|0:0,0:0:0:0:
292,341,25887,2,8,L|192:328,1,70,8|8,0:0|0:0,0:0:0:0:
148,372,26262,2,8,L|48:359,2,70,10|10|10,0:0|0:0|0:0,0:0:0:0:
73,165,27012,6,0,L|173:152,1,70,10|0,0:0|0:0,0:0:0:0:
197,220,27387,2,0,L|297:207,1,70,10|0,0:0|0:0,0:0:0:0:
341,251,27762,2,0,L|441:238,2,70,10|2|10,0:0|0:0|0:0,0:0:0:0:
192,329,28512,5,8,0:0:0:0:
192,329,28887,2,0,P|159:340|123:342,1,70,10|2,0:0|0:0,0:0:0:0:
52,297,29262,2,0,B|34:231|34:231|52:136,1,140,10|8,0:0|0:0,0:0:0:0:
86,86,29824,1,2,0:0:0:0:
86,86,30012,2,0,L|166:90,1,70,10|0,0:0|0:0,0:0:0:0:
240,93,30387,2,0,L|236:173,1,70,10|0,0:0|0:0,0:0:0:0:
233,247,30762,2,0,L|153:243,2,70,10|2|10,0:0|0:0|0:0,0:0:0:0:
334,381,31512,6,0,L|347:294,1,70,14|0,0:0|0:0,0:0:0:0:
405,253,31887,2,0,L|418:166,1,70,10|0,0:0|0:0,0:0:0:0:
479,128,32262,2,0,L|492:41,2,70,10|2|10,0:0|0:0|0:0,0:0:0:0:
343,28,33012,6,0,L|330:115,1,70,10|0,0:0|0:0,0:0:0:0:
272,156,33387,2,0,L|259:243,1,70,10|0,0:0|0:0,0:0:0:0:
198,281,33762,2,0,L|185:368,2,70,10|2|8,0:0|0:0|0:0,0:0:0:0:
177,114,34512,5,8,3:2:0:0:
177,114,34887,2,0,P|142:122|114:144,1,70,10|2,0:0|0:0,0:0:0:0:
31,142,35262,2,0,P|39:177|61:205,1,70,10|2,0:0|0:0,0:0:0:0:
62,287,35637,2,0,P|97:279|125:257,1,70,10|2,0:0|0:0,0:0:0:0:
207,259,36012,2,0,P|199:224|177:196,1,70,8|0,3:2|3:0,0:0:0:0:
115,142,36387,2,0,P|123:107|145:79,1,70,10|0,0:0|0:0,0:0:0:0:
225,50,36762,1,10,0:0:0:0:
225,50,36949,1,2,0:0:0:0:
225,50,37137,2,0,L|310:57,1,70,10|0,0:0|0:0,0:0:0:0:
365,101,37512,6,0,P|370:129|368:175,1,70,14|0,0:0|0:0,0:0:0:0:
306,227,37887,2,0,P|301:255|303:301,1,70,10|0,0:0|0:0,0:0:0:0:
338,372,38262,2,0,L|407:366,2,70,10|2|10,0:0|0:0|3:2,0:0:0:0:
170,369,39012,6,0,P|165:341|167:295,1,70,10|0,0:0|0:0,0:0:0:0:
229,243,39387,2,0,P|234:215|232:169,1,70,10|0,0:0|0:0,0:0:0:0:
191,101,39762,2,0,L|122:107,2,70,10|2|10,0:0|0:0|3:2,0:0:0:0:
344,32,40512,5,10,0:0:0:0:
344,32,40887,2,0,P|377:41|406:69,1,70,10|2,0:0|0:0,0:0:0:0:
421,146,41262,2,0,P|412:179|384:208,1,70,10|0,0:0|0:0,0:0:0:0:
338,272,41637,1,8,0:0:0:0:
306,194,41824,1,2,0:0:0:0:
306,194,42012,6,0,L|303:106,1,70,10|0,0:0|0:0,0:0:0:0:
232,168,42387,2,0,L|229:80,1,70,10|0,0:0|0:0,0:0:0:0:
158,142,42762,2,0,L|155:54,1,70,10|2,0:0|0:0,0:0:0:0:
84,116,43137,2,0,L|81:28,1,70,10|0,0:0|0:0,0:0:0:0:
4,11,43512,6,0,L|6:108,1,70,10|0,0:0|0:0,0:0:0:0:
20,163,43887,2,0,L|22:260,1,70,10|0,0:0|0:0,0:0:0:0:
45,313,44262,2,0,L|47:410,2,70,10|2|10,0:0|0:0|0:0,0:0:0:0:
104,148,45012,6,0,L|201:146,1,70,10|0,0:0|0:0,0:0:0:0:
213,220,45387,2,0,L|310:218,1,70,10|0,0:0|0:0,0:0:0:0:
349,270,45762,2,0,L|446:268,2,70,10|2|10,0:0|0:0|0:0,0:0:0:0:
197,344,46512,1,10,0:0:0:0:
256,192,46699,12,0,48012,0:0:0:0:
29,330,49512,5,4,1:2:0:0:
34,230,49699,2,0,L|26:181,2,41.9999987182618,0|0|10,0:0|0:0|1:2,0:0:0:0:
110,297,50075,1,0,0:0:0:0:
110,297,50168,1,0,0:0:0:0:
110,297,50262,2,0,P|128:244|108:167,1,125.999996154785,2|0,1:2|1:0,0:0:0:0:
87,133,50637,2,0,L|189:133,1,83.9999974365235,10|2,1:2|1:2,0:0:0:0:
265,97,51012,5,0,1:0:0:0:
238,193,51199,1,2,0:0:0:0:
238,193,51293,1,2,0:0:0:0:
238,193,51387,2,0,L|255:294,1,83.9999974365235,10|2,1:2|0:0,0:0:0:0:
235,375,51762,2,0,L|193:370,2,41.9999987182618,0|0|2,1:0|0:0|0:0,0:0:0:0:
323,327,52137,2,0,P|359:303|413:302,1,83.9999974365235,10|2,1:2|1:2,0:0:0:0:
483,244,52512,5,2,1:2:0:0:
473,143,52699,2,0,L|482:90,2,41.9999987182618,0|0|10,0:0|0:0|1:2,0:0:0:0:
378,179,53074,1,0,0:0:0:0:
378,179,53262,2,0,P|336:189|266:166,1,83.9999974365235,2|2,1:2|0:0,0:0:0:0:
228,107,53637,2,0,L|238:34,2,41.9999987182618,10|0|2,1:2|0:0|1:2,0:0:0:0:
193,201,54012,6,0,L|197:309,1,83.9999974365235,2|0,1:2|0:0,0:0:0:0:
300,266,54387,2,0,L|296:182,1,83.9999974365235,10|2,1:2|3:0,0:0:0:0:
228,107,54762,2,0,P|183:98|133:125,1,83.9999974365235,4|0,1:3|0:0,0:0:0:0:
54,186,55137,1,0,0:0:0:0:
88,280,55324,6,0,L|94:331,2,41.9999987182618,8|8|6,3:0|3:0|0:0,0:0:0:0:
139,193,55699,2,0,L|132:129,2,41.9999987182618,0|0|10,0:0|0:0|1:2,0:0:0:0:
189,280,56074,1,0,0:0:0:0:
189,280,56262,2,0,B|263:260|263:260|313:279,1,125.999996154785,2|0,1:2|1:0,0:0:0:0:
357,293,56637,2,0,B|397:308|397:308|447:290,1,83.9999974365235,10|2,1:2|1:2,0:0:0:0:
487,206,57012,5,0,1:0:0:0:
437,118,57199,2,0,L|447:67,2,41.9999987182618,2|2|10,0:0|0:0|1:2,0:0:0:0:
347,163,57574,1,2,0:0:0:0:
347,163,57762,2,0,L|357:214,2,41.9999987182618,0|0|2,1:0|0:0|0:0,0:0:0:0:
311,68,58137,2,0,P|266:62|206:91,1,83.9999974365235,10|2,1:2|1:2,0:0:0:0:
166,151,58512,6,0,L|79:139,1,83.9999974365235,2|0,1:2|0:0,0:0:0:0:
72,240,58887,2,0,L|159:252,1,83.9999974365235,10|2,0:0|0:0,0:0:0:0:
228,320,59262,2,0,P|247:249|227:191,1,125.999996154785,2|0,1:2|0:0,0:0:0:0:
195,166,59637,2,0,L|105:153,1,83.9999974365235,10|0,0:2|0:0,0:0:0:0:
17,191,60012,6,0,L|4:38,2,125.999996154785,2|0|0,1:2|0:0|0:0,0:0:0:0:
68,278,60762,1,0,0:0:0:0:
68,278,61137,1,0,0:0:0:0:
150,94,61512,5,6,1:2:0:0:
228,157,61699,2,0,L|223:217,2,41.9999987182618,0|0|10,0:0|0:0|1:2,0:0:0:0:
236,56,62074,1,0,0:0:0:0:
236,56,62168,1,0,0:0:0:0:
236,56,62262,2,0,P|283:40|354:75,1,125.999996154785,2|0,1:2|1:0,0:0:0:0:
380,109,62637,2,0,L|369:196,1,83.9999974365235,10|2,1:2|1:2,0:0:0:0:
349,291,63012,5,2,1:2:0:0:
446,316,63199,2,0,L|487:323,2,41.9999987182618,2|2|10,0:0|0:0|1:2,0:0:0:0:
349,291,63574,1,2,0:0:0:0:
349,291,63762,2,0,L|309:282,2,41.9999987182618,0|0|2,1:0|0:0|0:0,0:0:0:0:
417,217,64137,2,0,L|412:98,1,83.9999974365235,10|2,1:2|1:2,0:0:0:0:
358,48,64512,6,0,P|315:41|273:68,1,83.9999974365235,2|0,1:2|0:0,0:0:0:0:
217,138,64887,2,0,L|220:221,1,83.9999974365235,8|0,0:0|0:0,0:0:0:0:
235,321,65262,2,0,P|179:303|101:335,1,125.999996154785,2|0,1:2|1:0,0:0:0:0:
75,351,65637,2,0,L|66:244,1,83.9999974365235,10|2,1:2|1:2,0:0:0:0:
63,166,66012,6,0,B|95:124|128:114|128:114|166:147|205:149,1,167.999994873047,2|10,1:2|1:2,0:0:0:0:
267,71,66574,1,2,3:0:0:0:
267,71,66668,1,2,3:0:0:0:
267,71,66762,2,0,P|323:63|377:93,1,83.9999974365235,4|0,1:3|0:0,0:0:0:0:
434,123,67137,1,0,0:0:0:0:
351,180,67324,6,0,L|297:185,2,41.9999987182618,8|8|6,3:0|3:0|1:2,0:0:0:0:
429,242,67699,2,0,L|485:235,2,41.9999987182618,0|0|10,0:0|0:0|1:2,0:0:0:0:
352,308,68074,1,0,0:0:0:0:
352,308,68262,2,0,P|305:286|230:310,1,125.999996154785,2|0,1:2|1:0,0:0:0:0:
195,334,68637,2,0,L|188:220,1,83.9999974365235,10|2,1:2|1:2,0:0:0:0:
139,162,69012,6,0,P|99:148|57:163,1,83.9999974365235,0|2,1:0|0:0,0:0:0:0:
10,248,69387,2,0,P|49:260|88:246,1,83.9999974365235,10|2,1:2|0:0,0:0:0:0:
139,162,69762,2,0,L|134:88,2,41.9999987182618,0|0|2,1:2|0:0|0:0,0:0:0:0:
223,218,70137,2,0,L|233:95,1,83.9999974365235,10|2,1:2|1:2,0:0:0:0:
300,61,70512,6,0,P|348:57|403:100,1,83.9999974365235,2|0,1:2|0:0,0:0:0:0:
443,149,70887,2,0,L|436:232,1,83.9999974365235,8|2,0:0|0:0,0:0:0:0:
373,311,71262,2,0,P|310:318|253:282,1,125.999996154785,2|0,1:2|0:0,0:0:0:0:
233,243,71637,2,0,L|248:134,1,83.9999974365235,10|0,0:0|0:0,0:0:0:0:
251,58,72012,6,0,P|177:84|115:65,1,125.999996154785,2|0,1:2|0:0,0:0:0:0:
82,68,72387,2,0,L|97:165,1,83.9999974365235,2|0,1:2|0:0,0:0:0:0:
11,207,72762,2,0,L|-1:124,2,83.9999974365235,2|2|2,0:0|0:0|0:0,0:0:0:0:
102,257,73324,1,2,0:0:0:0:
185,196,73512,5,4,0:0:0:0:
185,196,74262,1,2,0:0:0:0:
321,293,74637,1,2,0:0:0:0:
343,126,75012,2,0,P|294:130|365:189,1,210,0|2,0:0|0:0,0:0:0:0:
423,151,75762,1,0,0:0:0:0:
291,46,76137,1,2,0:0:0:0:
191,181,76512,6,0,B|92:205|92:205|39:180,2,140,0|2|2,0:0|0:0|0:0,0:0:0:0:
423,53,78012,2,0,P|405:137|334:73,1,210,0|2,0:0|0:0,0:0:0:0:
256,46,78762,1,0,0:0:0:0:
243,213,79137,1,2,0:0:0:0:
405,172,79512,6,0,P|469:210|497:296,2,140,0|2|2,0:0|0:0|0:0,0:0:0:0:
242,129,80637,1,2,0:0:0:0:
164,278,81012,2,0,B|207:324|267:299|267:299|322:277|365:321,1,210,0|2,0:0|0:0,0:0:0:0:
301,375,81762,1,0,0:0:0:0:
231,222,82137,1,2,0:0:0:0:
74,282,82512,6,0,B|107:137|107:137|130:197,1,210,0|2,0:0|0:0,0:0:0:0:
170,267,83262,2,0,B|312:310|312:310|271:261,1,210,0|2,0:0|0:0,0:0:0:0:
238,184,84012,6,0,B|230:111|317:29|317:29|370:77|395:118|296:122|326:204,1,367.500014019013,4|0,0:1|0:0,0:0:0:0:
406,186,85512,6,0,P|381:251|310:274,1,140,0|0,1:0|1:0,0:0:0:0:
159,219,86262,2,0,L|183:109,2,105,8|0|0,1:2|1:0|1:0,0:0:0:0:
139,300,87012,6,0,P|84:255|90:171,1,140,0|0,1:0|1:0,0:0:0:0:
225,276,87762,2,0,P|276:285|334:253,2,105,8|0|0,1:2|1:0|1:0,0:0:0:0:
267,203,88512,6,0,P|327:182|402:238,1,140,0|0,1:0|1:0,0:0:0:0:
457,62,89262,2,0,L|355:22,2,105,8|0|0,1:2|1:0|1:2,0:0:0:0:
435,143,90012,6,0,L|297:88,1,140,0|0,1:0|1:0,0:0:0:0:
139,118,90762,2,0,P|149:166|191:216,2,105,8|0|0,1:2|1:0|1:0,0:0:0:0:
184,47,91512,6,0,P|114:38|59:90,1,140,0|0,1:0|1:0,0:0:0:0:
35,245,92262,2,0,L|54:355,2,105,8|0|0,1:2|1:0|1:0,0:0:0:0:
118,252,93012,6,0,P|171:284|257:258,1,140,0|0,1:0|1:0,0:0:0:0:
298,205,93574,1,0,0:0:0:0:
298,205,93762,2,0,P|326:257|306:325,2,105,8|0|0,1:2|1:0|1:0,0:0:0:0:
215,190,94512,6,0,L|363:113,1,140,4|0,1:0|0:0,0:0:0:0:
195,37,95262,2,0,L|47:114,1,140,4|0,1:0|0:0,0:0:0:0:
116,263,96012,6,0,L|226:306,2,105,8|4|8,3:0|3:0|3:0,0:0:0:0:
47,213,96762,1,4,3:0:0:0:
71,132,96949,1,4,3:0:0:0:
186,211,97137,2,0,L|281:195,1,70,4|0,0:0|0:0,0:0:0:0:
379,149,97512,6,0,P|358:113|311:83,1,70,6|0,0:0|0:0,0:0:0:0:
412,58,97887,2,0,P|446:59|480:48,1,70,10|0,0:0|0:0,0:0:0:0:
476,132,98262,2,0,P|457:161|450:195,2,70,10|2|10,0:0|0:0|0:0,0:0:0:0:
498,298,99012,6,0,L|428:307,1,70,10|0,0:0|0:0,0:0:0:0:
376,240,99387,2,0,L|306:249,1,70,10|0,0:0|0:0,0:0:0:0:
256,181,99762,2,0,L|186:190,2,70,10|2|10,0:0|0:0|0:0,0:0:0:0:
163,40,100512,5,10,0:0:0:0:
95,194,100887,2,0,P|101:229|137:274,1,70,10|2,0:0|0:0,0:0:0:0:
196,290,101262,2,0,P|269:274|351:320,1,140,10|8,0:0|0:0,0:0:0:0:
381,362,101824,1,2,0:0:0:0:
381,362,102012,6,0,P|404:331|410:282,1,70,10|0,0:0|0:0,0:0:0:0:
375,224,102387,2,0,P|383:190|405:162,1,70,10|0,0:0|0:0,0:0:0:0:
470,109,102762,2,0,P|442:87|408:78,2,70,10|2|10,0:0|0:0|0:0,0:0:0:0:
309,158,103512,6,0,L|215:165,1,70,14|0,0:0|0:0,0:0:0:0:
155,157,103887,2,0,L|195:72,1,70,10|0,0:0|0:0,0:0:0:0:
231,23,104262,2,0,L|270:81,2,70,10|2|10,0:0|0:0|0:0,0:0:0:0:
73,80,105012,6,0,L|38:158,1,70,10|0,0:0|0:0,0:0:0:0:
110,196,105387,2,0,L|76:274,1,70,10|0,0:0|0:0,0:0:0:0:
152,305,105762,2,0,L|117:387,2,70,10|2|10,0:0|0:0|0:0,0:0:0:0:
275,190,106512,5,10,3:2:0:0:
392,309,106887,2,0,P|420:277|428:227,1,70,10|2,0:0|0:0,0:0:0:0:
498,205,107262,2,0,P|466:177|416:169,1,70,10|2,0:0|0:0,0:0:0:0:
392,99,107637,2,0,P|364:131|356:181,1,70,10|2,0:0|0:0,0:0:0:0:
288,206,108012,6,0,P|320:234|370:242,1,70,10|0,0:0|0:0,0:0:0:0:
427,251,108387,1,10,0:0:0:0:
481,92,108762,1,10,0:0:0:0:
481,92,108949,1,2,0:0:0:0:
481,92,109137,2,0,L|413:48,1,70,10|0,0:0|0:0,0:0:0:0:
341,30,109512,6,0,P|336:59|352:108,1,70,14|0,0:0|0:0,0:0:0:0:
417,142,109887,2,0,P|392:166|360:180,1,70,10|0,0:0|0:0,0:0:0:0:
280,154,110262,2,0,P|275:183|291:232,2,70,10|2|8,0:0|0:0|0:0,0:0:0:0:
149,47,111012,6,0,L|57:55,1,70,10|0,0:0|0:0,0:0:0:0:
20,113,111387,2,0,L|28:203,1,70,10|0,0:0|0:0,0:0:0:0:
92,234,111762,2,0,L|161:228,2,70,10|2|10,0:0|0:0|0:0,0:0:0:0:
207,112,112512,5,10,0:0:0:0:
238,277,112887,2,0,P|260:311|298:335,1,70,10|2,0:0|0:0,0:0:0:0:
316,250,113262,2,0,P|296:219|251:195,2,70,10|0|10,0:0|0:0|0:0,0:0:0:0:
366,316,113824,1,2,0:0:0:0:
366,316,114012,6,0,L|444:317,1,70,10|0,0:0|0:0,0:0:0:0:
468,239,114387,2,0,L|392:239,1,70,10|0,0:0|0:0,0:0:0:0:
363,161,114762,2,0,L|441:162,1,70,10|0,0:0|0:0,0:0:0:0:
465,84,115137,2,0,L|389:84,1,70,10|0,0:0|0:0,0:0:0:0:
310,87,115512,6,0,P|279:122|272:169,1,70,10|0,0:0|0:0,0:0:0:0:
226,214,115887,2,0,P|198:182|189:140,1,70,10|0,0:0|0:0,0:0:0:0:
144,85,116262,2,0,P|113:120|106:167,2,70,10|2|10,0:0|0:0|0:0,0:0:0:0:
310,87,117012,6,0,L|401:128,1,70,10|0,0:0|0:0,0:0:0:0:
336,191,117387,2,0,L|420:228,1,70,10|0,0:0|0:0,0:0:0:0:
371,298,117762,2,0,L|460:337,2,70,10|2|10,0:0|0:0|0:0,0:0:0:0:
206,332,118512,1,10,0:0:0:0:
256,192,118699,12,0,120012,0:0:0:0:
108,96,121512,5,6,1:2:0:0:
207,81,121699,2,0,L|273:86,2,41.9999987182618,0|0|10,0:0|0:0|1:2,0:0:0:0:
168,175,122075,1,0,0:0:0:0:
168,175,122168,1,0,0:0:0:0:
168,175,122262,2,0,L|233:319,1,125.999996154785,2|0,1:2|1:0,0:0:0:0:
245,333,122637,2,0,P|304:333|352:309,1,83.9999974365235,10|2,1:2|1:2,0:0:0:0:
389,244,123012,5,0,1:0:0:0:
302,193,123199,1,2,0:0:0:0:
302,193,123293,1,2,0:0:0:0:
302,193,123387,2,0,L|327:91,1,83.9999974365235,10|2,1:2|0:0,0:0:0:0:
387,34,123762,2,0,L|429:39,2,41.9999987182618,0|0|2,1:0|0:0|0:0,0:0:0:0:
287,16,124137,2,0,P|252:35|221:86,1,83.9999974365235,0|2,0:0|1:2,0:0:0:0:
199,167,124512,5,2,1:2:0:0:
129,94,124699,2,0,L|127:40,2,41.9999987182618,0|0|8,0:0|0:0|1:2,0:0:0:0:
95,189,125074,1,0,0:0:0:0:
95,189,125262,2,0,P|114:236|143:262,1,83.9999974365235,2|2,1:2|0:0,0:0:0:0:
238,255,125637,2,0,L|298:218,2,41.9999987182618,10|0|2,1:2|0:0|1:2,0:0:0:0:
188,343,126012,6,0,P|157:356|88:346,1,83.9999974365235,2|0,1:2|0:0,0:0:0:0:
56,269,126387,2,0,P|95:254|136:257,1,83.9999974365235,10|2,1:2|0:3,0:0:0:0:
182,167,126762,2,0,L|107:104,1,83.9999974365235,4|0,1:3|0:0,0:0:0:0:
184,36,127137,1,0,0:0:0:0:
256,105,127324,6,0,L|290:170,2,41.9999987182618,8|8|6,3:0|3:0|1:2,0:0:0:0:
345,58,127699,2,0,L|362:96,2,41.9999987182618,0|0|10,0:0|0:0|1:2,0:0:0:0:
443,33,128074,1,0,0:0:0:0:
443,33,128262,2,0,P|468:102|446:164,1,125.999996154785,2|0,1:2|1:0,0:0:0:0:
429,194,128637,2,0,P|381:193|339:220,1,83.9999974365235,10|2,1:2|1:2,0:0:0:0:
324,307,129012,5,0,1:0:0:0:
248,241,129199,2,0,L|243:195,2,41.9999987182618,2|2|10,0:0|0:0|1:2,0:0:0:0:
219,337,129574,1,2,0:0:0:0:
150,262,129762,2,0,L|145:221,2,41.9999987182618,0|0|2,1:0|0:0|0:0,0:0:0:0:
120,358,130137,2,0,P|83:337|54:282,1,83.9999974365235,0|2,0:0|1:2,0:0:0:0:
43,203,130512,6,0,L|105:113,1,83.9999974365235,0|0,1:0|0:0,0:0:0:0:
191,150,130887,2,0,L|133:237,1,83.9999974365235,8|2,0:0|0:0,0:0:0:0:
244,230,131262,2,0,P|317:215|394:249,1,125.999996154785,0|0,1:0|0:0,0:0:0:0:
405,259,131637,2,0,L|456:182,1,83.9999974365235,10|0,0:0|0:0,0:0:0:0:
424,91,132012,6,0,P|351:106|274:72,1,125.999996154785,2|0,1:2|0:0,0:0:0:0:
263,62,132387,2,0,L|212:139,1,83.9999974365235,2|0,1:2|0:0,0:0:0:0:
161,217,132762,1,0,0:0:0:0:
161,217,133137,1,0,0:0:0:0:
330,326,133512,5,6,1:2:0:0:
374,235,133699,2,0,L|372:193,2,41.9999987182618,0|0|10,0:0|0:0|1:2,0:0:0:0:
431,318,134074,1,0,0:0:0:0:
431,318,134168,1,0,0:0:0:0:
431,318,134262,2,0,L|537:217,1,125.999996154785,2|0,1:2|1:0,0:0:0:0:
501,184,134637,2,0,P|497:147|471:104,1,83.9999974365235,10|2,1:2|1:2,0:0:0:0:
373,97,135012,5,0,1:0:0:0:
372,193,135199,2,0,L|374:241,2,41.9999987182618,0|2|10,0:0|0:0|1:2,0:0:0:0:
282,146,135574,1,2,0:0:0:0:
284,247,135762,2,0,L|285:294,2,41.9999987182618,0|0|2,1:0|0:0|0:0,0:0:0:0:
194,199,136137,2,0,P|180:161|196:93,1,83.9999974365235,0|2,0:0|1:2,0:0:0:0:
254,46,136512,6,0,L|154:17,1,83.9999974365235,2|0,1:2|0:0,0:0:0:0:
91,81,136887,2,0,L|-1:54,1,83.9999974365235,8|2,0:0|0:0,0:0:0:0:
23,157,137262,2,0,L|70:297,1,125.999996154785,0|0,1:0|1:0,0:0:0:0:
79,324,137637,2,0,P|116:306|175:311,1,83.9999974365235,10|2,1:2|1:2,0:0:0:0:
249,349,138012,6,0,B|264:315|256:281|256:281|306:304|363:264,1,167.999994873047,0|8,1:0|1:2,0:0:0:0:
294,188,138574,1,2,3:0:0:0:
294,188,138668,1,2,3:0:0:0:
294,188,138762,2,0,P|306:138|335:102,1,83.9999974365235,4|0,1:3|0:0,0:0:0:0:
396,184,139137,1,0,0:0:0:0:
457,263,139324,6,0,L|452:320,2,41.9999987182618,8|8|6,3:0|3:0|1:2,0:0:0:0:
496,169,139699,2,0,L|502:112,2,41.9999987182618,0|0|10,0:0|0:0|1:2,0:0:0:0:
396,184,140074,1,0,0:0:0:0:
356,90,140262,2,0,P|314:78|234:92,1,125.999996154785,2|0,1:2|1:0,0:0:0:0:
194,122,140637,2,0,L|199:205,1,83.9999974365235,10|2,1:2|1:2,0:0:0:0:
177,304,141012,6,0,P|141:329|90:334,1,83.9999974365235,2|0,1:2|0:0,0:0:0:0:
27,266,141387,2,0,P|63:241|114:236,1,83.9999974365235,10|2,1:2|0:0,0:0:0:0:
199,205,141762,2,0,L|254:226,2,41.9999987182618,0|0|2,1:0|0:0|0:0,0:0:0:0:
125,135,142137,2,0,P|121:93|156:31,1,83.9999974365235,0|2,0:0|1:2,0:0:0:0:
223,106,142512,6,0,L|323:143,1,83.9999974365235,0|0,1:0|0:0,0:0:0:0:
391,89,142887,2,0,L|469:118,1,83.9999974365235,8|2,0:0|0:0,0:0:0:0:
499,215,143262,2,0,P|427:228|379:275,1,125.999996154785,0|0,1:0|0:0,0:0:0:0:
378,310,143637,2,0,L|266:289,1,83.9999974365235,10|0,0:0|0:0,0:0:0:0:
315,195,144012,6,0,P|267:139|203:121,1,125.999996154785,2|0,1:2|0:0,0:0:0:0:
172,137,144387,2,0,L|134:29,1,83.9999974365235,2|0,1:2|0:0,0:0:0:0:
73,129,144762,2,0,L|108:221,2,83.9999974365235,2|2|2,0:0|0:0|0:0,0:0:0:0:
3,201,145324,1,2,0:0:0:0:
47,292,145512,6,0,L|126:315,1,70,4|0,1:0|0:0,0:0:0:0:
195,291,145887,1,2,1:2:0:0:
325,185,146262,2,0,L|366:251,1,70,10|2,1:2|0:0,0:0:0:0:
435,202,146637,2,0,L|397:142,1,70,2|2,1:2|0:0,0:0:0:0:
275,112,147012,5,0,1:0:0:0:
236,186,147199,1,2,0:0:0:0:
236,186,147293,1,2,0:0:0:0:
236,186,147387,2,0,P|199:200|153:193,1,70,0|0,1:0|0:0,0:0:0:0:
104,143,147762,1,8,1:2:0:0:
104,143,147949,2,0,L|100:87,2,35,2|2|0,0:0|0:0|1:2,0:0:0:0:
89,225,148324,1,0,1:2:0:0:
152,280,148512,5,2,1:2:0:0:
152,280,149262,2,0,L|243:284,1,70,10|2,0:0|0:0,0:0:0:0:
305,276,149637,2,0,L|259:189,1,70,2|2,1:2|0:1,0:0:0:0:
226,143,150012,6,0,L|181:215,1,70,2|0,1:2|0:0,0:0:0:0:
104,208,150387,1,2,1:2:0:0:
111,40,150762,1,10,1:2:0:0:
275,75,151137,2,0,P|303:106|310:155,1,70,2|2,1:2|0:0,0:0:0:0:
226,143,151512,5,0,1:0:0:0:
372,59,151887,1,2,1:2:0:0:
366,226,152262,2,0,L|323:311,1,70,10|2,1:2|0:0,0:0:0:0:
278,225,152637,2,0,L|241:296,1,70,2|2,1:2|0:0,0:0:0:0:
123,314,153012,5,0,1:0:0:0:
101,233,153199,1,2,0:0:0:0:
101,233,153293,1,2,0:0:0:0:
101,233,153387,2,0,P|135:230|168:243,1,70,2|0,1:2|0:0,0:0:0:0:
245,287,153762,1,8,1:2:0:0:
245,287,153949,2,0,L|279:342,2,35,2|2|2,0:0|0:0|1:2,0:0:0:0:
245,202,154324,1,2,1:2:0:0:
321,166,154512,5,2,1:2:0:0:
321,166,155262,2,0,L|329:81,1,70,2|0,1:2|0:0,0:0:0:0:
260,45,155637,2,0,P|225:32|175:37,1,70,2|2,0:1|0:1,0:0:0:0:
146,103,156012,6,0,P|116:69|108:31,1,70,2|0,1:2|0:0,0:0:0:0:
25,54,156387,1,10,1:2:0:0:
10,136,156574,1,2,0:0:0:0:
10,136,156668,1,2,0:0:0:0:
10,136,156762,2,0,L|44:211,1,70,2|2,1:2|1:2,0:0:0:0:
101,255,157137,1,12,0:3:0:0:
120,173,157324,1,12,0:3:0:0:
182,229,157512,6,0,L|277:242,1,70,2|0,1:2|0:0,0:0:0:0:
299,307,157887,2,0,P|336:246|299:171,1,140,2|10,1:2|1:2,0:0:0:0:
250,132,158449,1,2,0:0:0:0:
175,170,158637,1,2,1:2:0:0:
177,86,158824,1,2,0:0:0:0:
251,215,159199,5,2,0:0:0:0:
251,215,159293,1,2,0:0:0:0:
251,215,159387,2,0,L|242:316,1,70,2|0,1:2|0:0,0:0:0:0:
174,331,159762,1,10,1:2:0:0:
174,331,159949,2,0,L|129:321,2,35,2|2|2,0:0|0:0|1:2,0:0:0:0:
243,378,160324,1,2,1:2:0:0:
319,342,160512,6,0,L|325:272,1,70,2|0,1:2|0:0,0:0:0:0:
330,188,160887,1,2,0:1:0:0:
464,225,161262,2,0,L|480:139,1,70,10|2,1:2|0:0,0:0:0:0:
437,81,161637,2,0,L|351:65,1,70,2|2,1:2|0:1,0:0:0:0:
306,125,162012,6,0,L|314:216,2,70,2|2|2,1:2|0:0|1:2,0:0:0:0:
161,38,162762,2,0,P|143:65|92:103,1,70,10|0,1:2|0:0,0:0:0:0:
49,142,163137,2,0,P|71:178|81:217,1,70,2|2,1:2|0:0,0:0:0:0:
102,285,163512,5,2,1:2:0:0:
102,285,163887,1,2,1:2:0:0:
256,352,164262,1,10,1:2:0:0:
302,282,164449,1,0,0:0:0:0:
257,210,164637,1,0,1:2:0:0:
174,226,164824,1,0,1:0:0:0:
228,66,165199,5,0,0:0:0:0:
228,66,165293,1,0,0:0:0:0:
228,66,165387,2,0,L|213:153,1,70
199,217,165762,1,0,0:0:0:0:
199,217,165949,2,0,L|141:187,2,35
258,277,166324,1,0,0:0:0:0:
199,217,166512,6,0,L|180:74,1,140,2|0,1:2|0:0,0:0:0:0:
122,235,167262,2,0,L|103:92,1,140,2|2,1:2|0:1,0:0:0:0:
269,58,168012,6,0,P|310:49|349:61,1,70,2|0,1:2|0:0,0:0:0:0:
307,139,168387,2,0,P|294:179|264:206,1,70,2|0,0:0|0:0,0:0:0:0:
215,128,168762,1,2,0:0:0:0:
215,128,168949,1,2,0:0:0:0:
215,128,169137,1,2,0:0:0:0:
382,121,169512,5,8,1:0:0:0:
