osu file format v14

[General]
AudioFilename: audio.mp3
AudioLeadIn: 0
PreviewTime: 47916
Countdown: 0
SampleSet: Soft
StackLeniency: 0.3
Mode: 0
LetterboxInBreaks: 0
WidescreenStoryboard: 1

[Editor]
Bookmarks: 13463,25463,37463,49463,61463,73463,85463,97463,109463,119963,133463,145463,157463,166463,169463
DistanceSpacing: 0.5
BeatDivisor: 8
GridSize: 4
TimelineZoom: 4.299999

[Metadata]
Title:Sunset Tea Cup
TitleUnicode:Sunset Tea Cup
Artist:YUC'e
ArtistUnicode:YUC'e
Creator:Rumia-
Version:Another
Source:
Tags:MoeMoeKyunNN walaowey [ -Scarlet- ] FREQUENCY BLITZ 5 Attack the Music [ATK-0014] yuce
BeatmapID:1348414
BeatmapSetID:634949

[Difficulty]
HPDrainRate:5
CircleSize:4
OverallDifficulty:8
ApproachRate:9
SliderMultiplier:1.76
SliderTickRate:1

[Events]
//Background and Video events
0,0,"bg.jpg",0,0
//Break Periods
//Storyboard Layer 0 (Background)
//Storyboard Layer 1 (Fail)
//Storyboard Layer 2 (Pass)
//Storyboard Layer 3 (Foreground)
//Storyboard Sound Samples

[TimingPoints]
1512,375,4,2,0,50,1,0
1512,-133.333333333333,4,2,0,50,0,0
10512,-200,4,2,0,50,0,0
11262,-250,4,2,0,50,0,0
12012,-333.333333333333,4,2,0,50,0,0
12762,-133.333333333333,4,2,0,50,0,0
13512,-100,4,2,10,60,0,0
22512,-200,4,2,10,60,0,0
23262,-250,4,2,10,60,0,0
24012,-333.333333333333,4,2,10,60,0,0
25512,-100,4,2,10,70,0,0
36762,-80,4,2,10,70,0,0
46512,-66.6666666666667,4,2,10,70,0,0
46887,-57.1428571428571,4,2,10,70,0,0
47262,-50,4,2,10,70,0,0
47637,-41.6666666666667,4,2,10,70,0,0
48012,-80,4,2,10,30,0,0
49512,-50,4,2,10,80,0,1
54762,-100,4,2,10,80,0,1
55043,-50,4,2,10,80,0,1
55512,-50,4,2,10,80,0,1
58512,-57.1428571428571,4,2,10,80,0,1
60012,-50,4,2,10,80,0,1
60762,-100,4,2,10,80,0,1
61137,-200,4,2,10,80,0,1
61512,-50,4,2,10,80,0,1
66762,-100,4,2,10,80,0,1
67043,-50,4,2,10,80,0,1
67512,-50,4,2,10,80,0,1
70512,-57.1428571428571,4,2,10,80,0,1
72012,-41.6666666666667,4,2,10,80,0,1
72762,-100,4,2,10,80,0,1
73137,-50,4,2,10,80,0,1
73512,-133.333333333333,4,2,10,50,0,0
82512,-200,4,2,10,50,0,0
83262,-250,4,2,10,50,0,0
84762,-200,4,2,10,50,0,0
85512,-100,4,2,10,60,0,0
86918,-100,4,2,10,5,0,0
87012,-133.333333333333,4,2,10,60,0,0
88418,-133.333333333333,4,2,10,5,0,0
88512,-133.333333333333,4,2,10,60,0,0
89918,-133.333333333333,4,2,10,5,0,0
90012,-133.333333333333,4,2,10,60,0,0
91418,-133.333333333333,4,2,10,5,0,0
91512,-133.333333333333,4,2,10,60,0,0
91793,-133.333333333333,4,2,10,5,0,0
91887,-133.333333333333,4,2,10,60,0,0
92168,-133.333333333333,4,2,10,5,0,0
92262,-133.333333333333,4,2,10,60,0,0
92918,-133.333333333333,4,2,10,5,0,0
93012,-133.333333333333,4,2,10,60,0,0
94418,-133.333333333333,4,2,10,5,0,0
94512,-200,4,2,10,60,0,0
95262,-250,4,2,10,45,0,0
96012,-250,4,2,10,60,0,0
97137,-33.3333333333333,4,2,10,80,0,0
97512,-100,4,2,10,70,0,0
106512,-66.6666666666667,4,2,10,70,0,0
118512,-83.3333333333333,4,2,10,70,0,0
118887,-62.5,4,2,10,70,0,0
119262,-50,4,2,10,70,0,0
119637,-41.6666666666667,4,2,10,70,0,0
120012,-133.333333333333,4,2,10,30,0,0
121512,-50,4,2,10,80,0,1
126762,-33.3333333333333,4,2,10,80,0,1
127043,-50,4,2,10,80,0,1
132293,-66.6666666666667,4,2,10,80,0,1
132762,-200,4,2,10,80,0,1
133512,-50,4,2,10,80,0,1
138762,-100,4,2,10,80,0,1
139043,-50,4,2,10,80,0,1
142512,-57.1428571428571,4,2,10,80,0,1
144012,-41.6666666666667,4,2,10,80,0,1
144293,-33.3333333333333,4,2,10,80,0,1
144762,-50,4,2,10,80,0,1
145512,-100,4,2,10,75,0,0
145887,-100,4,2,11,75,0,0
147387,-50,4,2,11,75,0,0
147762,-100,4,2,11,75,0,0
148512,-133.333333333333,4,2,11,75,0,0
149262,-66.6666666666667,4,2,11,75,0,0
151324,-66.6666666666667,4,2,11,75,0,0
151512,-100,4,2,11,75,0,0
153387,-50,4,2,11,75,0,0
153762,-100,4,2,11,75,0,0
154512,-133.333333333333,4,2,11,75,0,0
155637,-50,4,2,11,75,0,0
156012,-100,4,2,11,75,0,0
156574,-50,4,2,11,75,0,0
157512,-100,4,2,11,75,0,0
159387,-50,4,2,11,75,0,0
159574,-100,4,2,11,75,0,0
159762,-66.6666666666667,4,2,11,75,0,0
160512,-133.333333333333,4,2,11,75,0,0
160887,-66.6666666666667,4,2,0,75,0,0
160980,-66.6666666666667,4,2,11,75,0,0
161824,-66.6666666666667,4,2,11,75,0,0
162012,-100,4,2,11,75,0,0
162387,-66.6666666666667,4,2,11,75,0,0
163324,-50,4,2,11,75,0,0
163512,-100,4,2,11,75,0,0
163887,-66.6666666666667,4,2,11,75,0,0
165387,-50,4,2,11,75,0,0
165762,-66.6666666666667,4,2,11,75,0,0
166512,-200,4,2,11,75,0,0
167262,-250,4,2,11,75,0,0
167637,-50,4,2,11,75,0,0
168012,-100,4,2,11,60,0,0
168387,-133.333333333333,4,2,11,60,0,0
168762,-133.333333333333,4,2,11,50,0,0
169512,-133.333333333333,4,2,11,60,0,0

[Colours]
Combo1 : 5,49,122
Combo2 : 224,163,71
Combo3 : 162,164,164
Combo4 : 0,191,255
Combo5 : 255,255,255
Combo6 : 249,79,125

[HitObjects]
58,337,1512,6,0,L|265:324,1,198.000007553101,2|0,0:0|0:0,0:0:0:0:
256,325,2262,1,8,0:0:0:0:
415,317,3012,6,0,P|474:275|460:153,1,198.000007553101,2|2,0:0|0:0,0:0:0:0:
466,159,3762,2,0,L|256:164,1,198.000007553101,10|2,0:0|0:0,0:0:0:0:
139,84,4512,2,0,P|229:76|261:182,1,198.000007553101,2|0,0:0|0:0,0:0:0:0:
242,248,5262,6,0,P|230:277|225:313,1,66.0000025177003,8|0,0:0|0:0,0:0:0:0:
112,249,5637,2,0,P|115:216|111:184,1,66.0000025177003,0|0,0:0|0:0,0:0:0:0:
242,248,6012,6,0,P|181:237|92:259,1,132.000005035401,2|2,0:0|0:0,0:0:0:0:
337,286,6574,1,2,0:0:0:0:
312,189,6762,2,0,P|291:130|227:64,1,132.000005035401,10|2,0:0|0:0,0:0:0:0:
337,286,7324,1,2,0:0:0:0:
404,207,7512,6,0,P|444:159|469:71,1,132.000005035401,2|2,0:0|0:0,0:0:0:0:
495,320,8262,2,0,L|412:310,1,66.0000025177003,8|0,0:0|0:0,0:0:0:0:
343,294,8637,1,0,0:0:0:0:
337,168,8824,1,0,0:0:0:0:
343,294,9012,6,0,P|324:248|352:149,1,132.000005035401,2|2,0:0|0:0,0:0:0:0:
401,94,9574,1,2,0:0:0:0:
274,75,9762,2,0,B|276:139|276:139|364:182,1,132.000005035401,10|0,0:0|0:0,0:0:0:0:
435,222,10324,1,0,0:0:0:0:
343,294,10512,6,0,P|282:301|241:288,1,88,2|2,0:0|0:0,0:0:0:0:
256,294,11262,6,0,P|216:272|197:243,1,70.4,10|2,0:0|0:0,0:0:0:0:
201,252,12012,6,0,P|188:208|197:169,1,79.1999975830079,2|0,0:0|0:0,0:0:0:0:
122,31,12762,6,0,L|132:96,1,66.0000025177003,2|0,0:0|0:0,0:0:0:0:
280,97,13137,2,0,L|295:32,1,66.0000025177003,2|0,0:0|0:0,0:0:0:0:
193,175,13512,6,0,B|132:191|132:191|12:168,2,176,4|0|10,1:2|0:0|0:0,0:0:0:0:
385,198,14449,2,0,P|341:207|295:267,1,88,2|0,0:0|0:0,0:0:0:0:
279,321,14824,1,2,0:0:0:0:
310,235,15012,6,0,P|308:138|265:54,1,176,2|2,1:2|0:0,0:0:0:0:
275,67,15574,1,2,0:0:0:0:
349,155,15762,2,0,P|391:169|466:151,1,88,8|0,0:0|0:0,0:0:0:0:
349,155,16137,2,0,P|305:151|263:165,1,88,2|2,0:0|0:0,0:0:0:0:
383,52,16512,5,0,1:0:0:0:
334,245,16887,2,0,L|313:335,1,88,2|0,0:0|0:0,0:0:0:0:
154,336,17262,6,0,L|150:241,1,88,10|0,0:0|0:0,0:0:0:0:
129,123,17637,1,2,0:0:0:0:
250,188,17824,1,0,0:0:0:0:
50,181,18012,6,0,P|34:97|98:26,1,176,2|2,1:2|0:0,0:0:0:0:
250,188,18574,1,2,0:0:0:0:
250,188,18762,2,0,P|303:254|287:338,1,176,8|2,0:0|0:0,0:0:0:0:
203,280,19324,1,2,0:0:0:0:
177,123,19512,6,0,B|236:89|236:89|350:116,1,176,0|2,1:0|0:0,0:0:0:0:
498,227,20262,2,0,P|458:219|385:234,1,88,10|0,0:0|0:0,0:0:0:0:
270,327,20637,2,0,P|313:332|356:323,1,88,2|0,0:0|0:0,0:0:0:0:
258,151,21012,6,0,L|270:327,1,176,2|2,1:2|0:0,0:0:0:0:
164,169,21574,1,2,0:0:0:0:
174,345,21762,2,0,L|164:153,1,176,8|2,0:0|0:0,0:0:0:0:
51,93,22324,1,2,0:0:0:0:
138,94,22512,6,0,L|51:93,1,88,0|2,1:0|0:0,0:0:0:0:
208,94,23262,6,0,L|138:94,1,70.4,8|2,0:0|0:0,0:0:0:0:
366,94,24012,6,0,L|208:94,1,158.399995166016,4|2,1:0|0:0,0:0:0:0:
64,276,25512,6,0,P|38:221|29:160,1,88,6|0,0:0|0:0,0:0:0:0:
195,180,25887,2,0,P|199:119|222:62,1,88,8|0,0:0|0:0,0:0:0:0:
156,272,26262,1,10,0:0:0:0:
331,288,26449,1,2,0:0:0:0:
156,272,26637,2,0,L|279:285,1,88,10|0,0:0|0:0,0:0:0:0:
335,57,27012,6,0,L|317:147,1,88,10|0,0:0|0:0,0:0:0:0:
487,238,27387,2,0,L|505:328,1,88,10|0,0:0|0:0,0:0:0:0:
415,140,27762,1,10,0:0:0:0:
381,315,27949,1,2,0:0:0:0:
415,140,28137,2,0,L|397:230,1,88,10|0,0:0|0:0,0:0:0:0:
210,233,28512,5,8,0:0:0:0:
210,233,28887,2,0,L|102:217,1,88,10|2,0:0|0:0,0:0:0:0:
14,87,29262,2,0,P|66:46|170:83,1,176,10|8,0:0|0:0,0:0:0:0:
209,233,29824,1,2,0:0:0:0:
34,270,30012,6,0,P|26:228|43:175,1,88,10|0,0:0|0:0,0:0:0:0:
209,233,30387,2,0,L|191:328,1,88,10|0,0:0|0:0,0:0:0:0:
147,157,30762,1,10,0:0:0:0:
250,144,30949,1,2,0:0:0:0:
353,130,31137,2,0,L|447:119,1,88,10|0,0:0|0:0,0:0:0:0:
466,342,31512,6,0,L|357:334,1,88,14|0,0:0|0:0,0:0:0:0:
250,144,31887,2,0,L|256:244,1,88,10|0,0:0|0:0,0:0:0:0:
269,322,32262,1,10,0:0:0:0:
403,228,32449,1,2,0:0:0:0:
269,322,32637,2,0,P|225:318|179:284,1,88,10|0,0:0|0:0,0:0:0:0:
160,153,33012,6,0,L|262:148,1,88,10|0,0:0|0:0,0:0:0:0:
83,240,33387,2,0,L|77:332,1,88,10|0,0:0|0:0,0:0:0:0:
56,135,33762,1,10,0:0:0:0:
174,231,33949,1,2,0:0:0:0:
334,160,34137,2,0,P|341:117|326:49,1,88,8|0,0:0|0:0,0:0:0:0:
268,264,34512,5,8,3:2:0:0:
268,264,34887,1,10,0:0:0:0:
417,248,35074,1,2,0:0:0:0:
268,264,35262,1,10,0:0:0:0:
400,152,35449,1,2,0:0:0:0:
268,264,35637,1,10,0:0:0:0:
351,73,35824,1,2,0:0:0:0:
268,264,36012,6,0,P|261:208|291:135,1,132,8|0,3:2|0:0,0:0:0:0:
268,13,36387,2,0,P|261:69|291:142,1,132,10|0,0:0|0:0,0:0:0:0:
369,138,36762,1,10,0:0:0:0:
396,137,36855,1,0,0:0:0:0:
423,137,36949,1,2,0:0:0:0:
450,136,37043,1,0,0:0:0:0:
477,135,37137,2,0,L|459:202,1,55,10|0,0:0|0:0,0:0:0:0:
377,243,37324,2,0,L|383:304,1,55,0|0,0:0|0:0,0:0:0:0:
505,353,37512,6,0,L|361:345,1,110,14|0,0:0|0:0,0:0:0:0:
314,344,37793,1,0,0:0:0:0:
290,343,37887,2,0,L|146:335,1,110,10|0,0:0|0:0,0:0:0:0:
54,218,38262,1,10,0:0:0:0:
54,218,38449,1,2,0:0:0:0:
235,68,38637,2,0,L|223:191,1,110,10|0,3:2|3:0,0:0:0:0:
293,258,39012,6,0,P|261:203|215:174,1,110,10|0,0:0|0:0,0:0:0:0:
440,191,39387,2,0,P|439:127|414:79,1,110,10|0,0:0|0:0,0:0:0:0:
293,257,39762,1,10,0:0:0:0:
440,191,39949,1,2,0:0:0:0:
307,106,40137,2,0,L|300:164,1,55,10|0,3:2|3:0,0:0:0:0:
293,257,40324,2,0,L|286:315,1,55,0|0,3:0|0:0,0:0:0:0:
121,197,40512,5,10,0:0:0:0:
121,197,40887,2,0,L|235:202,1,110,10|2,0:0|0:0,0:0:0:0:
32,185,41262,1,10,0:0:0:0:
32,185,41355,1,0,0:0:0:0:
32,185,41449,1,0,0:0:0:0:
277,76,41637,2,0,L|167:71,1,110,8|2,0:0|0:0,0:0:0:0:
248,160,41918,5,0,0:0:0:0:
268,163,42012,2,0,P|322:146|359:102,1,110,10|0,0:0|0:0,0:0:0:0:
368,32,42293,1,0,0:0:0:0:
381,20,42387,2,0,P|382:83|399:133,1,110,10|0,0:0|0:0,0:0:0:0:
474,239,42762,1,10,0:0:0:0:
466,247,42855,1,0,0:0:0:0:
459,255,42949,1,2,0:0:0:0:
451,263,43043,1,0,0:0:0:0:
431,284,43137,5,10,0:0:0:0:
376,281,43230,1,0,0:0:0:0:
321,273,43324,1,0,0:0:0:0:
266,264,43418,1,0,0:0:0:0:
211,254,43512,5,10,0:0:0:0:
233,76,43699,2,0,P|206:110|187:139,1,55,0|0,0:0|0:0,0:0:0:0:
115,187,43887,1,10,0:0:0:0:
233,76,44074,2,0,P|190:69|155:67,1,55,0|0,0:0|0:0,0:0:0:0:
102,58,44262,1,10,0:0:0:0:
314,90,44449,1,2,0:0:0:0:
115,187,44637,2,0,P|150:148|219:114,1,110,10|0,0:0|0:0,0:0:0:0:
426,265,45012,6,0,P|401:278|374:285,1,55,10|0,0:0|0:0,0:0:0:0:
300,297,45199,1,0,0:0:0:0:
268,170,45387,2,0,P|281:195|288:222,1,55,10|0,0:0|0:0,0:0:0:0:
300,297,45574,1,0,0:0:0:0:
314,90,45762,2,0,L|423:90,1,110,10|0,0:0|0:0,0:0:0:0:
219,229,46137,2,0,L|92:229,1,110,10|0,0:0|0:0,0:0:0:0:
27,181,46512,6,0,P|16:157|11:127,6,33.0000012588501,10|0|0|0|0|0|0,0:0|0:0|0:0|0:0|0:0|0:0|0:0,0:0:0:0:
88,96,46887,2,0,P|90:69|101:34,6,38.5000003671646,10|0|0|0|0|0|0,0:0|0:0|0:0|0:0|0:0|0:0|0:0,0:0:0:0:
185,61,47262,2,0,P|196:37|221:10,6,44,10|0|0|0|2|0|0,0:0|0:0|0:0|0:0|0:0|0:0|0:0,0:0:0:0:
286,49,47637,2,0,P|307:33|338:23,6,52.7999983886719,10|0|0|0|0|0|0,0:0|0:0|0:0|0:0|0:0|0:0|0:0,0:0:0:0:
419,34,48012,5,0,0:0:0:0:
470,153,49512,6,0,P|391:203|353:274,1,176,4|0,1:2|0:0,0:0:0:0:
165,325,49887,2,0,P|247:355|397:322,1,176,10|0,1:2|0:0,0:0:0:0:
414,316,50168,1,0,0:0:0:0:
414,316,50262,1,2,1:2:0:0:
245,48,50449,1,2,0:0:0:0:
264,41,50543,2,0,P|332:35|420:102,1,176,0|0,1:0|0:0,0:0:0:0:
470,153,50824,2,0,L|446:260,1,88,2|0,1:2|0:0,0:0:0:0:
337,351,51012,6,0,L|320:159,1,176,0|2,1:0|0:0,0:0:0:0:
264,41,51387,2,0,L|97:141,1,176,10|2,1:2|0:0,0:0:0:0:
11,203,51668,1,0,0:0:0:0:
31,198,51762,2,0,P|96:202|138:217,1,88,0|0,1:0|0:0,0:0:0:0:
221,311,51949,1,2,0:0:0:0:
199,306,52043,2,0,P|134:310|92:325,2,88,2|10|0,1:2|1:2|0:0,0:0:0:0:
361,249,52324,1,2,0:0:0:0:
286,226,52418,1,0,0:0:0:0:
278,145,52512,6,0,P|261:91|142:77,1,176,2|0,1:2|0:0,0:0:0:0:
91,150,52887,2,0,L|150:144,4,44,10|0|0|0|0,1:2|0:0|0:0|0:0|0:0,0:0:0:0:
12,191,53262,6,0,B|30:273|30:273|123:281,1,176,2|2,1:2|0:0,0:0:0:0:
230,174,53543,2,0,B|173:111|173:111|88:151,1,176,0|0,1:0|0:0,0:0:0:0:
121,280,53824,2,0,L|267:297,1,88,2|0,1:2|0:0,0:0:0:0:
341,347,54012,6,0,B|401:323|403:244|403:244|350:249,1,176,2|0,1:2|0:0,0:0:0:0:
277,267,54293,1,0,0:0:0:0:
277,267,54387,1,10,1:2:0:0:
107,202,54574,2,0,P|87:240|93:284,1,88,2|2,3:0|3:0,0:0:0:0:
107,202,54762,6,0,L|218:196,1,88,4|0,1:3|0:0,0:0:0:0:
273,135,55043,6,0,P|217:83|86:124,1,176,8|0,1:3|0:0,0:0:0:0:
3,159,55324,1,8,3:0:0:0:
3,159,55418,1,8,3:0:0:0:
3,159,55512,6,0,B|-11:219|2:253|2:253|44:280|45:329,1,176,6|0,0:0|0:0,0:0:0:0:
183,151,55793,1,0,0:0:0:0:
188,155,55887,2,0,B|202:214|189:248|189:248|147:275|147:314,1,176,10|0,1:2|0:0,0:0:0:0:
123,89,56262,2,0,P|217:69|279:153,1,176,2|2,1:2|0:0,0:0:0:0:
433,125,56543,2,0,P|366:94|268:120,1,176,0|0,1:0|0:0,0:0:0:0:
250,203,56824,2,0,L|273:106,1,88,2|0,1:2|0:0,0:0:0:0:
415,211,57012,6,0,L|377:385,1,176,0|2,1:0|0:0,0:0:0:0:
253,337,57293,1,0,0:0:0:0:
253,337,57387,2,0,L|87:276,1,176,10|0,1:2|0:0,0:0:0:0:
116,156,57762,2,0,P|74:145|31:153,2,88,0|0|2,1:0|0:0|0:0,0:0:0:0:
26,53,58043,2,0,P|135:35|206:111,1,176,2|0,1:2|0:0,0:0:0:0:
240,148,58324,1,2,1:2:0:0:
240,148,58418,1,0,0:0:0:0:
240,148,58512,6,0,L|210:322,1,154.000001468658,2|0,1:2|0:0,0:0:0:0:
125,290,58887,2,0,L|117:224,4,38.5000003671646,10|0|0|0|2,0:0|0:0|0:0|0:0|0:0,0:0:0:0:
237,314,59168,1,0,0:0:0:0:
237,314,59262,6,0,P|310:334|381:308,1,154.000001468658,2|0,1:2|0:0,0:0:0:0:
491,224,59543,1,0,0:0:0:0:
497,203,59637,2,0,P|506:162|508:115,1,77.0000007343292,10|0,0:2|0:0,0:0:0:0:
334,155,59824,2,0,P|321:114|299:73,1,77.0000007343292,0|0,0:0|0:0,0:0:0:0:
435,39,60012,6,0,P|421:116|409:256,1,176,2|0,1:2|0:0,0:0:0:0:
395,269,60293,2,0,P|306:251|204:261,1,176,2|0,1:2|0:0,0:0:0:0:
138,285,60574,1,0,0:0:0:0:
138,285,60668,1,0,0:0:0:0:
138,285,60762,6,0,L|127:146,1,132
90,10,61137,6,0,L|72:91,1,66
4,111,61512,6,0,P|88:102|171:156,1,176,6|0,1:2|0:0,0:0:0:0:
256,283,61793,1,0,0:0:0:0:
256,283,61887,2,0,P|351:298|453:253,1,176,10|0,1:2|0:0,0:0:0:0:
472,113,62262,2,0,B|437:80|395:77|395:77|359:93|299:82,1,176,2|2,1:2|0:0,0:0:0:0:
145,54,62543,2,0,B|171:91|216:91|216:91|258:74|318:85,1,176,0|0,1:0|0:0,0:0:0:0:
299,170,62824,2,0,P|299:120|308:80,1,88,2|0,1:2|0:0,0:0:0:0:
384,228,63012,6,0,P|299:264|200:246,1,176,2|2,1:2|0:0,0:0:0:0:
95,198,63293,1,0,0:0:0:0:
74,187,63387,2,0,P|85:115|141:163,1,176,10|2,1:2|0:0,0:0:0:0:
217,254,63668,1,2,1:2:0:0:
238,269,63762,2,0,P|257:317|262:362,2,88,2|0|0,1:2|1:2|0:0,0:0:0:0:
126,276,64043,1,10,1:2:0:0:
137,300,64137,2,0,P|130:352|112:393,1,88
274,160,64324,1,2,1:2:0:0:
302,156,64418,1,0,0:0:0:0:
327,158,64512,6,0,P|368:190|395:226,2,88,2|0|0,1:2|0:0|0:0,0:0:0:0:
276,43,64887,2,0,P|281:7|286:-11,4,44,8|0|0|0|0,0:0|0:0|0:0|0:0|0:0,0:0:0:0:
187,128,65262,2,0,L|5:111,1,176,2|2,1:2|0:0,0:0:0:0:
1,189,65543,2,0,L|177:206,1,176,0|0,1:0|0:0,0:0:0:0:
118,279,65824,2,0,L|12:269,1,88,2|0,1:2|0:0,0:0:0:0:
176,205,66012,6,0,P|259:216|297:295,1,176,2|0,1:2|0:0,0:0:0:0:
272,364,66293,1,0,0:0:0:0:
297,292,66387,2,0,P|331:233|405:194,1,88,10|2,1:2|3:0,0:0:0:0:
430,156,66574,1,2,3:0:0:0:
430,156,66668,1,2,3:0:0:0:
430,156,66762,6,0,L|521:169,1,88,4|0,1:3|0:0,0:0:0:0:
456,68,67043,6,0,L|263:51,1,176,8|0,1:3|0:0,0:0:0:0:
187,37,67324,1,8,3:0:0:0:
203,115,67418,1,8,3:0:0:0:
146,174,67512,6,0,P|223:142|323:202,1,176,6|0,1:2|0:0,0:0:0:0:
298,320,67887,2,0,L|123:307,1,176,10|0,1:2|0:0,0:0:0:0:
57,166,68262,2,0,L|232:179,1,176,2|2,1:2|0:0,0:0:0:0:
334,152,68543,2,0,P|397:111|308:77,1,176,0|0,1:2|0:0,0:0:0:0:
232,179,68824,2,0,P|218:235|224:275,1,88,2|0,1:2|0:0,0:0:0:0:
454,342,69012,6,0,P|484:256|457:158,1,176,0|2,1:0|0:0,0:0:0:0:
380,242,69387,2,0,P|332:190|221:182,1,176,10|2,1:2|0:0,0:0:0:0:
114,117,69762,2,0,P|134:77|128:14,1,88,0|0,1:2|0:0,0:0:0:0:
51,54,69949,1,2,0:0:0:0:
32,83,70043,2,0,P|14:157|56:251,1,176,0|0,1:0|0:0,0:0:0:0:
136,296,70324,1,2,1:2:0:0:
208,261,70418,1,0,0:0:0:0:
276,219,70512,6,0,L|282:45,1,154.000001468658,2|0,1:2|0:0,0:0:0:0:
483,38,70887,2,0,L|483:89,6,38.5000003671646,8|0|0|0|2|0|2,0:0|0:0|0:0|0:0|0:0|0:0|0:0,0:0:0:0:
475,170,71262,6,0,P|381:147|274:221,1,231.000002202988,2|0,1:2|0:0,0:0:0:0:
395,345,71637,2,0,P|408:298|416:248,1,77.0000007343292,10|0,0:0|0:0,0:0:0:0:
276,219,71824,2,0,P|285:165|278:116,1,77.0000007343292,0|0,0:0|0:0,0:0:0:0:
75,201,72012,6,0,B|181:182|181:182|277:219,1,211.199993554688,2|0,1:2|0:0,0:0:0:0:
282,206,72293,2,0,B|186:169|186:169|80:188,1,211.199993554688,0|0,0:0|0:0,0:0:0:0:
106,298,72574,1,0,0:0:0:0:
106,298,72668,1,0,0:0:0:0:
106,298,72762,6,0,L|181:312,1,44,2|0,0:0|0:0,0:0:0:0:
260,328,72949,2,0,L|335:342,1,44,2|0,0:0|0:0,0:0:0:0:
414,351,73137,2,0,L|489:365,2,44,2|0|0,0:0|0:0|0:0,0:0:0:0:
415,235,73324,2,0,L|490:221,2,44,2|0|0,0:0|0:0|0:0,0:0:0:0:
331,246,73512,5,4,0:0:0:0:
331,246,74262,2,0,L|237:244,1,66.0000025177003,2|0,0:0|0:0,0:0:0:0:
181,245,74637,1,2,0:0:0:0:
181,245,75012,6,0,L|-28:242,1,198.000007553101,0|2,0:0|0:0,0:0:0:0:
43,153,75762,2,0,L|146:154,1,99.0000037765504,0|0,0:0|0:0,0:0:0:0:
174,154,76137,1,2,0:0:0:0:
174,154,76512,6,0,L|31:152,1,132.000005035401,0|2,0:0|0:0,0:0:0:0:
192,49,77262,2,0,P|237:58|268:75,1,66.0000025177003,2|0,0:0|0:0,0:0:0:0:
311,139,77637,1,2,0:0:0:0:
311,139,78012,2,0,L|300:280,1,132.000005035401,0|2,0:0|0:0,0:0:0:0:
217,337,78574,1,2,0:0:0:0:
217,337,78762,2,0,P|282:318|335:336,1,99.0000037765504,0|0,0:0|0:0,0:0:0:0:
346,338,79137,1,2,0:0:0:0:
346,338,79512,6,0,P|377:275|433:255,1,132.000005035401,0|2,0:0|0:0,0:0:0:0:
432,255,80074,1,0,0:0:0:0:
322,238,80262,2,0,L|244:229,1,66.0000025177003,2|0,0:0|0:0,0:0:0:0:
172,194,80637,1,2,0:0:0:0:
172,194,81012,2,0,L|313:187,1,132.000005035401,0|2,0:0|0:0,0:0:0:0:
428,155,81574,1,2,0:0:0:0:
428,155,81762,2,0,L|277:138,1,132.000005035401,0|2,0:0|0:0,0:0:0:0:
209,111,82512,6,0,P|142:131|118:155,1,88,0|2,0:0|0:0,0:0:0:0:
129,141,83262,6,0,P|106:180|104:215,1,70.4,0|2,0:0|0:0,0:0:0:0:
135,340,84012,5,4,0:1:0:0:
102,176,84762,6,0,P|80:178|59:183,1,44,0|0,0:0|0:0,0:0:0:0:
101,176,85137,2,0,P|123:174|145:170,1,44,0|0,0:0|0:0,0:0:0:0:
261,278,85512,6,0,P|186:254|78:280,2,176,0|0|8,1:0|1:0|1:2,0:0:0:0:
366,338,86543,1,0,1:0:0:0:
366,338,86824,1,0,1:0:0:0:
378,206,87012,6,0,L|363:361,1,132,0|0,1:0|1:0,0:0:0:0:
155,321,87762,1,8,1:2:0:0:
308,338,88043,1,0,1:0:0:0:
308,338,88324,1,0,1:0:0:0:
155,321,88512,6,0,P|144:258|164:200,1,99.0000037765504,0|0,1:0|0:0,0:0:0:0:
248,210,88887,2,0,P|192:225|134:221,1,99.0000037765504,0|0,1:0|0:0,0:0:0:0:
65,202,89262,1,8,1:2:0:0:
248,210,89543,2,0,L|357:223,1,99.0000037765504,0|0,1:0|1:2,0:0:0:0:
464,177,90012,6,0,P|406:181|334:239,1,132.000005035401,0|0,1:0|1:0,0:0:0:0:
195,300,90762,2,0,P|142:314|91:311,2,99.0000037765504,8|0|0,1:2|1:0|1:0,0:0:0:0:
267,234,91512,2,0,L|259:124,1,99.0000037765504,0|0,1:0|0:0,0:0:0:0:
240,123,91887,2,0,L|247:221,1,99.0000037765504,0|0,1:0|0:0,0:0:0:0:
268,326,92262,1,8,1:2:0:0:
431,341,92543,1,0,1:0:0:0:
431,341,92824,1,0,1:0:0:0:
268,326,93012,6,0,L|164:332,1,99.0000037765504,0|0,1:0|0:0,0:0:0:0:
54,305,93387,2,0,L|152:310,1,99.0000037765504,0|0,1:0|0:0,0:0:0:0:
181,316,93762,1,8,1:2:0:0:
194,114,94043,1,0,1:0:0:0:
194,114,94324,1,0,1:0:0:0:
174,288,94512,6,0,L|183:201,1,88,4|0,1:0|0:0,0:0:0:0:
166,358,95262,6,0,L|173:288,1,70.4,4|0,1:0|0:0,0:0:0:0:
166,358,96012,5,8,3:0:0:0:
449,345,96293,1,4,3:0:0:0:
244,306,96574,5,8,3:0:0:0:
346,326,96761,1,4,3:0:0:0:
449,345,96949,1,4,3:0:0:0:
146,288,97137,6,0,P|146:221|97:332,1,396.000015106202,4|0,0:0|0:0,0:0:0:0:
50,333,97512,6,0,L|169:321,1,88,6|0,0:0|0:0,0:0:0:0:
137,324,97887,2,0,L|256:312,1,88,10|0,0:0|0:0,0:0:0:0:
312,306,98262,1,10,0:0:0:0:
224,315,98449,1,2,0:0:0:0:
401,296,98637,2,0,L|520:284,1,88,10|0,0:0|0:0,0:0:0:0:
264,33,99012,6,0,L|246:123,1,88,10|0,0:0|0:0,0:0:0:0:
246,119,99387,2,0,L|228:209,1,88,10|0,0:0|0:0,0:0:0:0:
209,297,99762,1,10,0:0:0:0:
228,205,99949,1,2,0:0:0:0:
209,296,100137,2,0,L|192:383,1,88,10|0,0:0|0:0,0:0:0:0:
228,205,100512,5,10,0:0:0:0:
228,205,100887,2,0,L|120:189,1,88,10|2,0:0|0:0,0:0:0:0:
314,107,101262,2,0,P|366:66|470:103,1,176,10|8,0:0|0:0,0:0:0:0:
462,201,101824,1,2,0:0:0:0:
198,251,102012,6,0,L|293:250,1,88,10|0,0:0|0:0,0:0:0:0:
299,227,102387,2,0,L|394:226,1,88,10|0,0:0|0:0,0:0:0:0:
94,276,102762,1,8,0:0:0:0:
3,277,102949,1,2,0:0:0:0:
178,275,103137,2,0,L|273:274,1,88,10|0,0:0|0:0,0:0:0:0:
505,133,103512,6,0,P|462:121|393:133,1,88,14|0,0:0|0:0,0:0:0:0:
420,124,103887,2,0,P|365:145|343:169,1,88,10|0,0:0|0:0,0:0:0:0:
306,248,104262,1,10,0:0:0:0:
467,247,104449,1,2,0:0:0:0:
306,248,104637,2,0,L|196:251,1,88,10|0,0:0|0:0,0:0:0:0:
57,280,105012,6,0,P|100:292|169:280,1,88,10|0,0:0|0:0,0:0:0:0:
143,290,105387,2,0,P|198:269|220:245,1,88,10|0,0:0|0:0,0:0:0:0:
227,169,105762,1,10,0:0:0:0:
66,170,105949,1,2,0:0:0:0:
227,169,106137,2,0,L|337:166,1,88,10|0,0:0|0:0,0:0:0:0:
66,170,106512,5,10,3:2:0:0:
141,342,106887,5,10,0:0:0:0:
124,234,107074,1,2,0:0:0:0:
220,295,107262,5,10,0:0:0:0:
227,169,107449,1,2,0:0:0:0:
304,275,107637,5,10,0:0:0:0:
348,109,107824,1,2,0:0:0:0:
395,352,108012,6,0,L|418:223,1,132.000005035401,10|0,0:0|0:0,0:0:0:0:
187,214,108387,2,0,L|210:343,1,132.000005035401,10|0,0:0|0:0,0:0:0:0:
321,72,108762,1,10,0:0:0:0:
317,236,108949,1,2,0:0:0:0:
321,72,109137,2,0,L|301:145,1,66.0000025177003,10|0,0:0|0:0,0:0:0:0:
317,236,109324,2,0,L|323:303,1,66.0000025177003,0|0,0:0|0:0,0:0:0:0:
208,187,109512,6,0,P|175:254|168:321,1,132.000005035401,14|0,0:0|0:0,0:0:0:0:
18,303,109793,1,0,0:0:0:0:
39,313,109887,2,0,P|99:325|172:307,1,132.000005035401,10|0,0:0|0:0,0:0:0:0:
347,160,110262,1,10,0:0:0:0:
332,201,110356,1,0,0:0:0:0:
320,243,110449,1,2,0:0:0:0:
91,186,110637,2,0,L|231:176,1,132.000005035401,8|0,0:0|0:0,0:0:0:0:
298,277,111012,6,0,P|273:217|220:175,1,132.000005035401,10|0,0:0|0:0,0:0:0:0:
347,160,111293,1,0,0:0:0:0:
347,160,111387,2,0,P|282:151|219:176,1,132.000005035401,10|0,0:0|0:0,0:0:0:0:
286,311,111762,1,10,0:0:0:0:
370,320,111855,1,0,0:0:0:0:
455,330,111949,1,2,0:0:0:0:
347,160,112137,2,0,L|310:253,1,66.0000025177003,10|0,0:0|0:0,0:0:0:0:
286,311,112324,1,0,0:0:0:0:
286,311,112418,1,0,0:0:0:0:
286,311,112512,5,10,0:0:0:0:
39,352,112793,1,0,0:0:0:0:
39,352,112887,2,0,L|194:363,1,132.000005035401,10|2,0:0|0:0,0:0:0:0:
96,228,113262,1,10,0:0:0:0:
148,222,113355,1,0,0:0:0:0:
200,218,113449,1,0,0:0:0:0:
237,111,113637,2,0,L|97:98,1,132.000005035401,10|2,0:0|0:0,0:0:0:0:
139,328,114012,6,0,P|156:262|223:205,1,132.000005035401,10|0,0:0|0:0,0:0:0:0:
134,108,114293,1,0,0:0:0:0:
134,108,114387,2,0,P|181:156|198:243,1,132.000005035401,10|0,0:0|0:0,0:0:0:0:
58,230,114762,1,10,0:0:0:0:
46,228,114855,1,0,0:0:0:0:
36,226,114949,1,0,0:0:0:0:
211,254,115137,5,10,0:0:0:0:
389,280,115324,1,0,0:0:0:0:
303,135,115512,6,0,P|273:163|249:203,1,66.0000025177003,10|0,0:0|0:0,0:0:0:0:
211,254,115699,1,0,0:0:0:0:
123,122,115887,2,0,P|147:151|167:192,1,66.0000025177003,10|0,0:0|0:0,0:0:0:0:
211,254,116074,1,0,0:0:0:0:
100,357,116262,2,0,L|183:320,1,66.0000025177003,10|0,0:0|0:0,0:0:0:0:
311,355,116449,2,0,L|229:321,1,66.0000025177003,2|0,0:0|0:0,0:0:0:0:
223,122,116637,2,0,L|207:294,1,132.000005035401,10|0,0:0|0:0,0:0:0:0:
366,81,117012,6,0,P|315:87|258:116,1,66.0000025177003,10|0,0:0|0:0,0:0:0:0:
223,122,117199,1,0,0:0:0:0:
301,274,117387,2,0,P|332:282|365:284,1,66.0000025177003,10|0,0:0|0:0,0:0:0:0:
448,285,117574,1,0,0:0:0:0:
257,189,117762,1,10,0:0:0:0:
459,178,117949,1,2,0:0:0:0:
257,189,118137,2,0,L|175:193,1,66.0000025177003,10|0,0:0|0:0,0:0:0:0:
100,202,118324,2,0,L|18:206,1,66.0000025177003,0|0,0:0|0:0,0:0:0:0:
38,111,118512,6,0,P|27:87|21:66,6,26.399999194336,10|0|0|0|0|0|0,0:0|0:0|0:0|0:0|0:0|0:0|0:0,0:0:0:0:
99,201,118887,2,0,P|95:220|97:249,6,35.2,10|0|0|0|0|0|0,0:0|0:0|0:0|0:0|0:0|0:0|0:0,0:0:0:0:
171,115,119262,2,0,P|182:91|204:64,6,44,10|0|0|0|2|0|0,0:0|0:0|0:0|0:0|0:0|0:0|0:0,0:0:0:0:
239,207,119637,2,0,P|248:227|274:251,6,52.7999983886719,10|0|0|0|0|0|0,0:0|0:0|0:0|0:0|0:0|0:0|0:0,0:0:0:0:
312,119,120012,5,0,0:0:0:0:
312,119,120387,1,0,0:0:0:0:
312,119,120762,2,0,L|392:120,1,66.0000025177003,0|0,0:0|0:0,0:0:0:0:
459,120,121137,1,0,0:0:0:0:
459,120,121512,6,0,P|402:175|423:331,1,220,6|0,1:2|0:0,0:0:0:0:
262,364,121887,2,0,P|339:330|456:358,1,176,10|0,1:2|0:0,0:0:0:0:
428,342,122262,2,0,L|337:249,1,88,2|0,1:2|0:0,0:0:0:0:
309,199,122449,1,2,0:0:0:0:
309,199,122543,2,0,L|188:62,1,176,0|0,1:0|0:0,0:0:0:0:
105,79,122824,2,0,L|216:63,1,88,2|0,1:2|0:0,0:0:0:0:
226,216,123012,6,0,L|46:198,1,176,0|2,1:0|0:0,0:0:0:0:
14,356,123387,2,0,P|55:303|47:193,1,176,10|2,1:2|0:0,0:0:0:0:
28,85,123668,1,0,0:0:0:0:
45,34,123762,1,0,1:0:0:0:
94,17,123855,1,0,0:0:0:0:
140,40,123949,1,2,0:0:0:0:
161,95,124043,2,0,P|231:96|328:42,1,176,2|0,1:2|0:0,0:0:0:0:
450,91,124324,1,2,0:0:0:0:
463,68,124418,1,0,0:0:0:0:
451,38,124512,6,0,P|417:131|430:218,1,176,2|0,1:2|0:0,0:0:0:0:
454,278,124793,1,0,0:0:0:0:
469,279,124887,2,0,L|531:288,4,44,8|0|0|0|0,1:2|0:0|0:0|0:0|0:0,0:0:0:0:
375,330,125262,2,0,P|306:303|179:308,1,176,2|2,1:2|0:0,0:0:0:0:
118,351,125543,2,0,P|164:296|183:184,1,176,0|0,1:0|0:0,0:0:0:0:
161,122,125824,2,0,L|118:33,1,88,2|0,1:2|0:0,0:0:0:0:
254,177,126012,6,0,P|328:160|428:153,1,176,2|0,1:2|0:0,0:0:0:0:
454,25,126387,2,0,P|401:24|333:16,1,88,10|2,1:2|0:3,0:0:0:0:
227,58,126574,1,2,0:3:0:0:
212,94,126668,1,2,0:3:0:0:
223,132,126762,6,0,P|279:206|173:181,1,264.000010070801,4|0,1:3|0:0,0:0:0:0:
172,185,127043,6,0,P|85:177|10:220,1,176,8|0,1:3|0:0,0:0:0:0:
46,299,127324,1,8,3:0:0:0:
56,307,127418,1,8,3:0:0:0:
66,319,127512,6,0,B|146:304|146:304|241:317,1,176,6|0,1:2|0:0,0:0:0:0:
342,311,127793,1,0,0:0:0:0:
342,311,127887,2,0,B|329:266|329:266|357:177|357:177|411:158,1,176,10|0,1:2|0:0,0:0:0:0:
400,67,128262,2,0,B|312:93|312:93|225:70,1,176,2|2,1:2|0:0,0:0:0:0:
136,101,128543,2,0,B|217:79|217:79|306:105,1,176,0|0,1:0|0:0,0:0:0:0:
259,173,128824,2,0,B|213:161|213:161|152:182,1,88,2|0,1:2|0:0,0:0:0:0:
120,291,129012,6,0,B|208:318|208:318|299:288,1,176,0|2,1:0|0:0,0:0:0:0:
340,216,129293,1,2,0:0:0:0:
340,216,129387,2,0,B|258:172|258:172|343:127,1,176,10|2,1:2|0:0,0:0:0:0:
454,64,129668,1,0,0:0:0:0:
463,98,129762,1,0,1:0:0:0:
464,132,129855,2,0,P|449:184|453:229,1,88,0|2,0:0|0:0,0:0:0:0:
461,315,130043,2,0,P|357:293|283:313,1,176,2|0,1:2|0:0,0:0:0:0:
211,342,130324,1,2,1:2:0:0:
179,357,130418,1,0,0:0:0:0:
145,367,130512,6,0,P|86:371|41:343,1,88,0|0,1:0|0:0,0:0:0:0:
18,262,130699,1,0,0:0:0:0:
18,262,130793,1,0,0:0:0:0:
18,262,130887,2,0,L|8:198,4,44,8|0|0|0|2,0:0|0:0|0:0|0:0|0:0,0:0:0:0:
112,249,131168,1,2,0:0:0:0:
112,249,131262,2,0,P|103:152|86:68,1,176,0|0,1:0|0:0,0:0:0:0:
88,75,131543,2,0,L|185:94,1,88,0|10,0:0|0:0,0:0:0:0:
257,168,131730,1,0,0:0:0:0:
287,124,131824,1,0,0:0:0:0:
281,71,131918,1,0,0:0:0:0:
259,36,132012,6,0,L|77:77,1,176,0|0,1:0|0:0,0:0:0:0:
87,74,132293,2,0,L|236:114,1,132.000005035401,0|0,0:0|0:0,0:0:0:0:
214,108,132574,2,0,L|92:127,1,66.0000025177003,0|0,0:0|0:0,0:0:0:0:
24,179,132762,6,0,L|102:201,1,66,0|0,0:0|0:0,0:0:0:0:
151,179,133137,2,0,L|73:201,1,66
101,21,133512,6,0,L|84:228,1,176,6|0,1:2|0:0,0:0:0:0:
85,278,133793,1,0,0:0:0:0:
162,246,133887,2,0,P|247:228|355:257,1,176,10|0,1:2|0:0,0:0:0:0:
497,275,134262,2,0,B|462:242|420:239|420:239|384:255|324:244,1,176,2|2,1:2|0:0,0:0:0:0:
353,159,134543,2,0,P|406:106|338:76,1,176,0|0,1:0|0:0,0:0:0:0:
338,76,134824,2,0,P|294:84|251:80,1,88,2|0,1:2|0:0,0:0:0:0:
86,102,135012,6,0,P|164:66|253:82,1,176,0|0,1:0|0:0,0:0:0:0:
231,198,135293,1,2,0:0:0:0:
231,198,135387,2,0,P|175:151|165:223,1,176,10|2,1:2|0:0,0:0:0:0:
219,295,135668,1,0,0:0:0:0:
218,322,135762,2,0,P|165:328|121:321,1,88,0|0,1:0|0:0,0:0:0:0:
0,238,135949,1,2,0:0:0:0:
0,269,136043,2,0,P|79:265|164:223,1,176,2|0,1:2|0:0,0:0:0:0:
274,160,136324,1,2,1:2:0:0:
320,158,136418,1,0,0:0:0:0:
360,178,136512,6,0,P|401:210|428:246,2,88,2|0|0,1:2|0:0|0:0,0:0:0:0:
277,64,136793,1,0,0:0:0:0:
276,43,136887,2,0,P|281:7|286:-11,4,44,8|0|0|0|2,0:0|0:0|0:0|0:0|0:0,0:0:0:0:
187,127,137262,2,0,L|3:111,1,176,0|0,1:0|0:0,0:0:0:0:
0,190,137543,2,0,L|177:205,1,176,0|0,1:0|0:0,0:0:0:0:
119,279,137824,2,0,L|18:270,1,88,2|0,1:2|0:0,0:0:0:0:
176,205,138012,6,0,P|276:160|330:311,1,264,0|0,1:0|0:0,0:0:0:0:
349,270,138387,2,0,P|319:301|300:341,1,88,8|2,1:2|3:0,0:0:0:0:
465,360,138574,2,0,P|459:312|435:261,1,88,2|2,3:0|3:0,0:0:0:0:
367,191,138762,6,0,L|279:201,1,88,4|0,1:3|0:0,0:0:0:0:
279,69,139043,6,0,L|455:85,1,176,8|0,1:3|0:0,0:0:0:0:
437,227,139324,1,8,3:0:0:0:
349,270,139418,1,8,3:0:0:0:
279,201,139512,6,0,P|200:167|120:199,1,176,6|0,1:2|0:0,0:0:0:0:
73,288,139793,1,0,0:0:0:0:
55,260,139887,2,0,P|35:190|72:89,1,176,10|0,1:2|0:0,0:0:0:0:
242,107,140262,2,0,L|67:94,1,176,2|2,1:2|0:0,0:0:0:0:
235,202,140543,2,0,P|298:161|209:127,1,176,0|0,1:0|0:0,0:0:0:0:
235,202,140824,2,0,P|221:258|227:298,1,88,2|0,1:2|0:0,0:0:0:0:
454,342,141012,6,0,P|484:256|457:158,1,176,0|2,1:0|0:0,0:0:0:0:
383,265,141293,1,0,0:0:0:0:
383,265,141387,2,0,P|335:213|224:205,1,176,10|2,1:2|0:0,0:0:0:0:
234,201,141762,2,0,P|254:161|248:98,2,88,0|0|2,1:0|0:0|0:0,0:0:0:0:
97,234,142043,2,0,P|60:155|77:71,1,176,2|0,1:2|0:0,0:0:0:0:
260,30,142324,1,2,1:2:0:0:
254,118,142418,1,0,0:0:0:0:
317,180,142512,6,0,P|394:182|460:141,1,154.000001468658,0|0,1:0|0:0,0:0:0:0:
463,70,142793,1,0,0:0:0:0:
463,70,142887,2,0,L|463:19,6,38.5000003671646,8|0|0|0|2|0|2,0:0|0:0|0:0|0:0|0:0|0:0|0:0,0:0:0:0:
458,143,143262,2,0,B|455:299|455:299|383:258,1,231.000002202988,0|0,1:0|0:0,0:0:0:0:
255,328,143637,6,0,P|297:324|341:327,1,77.0000007343292,10|0,0:0|0:0,0:0:0:0:
332,186,143824,2,0,P|293:187|255:183,1,77.0000007343292,0|0,0:0|0:0,0:0:0:0:
125,186,144012,6,0,P|105:116|159:176,1,211.199993554688,0|0,1:0|0:0,0:0:0:0:
180,175,144293,6,0,P|100:97|127:201,1,264.000010070801
154,290,144574,1,0,0:0:0:0:
154,290,144668,1,0,0:0:0:0:
154,290,144762,2,0,P|120:324|68:349,1,88,2|0,0:0|0:0,0:0:0:0:
246,272,144949,2,0,P|239:221|254:158,1,88,2|0,0:0|0:0,0:0:0:0:
352,105,145137,2,0,P|353:77|348:53,6,44,2|0|0|0|0|0|0,0:0|0:0|0:0|0:0|0:0|0:0|0:0,0:0:0:0:
452,177,145512,6,0,P|483:128|499:47,1,132,4|0,1:0|0:0,0:0:0:0:
452,177,145887,2,0,P|381:173|313:189,1,132,2|0,1:2|0:0,0:0:0:0:
261,243,146262,2,0,L|265:296,1,44,10|0,1:2|0:0,0:0:0:0:
179,255,146449,2,0,L|183:308,1,44,2|0,0:0|0:0,0:0:0:0:
100,269,146637,2,0,L|104:322,1,44,2|0,1:2|0:0,0:0:0:0:
20,278,146824,2,0,L|24:331,1,44,2|0,0:0|0:0,0:0:0:0:
11,159,147012,6,0,P|73:145|135:171,1,132,0|2,1:0|0:0,0:0:0:0:
134,170,147387,2,0,P|130:142|134:115,6,44,0|0|0|0|0|0|0,1:0|0:0|0:0|0:0|0:0|0:0|0:0,0:0:0:0:
226,88,147762,2,0,P|251:88|304:104,1,44,8|0,1:2|0:0,0:0:0:0:
381,47,147949,2,0,P|368:68|328:106,1,44,2|2,0:0|0:0,0:0:0:0:
311,166,148137,2,0,L|415:165,1,88,0|2,1:2|1:2,0:0:0:0:
471,337,148512,6,0,L|353:330,1,99.0000037765504,2|0,1:2|0:0,0:0:0:0:
286,323,148887,1,2,0:0:0:0:
286,323,149074,1,2,0:0:0:0:
390,204,149262,6,0,P|384:166|388:124,1,66.0000025177003,10|0,0:0|0:0,0:0:0:0:
125,162,149449,2,0,P|154:186|193:203,1,66.0000025177003,2|0,0:0|0:0,0:0:0:0:
286,323,149637,6,0,P|261:293|244:254,1,66.0000025177003,2|0,1:2|0:0,0:0:0:0:
244,58,149824,2,0,P|282:64|324:60,1,66.0000025177003,2|0,0:1|0:0,0:0:0:0:
157,38,150012,5,2,1:2:0:0:
414,53,150199,1,0,0:0:0:0:
157,38,150387,2,0,L|0:31,1,132.000005035401,2|0,1:2|0:0,0:0:0:0:
139,113,150762,2,0,L|8:122,1,132.000005035401,10|0,1:2|0:0,0:0:0:0:
195,191,151043,1,0,0:0:0:0:
195,191,151137,2,0,L|112:190,1,66.0000025177003,2|0,1:2|0:0,0:0:0:0:
26,266,151324,1,2,0:0:0:0:
52,262,151387,1,0,0:0:0:0:
78,263,151449,1,0,0:0:0:0:
104,270,151512,6,0,P|154:281|196:303,1,88,0|0,1:0|0:0,0:0:0:0:
300,335,151887,2,0,P|350:324|392:302,1,88,2|0,1:2|0:0,0:0:0:0:
485,205,152262,2,0,P|493:176|496:142,1,44,10|0,1:2|0:0,0:0:0:0:
354,207,152449,2,0,P|346:177|332:146,1,44,2|0,0:0|0:0,0:0:0:0:
468,218,152637,2,0,P|476:189|479:155,1,44,2|0,1:2|0:0,0:0:0:0:
337,221,152824,2,0,P|329:191|315:160,1,44,2|0,0:0|0:0,0:0:0:0:
227,64,153012,6,0,L|395:48,1,132,0|2,1:0|0:0,0:0:0:0:
227,64,153387,2,0,L|165:53,6,44,2|0|0|0|0|0|0,1:2|0:0|0:0|0:0|0:0|0:0|0:0,0:0:0:0:
214,148,153762,1,8,1:2:0:0:
214,148,153949,2,0,L|273:143,1,44,2|2,0:0|0:0,0:0:0:0:
214,148,154137,2,0,L|115:135,1,88,2|2,1:2|1:2,0:0:0:0:
41,233,154512,6,0,P|112:222|184:244,1,132.000005035401,2|0,1:2|0:0,0:0:0:0:
465,354,155262,2,0,P|410:358|350:334,1,99.0000037765504,2|0,1:2|0:0,0:0:0:0:
421,274,155637,6,0,L|416:159,1,88,2|0,0:1|0:1,0:0:0:0:
169,236,155824,2,0,L|164:121,1,88,2|0,0:1|0:1,0:0:0:0:
319,30,156012,6,0,L|324:149,1,88,2|0,1:2|0:0,0:0:0:0:
282,243,156387,1,10,1:2:0:0:
282,243,156574,2,0,L|333:228,4,44,2|0|2|0|2,0:0|0:0|0:0|0:0|1:2,0:0:0:0:
221,337,156949,2,0,L|170:322,4,44,2|0|0|0|12,1:2|0:0|0:0|0:0|0:3,0:0:0:0:
71,288,157324,1,12,0:3:0:0:
154,208,157512,6,0,L|284:243,1,132,2|0,1:2|0:0,0:0:0:0:
408,208,157887,2,0,L|278:243,1,132,2|0,1:2|0:0,0:0:0:0:
280,242,158262,2,0,L|276:178,1,44,10|0,1:2|0:0,0:0:0:0:
384,301,158449,2,0,L|387:344,1,44,2|0,0:0|0:0,0:0:0:0:
186,269,158637,2,0,L|182:205,1,44,10|0,1:2|0:0,0:0:0:0:
290,328,158824,2,0,L|293:371,1,44,2|0,0:0|0:0,0:0:0:0:
151,343,159012,6,0,L|26:304,1,132,0|2,1:0|0:0,0:0:0:0:
224,262,159387,2,0,P|238:242|251:217,4,44,2|0|0|0|0,1:2|0:0|0:0|0:0|0:0,0:0:0:0:
140,253,159668,1,0,0:0:0:0:
128,240,159762,2,0,P|105:189|103:154,1,66.0000025177003,10|0,1:2|0:0,0:0:0:0:
221,30,159949,5,2,0:0:0:0:
204,110,160043,1,2,0:0:0:0:
188,188,160137,1,2,1:2:0:0:
221,30,160324,1,2,1:2:0:0:
188,188,160512,6,0,P|260:178|297:190,1,99.0000037765504,2|0,1:2|0:0,0:0:0:0:
408,150,160887,6,0,P|340:182|262:180,1,132.000005035401,2|0,0:1|0:0,0:0:0:0:
475,278,161262,1,10,1:2:0:0:
408,150,161449,1,2,0:0:0:0:
278,274,161637,1,2,1:2:0:0:
230,155,161824,2,0,L|177:146,1,33.0000012588501,2|0,0:1|0:0,0:0:0:0:
81,280,162012,5,2,1:2:0:0:
278,274,162199,1,2,0:0:0:0:
81,280,162387,2,0,L|285:274,1,198.000007553101,2|0,1:2|0:0,0:0:0:0:
410,268,162762,2,0,L|257:275,1,132.000005035401,10|0,1:2|0:0,0:0:0:0:
188,140,163137,2,0,P|192:173|206:203,1,66.0000025177003,2|0,1:2|0:0,0:0:0:0:
276,139,163324,1,2,0:0:0:0:
296,118,163387,1,0,0:0:0:0:
323,108,163449,1,0,0:0:0:0:
352,104,163512,6,0,P|273:97|221:73,1,132,2|0,1:2|0:0,0:0:0:0:
33,84,163887,6,0,B|110:56|110:56|237:77,1,198.000007553101,2|0,1:2|0:0,0:0:0:0:
195,158,164262,2,0,L|121:146,1,66.0000025177003,10|0,1:2|0:0,0:0:0:0:
38,254,164449,2,0,L|117:238,1,66.0000025177003,2|0,0:0|0:0,0:0:0:0:
190,338,164637,2,0,L|116:326,1,66.0000025177003,2|0,1:2|0:0,0:0:0:0:
249,245,164824,2,0,L|325:260,1,66.0000025177003,2|0,0:0|0:0,0:0:0:0:
396,321,165012,6,0,P|443:300|488:202,1,132.000005035401,0|2,1:0|0:0,0:0:0:0:
487,152,165293,1,2,0:0:0:0:
487,135,165387,2,0,L|491:76,6,44,2|0|0|0|0|0|0,1:2|0:0|0:0|0:0|0:0|0:0|0:0,0:0:0:0:
390,135,165762,6,0,L|373:47,1,66.0000025177003,10|0,1:2|0:0,0:0:0:0:
312,193,165949,1,2,0:0:0:0:
302,183,166043,1,2,0:0:0:0:
294,173,166137,2,0,L|245:115,1,66.0000025177003,2|0,1:2|0:0,0:0:0:0:
103,75,166324,2,0,L|192:67,1,66.0000025177003,2|0,1:2|0:0,0:0:0:0:
183,186,166512,6,0,L|79:195,1,88,2|0,1:2|0:0,0:0:0:0:
235,193,167262,2,0,L|170:184,1,52.8,2|0,1:2|0:0,0:0:0:0:
172,311,167637,6,0,L|276:301,1,88,2|0,0:1|0:0,0:0:0:0:
341,293,167824,2,0,L|435:284,1,88,2|0,0:1|0:0,0:0:0:0:
485,206,168012,6,0,L|358:193,1,88,2|0,1:2|0:0,0:0:0:0:
308,138,168387,6,0,L|237:147,1,66.0000025177003,2|0,0:0|0:0,0:0:0:0:
31,186,168762,1,2,0:0:0:0:
103,196,168950,1,2,0:0:0:0:
58,256,169137,1,2,0:0:0:0:
352,235,169512,5,4,0:0:0:0:
