osu file format v14

[General]
AudioFilename: audio.mp3
AudioLeadIn: 0
PreviewTime: 47916
Countdown: 0
SampleSet: Soft
StackLeniency: 0.3
Mode: 0
LetterboxInBreaks: 0
WidescreenStoryboard: 1

[Editor]
Bookmarks: 13463,25463,37463,49463,61463,73463,85463,97463,109463,119963,133463,145463,157463,166463,169463
DistanceSpacing: 0.9
BeatDivisor: 4
GridSize: 4
TimelineZoom: 1.300001

[Metadata]
Title:Sunset Tea Cup
TitleUnicode:Sunset Tea Cup
Artist:YUC'e
ArtistUnicode:YUC'e
Creator:Rumia-
Version:[ -Scarlet- ]'s Normal
Source:
Tags:MoeMoeKyunNN walaowey [ -Scarlet- ] FREQUENCY BLITZ 5 Attack the Music [ATK-0014] yuce
BeatmapID:1577254
BeatmapSetID:634949

[Difficulty]
HPDrainRate:5
CircleSize:3
OverallDifficulty:4
ApproachRate:5
SliderMultiplier:1.2
SliderTickRate:1

[Events]
//Background and Video events
0,0,"bg.jpg",0,0
//Break Periods
2,73712,84192
//Storyboard Layer 0 (Background)
//Storyboard Layer 1 (Fail)
//Storyboard Layer 2 (Pass)
//Storyboard Layer 3 (Foreground)
//Storyboard Sound Samples

[TimingPoints]
1512,375,4,2,0,50,1,0
1512,-125,4,2,0,50,0,0
13512,-100,4,2,0,50,0,0
48012,-100,4,2,10,30,0,0
49512,-100,4,2,10,80,0,1
73512,-100,4,2,10,50,0,0
85512,-100,4,2,10,60,0,0
97137,-100,4,2,10,80,0,0
97512,-100,4,2,10,70,0,0
120012,-100,4,2,10,30,0,0
121512,-100,4,2,10,80,0,1
145512,-100,4,2,10,75,0,0
145887,-100,4,2,11,75,0,0
160887,-100,4,2,0,75,0,0
160980,-100,4,2,11,75,0,0
168012,-100,4,2,11,60,0,0
168762,-100,4,2,11,50,0,0
169512,-100,4,2,10,40,0,0

[Colours]
Combo1 : 5,49,122
Combo2 : 224,163,71
Combo3 : 162,164,164
Combo4 : 0,191,255
Combo5 : 255,255,255
Combo6 : 249,79,125

[HitObjects]
72,104,1512,6,0,B|144:100|180:152|180:152|192:116|228:96,1,192,2|8,0:0|0:0,0:0:0:0:
320,64,2637,1,0,0:0:0:0:
380,152,3012,2,0,P|376:204|272:176,2,192,2|10|2,0:0|0:0|0:0,0:0:0:0:
380,152,5262,1,8,0:0:0:0:
192,60,6012,6,0,P|140:64|116:112,1,96,2|0,0:0|0:0,0:0:0:0:
24,148,6762,2,0,P|1:195|31:239,1,96,10|0,0:0|0:0,0:0:0:0:
104,296,7512,2,0,L|213:276,2,96,2|2|8,0:0|0:0|0:0,0:0:0:0:
308,352,9012,6,0,P|344:308|396:308,1,96,2|0,0:0|0:0,0:0:0:0:
484,324,9762,2,0,P|488:288|452:228,1,96,10|0,0:0|0:0,0:0:0:0:
360,204,10512,6,0,L|352:92,1,96,2|0,0:0|0:0,0:0:0:0:
256,68,11262,2,0,L|163:130,1,96,10|0,0:0|0:0,0:0:0:0:
192,228,12012,2,0,L|292:277,1,96,2|0,0:0|0:0,0:0:0:0:
360,204,12762,6,0,P|384:196|400:176,1,48,2|0,0:0|0:0,0:0:0:0:
452,172,13137,2,0,P|468:148|472:120,1,48,2|0,0:0|0:0,0:0:0:0:
500,84,13512,6,0,B|456:28|400:28|400:28|352:80|280:60,1,240,4|10,1:2|0:0,0:0:0:0:
132,208,15012,2,0,P|176:244|240:224,1,120,2|2,1:2|0:0,0:0:0:0:
324,168,15762,2,0,P|380:160|432:208,1,120,8|2,0:0|0:0,0:0:0:0:
468,296,16512,6,0,B|444:356|380:368|380:368|328:320|356:248,1,240,0|10,1:0|0:0,0:0:0:0:
272,56,18012,2,0,P|232:96|168:104,1,120,2|2,1:2|0:0,0:0:0:0:
64,116,18762,2,0,P|20:168|36:232,1,120,8|2,0:0|0:0,0:0:0:0:
100,292,19512,6,0,B|224:328|192:216|344:264,1,240,0|10,1:0|0:0,0:0:0:0:
460,128,21012,2,0,P|436:80|364:64,1,120,2|2,1:2|0:0,0:0:0:0:
296,136,21762,2,0,P|268:172|184:160,1,120,8|2,0:0|0:0,0:0:0:0:
128,88,22512,6,0,B|4:116,1,120,0|0,1:0|0:0,0:0:0:0:
0,220,23262,2,0,B|117:193,1,120,8|0,0:0|0:0,0:0:0:0:
92,300,24012,1,4,1:0:0:0:
240,340,25512,6,0,L|372:316,1,120,6|8,0:0|0:0,0:0:0:0:
456,360,26262,1,10,0:0:0:0:
472,308,26449,1,0,0:0:0:0:
452,256,26637,2,0,L|440:188,1,60,10|0,0:0|0:0,0:0:0:0:
456,144,27012,6,0,P|400:156|332:116,1,120,10|10,0:0|0:0,0:0:0:0:
336,24,27762,1,10,0:0:0:0:
284,40,27949,1,0,0:0:0:0:
248,80,28137,2,0,P|196:64|128:88,1,120,10|8,0:0|0:0,0:0:0:0:
52,148,28887,6,0,L|36:212,1,60,10|0,0:0|0:0,0:0:0:0:
32,260,29262,2,0,P|84:236|148:252,1,120,10|8,0:0|0:0,0:0:0:0:
176,292,29824,1,0,0:0:0:0:
216,328,30012,2,0,P|272:344|328:316,1,120,10|10,0:0|0:0,0:0:0:0:
424,272,30762,2,0,L|492:288,2,60,10|0|10,0:0|0:0|0:0,0:0:0:0:
368,180,31512,6,0,L|348:48,1,120,14|10,0:0|0:0,0:0:0:0:
244,32,32262,1,10,0:0:0:0:
204,72,32449,1,0,0:0:0:0:
152,88,32637,2,0,P|120:92|84:76,1,60,10|0,0:0|0:0,0:0:0:0:
48,52,33012,6,0,L|68:180,1,120,10|10,0:0|0:0,0:0:0:0:
20,268,33762,1,10,0:0:0:0:
72,288,33949,1,0,0:0:0:0:
100,336,34137,2,0,P|152:312|220:324,1,120,8|8,0:0|3:2,0:0:0:0:
316,348,34887,6,0,P|348:332|364:308,1,60,10|0,0:0|0:0,0:0:0:0:
416,316,35262,2,0,P|428:284|420:252,1,60,10|0,0:0|0:0,0:0:0:0:
460,216,35637,2,0,P|448:180|420:152,1,60,10|0,0:0|0:0,0:0:0:0:
424,108,36012,6,0,P|380:84|292:100,1,120,8|10,3:2|0:0,0:0:0:0:
232,160,36762,2,0,L|244:228,2,60,10|0|10,0:0|0:0|0:0,0:0:0:0:
164,76,37512,6,0,P|112:72|40:128,1,120,14|10,0:0|0:0,0:0:0:0:
96,204,38262,1,10,0:0:0:0:
96,256,38449,1,0,0:0:0:0:
60,296,38637,2,0,L|72:360,1,60,10|0,3:2|0:0,0:0:0:0:
124,372,39012,6,0,P|192:380|244:344,1,120,10|10,0:0|0:0,0:0:0:0:
296,268,39762,1,10,0:0:0:0:
344,244,39949,1,0,0:0:0:0:
400,244,40137,2,0,P|432:256|464:252,1,60,10|0,3:2|0:0,0:0:0:0:
504,228,40512,1,10,0:0:0:0:
440,140,40887,6,0,L|424:16,2,120,10|10|8,0:0|0:0|0:0,0:0:0:0:
392,168,41824,1,0,0:0:0:0:
340,176,42012,2,0,P|272:180|236:232,1,120,10|10,0:0|0:0,0:0:0:0:
272,320,42762,2,0,P|224:332|168:292,1,120,10|10,0:0|0:0,0:0:0:0:
68,328,43512,6,0,P|76:264|56:204,1,120,10|10,0:0|0:0,0:0:0:0:
92,108,44262,1,10,0:0:0:0:
140,136,44449,1,0,0:0:0:0:
196,136,44637,2,0,L|256:128,1,60,10|0,0:0|0:0,0:0:0:0:
276,76,45012,6,0,P|328:108|388:96,1,120,10|10,0:0|0:0,0:0:0:0:
468,168,45762,1,10,0:0:0:0:
432,208,45949,1,0,0:0:0:0:
428,260,46137,2,0,L|444:336,2,60,10|0|0,0:0|0:0|0:0,0:0:0:0:
256,192,46699,12,0,48012,0:0:0:0:
40,296,49512,5,4,1:2:0:0:
132,236,49887,1,10,1:2:0:0:
232,272,50262,2,0,B|248:364,2,90,2|0|0,1:2|1:0|1:0,0:0:0:0:
276,240,51012,5,0,1:0:0:0:
380,264,51387,1,10,1:2:0:0:
432,172,51762,2,0,L|524:224,2,90,0|0|0,1:0|1:0|1:0,0:0:0:0:
416,120,52512,5,2,1:2:0:0:
324,64,52887,1,10,1:2:0:0:
220,100,53262,2,0,L|136:48,2,90,2|0|0,1:2|1:0|1:0,0:0:0:0:
252,144,54012,5,2,1:2:0:0:
197,240,54387,1,10,1:2:0:0:
92,220,54762,2,0,L|64:120,2,90,4|0|0,1:3|1:0|1:0,0:0:0:0:
68,268,55512,6,0,P|128:244|204:268,1,120,6|10,0:0|1:2,0:0:0:0:
288,276,56262,2,0,L|308:388,2,90,2|0|0,1:2|1:0|1:0,0:0:0:0:
272,224,57012,5,0,1:0:0:0:
168,256,57387,1,10,1:2:0:0:
84,188,57762,2,0,L|-28:228,2,90,0|0|0,1:0|1:0|1:0,0:0:0:0:
132,168,58512,5,2,1:2:0:0:
216,104,58887,2,0,L|200:44,1,60,10|0,0:0|0:0,0:0:0:0:
248,16,59262,2,0,P|308:12|360:48,1,120,2|10,1:2|0:2,0:0:0:0:
376,152,60012,2,0,B|408:152|432:128|432:128|444:164|472:176,2,120,2|2|0,1:2|1:2|0:0,0:0:0:0:
260,332,61512,5,6,1:2:0:0:
180,260,61887,1,10,1:2:0:0:
76,284,62262,2,0,L|96:380,2,90,2|0|0,1:2|1:0|1:0,0:0:0:0:
64,232,63012,5,2,1:2:0:0:
160,184,63387,1,10,1:2:0:0:
192,80,63762,2,0,L|88:52,2,90,0|0|0,1:0|1:0|1:0,0:0:0:0:
240,104,64512,6,0,P|276:72|348:84,1,120,2|8,1:2|0:0,0:0:0:0:
420,156,65262,2,0,L|512:132,2,90,2|0|0,1:2|1:0|1:0,0:0:0:0:
368,168,66012,5,2,1:2:0:0:
279,231,66387,1,10,1:2:0:0:
192,168,66762,2,0,L|200:56,2,90,4|0|0,1:3|1:0|1:0,0:0:0:0:
166,224,67512,6,0,P|230:212|286:236,1,120,6|10,1:2|1:2,0:0:0:0:
380,192,68262,2,0,B|472:208,2,90,2|0|0,1:2|1:0|1:0,0:0:0:0:
344,152,69012,5,0,1:0:0:0:
240,120,69387,1,10,1:2:0:0:
140,164,69762,2,0,L|36:183,2,90,0|0|0,1:2|1:0|1:0,0:0:0:0:
180,200,70512,6,0,P|176:252|112:288,1,120,2|8,1:2|0:0,0:0:0:0:
208,352,71262,2,0,P|256:340|328:364,1,120,2|10,1:2|0:0,0:0:0:0:
424,320,72012,1,2,1:2:0:0:
444,212,72387,2,0,L|432:144,1,60,2|0,1:2|0:0,0:0:0:0:
456,104,72762,6,0,P|400:104|324:56,2,120,2|2|4,0:0|0:0|0:0,0:0:0:0:
24,188,85512,6,0,P|84:204|132:160,1,120,0|0,1:0|0:0,0:0:0:0:
196,88,86262,2,0,P|252:76|300:120,1,120,8|0,1:2|0:0,0:0:0:0:
320,164,86824,1,0,1:0:0:0:
364,192,87012,6,0,P|400:164|392:84,1,120,0|0,1:0|1:0,0:0:0:0:
333,15,87762,2,0,P|297:43|305:123,1,120,8|0,1:2|0:0,0:0:0:0:
264,156,88324,1,0,1:0:0:0:
212,176,88512,6,0,L|76:156,1,120,0|0,1:0|1:0,0:0:0:0:
60,260,89262,2,0,L|196:280,1,120,8|0,1:2|0:0,0:0:0:0:
216,316,89824,1,0,1:0:0:0:
252,356,90012,6,0,P|320:360|368:316,1,120,0|0,1:0|1:0,0:0:0:0:
464,300,90762,2,0,P|484:248|456:176,1,120,8|0,1:2|0:0,0:0:0:0:
428,148,91324,1,0,1:0:0:0:
384,120,91512,6,0,L|252:108,1,120,0|0,1:0|1:0,0:0:0:0:
184,180,92262,2,0,L|64:169,1,120,8|0,1:2|0:0,0:0:0:0:
36,124,92824,1,0,1:0:0:0:
36,68,93012,6,0,P|68:32|152:32,1,120,0|0,1:0|1:0,0:0:0:0:
236,72,93762,2,0,L|220:196,1,120,8|0,1:2|0:0,0:0:0:0:
216,244,94324,1,0,1:0:0:0:
208,296,94512,5,4,1:0:0:0:
368,152,95262,1,4,1:0:0:0:
480,336,96012,1,8,3:0:0:0:
248,332,97137,1,0,0:0:0:0:
248,332,97512,6,0,P|268:284|240:216,1,120,6|10,0:0|0:0,0:0:0:0:
148,172,98262,1,10,0:0:0:0:
184,132,98449,1,0,0:0:0:0:
236,116,98637,2,0,P|268:116|296:132,1,60,10|0,0:0|0:0,0:0:0:0:
336,160,99012,6,0,P|344:92|384:32,1,120,10|10,0:0|0:0,0:0:0:0:
476,48,99762,1,10,0:0:0:0:
468,100,99949,1,0,0:0:0:0:
432,140,100137,2,0,L|460:272,1,120,10|10,0:0|0:0,0:0:0:0:
380,332,100887,6,0,L|316:308,1,60,10|0,0:0|0:0,0:0:0:0:
276,336,101262,2,0,P|280:280|236:216,1,120,10|8,0:0|0:0,0:0:0:0:
196,216,101824,1,0,0:0:0:0:
148,240,102012,2,0,L|28:216,1,120,10|10,0:0|0:0,0:0:0:0:
72,316,102762,2,0,L|80:376,2,60,10|0|10,0:0|0:0|0:0,0:0:0:0:
148,240,103512,6,0,P|132:172|156:112,1,120,14|10,0:0|0:0,0:0:0:0:
228,56,104262,1,10,0:0:0:0:
280,68,104449,1,0,0:0:0:0:
320,104,104637,2,0,P|356:104|384:84,1,60,10|0,0:0|0:0,0:0:0:0:
412,48,105012,6,0,P|424:120|448:168,1,120,10|10,0:0|0:0,0:0:0:0:
456,268,105762,1,10,0:0:0:0:
408,292,105949,1,0,0:0:0:0:
372,332,106137,2,0,P|324:300|252:296,1,120,10|10,0:0|3:2,0:0:0:0:
180,360,106887,6,0,P|148:344|132:320,1,60,10|0,0:0|0:0,0:0:0:0:
80,328,107262,2,0,P|68:296|76:264,1,60,10|0,0:0|0:0,0:0:0:0:
36,228,107637,2,0,P|48:192|76:164,1,60,10|0,0:0|0:0,0:0:0:0:
72,120,108012,6,0,P|116:96|204:112,1,120,10|10,0:0|0:0,0:0:0:0:
292,108,108762,2,0,L|304:44,2,60,10|0|10,0:0|0:0|0:0,0:0:0:0:
372,180,109512,6,0,L|400:312,1,120,14|10,0:0|0:0,0:0:0:0:
304,356,110262,1,10,0:0:0:0:
252,340,110449,1,0,0:0:0:0:
200,352,110637,2,0,P|176:332|140:328,1,60,8|0,0:0|0:0,0:0:0:0:
96,340,111012,6,0,P|120:284|104:216,1,120,10|10,0:0|0:0,0:0:0:0:
28,160,111762,1,10,0:0:0:0:
44,108,111949,1,0,0:0:0:0:
88,76,112137,2,0,P|120:64|156:64,1,60,10|0,0:0|0:0,0:0:0:0:
196,80,112512,1,10,0:0:0:0:
304,88,112887,6,0,L|436:64,2,120,10|10|10,0:0|0:0|0:0,0:0:0:0:
288,140,113824,1,0,0:0:0:0:
244,172,114012,2,0,L|220:308,1,120,10|10,0:0|0:0,0:0:0:0:
316,348,114762,2,0,P|384:332|436:360,1,120,10|10,0:0|0:0,0:0:0:0:
496,268,115512,6,0,L|480:128,1,120,10|10,0:0|0:0,0:0:0:0:
392,92,116262,1,10,0:0:0:0:
340,88,116449,1,0,0:0:0:0:
288,104,116637,2,0,P|260:104|228:84,1,60,10|0,0:0|0:0,0:0:0:0:
224,44,117012,6,0,P|176:72|92:72,1,120,10|10,0:0|0:0,0:0:0:0:
44,160,117762,1,10,0:0:0:0:
84,196,117949,1,0,0:0:0:0:
88,252,118137,2,0,L|100:312,2,60,10|0|0,0:0|0:0|0:0,0:0:0:0:
256,192,118699,12,0,120012,0:0:0:0:
240,312,121512,5,6,1:2:0:0:
328,252,121887,1,10,1:2:0:0:
436,256,122262,2,0,P|432:304|392:340,2,90,2|0|0,1:2|1:0|1:0,0:0:0:0:
424,204,123012,5,0,1:0:0:0:
328,152,123387,1,10,1:2:0:0:
336,44,123762,2,0,P|376:48|420:96,2,90,0|0|0,1:0|1:0|1:0,0:0:0:0:
288,68,124512,5,2,1:2:0:0:
204,136,124887,1,8,1:2:0:0:
100,104,125262,2,0,P|68:80|16:76,2,90,2|0|0,1:2|1:0|1:0,0:0:0:0:
104,160,126012,5,2,1:2:0:0:
204,136,126387,1,10,1:2:0:0:
300,188,126762,2,0,P|340:184|396:140,2,90,4|0|0,1:3|1:0|1:0,0:0:0:0:
272,232,127512,6,0,P|220:204|161:205,1,120,6|10,1:2|1:2,0:0:0:0:
60,244,128262,2,0,P|28:288|32:336,2,90,2|0|0,1:2|1:0|1:0,0:0:0:0:
64,188,129012,5,0,1:0:0:0:
144,116,129387,1,10,1:2:0:0:
252,108,129762,2,0,P|270:67|263:24,2,90,0|0|0,1:0|1:0|1:0,0:0:0:0:
336,184,130512,5,0,1:0:0:0:
428,128,130887,2,0,P|436:96|432:68,1,60,8|0,0:0|0:0,0:0:0:0:
400,28,131262,6,0,P|348:20|276:48,1,120,0|10,1:0|0:0,0:0:0:0:
200,108,132012,2,0,B|168:108|144:132|144:132|132:96|104:84,2,120,0|0|0,1:0|1:0|0:0,0:0:0:0:
224,324,133512,5,6,1:2:0:0:
316,272,133887,1,10,1:2:0:0:
420,300,134262,2,0,P|472:312|516:284,2,90,2|0|0,1:2|1:0|1:0,0:0:0:0:
412,248,135012,5,0,1:0:0:0:
340,168,135387,1,10,1:2:0:0:
380,68,135762,2,0,P|424:64|456:24,2,90,0|0|0,1:0|1:0|1:0,0:0:0:0:
328,52,136512,6,0,L|200:68,1,120,2|8,1:2|0:0,0:0:0:0:
132,144,137262,2,0,P|104:112|56:100,2,90,0|0|0,1:0|1:0|1:0,0:0:0:0:
132,200,138012,5,0,1:0:0:0:
168,300,138387,1,8,1:2:0:0:
272,276,138762,2,0,P|300:316|296:360,2,90,4|0|0,1:3|1:0|1:0,0:0:0:0:
292,224,139512,6,0,P|260:172|264:112,1,120,6|10,1:2|1:2,0:0:0:0:
340,36,140262,2,0,P|380:12|440:16,2,90,2|0|0,1:2|1:0|1:0,0:0:0:0:
364,84,141012,5,0,1:0:0:0:
262,114,141387,1,10,1:2:0:0:
164,72,141762,2,0,P|128:44|76:36,2,90,0|0|0,1:0|1:0|1:0,0:0:0:0:
148,124,142512,6,0,L|128:252,1,120,0|8,1:0|0:0,0:0:0:0:
184,336,143262,2,0,P|216:304|296:288,1,120,0|10,1:0|0:0,0:0:0:0:
384,336,144012,1,0,1:0:0:0:
480,284,144387,2,0,P|488:256|480:224,1,60,0|0,1:0|0:0,0:0:0:0:
452,180,144762,2,0,L|320:164,1,120,0|2,0:0|0:0,0:0:0:0:
260,84,145512,5,4,1:0:0:0:
160,48,145887,1,2,1:2:0:0:
64,100,146262,1,10,1:2:0:0:
32,144,146449,1,2,0:0:0:0:
32,200,146637,2,0,P|56:236|56:264,1,60,2|0,1:2|0:0,0:0:0:0:
48,304,147012,1,0,1:0:0:0:
148,268,147387,1,0,1:0:0:0:
228,340,147762,6,0,P|276:308|348:312,1,120,8|0,1:2|1:2,0:0:0:0:
388,324,148324,1,0,1:0:0:0:
428,360,148512,1,2,1:2:0:0:
504,156,149262,6,0,P|472:152|442:128,1,60,10|0,0:0|0:0,0:0:0:0:
400,160,149637,2,0,P|376:138|365:101,1,60,2|0,1:2|0:0,0:0:0:0:
312,116,150012,2,0,P|304:84|317:48,1,60,2|0,1:2|0:0,0:0:0:0:
264,32,150387,6,0,P|208:48|124:40,1,120,2|10,1:2|1:2,0:0:0:0:
40,64,151137,1,2,1:2:0:0:
52,172,151512,5,0,1:0:0:0:
124,252,151887,1,2,1:2:0:0:
232,244,152262,1,10,1:2:0:0:
284,232,152449,1,2,0:0:0:0:
336,244,152637,2,0,P|364:248|408:224,1,60,2|0,1:2|0:0,0:0:0:0:
440,212,153012,1,0,1:0:0:0:
424,104,153387,1,2,1:2:0:0:
340,36,153762,6,0,P|280:44|228:88,1,120,8|2,1:2|1:2,0:0:0:0:
212,128,154324,1,0,1:0:0:0:
208,184,154512,1,2,1:2:0:0:
412,260,155262,6,0,P|364:244|296:284,1,120,2|2,1:2|0:1,0:0:0:0:
296,324,155824,1,0,0:0:0:0:
248,352,156012,2,0,L|124:340,1,120,2|10,1:2|1:2,0:0:0:0:
36,288,156762,1,2,1:2:0:0:
80,260,156949,1,0,0:0:0:0:
104,212,157137,2,0,P|104:176|84:144,1,60,12|0,0:3|0:0,0:0:0:0:
60,112,157512,5,2,1:2:0:0:
168,112,157887,1,2,1:2:0:0:
252,44,158262,1,10,1:2:0:0:
300,68,158449,1,2,0:0:0:0:
356,68,158637,2,0,P|392:64|428:76,1,60,2|0,1:2|0:0,0:0:0:0:
464,92,159012,1,0,1:0:0:0:
396,176,159387,1,2,1:2:0:0:
476,244,159762,6,0,P|424:252|360:312,1,120,10|2,1:2|1:2,0:0:0:0:
344,336,160324,1,0,1:0:0:0:
292,356,160512,2,0,P|244:356|168:320,1,120,2|2,1:2|0:1,0:0:0:0:
120,236,161262,6,0,P|152:232|182:208,1,60,10|0,1:2|0:0,0:0:0:0:
224,240,161637,2,0,P|248:218|259:181,1,60,2|0,1:2|0:0,0:0:0:0:
312,196,162012,2,0,P|320:164|307:128,1,60,2|0,1:2|0:0,0:0:0:0:
336,88,162387,6,0,P|296:48|220:28,1,120,2|10,1:2|1:2,0:0:0:0:
128,40,163137,1,2,1:2:0:0:
52,120,163512,5,2,1:2:0:0:
56,228,163887,1,2,1:2:0:0:
124,312,164262,1,10,1:2:0:0:
176,292,164449,1,2,0:0:0:0:
228,300,164637,2,0,P|260:304|288:328,1,60,2|0,1:2|0:0,0:0:0:0:
324,352,165012,1,0,1:0:0:0:
436,336,165387,1,2,1:2:0:0:
388,240,165762,6,0,P|364:172|372:124,1,120,10|2,1:2|1:2,0:0:0:0:
400,80,166324,1,0,1:0:0:0:
372,32,166512,6,0,B|332:37|332:37|328:33|328:33|332:37|332:37|264:49,1,120,2|0,1:2|0:0,0:0:0:0:
188,128,167262,2,0,B|120:140|120:140|124:144|124:144|120:140|120:140|80:145,1,120,2|2,1:2|0:1,0:0:0:0:
44,184,167824,1,0,0:0:0:0:
36,236,168012,6,0,P|64:288|120:304,1,120,2|2,1:2|0:0,0:0:0:0:
220,260,168762,1,2,0:0:0:0:
272,256,168949,1,0,0:0:0:0:
320,280,169137,1,2,0:0:0:0:
252,364,169512,5,8,1:0:0:0:
