osu file format v14

[General]
AudioFilename: audio.mp3
AudioLeadIn: 0
PreviewTime: 47918
Countdown: 0
SampleSet: Soft
StackLeniency: 0.7
Mode: 2
LetterboxInBreaks: 0
WidescreenStoryboard: 1

[Editor]
DistanceSpacing: 0.8
BeatDivisor: 4
GridSize: 32
TimelineZoom: 2.5

[Metadata]
Title:Sunset Tea Cup
TitleUnicode:Sunset Tea Cup
Artist:YUC'e
ArtistUnicode:YUC'e
Creator:Jemzuu
Version:Platter
Source:
Tags:ajamez [_-Kukkai-_] secre chickenbible future bass futurecore core electronic dnb trap jcore japanese hardcore dubstep FREQUENCY BLITZ 5 Attack the Music yuce short haired anime girl with a sunset
BeatmapID:3054719
BeatmapSetID:1488331

[Difficulty]
HPDrainRate:4
CircleSize:3.5
OverallDifficulty:8
ApproachRate:8
SliderMultiplier:1.9
SliderTickRate:1

[Events]
//Background and Video events
0,0,"bg.jpg",0,0
//Break Periods
//Storyboard Layer 0 (Background)
//Storyboard Layer 1 (Fail)
//Storyboard Layer 2 (Pass)
//Storyboard Layer 3 (Foreground)
//Storyboard Layer 4 (Overlay)
//Storyboard Sound Samples

[TimingPoints]
1512,375,4,2,1,50,1,0
1512,-100,4,2,1,50,0,0
5543,-100,4,2,1,50,0,0
5637,-100,4,2,1,50,0,0
10512,-100,4,2,1,50,0,0
11262,-100,4,2,1,50,0,0
12012,-100,4,2,1,50,0,0
12762,-100,4,2,1,50,0,0
13512,-100,4,2,10,60,0,0
22512,-100,4,2,10,60,0,0
25512,-100,4,2,10,70,0,0
36762,-100,4,2,10,70,0,0
46512,-100,4,2,10,70,0,0
47262,-100,4,2,10,70,0,0
47637,-100,4,2,10,70,0,0
48012,-100,4,2,10,40,0,0
49512,-100,4,2,10,80,0,1
54762,-100,4,2,10,80,0,1
55043,-100,4,2,10,80,0,1
55512,-100,4,2,10,80,0,1
58512,-100,4,2,10,80,0,1
60012,-100,4,2,10,80,0,1
60762,-100,4,2,10,80,0,0
61512,-100,4,2,10,80,0,1
66762,-100,4,2,10,80,0,1
67043,-100,4,2,10,80,0,1
67512,-100,4,2,10,80,0,1
70512,-100,4,2,10,80,0,1
72012,-100,4,2,10,80,0,1
73512,-100,4,2,10,50,0,0
83262,-100,4,2,10,50,0,0
84012,-100,4,2,10,50,0,0
84762,-100,4,2,10,50,0,0
85512,-100,4,2,10,60,0,0
86918,-100,4,2,10,5,0,0
87012,-100,4,2,10,60,0,0
88418,-100,4,2,10,5,0,0
88512,-100,4,2,10,60,0,0
89918,-100,4,2,10,5,0,0
90012,-100,4,2,10,60,0,0
91418,-100,4,2,10,5,0,0
91512,-100,4,2,10,60,0,0
91793,-100,4,2,10,5,0,0
91887,-100,4,2,10,60,0,0
92168,-100,4,2,10,5,0,0
92262,-100,4,2,10,60,0,0
92918,-100,4,2,10,5,0,0
93012,-100,4,2,10,60,0,0
94418,-100,4,2,10,5,0,0
94512,-100,4,2,10,60,0,0
95262,-100,4,2,10,45,0,0
96012,-100,4,2,10,90,0,0
97137,-100,4,2,10,80,0,0
97512,-100,4,2,10,70,0,0
106137,-100,4,2,10,70,0,0
109512,-100,4,2,10,70,0,0
119262,-100,4,2,10,70,0,0
120012,-100,4,2,10,40,0,0
121512,-100,4,2,2,80,0,1
121605,-100,4,2,10,80,0,1
122824,-100,4,2,10,80,0,1
123012,-100,4,2,10,80,0,1
124324,-100,4,2,10,80,0,1
124512,-100,4,2,10,80,0,1
125824,-100,4,2,10,80,0,1
126012,-100,4,2,10,80,0,1
126762,-100,4,2,10,80,0,1
127043,-100,4,2,10,80,0,1
127324,-100,4,2,10,80,0,1
129574,-100,4,2,10,80,0,1
129762,-100,4,2,10,80,0,1
132762,-100,4,2,10,80,0,0
133512,-100,4,2,10,80,0,1
134824,-100,4,2,10,80,0,1
135012,-100,4,2,10,80,0,1
136324,-100,4,2,10,80,0,1
136512,-100,4,2,10,80,0,1
137824,-100,4,2,10,80,0,1
138012,-100,4,2,10,80,0,1
138762,-100,4,2,10,80,0,1
139043,-100,4,2,10,80,0,1
140074,-100,4,2,10,80,0,1
140262,-100,4,2,10,80,0,1
142324,-100,4,2,10,80,0,1
142512,-100,4,2,10,80,0,1
145418,-100,4,2,10,80,0,0
145512,-100,4,2,2,75,0,1
145605,-100,4,2,10,75,0,1
145887,-100,4,2,11,75,0,0
148512,-100,4,2,11,75,0,0
149824,-100,4,2,11,75,0,0
150012,-100,4,2,11,75,0,0
151324,-100,4,2,11,75,0,0
151512,-100,4,2,11,75,0,0
153387,-100,4,2,11,75,0,0
153762,-100,4,2,11,75,0,0
154512,-100,4,2,11,75,0,0
155637,-100,4,2,11,75,0,0
156012,-100,4,2,11,75,0,0
156574,-100,4,2,11,75,0,0
157512,-100,4,2,11,75,0,0
159387,-100,4,2,11,75,0,0
159762,-100,4,2,11,75,0,0
160512,-100,4,2,11,75,0,0
160887,-100,4,2,0,75,0,0
160980,-100,4,2,11,75,0,0
161824,-100,4,2,11,75,0,0
162012,-100,4,2,11,75,0,0
163324,-100,4,2,11,75,0,0
163512,-100,4,2,11,75,0,0
165387,-100,4,2,11,75,0,0
165762,-100,4,2,11,75,0,0
166512,-100,4,2,11,75,0,0
167074,-100,4,2,11,75,0,0
167637,-100,4,2,11,75,0,0
168012,-100,4,2,11,60,0,0
168762,-100,4,2,11,50,0,0
169512,-100,4,2,11,60,0,0

[Colours]
Combo1 : 155,250,255
Combo2 : 255,170,255
Combo3 : 157,157,255

[HitObjects]
359,41,1512,6,0,P|404:84|268:318,1,380,2|8,0:0|0:0,0:0:0:0:
205,276,2449,1,0,0:0:0:0:
173,189,2637,1,0,0:0:0:0:
210,104,2824,1,0,0:0:0:0:
295,68,3012,6,0,P|397:57|437:218,1,285,2|2,0:0|0:0,0:0:0:0:
342,247,3762,2,0,L|106:86,1,285,10|2,0:0|0:0,0:0:0:0:
216,53,4512,6,0,P|285:55|272:302,1,380,2|8,0:0|0:0,0:0:0:0:
207,276,5449,1,0,0:0:0:0:
166,194,5637,1,0,0:0:0:0:
206,111,5824,1,0,0:0:0:0:
295,92,6012,6,0,P|343:126|218:259,1,285,2|2,0:0|0:0,0:0:0:0:
137,307,6762,2,0,P|92:263|228:143,1,285,10|2,0:0|0:0,0:0:0:0:
375,248,7512,6,0,L|388:23,1,190,2|2,0:0|0:0,0:0:0:0:
171,8,8262,1,8,0:0:0:0:
257,40,8449,1,0,0:0:0:0:
293,125,8637,1,0,0:0:0:0:
254,209,8824,1,0,0:0:0:0:
167,238,9012,6,0,P|91:224|108:38,1,285,2|2,0:0|0:0,0:0:0:0:
190,65,9762,2,0,L|423:272,1,285,10|0,0:0|0:0,0:0:0:0:
241,334,10512,6,0,L|231:117,1,190,2|0,0:0|0:0,0:0:0:0:
477,337,11262,2,0,L|486:133,1,190,10|0,0:0|0:0,0:0:0:0:
204,119,12012,6,0,L|409:98,1,190,2|0,0:0|0:0,0:0:0:0:
472,148,12574,1,0,0:0:0:0:
502,236,12762,1,2,0:0:0:0:
469,323,12949,1,0,0:0:0:0:
389,369,13137,1,2,0:0:0:0:
289,372,13324,1,0,0:0:0:0:
32,358,13512,6,0,P|41:285|215:183,1,285,4|0,1:2|0:0,0:0:0:0:
319,169,14262,1,10,0:0:0:0:
207,183,14449,2,0,L|37:75,1,190,2|2,0:0|0:0,0:0:0:0:
217,53,15012,6,0,L|423:109,1,190,2|2,1:2|0:0,0:0:0:0:
148,306,15762,2,0,L|132:100,1,190,8|2,0:0|0:0,0:0:0:0:
408,58,16512,6,0,P|443:143|278:246,1,285,0|0,1:0|0:0,0:0:0:0:
212,261,17262,2,0,L|107:230,2,95,10|0|2,0:0|0:0|0:0,0:0:0:0:
467,342,18012,6,0,L|472:129,1,190,2|2,1:2|0:0,0:0:0:0:
374,124,18574,1,2,0:0:0:0:
266,127,18762,2,0,L|462:83,1,190,8|2,0:0|0:0,0:0:0:0:
169,39,19512,6,0,P|94:50|82:239,1,285,0|0,1:0|0:0,0:0:0:0:
156,203,20261,1,10,0:0:0:0:
193,119,20449,1,0,0:0:0:0:
151,38,20636,1,2,0:0:0:0:
61,21,20824,1,0,0:0:0:0:
223,249,21012,6,0,L|433:185,1,190,2|2,1:2|0:0,0:0:0:0:
308,171,21574,1,2,0:0:0:0:
204,208,21762,2,0,P|166:158|221:50,1,190,8|2,0:0|0:0,0:0:0:0:
484,309,22512,6,0,L|284:260,1,190,0|2,1:0|0:0,0:0:0:0:
80,157,23262,2,0,L|282:125,1,190,8|2,0:0|0:0,0:0:0:0:
23,303,24012,6,0,L|238:270,1,190,4|0,1:0|0:0,0:0:0:0:
293,232,24574,1,2,0:0:0:0:
325,145,24762,1,2,0:0:0:0:
290,59,24949,1,2,0:0:0:0:
206,20,25137,1,2,0:0:0:0:
108,35,25324,1,2,0:0:0:0:
381,184,25512,6,0,L|493:199,1,95,6|0,0:0|0:0,0:0:0:0:
330,281,25887,2,0,L|130:234,1,190,8|10,0:0|0:0,0:0:0:0:
246,201,26449,1,2,0:0:0:0:
352,196,26637,2,0,L|358:92,1,95,10|0,0:0|0:0,0:0:0:0:
194,122,27012,6,0,L|69:103,1,95,10|0,0:0|0:0,0:0:0:0:
270,72,27387,2,0,P|303:139|221:204,1,190,10|10,0:0|0:0,0:0:0:0:
128,230,27949,1,2,0:0:0:0:
25,278,28137,2,0,L|144:308,1,95,10|0,0:0|0:0,0:0:0:0:
295,335,28512,6,0,P|312:273|209:207,1,190,8|10,0:0|0:0,0:0:0:0:
122,191,29074,1,2,0:0:0:0:
223,171,29262,2,0,L|446:132,1,190,10|8,0:0|0:0,0:0:0:0:
310,108,29824,1,2,0:0:0:0:
139,173,30012,6,0,L|125:64,1,95,10|0,0:0|0:0,0:0:0:0:
279,241,30387,2,0,L|287:125,1,95,10|0,0:0|0:0,0:0:0:0:
440,352,30762,1,10,0:0:0:0:
391,271,30949,1,2,0:0:0:0:
311,221,31137,1,10,0:0:0:0:
217,213,31324,1,0,0:0:0:0:
472,216,31512,6,0,L|473:105,1,95,14|0,0:0|0:0,0:0:0:0:
320,70,31887,2,0,P|296:139|404:184,1,190,10|10,0:0|0:0,0:0:0:0:
486,225,32449,1,2,0:0:0:0:
383,242,32637,2,0,L|269:257,1,95,10|0,0:0|0:0,0:0:0:0:
136,321,33012,6,0,L|123:210,1,95,10|0,0:0|0:0,0:0:0:0:
286,264,33387,2,0,P|303:206|206:130,1,190,10|10,0:0|0:0,0:0:0:0:
120,118,33949,1,2,0:0:0:0:
19,55,34137,2,0,L|147:42,1,95,8|0,0:0|0:0,0:0:0:0:
267,166,34512,6,0,L|86:256,1,190,8|10,0:2|0:0,0:0:0:0:
196,297,35074,1,2,0:0:0:0:
361,338,35262,2,0,L|368:222,1,95,10|2,0:0|0:0,0:0:0:0:
206,214,35637,2,0,L|195:109,1,95,10|2,0:0|0:0,0:0:0:0:
361,189,36012,6,0,P|383:123|290:58,1,190,8|10,0:2|0:0,0:0:0:0:
200,78,36574,1,0,0:0:0:0:
358,54,36762,2,0,L|460:72,1,95,10|2,0:0|0:0,0:0:0:0:
363,177,37137,2,0,L|241:201,1,95,10|4,0:0|0:3,0:0:0:0:
15,291,37512,6,0,L|118:292,1,95,14|0,0:0|0:0,0:0:0:0:
280,329,37887,2,0,P|296:271|190:202,1,190,10|10,0:0|0:0,0:0:0:0:
102,200,38449,1,2,0:0:0:0:
207,169,38637,2,0,L|311:158,1,95,10|0,0:2|0:0,0:0:0:0:
143,281,39012,6,0,L|130:163,1,95,10|0,0:0|0:0,0:0:0:0:
291,248,39387,2,0,P|349:237|372:117,1,190,10|10,0:0|0:0,0:0:0:0:
276,108,39949,1,2,0:0:0:0:
175,149,40137,2,0,L|170:44,1,95,10|10,0:2|0:2,0:0:0:0:
334,35,40512,6,0,P|362:97|261:169,1,190,10|10,0:0|0:0,0:0:0:0:
185,189,41074,1,2,0:0:0:0:
349,227,41262,2,0,P|373:279|265:346,1,190,10|8,0:0|0:0,0:0:0:0:
187,350,41824,1,2,0:0:0:0:
350,267,42012,6,0,L|456:244,1,95,10|0,0:0|0:0,0:0:0:0:
335,182,42387,2,0,L|234:172,1,95,10|0,0:0|0:0,0:0:0:0:
79,175,42762,2,0,L|67:68,1,95,10|2,0:0|0:0,0:0:0:0:
227,65,43137,2,0,L|330:54,1,95,10|0,0:0|3:2,0:0:0:0:
62,322,43512,6,0,P|41:264|155:200,1,190,10|10,0:0|0:0,0:0:0:0:
230,200,44074,1,0,0:0:0:0:
388,179,44262,1,10,0:0:0:0:
343,96,44449,1,2,0:0:0:0:
262,49,44637,1,10,0:0:0:0:
168,50,44824,1,0,0:0:0:0:
332,42,45012,6,0,L|451:42,1,95,10|0,0:0|0:0,0:0:0:0:
266,135,45387,2,0,P|237:200|350:253,1,190,10|10,0:0|0:0,0:0:0:0:
417,286,45949,1,2,0:0:0:0:
304,348,46137,2,0,L|186:347,1,95,10|0,0:0|0:0,0:0:0:0:
473,363,46512,6,0,L|491:301,2,47.5,10|0|0,3:2|3:2|3:2,0:0:0:0:
316,318,46887,2,0,L|316:253,2,47.5,10|0|0,3:2|3:2|3:2,0:0:0:0:
148,245,47262,6,0,L|112:178,2,47.5,10|0|2,3:2|3:2|3:2,0:0:0:0:
321,213,47637,2,0,L|357:146,2,47.5,10|0|0,3:2|3:2|3:2,0:0:0:0:
43,123,48012,5,2,0:0:0:0:
43,123,48387,1,2,0:0:0:0:
43,123,48762,1,2,0:0:0:0:
43,123,48949,1,2,0:0:0:0:
43,123,49137,1,2,0:0:0:0:
368,331,49512,6,0,L|248:306,1,95,4|0,1:2|3:0,0:0:0:0:
106,226,49887,2,0,L|220:208,1,95,10|0,1:2|3:0,0:0:0:0:
369,112,50262,2,0,L|204:111,1,142.5,2|0,1:2|1:0,0:0:0:0:
276,84,50637,1,8,0:0:0:0:
375,71,50824,1,2,1:2:0:0:
118,63,51012,6,0,L|10:81,1,95,0|2,1:0|3:2,0:0:0:0:
192,171,51387,2,0,L|299:175,1,95,10|2,1:2|3:2,0:0:0:0:
118,300,51762,2,0,P|103:231|188:203,1,142.5,0|2,1:0|1:2,0:0:0:0:
205,184,52137,1,8,0:0:0:0:
306,191,52324,1,2,0:0:0:0:
49,370,52512,6,0,L|38:261,1,95,2|0,1:2|3:0,0:0:0:0:
203,309,52887,2,0,L|208:191,1,95,10|0,1:2|3:0,0:0:0:0:
371,153,53262,2,0,L|195:123,1,142.5,2|0,1:2|1:0,0:0:0:0:
183,120,53637,1,8,0:0:0:0:
84,128,53824,1,2,1:2:0:0:
342,249,54012,6,0,L|444:253,1,95,2|0,1:2|3:0,0:0:0:0:
273,338,54387,2,0,L|261:239,1,95,10|2,1:2|3:2,0:0:0:0:
425,284,54762,2,0,P|436:220|341:172,1,142.5,4|8,1:3|1:3,0:0:0:0:
334,166,55137,1,8,0:0:0:0:
237,154,55324,1,8,0:3:0:0:
487,68,55512,6,0,L|487:174,1,95,6|0,1:2|3:0,0:0:0:0:
321,249,55887,2,0,L|219:256,1,95,10|0,1:2|3:0,0:0:0:0:
397,330,56262,2,0,P|411:259|325:221,1,142.5,2|0,1:2|1:0,0:0:0:0:
314,213,56637,1,8,0:0:0:0:
409,167,56824,1,2,1:2:0:0:
153,119,57012,6,0,L|36:113,1,95,0|2,1:0|3:2,0:0:0:0:
225,54,57387,2,0,L|234:163,1,95,10|0,1:2|3:0,0:0:0:0:
58,261,57762,2,0,P|42:197|110:155,1,142.5,0|2,1:0|1:2,0:0:0:0:
146,146,58137,1,8,0:0:0:0:
245,152,58324,1,2,1:2:0:0:
497,356,58512,6,0,L|374:339,1,95,2|0,1:2|3:0,0:0:0:0:
283,280,58887,1,10,0:0:0:0:
329,272,58980,1,0,0:0:0:0:
376,264,59074,1,2,3:2:0:0:
127,326,59262,6,0,P|62:313|71:202,1,190,2|10,1:2|3:2,0:0:0:0:
112,198,59730,1,0,3:2:0:0:
161,195,59824,1,0,3:2:0:0:
415,236,60012,6,0,L|424:132,1,95,2|0,1:2|3:0,0:0:0:0:
255,146,60387,2,0,L|243:42,1,95,0|0,0:0|3:0,0:0:0:0:
425,27,60762,2,0,L|446:231,1,190,0|0,0:0|0:0,0:0:0:0:
123,321,61512,6,0,L|228:324,1,95,6|0,1:2|3:0,0:0:0:0:
386,235,61887,2,0,L|259:224,1,95,10|0,1:2|3:0,0:0:0:0:
130,251,62262,2,0,P|114:182|190:140,1,142.5,2|0,1:2|1:0,0:0:0:0:
212,130,62637,1,8,0:0:0:0:
313,131,62824,1,2,1:2:0:0:
59,189,63012,6,0,L|46:88,1,95,2|2,1:2|3:2,0:0:0:0:
214,49,63387,2,0,L|321:62,1,95,10|2,1:2|3:2,0:0:0:0:
136,133,63762,2,0,P|112:206|173:242,1,142.5,0|2,1:0|1:2,0:0:0:0:
203,240,64137,1,8,0:0:0:0:
303,255,64324,1,2,1:2:0:0:
48,355,64512,6,0,L|229:274,1,190,2|8,1:2|0:0,0:0:0:0:
171,254,64980,1,0,0:0:0:0:
119,251,65074,1,0,3:0:0:0:
376,296,65262,6,0,P|392:247|309:191,1,142.5,2|0,1:2|1:0,0:0:0:0:
285,187,65637,1,8,0:0:0:0:
186,176,65824,1,2,1:2:0:0:
451,215,66012,6,0,L|455:105,1,95,2|0,1:2|3:0,0:0:0:0:
297,290,66387,2,0,L|286:177,1,95,10|2,1:2|3:2,0:0:0:0:
120,188,66762,2,0,L|278:183,2,142.5,4|8|8,1:3|1:3|1:3,0:0:0:0:
387,93,67512,6,0,L|509:95,1,95,6|0,1:2|3:0,0:0:0:0:
315,227,67887,2,0,L|214:226,1,95,10|0,1:2|3:0,0:0:0:0:
394,313,68262,2,0,P|410:251|319:209,1,142.5,2|0,1:2|1:2,0:0:0:0:
307,197,68637,1,8,0:0:0:0:
210,194,68824,1,2,1:2:0:0:
462,248,69012,6,0,L|469:146,1,95,0|2,1:0|3:2,0:0:0:0:
306,113,69387,2,0,L|196:108,1,95,10|2,1:2|3:2,0:0:0:0:
389,51,69762,2,0,P|409:116|327:159,1,142.5,0|0,1:2|1:0,0:0:0:0:
311,168,70137,1,8,0:0:0:0:
412,220,70324,1,2,1:2:0:0:
151,365,70512,6,0,L|141:250,1,95,2|0,1:2|3:0,0:0:0:0:
306,277,70887,2,0,L|335:223,2,47.5,8|0|2,0:0|0:0|3:2,0:0:0:0:
48,172,71262,6,0,L|228:78,1,190,2|10,1:2|3:2,0:0:0:0:
264,80,71730,1,0,3:2:0:0:
312,90,71824,1,0,3:2:0:0:
53,303,72012,6,0,L|38:178,1,95,2|0,1:2|3:0,0:0:0:0:
222,254,72387,2,0,L|240:143,1,95,0|0,0:0|3:0,0:0:0:0:
78,45,72762,5,2,3:2:0:0:
122,55,72855,1,0,3:2:0:0:
142,96,72949,1,2,3:2:0:0:
121,137,73043,1,0,3:2:0:0:
76,146,73137,2,0,L|16:149,2,47.5,2|0|2,3:2|3:2|3:2,0:0:0:0:
362,351,73512,6,0,P|389:238|158:138,1,380,4|10,1:2|0:0,0:0:0:0:
104,147,74449,1,0,0:0:0:0:
68,232,74637,1,2,1:2:0:0:
109,313,74824,1,0,0:0:0:0:
204,339,75012,6,0,L|451:181,1,285,0|2,1:0|0:0,0:0:0:0:
333,160,75762,2,0,L|135:128,1,190,8|2,0:0|1:2,0:0:0:0:
432,54,76512,6,0,P|471:133|278:313,1,380,2|10,1:2|0:0,0:0:0:0:
387,287,77449,1,0,0:0:0:0:
423,202,77637,1,2,0:0:0:0:
382,119,77824,1,2,0:0:0:0:
294,95,78012,6,0,L|83:156,1,190,2|0,1:2|0:0,0:0:0:0:
206,211,78574,1,2,0:0:0:0:
363,285,78762,2,0,L|374:88,1,190,8|2,0:0|1:2,0:0:0:0:
84,353,79512,6,0,P|63:271|280:131,1,380,2|10,1:2|0:0,0:0:0:0:
180,148,80449,1,0,0:0:0:0:
136,228,80637,1,2,1:2:0:0:
175,322,80824,1,0,0:0:0:0:
294,355,81012,6,0,P|379:335|370:142,1,285,2|2,1:2|0:0,0:0:0:0:
284,127,81762,2,0,L|86:177,1,190,8|2,0:0|1:2,0:0:0:0:
368,322,82512,6,0,L|378:117,1,190,2|2,1:2|0:0,0:0:0:0:
110,346,83262,2,0,L|100:134,1,190,10|2,0:0|0:0,0:0:0:0:
391,109,84012,6,0,L|190:107,1,190,4|2,1:2|0:0,0:0:0:0:
289,132,84574,1,0,0:0:0:0:
327,216,84762,1,2,0:0:0:0:
287,299,84949,1,0,0:0:0:0:
198,322,85137,1,2,0:0:0:0:
300,348,85324,1,0,0:0:0:0:
45,348,85512,6,0,P|26:296|122:208,1,190,4|0,1:2|1:0,0:0:0:0:
372,137,86262,2,0,L|216:120,2,142.5,8|0|0,1:2|1:0|1:0,0:0:0:0:
194,288,87012,6,0,L|186:84,1,190,0|0,1:0|1:0,0:0:0:0:
475,77,87762,2,0,L|312:109,2,142.5,8|0|0,1:2|1:0|1:0,0:0:0:0:
314,208,88512,6,0,L|113:172,1,190,0|0,1:0|1:0,0:0:0:0:
398,350,89262,2,0,L|412:183,1,142.5,8|0,1:2|1:0,0:0:0:0:
252,188,89824,1,0,1:2:0:0:
77,277,90012,6,0,P|58:219|155:132,1,190,0|0,1:0|1:0,0:0:0:0:
408,86,90762,2,0,L|270:175,1,142.5,8|0,1:2|1:0,0:0:0:0:
125,207,91324,1,0,1:0:0:0:
288,288,91512,6,0,L|483:240,1,190,0|0,1:0|1:0,0:0:0:0:
192,131,92262,2,0,L|48:112,2,142.5,8|0|0,1:2|1:0|1:0,0:0:0:0:
363,275,93012,6,0,L|154:326,1,190,0|0,1:0|1:0,0:0:0:0:
440,371,93762,2,0,L|450:210,1,142.5,8|0,1:2|1:0,0:0:0:0:
318,213,94324,1,0,1:0:0:0:
53,197,94512,6,0,L|248:146,1,190,4|0,1:2|0:0,0:0:0:0:
486,73,95262,2,0,L|268:40,1,190,4|0,1:2|0:0,0:0:0:0:
23,239,96012,6,0,L|196:211,2,142.5,8|4|8,0:3|0:3|0:3,0:0:0:0:
135,313,96762,1,4,0:3:0:0:
262,334,96949,1,4,0:3:0:0:
90,366,97137,2,0,L|78:248,1,95,4|0,0:0|0:0,0:0:0:0:
356,173,97512,6,0,L|365:293,1,95,6|0,0:0|0:0,0:0:0:0:
200,324,97887,2,0,P|181:257|274:209,1,190,10|10,0:0|0:0,0:0:0:0:
375,201,98449,1,2,0:0:0:0:
272,208,98637,2,0,L|169:183,1,95,10|0,0:0|0:0,0:0:0:0:
349,173,99012,6,0,L|365:51,1,95,10|0,0:0|0:0,0:0:0:0:
193,52,99387,2,0,P|160:119|242:184,1,190,10|10,0:0|0:0,0:0:0:0:
335,202,99949,1,2,0:0:0:0:
439,286,100137,2,0,L|320:316,1,95,10|0,0:0|0:0,0:0:0:0:
179,360,100512,6,0,P|162:298|265:232,1,190,10|10,0:0|0:0,0:0:0:0:
352,216,101074,1,2,0:0:0:0:
250,229,101262,2,0,L|27:190,1,190,10|8,0:0|0:0,0:0:0:0:
165,159,101824,1,2,0:0:0:0:
336,192,102012,6,0,L|350:83,1,95,10|0,0:0|0:0,0:0:0:0:
184,288,102387,2,0,L|293:271,1,95,10|0,0:0|0:0,0:0:0:0:
439,330,102762,1,10,0:0:0:0:
474,244,102949,1,2,0:0:0:0:
434,161,103137,1,10,0:0:0:0:
346,134,103324,1,0,0:0:0:0:
74,102,103512,6,0,L|60:228,1,95,14|0,0:0|0:0,0:0:0:0:
234,137,103887,2,0,P|258:206|150:251,1,190,10|10,0:0|0:0,0:0:0:0:
66,279,104449,1,2,0:0:0:0:
172,260,104637,2,0,L|286:275,1,95,10|0,0:0|0:0,0:0:0:0:
91,356,105012,6,0,L|78:245,1,95,10|0,0:0|0:0,0:0:0:0:
249,186,105387,2,0,L|61:141,1,190,10|10,0:0|0:0,0:0:0:0:
165,113,105949,1,2,0:0:0:0:
267,102,106137,2,0,L|362:110,1,95,10|0,0:0|0:0,0:0:0:0:
183,298,106512,6,0,P|158:220|258:169,1,190,10|10,0:2|0:0,0:0:0:0:
336,225,107074,1,2,0:0:0:0:
492,123,107262,2,0,L|377:119,1,95,10|2,0:0|0:0,0:0:0:0:
233,182,107637,2,0,L|218:74,1,95,10|2,0:0|0:0,0:0:0:0:
396,211,108012,6,0,P|418:145|325:80,1,190,10|10,0:0|0:0,0:0:0:0:
236,65,108574,1,0,0:0:0:0:
71,96,108762,2,0,L|190:113,1,95,10|2,0:0|0:0,0:0:0:0:
54,175,109137,2,0,L|44:304,1,95,10|4,0:0|0:3,0:0:0:0:
309,342,109512,6,0,L|412:343,1,95,14|0,0:0|0:0,0:0:0:0:
232,329,109887,2,0,P|216:271|322:202,1,190,10|10,0:0|0:0,0:0:0:0:
410,200,110449,1,2,0:0:0:0:
305,169,110637,2,0,L|201:158,1,95,8|0,0:0|0:0,0:0:0:0:
369,281,111012,6,0,L|382:163,1,95,10|0,0:0|0:0,0:0:0:0:
221,248,111387,2,0,P|163:237|140:117,1,190,10|10,0:0|0:0,0:0:0:0:
236,108,111949,1,2,0:0:0:0:
337,149,112137,2,0,L|342:44,1,95,10|0,0:0|0:0,0:0:0:0:
178,35,112512,6,0,P|150:97|251:169,1,190,10|10,0:0|0:0,0:0:0:0:
327,189,113074,1,2,0:0:0:0:
163,227,113262,2,0,P|139:279|247:346,1,190,10|10,0:0|0:0,0:0:0:0:
325,350,113824,1,2,0:0:0:0:
162,267,114012,6,0,L|56:244,1,95,10|0,0:0|0:0,0:0:0:0:
177,182,114387,2,0,L|278:172,1,95,10|0,0:0|0:0,0:0:0:0:
433,175,114762,2,0,L|445:68,1,95,10|0,0:0|0:0,0:0:0:0:
285,65,115137,2,0,L|182:54,1,95,10|0,0:0|3:2,0:0:0:0:
450,322,115512,6,0,P|471:264|357:200,1,190,10|10,0:0|0:0,0:0:0:0:
282,200,116074,1,0,0:0:0:0:
124,179,116262,1,10,0:0:0:0:
169,96,116449,1,2,0:0:0:0:
250,49,116637,1,10,0:0:0:0:
344,50,116824,1,0,0:0:0:0:
180,42,117012,6,0,L|61:42,1,95,10|0,0:0|0:0,0:0:0:0:
246,135,117387,2,0,P|275:200|162:253,1,190,10|10,0:0|0:0,0:0:0:0:
95,286,117949,1,2,0:0:0:0:
208,348,118137,2,0,L|326:347,1,95,10|0,0:0|0:0,0:0:0:0:
39,363,118512,6,0,L|21:301,2,47.5,10|0|0,3:2|3:2|3:2,0:0:0:0:
196,318,118887,2,0,L|196:253,2,47.5,10|0|0,3:2|3:2|3:2,0:0:0:0:
364,245,119262,6,0,L|400:178,2,47.5,10|0|2,3:2|3:2|3:2,0:0:0:0:
191,213,119637,2,0,L|155:146,2,47.5,10|0|0,3:2|3:2|3:2,0:0:0:0:
469,123,120012,5,2,0:0:0:0:
469,123,120387,1,2,0:0:0:0:
469,123,120762,1,2,0:0:0:0:
469,123,120949,1,2,0:0:0:0:
469,123,121137,1,2,0:0:0:0:
141,259,121512,6,0,L|260:247,1,95,6|0,1:2|3:0,0:0:0:0:
403,351,121887,2,0,L|301:337,1,95,10|0,1:2|3:0,0:0:0:0:
135,360,122262,2,0,P|116:295|189:241,1,142.5,2|0,1:2|1:0,0:0:0:0:
213,244,122637,1,8,0:0:0:0:
312,242,122824,1,2,1:2:0:0:
58,214,123012,6,0,L|48:113,1,95,0|2,1:0|3:2,0:0:0:0:
214,168,123387,2,0,L|217:57,1,95,10|2,1:2|3:2,0:0:0:0:
381,60,123762,2,0,L|208:40,1,142.5,0|2,1:0|1:2,0:0:0:0:
189,44,124137,1,8,0:0:0:0:
90,118,124324,1,2,1:2:0:0:
354,214,124512,6,0,L|468:235,1,95,2|0,1:2|3:0,0:0:0:0:
284,334,124887,2,0,L|273:233,1,95,8|0,1:2|3:0,0:0:0:0:
451,320,125262,2,0,P|465:253|384:203,1,142.5,2|0,1:2|1:0,0:0:0:0:
369,206,125637,1,8,0:0:0:0:
269,206,125824,1,2,1:2:0:0:
17,77,126012,6,0,L|125:69,1,95,2|0,1:2|3:0,0:0:0:0:
280,122,126387,2,0,L|288:230,1,95,10|2,1:2|3:2,0:0:0:0:
118,293,126762,2,0,L|276:337,2,142.5,4|8|8,1:3|1:3|1:3,0:0:0:0:
375,282,127512,6,0,L|501:269,1,95,6|0,1:2|3:0,0:0:0:0:
303,225,127887,2,0,L|291:114,1,95,10|0,1:2|3:0,0:0:0:0:
469,164,128262,2,0,P|475:102|372:71,1,142.5,2|0,1:2|1:0,0:0:0:0:
366,55,128637,1,8,0:0:0:0:
468,40,128824,1,2,1:2:0:0:
210,169,129012,6,0,L|84:153,1,95,0|2,1:0|3:2,0:0:0:0:
285,119,129387,2,0,L|305:228,1,95,10|2,1:2|3:2,0:0:0:0:
127,315,129762,2,0,P|153:253|249:228,1,142.5,0|2,1:0|1:2,0:0:0:0:
269,224,130137,1,8,0:0:0:0:
367,235,130324,1,2,1:2:0:0:
109,130,130512,6,0,L|14:121,1,95,0|0,1:0|3:0,0:0:0:0:
180,64,130887,1,8,0:0:0:0:
227,64,130980,1,0,0:0:0:0:
274,64,131074,1,2,3:2:0:0:
25,333,131262,6,0,P|44:260|158:217,1,190,0|10,1:0|3:2,0:0:0:0:
189,209,131730,1,0,3:2:0:0:
236,204,131824,1,0,3:2:0:0:
492,295,132012,6,0,L|387:281,1,95,0|0,1:0|3:0,0:0:0:0:
225,357,132387,2,0,L|213:247,1,95,0|0,1:0|3:0,0:0:0:0:
387,282,132762,2,0,L|402:89,1,190,2|2,0:0|0:0,0:0:0:0:
54,103,133512,6,0,L|156:100,1,95,6|0,1:2|3:0,0:0:0:0:
316,239,133887,2,0,L|204:248,1,95,10|0,1:2|3:0,0:0:0:0:
52,335,134262,2,0,P|34:288|103:224,1,142.5,2|0,1:2|1:0,0:0:0:0:
138,218,134637,1,8,0:0:0:0:
236,214,134824,1,2,1:2:0:0:
495,336,135012,6,0,L|378:330,1,95,0|2,1:0|3:2,0:0:0:0:
224,301,135387,2,0,L|319:286,1,95,10|2,1:2|3:2,0:0:0:0:
483,265,135762,2,0,P|497:215|410:145,1,142.5,0|2,1:0|1:2,0:0:0:0:
395,140,136137,1,8,0:0:0:0:
297,155,136324,1,2,1:2:0:0:
40,312,136512,6,0,L|145:306,1,95,2|0,1:2|3:0,0:0:0:0:
306,318,136887,2,0,L|328:273,2,47.5,8|0|2,0:0|0:0|3:2,0:0:0:0:
47,370,137262,6,0,P|34:315|113:261,1,142.5,0|0,1:0|1:0,0:0:0:0:
141,262,137637,1,8,0:0:0:0:
42,225,137824,1,2,1:2:0:0:
305,180,138012,6,0,L|428:176,1,95,0|0,1:0|3:0,0:0:0:0:
230,257,138387,2,0,L|220:124,1,95,8|2,1:2|3:2,0:0:0:0:
397,309,138762,2,0,L|251:334,2,142.5,4|8|8,1:3|1:3|1:3,0:0:0:0:
130,233,139512,6,0,L|12:217,1,95,6|0,1:2|3:0,0:0:0:0:
204,162,139887,2,0,L|307:154,1,95,10|0,1:2|3:0,0:0:0:0:
124,277,140262,2,0,P|108:218|183:167,1,142.5,2|0,1:2|1:0,0:0:0:0:
212,162,140637,1,8,0:0:0:0:
312,191,140824,1,2,1:2:0:0:
55,284,141012,6,0,L|48:160,1,95,0|2,1:0|3:2,0:0:0:0:
210,216,141387,2,0,L|214:107,1,95,10|2,1:2|3:2,0:0:0:0:
377,108,141762,2,0,L|221:95,1,142.5,0|2,1:0|1:2,0:0:0:0:
186,82,142137,1,8,0:0:0:0:
87,72,142324,1,2,1:2:0:0:
352,272,142512,6,0,L|459:278,1,95,0|0,1:0|3:0,0:0:0:0:
287,349,142887,1,8,0:0:0:0:
239,348,142980,1,0,0:0:0:0:
192,347,143074,1,2,3:2:0:0:
452,369,143262,6,0,P|473:303|372:230,1,190,0|10,1:0|3:2,0:0:0:0:
346,223,143730,1,0,3:2:0:0:
298,218,143824,1,0,3:2:0:0:
32,130,144012,6,0,L|152:114,1,95,4|0,1:2|3:0,0:0:0:0:
295,144,144387,2,0,L|304:45,1,95,2|0,0:0|3:0,0:0:0:0:
119,31,144762,5,2,3:2:0:0:
75,46,144855,1,0,3:2:0:0:
59,89,144949,1,2,3:2:0:0:
81,130,145043,1,0,3:2:0:0:
125,140,145137,1,2,3:2:0:0:
173,145,145230,1,0,3:2:0:0:
220,150,145324,1,2,3:2:0:0:
490,344,145512,6,0,L|370:322,1,95,6|0,1:2|0:0,0:0:0:0:
219,341,145887,2,0,L|212:229,1,95,2|0,1:2|0:0,0:0:0:0:
392,246,146262,1,10,1:2:0:0:
432,163,146449,1,2,0:0:0:0:
390,81,146637,1,2,1:2:0:0:
300,64,146824,1,2,0:0:0:0:
38,215,147012,6,0,L|142:238,1,95,4|2,1:2|0:0,0:0:0:0:
296,233,147387,2,0,L|322:181,2,47.5,0|0|0,3:2|3:2|3:2,0:0:0:0:
125,337,147762,2,0,P|65:326|81:208,1,190,8|8,1:2|1:2,0:0:0:0:
165,203,148324,1,2,1:2:0:0:
442,129,148512,6,0,L|253:86,1,190,6|2,1:2|0:0,0:0:0:0:
254,233,149074,1,2,0:0:0:0:
426,293,149262,2,0,L|429:187,1,95,10|2,0:0|0:0,0:0:0:0:
255,139,149637,2,0,L|142:123,1,95,2|2,1:2|0:1,0:0:0:0:
428,316,150012,6,0,L|442:189,1,95,6|0,1:2|0:0,0:0:0:0:
275,273,150387,2,0,L|266:170,1,95,2|0,1:2|0:0,0:0:0:0:
98,148,150762,2,0,L|207:143,1,95,10|0,1:2|3:0,0:0:0:0:
364,65,151137,2,0,L|258:54,1,95,2|2,1:2|3:2,0:0:0:0:
15,282,151512,6,0,L|130:272,1,95,4|0,1:2|0:0,0:0:0:0:
284,328,151887,2,0,P|310:251|214:184,1,190,2|10,1:2|1:2,0:0:0:0:
147,174,152449,1,2,0:0:0:0:
106,93,152637,1,2,1:2:0:0:
152,14,152824,1,2,0:0:0:0:
416,110,153012,6,0,L|438:229,1,95,4|2,1:2|0:0,0:0:0:0:
266,256,153387,2,0,L|240:191,2,47.5,2|0|0,3:2|3:2|3:2,0:0:0:0:
438,339,153762,2,0,P|452:278|343:213,1,190,8|2,1:2|1:2,0:0:0:0:
463,181,154324,1,2,1:2:0:0:
188,206,154512,6,0,L|3:131,1,190,6|0,1:2|0:0,0:0:0:0:
325,112,155262,2,0,P|398:140|384:260,1,190,6|2,1:2|0:1,0:0:0:0:
305,287,155824,1,2,0:1:0:0:
44,233,156012,6,0,L|238:203,1,190,6|10,1:2|1:2,0:0:0:0:
381,140,156574,2,0,L|334:114,1,47.5,2|2,3:2|3:2,0:0:0:0:
268,108,156762,2,0,L|135:100,1,95,10|2,1:2|3:2,0:0:0:0:
343,242,157137,2,0,L|451:234,1,95,12|12,0:3|0:3,0:0:0:0:
159,339,157512,6,0,L|28:335,1,95,6|0,1:2|0:0,0:0:0:0:
234,340,157887,2,0,L|242:242,1,95,2|0,1:2|0:0,0:0:0:0:
70,258,158262,1,10,1:2:0:0:
23,179,158449,1,2,0:0:0:0:
61,96,158637,1,2,1:2:0:0:
151,80,158824,1,2,0:0:0:0:
417,261,159012,6,0,L|285:275,1,95,4|2,1:2|0:0,0:0:0:0:
160,263,159387,2,0,L|136:207,2,47.5,2|0|0,3:2|3:2|3:2,0:0:0:0:
334,345,159762,2,0,P|403:338|407:208,1,190,10|10,1:2|1:2,0:0:0:0:
330,206,160324,1,2,1:2:0:0:
74,224,160512,6,0,L|68:111,1,95,6|0,1:2|0:0,0:0:0:0:
245,155,160887,2,0,L|48:131,1,190,2|10,0:1|1:2,0:0:0:0:
154,94,161449,1,2,0:0:0:0:
333,117,161637,2,0,L|343:228,1,95,2|2,1:2|0:1,0:0:0:0:
79,338,162012,6,0,L|68:226,1,95,6|2,1:2|0:0,0:0:0:0:
244,287,162387,2,0,P|262:229|154:161,1,190,2|10,1:2|1:2,0:0:0:0:
70,154,162949,1,0,3:0:0:0:
241,83,163137,2,0,L|359:89,1,95,2|2,1:2|3:2,0:0:0:0:
77,269,163512,6,0,L|65:152,1,95,6|0,1:2|0:0,0:0:0:0:
241,263,163887,2,0,L|438:225,1,190,2|10,1:2|1:2,0:0:0:0:
329,180,164449,1,2,0:0:0:0:
154,96,164637,2,0,L|151:216,1,95,2|2,1:2|0:0,0:0:0:0:
403,349,165012,6,0,L|497:351,1,95,4|2,1:2|0:0,0:0:0:0:
330,269,165387,1,2,3:2:0:0:
282,271,165480,1,0,3:2:0:0:
235,274,165574,1,0,3:2:0:0:
409,326,165762,2,0,P|434:278|336:196,1,190,10|10,1:2|1:2,0:0:0:0:
450,166,166324,1,2,1:2:0:0:
185,146,166512,6,0,L|14:240,1,190,6|0,1:2|0:0,0:0:0:0:
326,332,167262,2,0,L|113:300,1,190,6|2,1:2|0:1,0:0:0:0:
232,268,167824,1,2,0:1:0:0:
492,194,168012,6,0,L|357:191,1,95,6|0,1:2|0:0,0:0:0:0:
228,198,168387,1,2,3:2:0:0:
182,189,168480,1,0,3:2:0:0:
161,148,168574,1,0,3:2:0:0:
180,106,168668,1,0,3:2:0:0:
224,94,168762,5,2,0:0:0:0:
398,146,168949,2,0,L|422:104,2,47.5,2|0|2,3:2|3:2|3:2,0:0:0:0:
301,189,169324,1,0,3:0:0:0:
29,233,169512,5,4,0:0:0:0:
