osu file format v14

[General]
AudioFilename: audio.mp3
AudioLeadIn: 0
PreviewTime: 47918
Countdown: 0
SampleSet: Soft
StackLeniency: 0.7
Mode: 2
LetterboxInBreaks: 0
WidescreenStoryboard: 1

[Editor]
DistanceSpacing: 0.8
BeatDivisor: 4
GridSize: 32
TimelineZoom: 2.5

[Metadata]
Title:Sunset Tea Cup
TitleUnicode:Sunset Tea Cup
Artist:YUC'e
ArtistUnicode:YUC'e
Creator:Jemzuu
Version:Cup
Source:
Tags:ajamez [_-Kukkai-_] secre chickenbible future bass futurecore core electronic dnb trap jcore japanese hardcore dubstep FREQUENCY BLITZ 5 Attack the Music yuce short haired anime girl with a sunset
BeatmapID:3054717
BeatmapSetID:1488331

[Difficulty]
HPDrainRate:3
CircleSize:2.5
OverallDifficulty:6
ApproachRate:6
SliderMultiplier:1.5
SliderTickRate:1

[Events]
//Background and Video events
0,0,"bg.jpg",0,0
//Break Periods
//Storyboard Layer 0 (Background)
//Storyboard Layer 1 (Fail)
//Storyboard Layer 2 (Pass)
//Storyboard Layer 3 (Foreground)
//Storyboard Layer 4 (Overlay)
//Storyboard Sound Samples

[TimingPoints]
1512,375,4,2,1,50,1,0
1512,-100,4,2,1,50,0,0
5543,-100,4,2,1,50,0,0
5637,-100,4,2,1,50,0,0
10512,-100,4,2,1,50,0,0
11262,-100,4,2,1,50,0,0
12012,-100,4,2,1,50,0,0
12762,-100,4,2,1,50,0,0
13512,-100,4,2,10,60,0,0
22512,-100,4,2,10,60,0,0
25512,-100,4,2,10,70,0,0
36762,-100,4,2,10,70,0,0
46512,-100,4,2,10,70,0,0
47262,-100,4,2,10,70,0,0
47637,-100,4,2,10,70,0,0
48012,-100,4,2,10,40,0,0
49512,-100,4,2,10,80,0,1
54762,-100,4,2,10,80,0,1
55043,-100,4,2,10,80,0,1
55512,-100,4,2,10,80,0,1
58512,-100,4,2,10,80,0,1
60012,-100,4,2,10,80,0,1
60762,-100,4,2,10,80,0,0
61512,-100,4,2,10,80,0,1
66762,-100,4,2,10,80,0,1
67043,-100,4,2,10,80,0,1
67512,-100,4,2,10,80,0,1
70512,-100,4,2,10,80,0,1
72012,-100,4,2,10,80,0,1
73512,-100,4,2,10,50,0,0
83262,-100,4,2,10,50,0,0
84012,-100,4,2,10,50,0,0
84762,-100,4,2,10,50,0,0
85512,-100,4,2,10,60,0,0
86918,-100,4,2,10,5,0,0
87012,-100,4,2,10,60,0,0
88418,-100,4,2,10,5,0,0
88512,-100,4,2,10,60,0,0
89918,-100,4,2,10,5,0,0
90012,-100,4,2,10,60,0,0
91418,-100,4,2,10,5,0,0
91512,-100,4,2,10,60,0,0
91793,-100,4,2,10,5,0,0
91887,-100,4,2,10,60,0,0
92168,-100,4,2,10,5,0,0
92262,-100,4,2,10,60,0,0
92918,-100,4,2,10,5,0,0
93012,-100,4,2,10,60,0,0
94418,-100,4,2,10,5,0,0
94512,-100,4,2,10,60,0,0
95262,-100,4,2,10,45,0,0
96012,-100,4,2,10,90,0,0
97137,-100,4,2,10,80,0,0
97512,-100,4,2,10,70,0,0
106137,-100,4,2,10,70,0,0
109512,-100,4,2,10,70,0,0
119262,-100,4,2,10,70,0,0
120012,-100,4,2,10,40,0,0
121512,-100,4,2,2,80,0,1
121605,-100,4,2,10,80,0,1
122824,-100,4,2,10,80,0,1
123012,-100,4,2,10,80,0,1
124324,-100,4,2,10,80,0,1
124512,-100,4,2,10,80,0,1
125824,-100,4,2,10,80,0,1
126012,-100,4,2,10,80,0,1
126762,-100,4,2,10,80,0,1
127043,-100,4,2,10,80,0,1
127324,-100,4,2,10,80,0,1
129574,-100,4,2,10,80,0,1
129762,-100,4,2,10,80,0,1
132762,-100,4,2,10,80,0,0
133512,-100,4,2,10,80,0,1
134824,-100,4,2,10,80,0,1
135012,-100,4,2,10,80,0,1
136324,-100,4,2,10,80,0,1
136512,-100,4,2,10,80,0,1
137824,-100,4,2,10,80,0,1
138012,-100,4,2,10,80,0,1
138762,-100,4,2,10,80,0,1
139043,-100,4,2,10,80,0,1
140074,-100,4,2,10,80,0,1
140262,-100,4,2,10,80,0,1
142324,-100,4,2,10,80,0,1
142512,-100,4,2,10,80,0,1
145418,-100,4,2,10,80,0,0
145512,-100,4,2,2,75,0,1
145605,-100,4,2,10,75,0,1
145887,-100,4,2,11,75,0,0
148512,-100,4,2,11,75,0,0
149824,-100,4,2,11,75,0,0
150012,-100,4,2,11,75,0,0
151324,-100,4,2,11,75,0,0
151512,-100,4,2,11,75,0,0
153387,-100,4,2,11,75,0,0
153762,-100,4,2,11,75,0,0
154512,-100,4,2,11,75,0,0
155637,-100,4,2,11,75,0,0
156012,-100,4,2,11,75,0,0
156574,-100,4,2,11,75,0,0
157512,-100,4,2,11,75,0,0
159387,-100,4,2,11,75,0,0
159762,-100,4,2,11,75,0,0
160512,-100,4,2,11,75,0,0
160887,-100,4,2,0,75,0,0
160980,-100,4,2,11,75,0,0
161824,-100,4,2,11,75,0,0
162012,-100,4,2,11,75,0,0
163324,-100,4,2,11,75,0,0
163512,-100,4,2,11,75,0,0
165387,-100,4,2,11,75,0,0
165762,-100,4,2,11,75,0,0
166512,-100,4,2,11,75,0,0
167074,-100,4,2,11,75,0,0
167637,-100,4,2,11,75,0,0
168012,-100,4,2,11,60,0,0
168762,-100,4,2,11,50,0,0
169512,-100,4,2,11,60,0,0

[Colours]
Combo1 : 155,250,255
Combo2 : 255,170,255
Combo3 : 157,157,255

[HitObjects]
381,340,1512,6,0,P|405:271|236:136,1,300,2|8,0:0|0:0,0:0:0:0:
46,71,3012,6,0,P|131:82|37:190,2,300,2|10|2,0:0|0:0|0:0,0:0:0:0:
250,46,5262,1,8,0:0:0:0:
465,87,6012,6,0,P|380:98|474:206,2,300,2|10|2,0:0|0:0|0:0,0:0:0:0:
320,73,7887,1,2,0:0:0:0:
170,131,8262,1,8,0:0:0:0:
425,281,9012,6,0,P|453:194|301:62,1,300,2|10,0:0|0:0,0:0:0:0:
64,66,10512,5,2,0:0:0:0:
245,191,11262,1,10,0:0:0:0:
466,285,12012,5,2,0:0:0:0:
323,341,12387,1,0,0:0:0:0:
164,353,12762,2,0,L|119:269,2,75,2|0|2,0:0|0:0|0:0,0:0:0:0:
342,351,13512,6,0,P|362:294|201:151,1,300,4|10,1:2|0:0,0:0:0:0:
22,129,15012,2,0,P|110:281|241:292,1,300,2|8,1:2|0:0,0:0:0:0:
472,247,16512,6,0,P|449:196|235:101,1,300,0|10,1:0|0:0,0:0:0:0:
463,48,18012,6,0,L|468:212,1,150,2|2,1:2|0:0,0:0:0:0:
311,202,18762,2,0,L|302:367,1,150,8|2,0:0|0:0,0:0:0:0:
134,371,19512,6,0,P|146:304|343:204,1,300,0|10,1:0|0:0,0:0:0:0:
99,268,21012,2,0,P|52:235|175:98,1,300,2|8,1:2|0:0,0:0:0:0:
424,115,22512,5,0,1:0:0:0:
244,219,23262,1,8,0:0:0:0:
26,318,24012,6,0,L|188:267,1,150,4|0,1:0|0:0,0:0:0:0:
334,266,24762,2,0,L|379:196,2,75,2|2|2,0:0|0:0|0:0,0:0:0:0:
150,284,25512,6,0,P|127:229|188:158,1,150,6|8,0:0|0:0,0:0:0:0:
321,121,26262,1,10,0:0:0:0:
390,93,26449,1,2,0:0:0:0:
460,66,26637,1,10,0:0:0:0:
305,29,27012,6,0,L|144:71,1,150,10|10,0:0|0:0,0:0:0:0:
320,178,27762,2,0,L|359:256,2,75,10|2|10,0:0|0:0|0:0,0:0:0:0:
147,195,28512,6,0,P|63:228|53:301,1,150,8|10,0:0|0:0,0:0:0:0:
120,325,29074,1,2,0:0:0:0:
196,346,29262,2,0,L|351:283,1,150,10|8,0:0|0:0,0:0:0:0:
167,251,30012,6,0,L|147:95,1,150,10|10,0:0|0:0,0:0:0:0:
308,85,30762,2,0,L|150:51,1,150,10|10,0:0|0:0,0:0:0:0:
322,195,31512,6,0,L|480:146,1,150,14|10,0:0|0:0,0:0:0:0:
309,324,32262,2,0,L|272:250,2,75,10|2|10,0:0|0:0|0:0,0:0:0:0:
469,337,33012,6,0,L|482:169,1,150,10|10,0:0|0:0,0:0:0:0:
323,142,33762,1,10,0:0:0:0:
250,124,33949,1,2,0:0:0:0:
177,106,34137,1,8,0:0:0:0:
347,51,34512,6,0,L|354:214,1,150,8|10,0:2|0:0,0:0:0:0:
193,272,35262,2,0,L|344:228,1,150,10|10,0:0|0:0,0:0:0:0:
175,179,36012,6,0,L|20:128,1,150,8|10,0:2|0:0,0:0:0:0:
194,87,36762,2,0,L|231:160,2,75,10|2|10,0:0|0:0|0:0,0:0:0:0:
25,252,37512,6,0,L|173:189,1,150,14|10,0:0|0:0,0:0:0:0:
323,191,38262,2,0,L|360:122,2,75,10|2|10,0:0|0:0|0:2,0:0:0:0:
162,162,39012,6,0,L|320:104,1,150,10|10,0:0|0:0,0:0:0:0:
458,216,39762,2,0,L|495:147,2,75,10|2|10,0:0|0:0|0:2,0:0:0:0:
292,311,40512,6,0,L|132:269,1,150,10|10,0:0|0:0,0:0:0:0:
220,230,41074,1,2,0:0:0:0:
296,216,41262,2,0,L|456:179,1,150,10|8,0:0|0:0,0:0:0:0:
271,168,42012,6,0,L|260:8,1,150,10|10,0:0|0:0,0:0:0:0:
103,147,42762,2,0,L|264:172,1,150,10|10,0:0|0:0,0:0:0:0:
78,265,43512,6,0,L|58:94,1,150,10|10,0:0|0:0,0:0:0:0:
220,111,44262,1,10,0:0:0:0:
292,92,44449,1,2,0:0:0:0:
365,73,44637,1,10,0:0:0:0:
207,51,45012,6,0,L|198:209,1,150,10|10,0:0|0:0,0:0:0:0:
350,326,45762,1,10,0:0:0:0:
278,307,45949,1,2,0:0:0:0:
205,288,46137,1,10,0:0:0:0:
256,192,46512,12,2,48012,0:0:0:0:
48,152,49512,6,0,L|213:104,1,150,4|10,1:2|1:2,0:0:0:0:
345,160,50262,2,0,L|416:63,2,112.5,2|0|2,1:2|1:0|1:2,0:0:0:0:
256,186,51012,6,0,L|110:237,1,150,0|10,1:0|1:2,0:0:0:0:
271,317,51762,2,0,L|338:218,2,112.5,0|2|2,1:0|1:2|0:0,0:0:0:0:
182,348,52512,6,0,L|336:320,1,150,2|10,1:2|1:2,0:0:0:0:
480,280,53262,2,0,L|483:151,1,112.5,2|0,1:2|1:0,0:0:0:0:
358,140,53824,1,2,1:2:0:0:
283,127,54012,6,0,L|120:78,1,150,2|10,1:2|1:2,0:0:0:0:
293,251,54762,2,0,L|416:189,2,112.5,4|8|8,1:3|1:3|0:3,0:0:0:0:
202,259,55512,6,0,L|198:98,1,150,6|10,1:2|1:2,0:0:0:0:
49,58,56262,2,0,L|56:182,1,112.5,2|0,1:2|1:0,0:0:0:0:
172,209,56824,1,2,1:2:0:0:
251,229,57012,6,0,L|398:277,1,150,0|10,1:0|1:2,0:0:0:0:
235,344,57762,2,0,L|162:240,2,112.5,0|2|2,1:0|1:2|1:2,0:0:0:0:
323,348,58512,6,0,L|481:321,1,150,2|10,1:2|0:0,0:0:0:0:
301,255,59262,2,0,L|289:97,1,150,2|10,1:2|3:2,0:0:0:0:
365,88,59824,1,0,3:2:0:0:
443,83,60012,6,0,L|279:43,1,150,2|0,1:2|0:0,0:0:0:0:
143,75,60762,2,0,L|136:242,1,150,0|0,0:0|0:0,0:0:0:0:
306,284,61512,6,0,L|173:194,1,150,6|10,1:2|1:2,0:0:0:0:
29,96,62262,2,0,L|131:31,2,112.5,2|0|2,1:2|1:0|1:2,0:0:0:0:
119,143,63012,6,0,L|267:218,1,150,2|10,1:2|1:2,0:0:0:0:
88,303,63762,2,0,L|28:188,2,112.5,0|2|2,1:0|1:2|1:2,0:0:0:0:
178,320,64512,6,0,L|345:280,1,150,2|8,1:2|0:0,0:0:0:0:
471,268,65262,2,0,L|465:126,1,112.5,2|0,1:2|1:0,0:0:0:0:
345,139,65824,1,2,1:2:0:0:
265,121,66012,6,0,L|92:82,1,150,2|10,1:2|1:2,0:0:0:0:
275,235,66762,2,0,L|381:172,2,112.5,4|8|8,1:3|1:3|1:3,0:0:0:0:
195,260,67512,6,0,L|332:337,1,150,6|10,1:2|1:2,0:0:0:0:
167,362,68262,2,0,L|54:330,2,112.5,2|0|2,1:2|1:2|1:2,0:0:0:0:
257,368,69012,6,0,L|258:216,1,150,0|10,1:0|1:2,0:0:0:0:
91,198,69762,2,0,L|36:89,2,112.5,0|0|2,1:2|1:0|1:2,0:0:0:0:
178,232,70512,6,0,L|353:195,1,150,2|8,1:2|0:0,0:0:0:0:
152,333,71262,2,0,L|137:177,1,150,2|10,1:2|3:2,0:0:0:0:
213,158,71824,1,0,3:2:0:0:
292,146,72012,6,0,L|124:95,1,150,2|0,1:2|0:0,0:0:0:0:
307,54,72762,2,0,L|350:133,2,75,2|2|2,3:2|3:2|3:2,0:0:0:0:
128,36,73512,6,0,P|94:102|231:239,1,300,4|10,1:2|0:0,0:0:0:0:
359,274,74637,1,2,1:2:0:0:
497,157,75012,6,0,P|459:113|207:49,1,300,0|8,1:0|0:0,0:0:0:0:
74,128,76137,1,2,1:2:0:0:
247,217,76512,6,0,P|305:224|224:352,1,300,2|10,1:2|0:0,0:0:0:0:
68,344,77637,1,2,0:0:0:0:
229,254,78012,6,0,P|292:229|488:100,1,300,2|8,1:2|0:0,0:0:0:0:
353,93,79137,1,2,1:2:0:0:
212,95,79512,6,0,P|143:104|108:309,1,300,2|10,1:2|0:0,0:0:0:0:
241,337,80637,1,2,1:2:0:0:
398,336,81012,6,0,P|418:263|246:147,1,300,2|8,1:2|0:0,0:0:0:0:
412,112,82137,1,2,1:2:0:0:
259,80,82512,5,2,1:2:0:0:
46,202,83262,1,10,0:0:0:0:
283,294,84012,6,0,L|448:260,1,150,4|2,1:2|0:0,0:0:0:0:
275,188,84762,2,0,L|221:104,2,75,2|0|2,0:0|0:0|0:0,0:0:0:0:
455,220,85512,6,0,L|469:55,1,150,4|0,1:2|1:0,0:0:0:0:
327,60,86262,2,0,L|201:102,2,112.5,8|0|0,1:2|1:0|1:0,0:0:0:0:
254,196,87012,6,0,L|86:149,1,150,0|0,1:0|1:0,0:0:0:0:
266,307,87762,2,0,L|337:204,2,112.5,8|0|0,1:2|1:0|1:0,0:0:0:0:
189,328,88512,6,0,L|34:289,1,150,0|0,1:0|1:0,0:0:0:0:
203,230,89262,2,0,L|321:158,2,112.5,8|0|0,1:2|1:0|1:2,0:0:0:0:
128,176,90012,6,0,L|296:117,1,150,0|0,1:0|1:0,0:0:0:0:
110,112,90762,2,0,L|58:0,2,112.5,8|0|0,1:2|1:0|1:0,0:0:0:0:
185,164,91512,6,0,L|342:210,1,150,0|0,1:0|1:0,0:0:0:0:
172,319,92262,2,0,L|162:173,1,112.5,8|0,1:2|1:0,0:0:0:0:
283,191,92824,1,0,1:0:0:0:
358,187,93012,6,0,L|369:15,1,150,0|0,1:0|1:0,0:0:0:0:
214,48,93762,2,0,L|85:82,1,112.5,8|0,1:2|1:0,0:0:0:0:
233,160,94324,1,0,1:0:0:0:
308,172,94512,6,0,L|467:249,1,150,4|0,1:2|0:0,0:0:0:0:
280,339,95262,2,0,L|269:183,1,150,4|0,1:2|0:0,0:0:0:0:
104,198,96012,6,0,L|215:131,1,112.5,8|4,0:3|0:3,0:0:0:0:
317,127,96574,1,8,0:3:0:0:
240,80,96762,2,0,L|148:58,1,75,4|4,0:3|0:3,0:0:0:0:
88,57,97137,1,4,0:0:0:0:
261,32,97512,6,0,L|279:216,1,150,6|10,0:0|0:0,0:0:0:0:
429,233,98262,2,0,L|466:149,2,75,10|2|10,0:0|0:0|0:0,0:0:0:0:
279,342,99012,6,0,L|424:304,1,150,10|10,0:0|0:0,0:0:0:0:
273,253,99762,1,10,0:0:0:0:
200,235,99949,1,2,0:0:0:0:
127,218,100137,1,10,0:0:0:0:
291,186,100512,6,0,L|290:27,1,150,10|10,0:0|0:0,0:0:0:0:
217,41,101074,1,2,0:0:0:0:
140,105,101262,2,0,L|295:42,1,150,10|8,0:0|0:0,0:0:0:0:
115,256,102012,6,0,L|97:95,1,150,10|10,0:0|0:0,0:0:0:0:
255,130,102762,2,0,L|97:96,1,150,10|10,0:0|0:0,0:0:0:0:
277,235,103512,6,0,L|435:186,1,150,14|10,0:0|0:0,0:0:0:0:
269,334,104262,2,0,L|232:260,2,75,10|2|10,0:0|0:0|0:0,0:0:0:0:
421,350,105012,6,0,L|434:182,1,150,10|10,0:0|0:0,0:0:0:0:
277,80,105762,1,10,0:0:0:0:
259,153,105949,1,2,0:0:0:0:
241,226,106137,1,10,0:0:0:0:
77,310,106512,6,0,L|240:303,1,150,10|10,0:2|0:0,0:0:0:0:
72,230,107262,2,0,L|44:67,1,150,10|10,0:0|0:0,0:0:0:0:
209,108,108012,6,0,L|54:57,1,150,10|10,0:0|0:0,0:0:0:0:
219,64,108762,1,10,0:0:0:0:
237,137,108949,1,2,0:0:0:0:
255,210,109137,1,10,0:0:0:0:
427,337,109512,6,0,L|269:303,1,150,14|10,0:0|0:0,0:0:0:0:
127,279,110262,2,0,L|90:210,2,75,10|2|8,0:0|0:0|0:0,0:0:0:0:
286,193,111012,6,0,L|444:135,1,150,10|10,0:0|0:0,0:0:0:0:
266,115,111762,2,0,L|229:46,2,75,10|2|10,0:0|0:0|0:0,0:0:0:0:
437,299,112512,6,0,L|444:122,1,150,10|10,0:0|0:0,0:0:0:0:
366,143,113074,1,2,0:0:0:0:
287,175,113262,2,0,L|140:208,1,150,10|10,0:0|0:0,0:0:0:0:
305,267,114012,6,0,L|318:102,1,150,10|10,0:0|0:0,0:0:0:0:
160,92,114762,2,0,L|321:117,1,150,10|10,0:0|0:0,0:0:0:0:
137,270,115512,6,0,L|-2:346,1,150,10|10,0:0|0:0,0:0:0:0:
164,379,116262,1,10,0:0:0:0:
183,307,116449,1,2,0:0:0:0:
202,234,116637,1,10,0:0:0:0:
367,175,117012,6,0,L|209:184,1,150,10|10,0:0|0:0,0:0:0:0:
58,38,117762,1,10,0:0:0:0:
130,57,117949,1,2,0:0:0:0:
203,76,118137,1,10,0:0:0:0:
256,192,118512,12,2,120012,0:0:0:0:
461,152,121512,6,0,L|296:104,1,150,6|10,1:2|1:2,0:0:0:0:
164,160,122262,2,0,L|93:63,2,112.5,2|0|2,1:2|1:0|1:2,0:0:0:0:
254,186,123012,6,0,L|400:237,1,150,0|10,1:0|1:2,0:0:0:0:
238,317,123762,2,0,L|171:218,2,112.5,0|2|2,1:0|1:2|1:2,0:0:0:0:
327,348,124512,6,0,L|173:320,1,150,2|8,1:2|1:2,0:0:0:0:
29,280,125262,2,0,L|26:151,1,112.5,2|0,1:2|1:0,0:0:0:0:
151,140,125824,1,2,1:2:0:0:
226,127,126012,6,0,L|389:78,1,150,2|10,1:2|1:2,0:0:0:0:
216,251,126762,2,0,L|93:189,2,112.5,4|8|8,1:3|1:3|1:3,0:0:0:0:
305,260,127512,6,0,L|309:99,1,150,6|10,1:2|1:2,0:0:0:0:
460,58,128262,2,0,L|453:182,1,112.5,2|0,1:2|1:0,0:0:0:0:
337,209,128824,1,2,1:2:0:0:
258,229,129012,6,0,L|111:277,1,150,0|10,1:0|1:2,0:0:0:0:
274,344,129762,2,0,L|347:240,2,112.5,0|2|2,1:0|1:2|1:2,0:0:0:0:
184,348,130512,6,0,L|26:321,1,150,0|8,1:0|0:0,0:0:0:0:
208,255,131262,2,0,L|220:97,1,150,0|10,1:0|3:2,0:0:0:0:
144,88,131824,1,0,3:2:0:0:
66,83,132012,6,0,L|230:43,1,150,0|0,1:0|1:0,0:0:0:0:
366,75,132762,2,0,L|373:242,1,150,2|2,0:0|0:0,0:0:0:0:
203,284,133512,6,0,L|336:194,1,150,6|10,1:2|1:2,0:0:0:0:
480,96,134262,2,0,L|378:31,2,112.5,2|0|2,1:2|1:0|1:2,0:0:0:0:
390,139,135012,6,0,L|242:214,1,150,0|10,1:0|1:2,0:0:0:0:
421,303,135762,2,0,L|481:188,2,112.5,0|2|2,1:0|1:2|1:2,0:0:0:0:
332,325,136512,6,0,L|165:285,1,150,2|8,1:2|0:0,0:0:0:0:
38,268,137262,2,0,L|44:126,1,112.5,0|0,1:0|1:0,0:0:0:0:
164,139,137824,1,2,1:2:0:0:
244,121,138012,6,0,L|417:82,1,150,0|8,1:0|1:2,0:0:0:0:
234,235,138762,2,0,L|128:172,2,112.5,4|8|8,1:3|1:3|1:3,0:0:0:0:
324,257,139512,6,0,L|187:334,1,150,6|10,1:2|1:2,0:0:0:0:
342,362,140262,2,0,L|455:330,2,112.5,2|0|2,1:2|1:0|1:2,0:0:0:0:
254,365,141012,6,0,L|253:213,1,150,0|10,1:0|1:2,0:0:0:0:
418,198,141762,2,0,L|473:89,2,112.5,0|2|2,1:0|1:2|1:2,0:0:0:0:
341,233,142512,6,0,L|166:196,1,150,0|8,1:0|0:0,0:0:0:0:
357,333,143262,2,0,L|372:177,1,150,0|10,1:0|3:2,0:0:0:0:
296,158,143824,1,0,3:2:0:0:
217,146,144012,6,0,L|385:95,1,150,4|2,1:2|0:0,0:0:0:0:
202,54,144762,2,0,L|159:133,2,75,2|2|2,3:2|3:2|3:2,0:0:0:0:
383,57,145512,6,0,L|398:220,1,150,6|2,1:2|1:2,0:0:0:0:
246,275,146262,1,10,1:2:0:0:
171,264,146449,1,2,0:0:0:0:
97,253,146637,1,2,1:2:0:0:
263,178,147012,6,0,L|276:342,1,150,4|0,1:2|3:2,0:0:0:0:
428,335,147762,2,0,L|434:179,1,150,8|8,1:2|1:2,0:0:0:0:
356,171,148324,1,2,1:2:0:0:
271,149,148512,6,0,L|446:104,1,150,6|2,1:2|0:0,0:0:0:0:
256,268,149262,2,0,L|95:237,1,150,10|2,0:0|1:2,0:0:0:0:
185,206,149824,1,2,0:1:0:0:
272,196,150012,5,6,1:2:0:0:
112,130,150387,1,2,1:2:0:0:
279,93,150762,2,0,L|297:257,1,150,10|2,1:2|1:2,0:0:0:0:
126,329,151512,6,0,L|289:293,1,150,4|2,1:2|1:2,0:0:0:0:
114,214,152262,2,0,L|68:131,2,75,10|2|2,1:2|0:0|1:2,0:0:0:0:
289,204,153012,6,0,L|286:55,1,150,4|2,1:2|3:2,0:0:0:0:
128,53,153762,2,0,L|-4:135,1,150,8|2,1:2|1:2,0:0:0:0:
78,168,154324,1,2,1:2:0:0:
154,177,154512,6,0,L|318:209,1,150,6|0,1:2|0:0,0:0:0:0:
144,316,155262,2,0,L|126:156,1,150,6|2,1:2|0:1,0:0:0:0:
204,151,155824,1,2,0:1:0:0:
288,140,156012,5,6,1:2:0:0:
124,68,156387,1,10,1:2:0:0:
295,235,156762,2,0,L|457:234,1,150,10|12,1:2|0:3,0:0:0:0:
370,282,157324,1,12,0:3:0:0:
284,302,157512,5,6,1:2:0:0:
434,350,157887,1,2,1:2:0:0:
276,362,158262,2,0,L|231:280,2,75,10|2|2,1:2|0:0|1:2,0:0:0:0:
453,258,159012,6,0,L|457:106,1,150,4|2,1:2|3:2,0:0:0:0:
302,121,159762,2,0,L|127:86,1,150,10|10,1:2|1:2,0:0:0:0:
227,60,160324,1,2,1:2:0:0:
312,49,160512,5,6,1:2:0:0:
154,183,160887,1,2,0:1:0:0:
325,238,161262,2,0,L|359:164,2,75,10|2|2,1:2|0:0|1:2,0:0:0:0:
150,331,162012,6,0,L|226:277,1,75,6|2,1:2|0:0,0:0:0:0:
292,266,162387,1,2,1:2:0:0:
132,210,162762,2,0,L|15:106,1,150,10|2,1:2|1:2,0:0:0:0:
198,62,163512,6,0,L|208:220,1,150,6|2,1:2|1:2,0:0:0:0:
365,244,164262,2,0,L|394:173,2,75,10|2|2,1:2|0:0|1:2,0:0:0:0:
199,337,165012,6,0,L|352:289,1,150,4|2,1:2|3:2,0:0:0:0:
493,238,165762,2,0,L|488:86,1,150,10|10,1:2|1:2,0:0:0:0:
410,77,166324,1,2,1:2:0:0:
325,78,166512,5,6,1:2:0:0:
75,202,167262,2,0,L|233:162,1,150,6|2,1:2|0:1,0:0:0:0:
296,137,167824,1,2,0:1:0:0:
214,137,168012,6,0,L|63:121,1,150,6|2,1:2|3:2,0:0:0:0:
231,131,168762,2,0,L|274:54,2,75,2|2|2,0:0|3:2|3:2,0:0:0:0:
48,212,169512,5,4,0:0:0:0:
