osu file format v14

[General]
AudioFilename: audio.mp3
AudioLeadIn: 0
PreviewTime: 119829
Countdown: 0
SampleSet: Soft
StackLeniency: 0.2
Mode: 0
LetterboxInBreaks: 0
WidescreenStoryboard: 1

[Editor]
DistanceSpacing: 0.7
BeatDivisor: 6
GridSize: 8
TimelineZoom: 2.699999

[Metadata]
Title:Sengoku HOP
TitleUnicode:戦国HOP
Artist:YUC'e
ArtistUnicode:ゆーしえ
Creator:Nathan
Version:YOISHO
Source:
Tags:glitch hop gamu sukinathan appleeaterx athenarium
BeatmapID:1193089
BeatmapSetID:564329

[Difficulty]
HPDrainRate:6.5
CircleSize:4
OverallDifficulty:9
ApproachRate:9.5
SliderMultiplier:3.39999990463257
SliderTickRate:1

[Events]
//Background and Video events
0,0,"hop.jpg",0,0
//Break Periods
2,6255,12470
2,41573,47379
2,137573,143394
//Storyboard Layer 0 (Background)
//Storyboard Layer 1 (Fail)
//Storyboard Layer 2 (Pass)
//Storyboard Layer 3 (Foreground)
//Storyboard Sound Samples

[TimingPoints]
1011,545.454545454546,4,2,1,60,1,0
5919,-200,4,2,1,60,0,0
13010,-200,4,2,1,60,0,0
14100,-100,4,2,1,60,0,0
15192,545.454545454546,4,2,1,60,1,0
15464,-66.6666666666667,4,2,1,60,0,0
15737,-100,4,2,1,60,0,0
15919,-100,4,2,2,60,0,0
16282,-100,4,2,1,60,0,0
16555,-66.6666666666667,4,2,1,60,0,0
17919,-100,4,2,1,60,0,0
18192,-100,4,2,2,60,0,0
18464,-66.6666666666667,4,2,1,60,0,0
18737,-133.333333333333,4,2,1,60,0,0
19555,-100,4,2,1,60,0,0
19828,-66.6666666666667,4,2,1,60,0,0
20100,-100,4,2,1,60,0,0
20282,-100,4,2,2,60,0,0
20646,-100,4,2,1,60,0,0
21464,-66.6666666666667,4,2,1,60,0,0
22464,-100,4,2,2,60,0,0
22828,-133.333333333333,4,2,1,60,0,0
23373,-66.6666666666667,4,2,1,60,0,0
23646,-100,4,2,1,60,0,0
24191,-66.6666666666667,4,2,1,60,0,0
24646,-100,4,2,2,60,0,0
25010,-100,4,2,1,60,0,0
25282,-66.6666666666667,4,2,1,60,0,0
26919,-100,4,2,2,60,0,0
27191,-66.6666666666667,4,2,1,60,0,0
27464,-133.333333333333,4,2,1,60,0,0
28282,-100,4,2,1,60,0,0
28555,-66.6666666666667,4,2,1,60,0,0
29010,-100,4,2,2,60,0,0
29373,-100,4,2,1,60,0,0
30191,-66.6666666666667,4,2,1,60,0,0
31192,-100,4,2,2,60,0,0
31555,-133.333333333333,4,2,1,60,0,0
32100,-66.6666666666667,4,2,1,60,0,0
32646,-100,4,2,1,60,0,0
32919,-303.030303030303,4,2,1,60,0,0
33737,-100,4,2,1,60,0,0
34010,-66.6666666666667,4,2,1,60,0,0
34555,-303.030303030303,4,2,1,60,0,0
34828,-66.6666666666667,4,2,1,60,0,0
35646,-303.030303030303,4,2,1,60,0,0
35919,-66.6666666666667,4,2,1,60,0,0
36191,-303.030303030303,4,2,1,60,0,0
37010,-100,4,2,1,60,0,0
37282,-303.030303030303,4,2,1,60,0,0
38100,-100,4,2,1,60,0,0
38373,-303.030303030303,4,2,1,60,0,0
38646,-100,4,2,1,60,0,0
38919,-66.6666666666667,4,2,1,60,0,0
39191,-100,4,2,1,60,0,0
50100,-166.666666666667,4,2,1,60,0,0
58828,-100,4,2,1,60,0,0
64555,-66.6666666666667,4,2,1,60,0,0
67350,-66.6666666666667,4,2,1,5,0,0
67555,-52.6315789473684,4,2,1,60,0,1
68100,-66.6666666666667,4,2,1,60,0,1
68374,-66.6666666666667,4,2,1,60,0,1
68646,-58.8235294117647,4,2,1,60,0,1
68919,-66.6666666666667,4,2,1,60,0,1
69464,-52.6315789473684,4,2,1,60,0,1
69737,-100,4,2,1,60,0,1
70010,-66.6666666666667,4,2,1,60,0,1
70283,-66.6666666666667,4,2,1,60,0,1
70555,-133.333333333333,4,2,2,60,0,1
70828,-100,4,2,1,60,0,1
71100,-76.9230769230769,4,2,1,60,0,1
71373,-66.6666666666667,4,2,1,60,0,1
71646,-100,4,2,1,60,0,1
71919,-66.6666666666667,4,2,1,60,0,1
72191,-133.333333333333,4,2,1,60,0,1
72464,-66.6666666666667,4,2,1,60,0,1
72737,-100,4,2,1,60,0,1
73010,-100,4,2,2,60,0,1
73555,-66.6666666666667,4,2,1,60,0,1
73828,-52.6315789473684,4,2,1,60,0,1
74101,-50,4,2,2,80,0,0
74919,-100,4,2,2,80,0,0
75192,-200,4,2,1,60,0,0
76282,-52.6315789473684,4,2,1,60,0,1
76828,-66.6666666666667,4,2,1,60,0,1
77373,-58.8235294117647,4,2,1,60,0,1
77646,-71.4285714285714,4,2,1,60,0,1
78191,-52.6315789473684,4,2,1,60,0,1
78737,-66.6666666666667,4,2,1,60,0,1
79282,-66.6666666666667,4,2,2,60,0,1
79555,-100,4,2,1,60,0,1
80100,-66.6666666666667,4,2,1,60,0,1
80373,-100,4,2,1,60,0,1
80646,-66.6666666666667,4,2,1,60,0,1
80919,-133.333333333333,4,2,1,60,0,1
81191,-66.6666666666667,4,2,1,60,0,1
81737,-100,4,2,2,60,0,1
82282,-66.6666666666667,4,2,1,60,0,1
82555,-52.6315789473684,4,2,1,60,0,1
82828,-52.6315789473684,4,2,2,80,0,0
83919,-200,4,2,1,60,0,1
84373,-200,4,2,1,60,0,0
84737,-66.6666666666667,4,2,1,60,0,0
84805,-66.6666666666667,4,2,1,5,0,0
85010,-100,4,2,1,60,0,0
85555,-100,4,2,1,60,0,0
85828,-66.6666666666667,4,2,1,60,0,0
86101,-58.8235294117647,4,2,1,60,0,1
86373,-66.6666666666667,4,2,1,60,0,1
86919,-52.6315789473684,4,2,1,60,0,1
87464,-66.6666666666667,4,2,1,60,0,1
88010,-133.333333333333,4,2,2,60,0,1
88282,-100,4,2,1,60,0,1
88555,-66.6666666666667,4,2,1,60,0,1
89100,-100,4,2,1,60,0,1
89373,-66.6666666666667,4,2,1,60,0,1
89646,-133.333333333333,4,2,1,60,0,1
89919,-66.6666666666667,4,2,1,60,0,1
90464,-100,4,2,2,60,0,1
91010,-66.6666666666667,4,2,1,60,0,1
91282,-52.6315789473684,4,2,1,60,0,1
91555,-52.6315789473684,4,2,2,80,0,0
92373,-100,4,2,2,80,0,0
92646,-200,4,2,1,80,0,0
92737,-133.333333333333,4,2,1,80,0,0
93737,-52.6315789473684,4,2,1,60,0,1
94282,-66.6666666666667,4,2,1,60,0,1
94828,-58.8235294117647,4,2,1,60,0,1
95100,-66.6666666666667,4,2,1,60,0,1
95646,-52.6315789473684,4,2,1,60,0,1
96191,-100,4,2,1,60,0,1
96464,-66.6666666666667,4,2,1,60,0,1
96737,-133.333333333333,4,2,2,60,0,1
97010,-100,4,2,1,60,0,1
97555,-66.6666666666667,4,2,1,60,0,1
97828,-100,4,2,1,60,0,1
99737,-66.6666666666667,4,2,1,60,0,1
100010,-52.6315789473684,4,2,1,60,0,1
100282,-52.6315789473684,4,2,2,80,0,0
101373,-200,4,2,1,60,0,1
101828,-200,4,2,1,60,0,0
102191,-66.6666666666667,4,2,1,60,0,0
102260,-66.6666666666667,4,2,1,5,0,0
102464,-100,4,2,1,60,0,0
102737,-66.6666666666667,4,2,1,60,0,0
103192,-100,4,2,2,60,0,0
103555,-100,4,2,1,60,0,0
103828,-66.6666666666667,4,2,1,60,0,0
105464,-100,4,2,2,60,0,0
105737,-66.6666666666667,4,2,1,60,0,0
106010,-133.333333333333,4,2,1,60,0,0
106828,-100,4,2,1,60,0,0
107100,-66.6666666666667,4,2,1,60,0,0
107555,-100,4,2,2,60,0,0
107919,-100,4,2,1,60,0,0
108737,-66.6666666666667,4,2,1,60,0,0
109828,-100,4,2,1,60,0,0
110100,-133.333333333333,4,2,1,60,0,0
110646,-66.6666666666667,4,2,1,60,0,0
110919,-100,4,2,1,60,0,0
111464,-303.030303030303,4,2,1,60,0,0
112282,-100,4,2,1,60,0,0
112555,-66.6666666666667,4,2,1,60,0,0
113100,-303.030303030303,4,2,1,60,0,0
113373,-66.6666666666667,4,2,1,60,0,0
114191,-303.030303030303,4,2,1,60,0,0
114464,-66.6666666666667,4,2,1,60,0,0
114737,-303.030303030303,4,2,1,60,0,0
115555,-100,4,2,1,60,0,0
115828,-303.030303030303,4,2,1,60,0,0
116646,-100,4,2,1,60,0,0
116919,-303.030303030303,4,2,1,60,0,0
117191,-100,4,2,1,60,0,0
117464,-66.6666666666667,4,2,1,60,0,0
117737,-100,4,2,1,60,0,0
119919,-41.6666666666667,4,2,1,60,0,1
120464,-41.6666666666667,4,2,1,60,0,0
121010,-41.6666666666667,4,2,1,60,0,1
121555,-41.6666666666667,4,2,1,60,0,0
122101,-41.6666666666667,4,2,1,60,0,1
122646,-41.6666666666667,4,2,1,60,0,0
123192,-34.4827586206897,4,2,1,60,0,1
123737,-66.6666666666667,4,2,1,60,0,1
124010,-66.6666666666667,4,2,1,60,0,1
124192,-41.6666666666667,4,2,1,60,0,1
124282,-41.6666666666667,4,2,1,60,0,1
124828,-41.6666666666667,4,2,1,60,0,0
125373,-41.6666666666667,4,2,1,60,0,1
125919,-41.6666666666667,4,2,1,60,0,0
126464,-41.6666666666667,4,2,1,60,0,1
127101,-41.6666666666667,4,2,2,60,0,0
127555,-34.4827586206897,4,2,1,60,0,1
127828,-303.030303030303,4,2,1,60,0,1
128100,-34.4827586206897,4,2,1,60,0,1
128373,-303.030303030303,4,2,1,60,0,1
128555,-41.6666666666667,4,2,1,60,0,1
128646,-38.4615384615385,4,2,1,60,0,1
129464,-303.030303030303,4,2,1,60,0,1
129737,-38.4615384615385,4,2,1,60,0,1
131646,-303.030303030303,4,2,1,60,0,1
131919,-32.258064516129,4,2,1,60,0,1
133010,-35.7142857142857,4,2,1,60,0,1
133828,-303.030303030303,4,2,1,60,0,1
134100,-35.7142857142857,4,2,1,60,0,1
135191,-50,4,2,1,60,0,1
136282,-50,4,2,1,60,0,1
136828,-50,4,2,1,60,0,1
137373,-50,4,2,1,60,0,0
146100,-166.666666666667,4,2,1,60,0,0
154828,-100,4,2,1,60,0,0
160555,-66.6666666666667,4,2,1,60,0,0
163282,-66.6666666666667,4,2,1,60,0,0
163350,-66.6666666666667,4,2,1,5,0,0
163555,-52.6315789473684,4,2,1,60,0,1
164100,-66.6666666666667,4,2,1,60,0,1
164646,-58.8235294117647,4,2,1,60,0,1
164919,-66.6666666666667,4,2,1,60,0,1
165464,-52.6315789473684,4,2,1,60,0,1
166010,-66.6666666666667,4,2,1,60,0,1
166555,-133.333333333333,4,2,2,60,0,1
166828,-100,4,2,1,60,0,1
167100,-76.9230769230769,4,2,1,60,0,1
167373,-66.6666666666667,4,2,1,60,0,1
167646,-100,4,2,1,60,0,1
167919,-66.6666666666667,4,2,1,60,0,1
168191,-133.333333333333,4,2,1,60,0,1
168464,-66.6666666666667,4,2,1,60,0,1
169010,-100,4,2,2,60,0,1
169555,-66.6666666666667,4,2,1,60,0,1
169828,-52.6315789473684,4,2,1,60,0,1
170101,-52.6315789473684,4,2,2,60,0,0
170919,-100,4,2,2,60,0,0
171191,-200,4,2,1,60,0,0
172282,-52.6315789473684,4,2,1,60,0,1
172828,-66.6666666666667,4,2,1,60,0,1
173373,-58.8235294117647,4,2,1,60,0,1
174191,-52.6315789473684,4,2,1,60,0,1
174737,-66.6666666666667,4,2,1,60,0,1
175282,-133.333333333333,4,2,2,60,0,1
175555,-100,4,2,1,60,0,1
176100,-66.6666666666667,4,2,1,60,0,1
176373,-100,4,2,1,60,0,1
176646,-66.6666666666667,4,2,1,60,0,1
176919,-133.333333333333,4,2,1,60,0,1
177191,-66.6666666666667,4,2,1,60,0,1
177737,-100,4,2,2,60,0,1
178282,-66.6666666666667,4,2,1,60,0,1
178555,-52.6315789473684,4,2,1,60,0,1
178828,-52.6315789473684,4,2,2,60,0,0
179919,-200,4,2,1,60,0,1
180373,-200,4,2,1,60,0,0
180737,-66.6666666666667,4,2,1,60,0,0
180805,-66.6666666666667,4,2,1,5,0,0
181010,-100,4,2,1,60,0,0
182101,-58.8235294117647,4,2,1,60,0,1
182373,-66.6666666666667,4,2,1,60,0,1
182919,-52.6315789473684,4,2,1,60,0,1
183464,-66.6666666666667,4,2,1,60,0,1
184010,-133.333333333333,4,2,2,60,0,1
184282,-100,4,2,1,60,0,1
184555,-76.9230769230769,4,2,1,60,0,1
184828,-66.6666666666667,4,2,1,60,0,1
185100,-100,4,2,1,60,0,1
185373,-66.6666666666667,4,2,1,60,0,1
185646,-133.333333333333,4,2,1,60,0,1
185919,-66.6666666666667,4,2,1,60,0,1
186464,-100,4,2,2,60,0,1
187010,-66.6666666666667,4,2,1,60,0,1
187282,-52.6315789473684,4,2,1,60,0,1
187555,-52.6315789473684,4,2,2,60,0,0
188373,-100,4,2,2,60,0,0
188646,-200,4,2,1,60,0,0
188737,-133.333333333333,4,2,1,60,0,0
189737,-52.6315789473684,4,2,1,60,0,1
190282,-66.6666666666667,4,2,1,60,0,1
190828,-58.8235294117647,4,2,1,60,0,1
191100,-66.6666666666667,4,2,1,60,0,1
191646,-52.6315789473684,4,2,1,60,0,1
192191,-66.6666666666667,4,2,1,60,0,1
192737,-133.333333333333,4,2,2,60,0,1
193010,-100,4,2,1,60,0,1
193555,-66.6666666666667,4,2,1,60,0,1
193828,-100,4,2,1,60,0,1
195737,-66.6666666666667,4,2,1,60,0,1
196010,-52.6315789473684,4,2,1,60,0,1
196282,-52.6315789473684,4,2,2,60,0,0
197373,-200,4,2,1,60,0,1
197828,-200,4,2,1,60,0,0
198191,-66.6666666666667,4,2,1,60,0,0
198260,-66.6666666666667,4,2,1,5,0,0
198464,-66.6666666666667,4,2,1,60,0,0
201737,-66.6666666666667,4,2,1,5,0,0

[Colours]
Combo1 : 255,234,168
Combo2 : 121,205,255
Combo3 : 251,132,135
Combo4 : 254,148,254

[HitObjects]
256,192,873,12,0,5271,1:0:0:0:
256,192,5919,6,0,P|254:235|257:264,1,42.4999988079071,0|0,1:0|1:0,1:0:0:0:
121,246,13011,6,2,P|3:280|118:324,1,311.666657924652,2|0,0:0|0:0,0:0:0:0:
177,379,14100,5,0,1:0:0:0:
292,330,14373,1,0,1:0:0:0:
196,257,14555,1,0,1:0:0:0:
188,294,14646,1,0,1:0:0:0:
296,130,14828,1,0,1:0:0:0:
313,212,14919,2,0,P|343:208|376:201,2,56.6666634877523,0|0|0,1:0|1:0|1:0,1:0:0:0:
212,115,15191,6,0,P|203:156|211:260,1,113.333326975505,4|0,3:2|0:0,0:0:0:0:
256,310,15464,2,0,B|203:321|137:323|137:323|215:373,1,169.999996948242,2|0,0:1|0:0,0:0:0:0:
327,350,15737,5,8,0:0:0:0:
349,355,15919,1,2,0:0:0:0:
333,274,16010,6,0,L|468:295,1,113.333326975505,2|2,0:0|0:0,0:0:0:0:
429,115,16282,2,0,B|322:126,1,56.6666634877523,0|0,3:0|0:0,0:0:0:0:
283,203,16464,1,0,0:0:0:0:
366,196,16555,2,0,B|410:158|410:158|406:113|381:17,1,169.999996948242,2|0,0:1|0:0,0:0:0:0:
283,203,16828,6,0,L|296:308,1,85.000000858307,8|0,0:0|0:0,0:0:0:0:
507,134,17010,1,0,0:0:0:0:
507,134,17100,1,0,0:0:0:0:
307,28,17282,1,0,0:0:0:0:
307,28,17373,6,0,B|246:33|246:33|193:15|193:15|144:49,1,169.999996948242,2|0,3:1|0:0,0:0:0:0:
103,192,17646,2,0,B|164:187|164:187|217:205|217:205|266:171,1,169.999996948242,2|0,3:1|0:0,0:0:0:0:
191,111,17919,5,8,0:0:0:0:
214,110,18100,1,0,0:0:0:0:
294,102,18191,6,0,L|381:95,2,56.6666634877523,2|2|2,0:0|0:0|0:0,0:0:0:0:
415,204,18464,6,0,B|471:237|471:237|512:192|512:192|512:142,1,169.999996948242,2|0,3:1|0:0,0:0:0:0:
442,35,18737,6,0,P|430:80|431:135,1,84.9999984741211
327,229,19010,2,0,L|329:186,5,42.4999992370606,8|0|0|0|0|0,0:0|0:0|0:0|0:0|0:0|0:0,0:0:0:0:
387,318,19555,6,0,L|244:330,1,113.333326975505,4|0,3:2|0:0,0:0:0:0:
91,266,19828,6,0,B|151:250|151:250|211:259|211:259|183:297,1,169.999996948242,2|0,0:1|0:0,0:0:0:0:
22,332,20100,5,8,0:0:0:0:
22,309,20282,1,2,0:0:0:0:
21,234,20373,6,0,L|25:85,1,113.333326975505,2|2,0:0|0:0,0:0:0:0:
13,35,20646,6,0,B|62:34|79:56|79:56|79:57|63:71|88:82|68:99,1,56.6666650772095,0|0,3:0|0:0,0:0:0:0:
157,145,20828,1,0,0:0:0:0:
157,145,20919,2,0,B|154:99|154:99|151:59|152:76|171:68|152:77|172:93,2,56.6666650772095
190,236,21191,2,0,P|246:239|301:225,1,113.333326975505,8|0,0:0|0:0,0:0:0:0:
316,70,21464,6,0,B|284:103|284:103|284:166|308:251,1,169.999996948242,2|0,0:1|0:0,0:0:0:0:
430,379,21737,6,0,B|410:262|410:262|359:317,1,169.999996948242,2|0,3:1|0:0,0:0:0:0:
244,315,22010,2,0,B|210:353|210:353|190:236,1,169.999996948242,2|0,3:1|0:0,0:0:0:0:
301,225,22282,5,8,0:0:0:0:
299,207,22464,1,2,0:0:0:0:
242,149,22555,6,0,P|232:102|251:36,1,113.333326975505,2|0,0:0|0:0,0:0:0:0:
242,149,22828,6,0,B|187:124|187:124|145:138|145:138|109:113|109:113|40:124,1,212.499996185303,4|0,3:2|0:0,0:0:0:0:
130,273,23373,6,0,P|210:220|177:138,1,169.999996948242
110,43,23646,5,0,0:0:0:0:
113,82,23737,1,0,0:0:0:0:
115,121,23828,1,0,0:0:0:0:
118,160,23919,6,0,L|132:300,1,113.333326975505,4|0,3:2|0:0,0:0:0:0:
298,350,24191,2,0,B|305:285|305:285|278:232|278:232|244:268,1,169.999996948242,2|0,0:1|0:0,0:0:0:0:
189,352,24464,5,8,0:0:0:0:
166,349,24646,1,2,0:0:0:0:
129,272,24737,6,0,L|-1:260,1,113.333326975505,2|2,0:0|0:0,0:0:0:0:
202,147,25010,2,0,L|208:203,1,56.6666634877523,0|0,3:0|0:0,0:0:0:0:
265,368,25191,1,0,0:0:0:0:
175,350,25282,6,0,B|147:318|147:318|152:234|152:234|197:200,1,169.999996948242,2|0,0:1|0:0,0:0:0:0:
251,282,25555,5,8,0:0:0:0:
155,78,25737,1,0,0:0:0:0:
155,78,25828,1,0,0:0:0:0:
376,93,26010,1,0,0:0:0:0:
376,93,26100,6,0,B|448:85|448:85|497:132|497:132|444:140,1,169.999996948242,2|0,3:1|0:0,0:0:0:0:
413,307,26373,2,0,B|340:314|340:314|291:267|291:267|344:259,1,169.999996948242,2|0,3:1|0:0,0:0:0:0:
400,188,26646,5,8,0:0:0:0:
402,206,26828,1,0,0:0:0:0:
328,161,26919,6,0,L|271:154,2,56.6666634877523,2|2|2,0:0|0:0|0:0,0:0:0:0:
185,216,27191,6,0,B|201:180|201:180|192:139|192:139|213:106|213:106|190:50,1,169.999996948242,2|0,3:1|0:0,0:0:0:0:
103,11,27464,6,0,P|104:53|119:92,1,84.9999984741211
278,51,27737,2,0,P|298:45|319:42,5,42.4999992370606,8|0|0|0|0|0,0:0|0:0|0:0|0:0|0:0|0:0,0:0:0:0:
291,206,28282,6,0,P|300:225|319:314,1,113.333326975505,4|0,3:2|0:0,0:0:0:0:
131,214,28555,2,0,B|110:152|139:97|139:97|220:157,1,169.999996948242,2|0,0:1|0:0,0:0:0:0:
227,281,28828,5,8,0:0:0:0:
201,283,29010,1,2,0:0:0:0:
127,339,29100,6,0,B|45:346|45:346|19:328,1,113.333326975505,2|2,0:0|0:0,0:0:0:0:
254,278,29373,2,0,L|249:370,1,56.6666634877523,0|0,3:0|0:0,0:0:0:0:
135,218,29555,1,0,0:0:0:0:
135,218,29646,2,0,L|131:161,2,56.6666634877523
239,181,29919,2,0,B|253:121|253:121|223:78|223:78|221:53|235:33|221:53|206:35,1,113.333330154419,8|0,0:0|0:0,0:0:0:0:
142,19,30191,6,0,B|174:58|174:58|233:68|287:34,1,169.999996948242,2|0,0:1|0:0,0:0:0:0:
391,133,30464,6,0,B|443:135|518:115|518:115|462:172,1,169.999996948242,2|0,3:1|0:0,0:0:0:0:
257,194,30737,2,0,B|204:196|129:176|129:176|185:233,1,169.999996948242,2|0,3:1|0:0,0:0:0:0:
379,261,31010,5,8,0:0:0:0:
403,253,31191,1,2,0:0:0:0:
339,194,31282,6,0,P|330:143|337:53,1,113.333326975505,2|0,0:0|0:0,0:0:0:0:
339,194,31555,6,0,B|374:272|325:274|350:349|350:349|274:311,1,212.499996185303,4|0,3:2|0:0,0:0:0:0:
223,252,32100,6,0,P|158:294|194:363,1,169.999996948242
233,219,32373,5,0,0:0:0:0:
173,222,32464,1,0,0:0:0:0:
132,265,32555,1,0,0:0:0:0:
132,324,32646,6,0,L|4:336,1,113.333326975505,4|0,3:2|0:0,0:0:0:0:
106,152,32919,6,0,L|110:115,1,37.3999977877808
36,212,33191,5,8,0:0:0:0:
13,216,33373,1,0,0:0:0:0:
21,134,33464,6,0,L|25:97,1,37.3999977877808
106,152,33737,6,0,P|162:147|216:131,1,113.333326975505,2|0,3:1|0:0,0:0:0:0:
241,16,34010,2,0,B|203:37|184:69|184:69|196:117|223:150,1,169.999996948242,2|0,0:1|0:0,0:0:0:0:
327,97,34282,5,8,0:0:0:0:
353,93,34464,1,0,0:0:0:0:
436,97,34555,6,0,L|430:52,1,37.3999977877808
480,181,34828,6,0,B|432:206|432:206|389:183|389:183|310:193,1,169.999996948242,2|0,3:1|0:0,0:0:0:0:
274,373,35100,2,0,B|321:347|321:347|364:370|364:370|431:362,1,169.999996948242,2|0,3:1|0:0,0:0:0:0:
258,252,35373,5,8,0:0:0:0:
261,273,35555,1,0,0:0:0:0:
184,222,35646,6,0,L|190:177,1,37.3999977877808
261,123,35919,6,0,B|203:99|203:99|138:106|138:106|160:53,1,169.999996948242,2|0,3:1|0:0,0:0:0:0:
329,48,36191,6,0,L|335:93,1,37.3999977877808,0|0,1:0|1:0,0:0:0:0:
189,185,36464,2,0,L|183:230,1,37.3999977877808,8|0,0:0|1:0,0:0:0:0:
349,299,36737,2,0,L|355:344,1,37.3999977877808,0|0,3:0|1:0,0:0:0:0:
276,207,37010,6,0,L|397:193,1,113.333326975505,4|0,3:2|0:0,0:0:0:0:
452,93,37282,6,0,L|447:55,1,37.3999977877808
472,176,37555,5,8,0:0:0:0:
475,195,37737,1,0,0:0:0:0:
389,194,37828,6,0,L|384:156,1,37.3999977877808
394,310,38100,6,0,B|343:325|343:325|267:311,1,113.333326975505,0|0,3:0|0:0,0:0:0:0:
167,316,38373,6,0,L|171:278,1,37.3999977877808
83,218,38646,6,0,L|68:105,1,113.333326975505,8|0,0:0|0:0,0:0:0:0:
257,95,38919,2,0,B|245:220|245:220|197:145,1,169.999996948242,0|0,0:1|0:0,0:0:0:0:
200,31,39191,5,0,3:0:0:0:
248,17,39282,1,0,1:0:0:0:
297,25,39373,1,0,1:0:0:0:
327,64,39464,1,0,1:0:0:0:
333,112,39555,1,0,1:0:0:0:
310,157,39646,1,0,1:0:0:0:
252,184,39737,5,8,0:0:0:0:
230,242,39828,1,0,1:0:0:0:
250,301,39919,1,0,1:0:0:0:
302,336,40010,1,0,1:0:0:0:
363,327,40100,1,0,1:0:0:0:
397,274,40191,1,0,1:0:0:0:
315,248,40282,5,4,3:2:0:0:
303,250,40373,1,0,1:0:0:0:
291,252,40464,1,0,1:0:0:0:
279,254,40555,1,0,1:0:0:0:
267,256,40646,1,0,1:0:0:0:
255,258,40737,1,0,1:0:0:0:
243,260,40828,1,0,1:0:0:0:
231,262,40919,1,0,1:0:0:0:
219,264,41010,1,0,1:0:0:0:
208,266,41100,1,0,1:0:0:0:
196,268,41191,1,0,1:0:0:0:
184,270,41282,1,0,1:0:0:0:
172,272,41373,5,4,0:0:0:0:
256,192,47919,12,0,49828,0:0:0:0:
116,116,50100,6,0,L|108:300,1,169.999985275269,4|0,3:2|0:0,0:0:0:0:
142,291,50646,5,0,3:0:0:0:
88,115,50919,1,0,0:0:0:0:
160,201,51191,5,0,3:0:0:0:
82,198,51464,1,0,0:0:0:0:
243,206,51737,5,0,3:0:0:0:
243,206,52010,1,0,0:0:0:0:
442,275,52282,6,0,P|387:253|289:331,1,169.999985275269,4|0,3:2|0:0,0:0:0:0:
291,336,52828,5,0,3:0:0:0:
456,303,53100,1,0,0:0:0:0:
353,221,53373,5,0,3:0:0:0:
370,305,53646,1,0,0:0:0:0:
331,134,53919,5,0,3:0:0:0:
331,134,54191,2,0,L|323:84,2,33.9999970550538
196,169,54464,1,4,3:2:0:0:
353,221,54737,5,0,0:0:0:0:
267,218,55010,1,0,3:0:0:0:
196,169,55282,1,0,0:0:0:0:
432,183,55555,5,0,3:0:0:0:
186,255,55828,1,0,0:0:0:0:
322,24,56100,1,0,3:0:0:0:
424,269,56373,1,0,0:0:0:0:
51,33,56646,5,4,3:2:0:0:
256,192,56737,12,0,58555,0:0:0:0:
412,166,58828,6,0,L|279:153,1,113.333326975505,4|0,1:2|0:0,0:0:0:0:
214,145,59100,5,0,0:0:0:0:
191,142,59282,1,0,0:0:0:0:
185,231,59373,6,0,P|130:215|82:185,1,113.333330154419,0|0,1:0|0:0,0:0:0:0:
171,53,59646,2,0,B|223:26|282:31|282:31|268:48|292:61|274:75,1,113.333330154419
346,80,59919,5,0,1:0:0:0:
344,102,60100,1,0,0:0:0:0:
428,53,60191,5,0,0:0:0:0:
195,146,60373,1,0,1:0:0:0:
195,146,60464,1,0,1:0:0:0:
408,290,60646,1,0,0:0:0:0:
408,290,60737,5,0,0:0:0:0:
409,256,60828,1,0,0:0:0:0:
410,222,60919,1,0,1:0:0:0:
412,188,61010,6,0,P|343:200|261:180,1,113.333326975505,0|0,1:0|0:0,0:0:0:0:
176,93,61282,2,0,P|193:132|191:181,1,56.6666634877523
248,299,61464,1,0,1:0:0:0:
215,220,61555,6,0,P|239:154|297:93,1,113.333326975505,0|0,1:0|0:0,0:0:0:0:
164,289,61828,2,0,P|158:316|145:341,2,56.6666634877523,0|0|0,1:0|1:0|1:0,1:0:0:0:
77,286,62100,5,0,1:0:0:0:
52,262,62191,1,0,1:0:0:0:
34,234,62282,1,0,1:0:0:0:
23,201,62373,1,0,1:0:0:0:
22,168,62464,1,0,1:0:0:0:
29,135,62555,1,0,1:0:0:0:
45,104,62646,2,0,L|42:35,1,56.6666634877523,0|0,1:0|1:0,1:0:0:0:
129,142,62828,1,0,3:0:0:0:
200,86,62919,1,0,1:0:0:0:
200,86,63191,5,0,1:0:0:0:
220,301,63373,1,0,1:0:0:0:
220,301,63464,1,0,1:0:0:0:
422,73,63646,1,0,1:0:0:0:
441,73,63737,1,0,1:0:0:0:
199,196,63919,1,0,1:0:0:0:
158,200,64010,1,0,1:0:0:0:
379,159,64191,1,0,1:0:0:0:
438,230,64282,6,0,L|494:232,2,56.6666634877523,0|0|0,1:0|1:0|1:0,1:0:0:0:
238,119,64555,2,0,L|231:21,2,84.9999984741211,0|0|0,1:0|1:0|1:0,1:0:0:0:
379,159,64828,5,0,1:0:0:0:
345,155,64919,1,0,1:0:0:0:
313,168,65010,1,0,1:0:0:0:
285,187,65100,5,0,1:0:0:0:
235,198,65191,1,0,1:0:0:0:
188,176,65282,1,0,1:0:0:0:
115,103,65373,5,4,1:2:0:0:
360,262,67010,5,0,1:0:0:0:
360,262,67282,6,0,L|441:289,1,63.7499988555908,2|0,0:0|0:0,0:0:0:0:
360,262,67555,6,0,B|447:291|447:291|534:253|534:253|496:224,1,215.333315503439,6|0,3:1|0:0,0:0:0:0:
398,190,67828,5,0,0:0:0:0:
401,172,68010,1,0,0:0:0:0:
445,104,68100,6,0,B|415:86|415:86|367:96|367:96|323:78|323:78|286:90,1,169.999996948242,10|0,0:1|0:0,0:0:0:0:
157,34,68373,5,0,0:0:0:0:
197,20,68464,1,0,0:0:0:0:
238,30,68555,1,0,0:0:0:0:
203,95,68646,6,0,B|157:98|157:98|118:64|118:64|74:67|74:67|47:109,1,192.666659533183,2|0,3:1|0:0,0:0:0:0:
78,217,68919,2,2,L|86:309,2,84.9999984741211
276,151,69191,2,0,B|293:195|293:195|277:244,1,84.9999984741211,12|0,0:0|0:0,0:0:0:0:
219,360,69373,1,0,0:0:0:0:
170,296,69464,6,0,B|157:149|157:149|208:193,1,215.333315503439,2|0,0:1|0:0,0:0:0:0:
283,254,69737,5,0,3:0:0:0:
286,278,69919,1,0,0:0:0:0:
367,241,70010,6,0,L|451:232,2,84.9999984741211,2|0|0,0:0|0:0|0:0,0:0:0:0:
309,125,70282,2,0,B|304:173|304:173|267:219|267:219|286:278,1,169.999996948242,10|0,0:1|0:0,0:0:0:0:
375,355,70555,1,2,0:0:0:0:
384,354,70646,1,2,0:0:0:0:
393,352,70737,1,2,0:0:0:0:
405,350,70828,6,0,L|494:339,2,56.6666634877523,0|0|0,3:0|0:0|0:0,0:0:0:0:
286,278,71101,2,0,L|360:269,1,73.666659161886,2|0,0:0|0:0,0:0:0:0:
487,172,71282,1,0,0:0:0:0:
487,172,71373,2,0,B|448:168|448:168|408:193|408:193|363:178|363:178|284:201,1,169.999996948242,14|0,0:0|0:0,0:0:0:0:
154,119,71646,2,0,L|250:109,1,56.6666650772095,0|0,1:0|1:0,1:0:0:0:
330,55,71828,1,8,0:0:0:0:
252,110,71919,6,0,B|261:169|261:169|238:215|238:215|252:280,1,169.999996948242,4|0,3:2|0:0,0:0:0:0:
339,223,72191,6,0,P|352:172|334:113,1,84.9999984741211
177,153,72464,6,0,B|147:151|147:151|128:157|128:157|86:154,2,84.9999984741211,8|0|0,0:0|0:0|0:0,0:0:0:0:
330,55,72737,5,2,0:0:0:0:
352,52,72919,1,0,0:0:0:0:
347,140,73010,6,0,L|460:130,1,113.333326975505,0|0,3:0|0:0,0:0:0:0:
504,76,73282,2,0,B|484:125|484:125|512:178,1,113.333326975505,2|2,0:0|0:0,0:0:0:0:
355,225,73555,6,0,L|346:128,1,84.9999984741211,12|0,0:0|0:0,0:0:0:0:
337,13,73737,1,0,0:0:0:0:
406,77,73828,6,0,B|372:79|372:79|347:99|347:99|274:73|274:73|244:90|244:90|206:91,1,215.333315503439,2|0,0:1|0:0,0:0:0:0:
89,99,74100,5,6,3:2:0:0:
274,225,74282,1,2,0:0:0:0:
160,231,74373,5,2,0:0:0:0:
320,85,74555,1,2,0:0:0:0:
206,91,74646,5,2,0:0:0:0:
386,216,74828,1,2,0:0:0:0:
274,225,74919,6,0,L|269:281,2,56.6666634877523,2|2|2,0:0|0:0|0:0,0:0:0:0:
452,92,75192,5,6,3:2:0:0:
452,92,75464,1,2,0:0:0:0:
452,92,75737,1,2,0:0:0:0:
185,73,75919,1,0,0:0:0:0:
185,73,76010,1,0,0:0:0:0:
185,73,76282,6,0,B|263:42|261:98|345:78|345:78|305:137,1,215.333315503439,6|0,3:1|0:0,0:0:0:0:
151,174,76555,5,0,0:0:0:0:
149,152,76737,1,0,0:0:0:0:
227,142,76828,6,0,B|228:164|238:184|238:184|221:219|221:219|233:260|233:260|222:279|220:301,1,169.999996948242,10|0,0:1|0:0,0:0:0:0:
392,263,77100,5,0,0:0:0:0:
405,222,77191,1,0,0:0:0:0:
393,181,77282,1,0,0:0:0:0:
318,224,77373,6,0,B|312:292|312:292|349:336|349:336|420:339,1,192.666659533183,2|0,3:1|0:0,0:0:0:0:
497,251,77646,2,0,B|503:213|503:213|489:174,2,79.3333264617923,2|2|2,0:0|0:0|0:0,0:0:0:0:
450,77,77919,2,0,P|409:73|356:91,1,79.3333286870323,12|0,0:0|0:0,0:0:0:0:
222,155,78100,1,0,0:0:0:0:
284,94,78191,6,0,B|358:89|358:89|427:115|427:115|368:173,1,215.333315503439,2|0,0:1|0:0,0:0:0:0:
202,154,78464,5,0,3:0:0:0:
183,152,78646,1,0,0:0:0:0:
103,157,78737,6,0,L|108:72,2,84.9999984741211,2|0|0,0:0|0:0|0:0,0:0:0:0:
258,31,79010,2,0,B|286:65|301:97|301:97|291:136|261:179,1,169.999996948242,10|0,0:1|0:0,0:0:0:0:
176,259,79282,1,2,0:0:0:0:
177,242,79373,1,2,0:0:0:0:
178,225,79464,1,2,0:0:0:0:
179,208,79555,6,0,L|183:143,1,56.6666634877523,0|0,3:0|0:0,0:0:0:0:
259,265,79737,1,2,0:0:0:0:
343,230,79828,5,2,0:0:0:0:
345,207,80010,1,0,0:0:0:0:
412,281,80100,6,0,B|445:316|445:316|453:184,1,169.999996948242,14|0,0:0|0:0,0:0:0:0:
407,91,80373,2,0,B|397:66|397:66|405:37,1,56.6666634877523,0|0,1:0|1:0,1:0:0:0:
508,31,80555,1,8,0:0:0:0:
506,132,80646,6,0,B|450:107|450:107|400:134|400:134|334:138,1,170.000001716614,6|0,3:1|0:0,0:0:0:0:
279,54,80919,6,0,P|236:58|199:78,1,84.9999984741211
292,216,81191,6,0,B|331:237|331:237|374:234,2,85.000000858307,8|0|0,0:0|0:0|0:0,0:0:0:0:
125,133,81464,5,2,0:0:0:0:
122,110,81646,1,0,0:0:0:0:
206,160,81737,6,0,L|215:283,1,113.333326975505,0|0,3:0|0:0,0:0:0:0:
327,292,82010,2,0,B|271:309|271:309|216:301,1,113.333326975505,0|2,0:0|0:0,0:0:0:0:
299,127,82282,6,0,L|384:134,1,84.9999984741211,12|0,0:0|0:0,0:0:0:0:
437,312,82464,1,0,0:0:0:0:
410,229,82555,6,0,B|346:214|346:214|293:266|325:357,1,215.333315503439,2|0,0:1|0:0,0:0:0:0:
494,249,82828,5,6,3:2:0:0:
262,162,83010,1,2,0:0:0:0:
269,273,83100,5,2,0:0:0:0:
487,138,83282,1,2,0:0:0:0:
494,249,83373,5,2,0:0:0:0:
369,65,83555,1,2,0:0:0:0:
376,176,83646,5,0,1:0:0:0:
378,199,83828,1,0,1:0:0:0:
305,128,83919,6,0,B|274:136|246:120|246:120|217:123|196:133,1,113.333326975505,6|0,3:1|0:0,0:0:0:0:
441,113,84373,1,4,3:2:0:0:
441,113,84737,6,0,P|484:114|516:106,1,63.7499988555908,2|0,0:0|0:0,0:0:0:0:
441,113,85010,6,0,P|442:74|448:53,2,56.6666634877523,2|0|0,0:0|0:0|0:0,0:0:0:0:
372,231,85282,1,2,0:0:0:0:
251,148,85464,1,0,0:0:0:0:
251,148,85555,6,0,P|269:201|271:257,1,113.333330154419,8|0,0:0|0:0,0:0:0:0:
191,364,85828,5,0,0:0:0:0:
191,364,85919,1,0,0:0:0:0:
191,364,86010,1,0,0:0:0:0:
191,364,86100,6,0,B|109:379|40:351|40:351|63:320,1,192.666659533183,4|0,3:2|0:0,0:0:0:0:
189,260,86373,2,0,B|230:247|230:247|271:257,2,84.9999984741211,2|2|2,0:0|0:0|0:0,0:0:0:0:
67,173,86646,2,0,B|54:132|54:132|64:91,1,84.9999984741211,12|0,0:0|0:0,0:0:0:0:
186,48,86828,1,0,0:0:0:0:
145,127,86919,6,0,B|194:119|232:161|232:161|286:141|286:141|345:148,1,215.333315503439,2|0,0:1|0:0,0:0:0:0:
460,161,87191,5,0,3:0:0:0:
480,164,87373,1,0,0:0:0:0:
394,226,87464,6,0,B|334:232|334:232|303:221,2,84.9999984741211,2|0|0,0:0|0:0|0:0,0:0:0:0:
480,335,87737,2,0,B|434:341|399:307|399:307|360:311|317:329,1,169.999996948242,10|0,0:1|0:0,0:0:0:0:
235,278,88010,1,2,0:0:0:0:
234,287,88100,1,2,0:0:0:0:
233,296,88191,1,2,0:0:0:0:
232,305,88282,6,0,L|225:390,2,56.6666634877523,0|0|0,3:0|0:0|0:0,0:0:0:0:
149,245,88555,2,0,B|133:206|133:206|168:152,1,84.9999984741211,2|0,0:0|0:0,0:0:0:0:
327,147,88737,1,0,0:0:0:0:
327,147,88828,2,0,B|336:194|301:222|301:222|330:261|317:304,1,169.999996948242,14|0,0:0|0:0,0:0:0:0:
243,155,89101,2,0,L|250:70,1,56.6666634877523,0|0,1:0|1:0,1:0:0:0:
249,8,89282,1,8,0:0:0:0:
222,100,89373,6,0,B|155:91|155:91|107:47|134:-1,1,169.999996948242,4|0,3:2|0:0,0:0:0:0:
325,62,89646,6,0,P|368:70|410:70,1,85.000000858307
201,186,89919,6,0,B|171:183|171:183|150:192|150:192|118:188,2,84.9999984741211,8|0|0,0:0|0:0|0:0,0:0:0:0:
380,213,90191,5,0,0:0:0:0:
391,226,90373,1,0,0:0:0:0:
303,198,90464,6,0,B|276:251|276:251|282:305,1,113.333326975505,0|0,3:0|0:0,0:0:0:0:
397,334,90737,2,0,L|255:321,1,113.333326975505,2|2,0:0|0:0,0:0:0:0:
158,381,91010,6,0,L|148:294,1,85.000000858307,12|0,0:0|0:0,0:0:0:0:
238,128,91191,1,0,0:0:0:0:
177,206,91282,6,0,B|130:175|130:175|117:122|117:122|138:66|138:66|194:49,1,215.333315503439,2|0,0:1|0:0,0:0:0:0:
303,198,91555,5,6,3:2:0:0:
73,343,91737,1,2,0:0:0:0:
62,218,91828,5,2,0:0:0:0:
313,322,92010,1,2,0:0:0:0:
193,333,92100,5,2,0:0:0:0:
423,188,92282,1,2,0:0:0:0:
433,311,92373,6,0,L|489:306,2,56.6666634877523,2|2|2,0:0|0:0|0:0,0:0:0:0:
145,175,92646,5,6,3:2:0:0:
145,175,92919,1,2,0:0:0:0:
177,40,93100,1,0,0:0:0:0:
177,40,93191,1,2,0:0:0:0:
273,127,93373,1,0,0:0:0:0:
273,127,93464,2,0,L|282:189,2,42.4999992370606
219,252,93737,6,0,B|292:265|292:265|361:235|361:235|350:318,1,215.333315503439,6|0,3:1|0:0,0:0:0:0:
213,335,94010,5,0,0:0:0:0:
188,329,94191,1,0,0:0:0:0:
131,259,94282,6,0,B|139:138|139:138|165:178,1,170.000001716614,10|0,0:1|0:0,0:0:0:0:
294,266,94555,5,0,0:0:0:0:
299,307,94646,1,0,0:0:0:0:
304,349,94737,1,0,0:0:0:0:
222,314,94828,6,0,B|267:311|306:349|306:349|355:322|403:336,1,192.666659533183,2|0,3:1|0:0,0:0:0:0:
494,248,95100,2,0,L|488:382,2,84.9999984741211,2|2|2,0:0|0:0|0:0,0:0:0:0:
355,74,95373,2,0,B|338:112|338:112|348:163,1,84.9999984741211,12|0,0:0|0:0,0:0:0:0:
393,243,95555,1,0,0:0:0:0:
451,173,95646,6,0,B|409:172|384:156|384:156|325:195|325:195|293:178|251:178,1,215.333315503439,2|0,0:1|0:0,0:0:0:0:
134,168,95919,5,0,3:0:0:0:
111,165,96100,1,0,0:0:0:0:
120,81,96191,6,0,L|64:91,2,56.6666634877523,2|0|0,0:0|0:0|0:0,0:0:0:0:
219,251,96464,2,0,B|250:201|243:141|243:141|197:109,1,169.999996948242,10|0,0:1|0:0,0:0:0:0:
119,245,96737,1,2,0:0:0:0:
119,253,96828,1,2,0:0:0:0:
119,261,96919,1,2,0:0:0:0:
117,269,97010,6,0,L|111:354,1,56.6666634877523,0|0,3:0|0:0,0:0:0:0:
270,346,97191,1,2,0:0:0:0:
191,361,97282,5,2,0:0:0:0:
188,384,97464,1,0,0:0:0:0:
200,279,97555,6,0,B|209:243|209:243|191:197|191:197|220:164|206:118,1,169.999996948242,14|0,0:0|0:0,0:0:0:0:
184,20,97828,2,0,P|211:25|240:26,1,56.6666650772095,0|0,1:0|1:0,1:0:0:0:
355,74,98010,1,8,0:0:0:0:
287,127,98100,6,0,L|291:183,2,56.6666634877523,4|0|0,3:2|1:0|1:0,0:0:0:0:
443,70,98373,2,0,L|448:14,2,56.6666634877523,0|0|0,1:0|1:0|1:0,1:0:0:0:
391,175,98646,5,8,0:0:0:0:
393,213,98737,1,0,1:0:0:0:
395,253,98828,1,0,1:0:0:0:
396,291,98919,1,0,1:0:0:0:
378,326,99010,1,0,1:0:0:0:
339,334,99100,1,0,1:0:0:0:
302,318,99191,1,0,3:0:0:0:
259,289,99282,1,0,1:0:0:0:
208,297,99373,1,0,1:0:0:0:
180,339,99464,2,0,P|137:351|105:354,2,56.6666634877523,0|0|0,1:0|1:0|1:0,1:0:0:0:
346,216,99737,6,0,P|303:210|262:200,1,84.9999984741211,12|0,0:0|1:0,0:0:0:0:
89,189,99919,1,0,1:0:0:0:
176,218,100010,6,0,B|178:186|193:145|193:145|167:64|167:64|138:140,1,215.333315503439,2|0,0:1|0:0,0:0:0:0:
107,278,100282,5,6,3:2:0:0:
267,90,100464,1,2,0:0:0:0:
262,200,100555,5,2,0:0:0:0:
31,50,100737,1,2,0:0:0:0:
129,0,100828,5,2,0:0:0:0:
107,278,101010,1,2,0:0:0:0:
15,217,101101,5,0,1:0:0:0:
13,198,101282,1,0,1:0:0:0:
98,183,101373,6,0,B|130:176|158:194|158:194|182:186|182:186|222:196,1,113.333326975505,6|0,3:1|0:0,0:0:0:0:
10,180,101828,1,6,3:1:0:0:
10,180,102191,6,0,L|14:243,1,63.7499988555908,2|0,0:0|0:0,0:0:0:0:
10,180,102464,6,0,L|23:334,1,113.333326975505,4|0,3:2|0:0,0:0:0:0:
174,298,102737,2,0,B|190:172|190:172|130:204,1,169.999996948242,2|0,0:1|0:0,0:0:0:0:
97,284,103010,5,8,0:0:0:0:
95,304,103191,1,2,0:0:0:0:
145,373,103282,6,0,L|288:388,1,113.333326975505,2|2,0:0|0:0,0:0:0:0:
347,364,103555,2,0,L|343:307,1,56.6666634877523,0|0,3:0|0:0,0:0:0:0:
303,181,103737,1,0,0:0:0:0:
267,262,103828,6,0,B|319:296|388:277|388:277|369:236,1,169.999996948242,2|0,0:1|0:0,0:0:0:0:
220,189,104101,6,0,P|190:219|176:259,1,85.000000858307,8|0,0:0|0:0,0:0:0:0:
351,368,104282,1,0,0:0:0:0:
351,368,104373,1,0,0:0:0:0:
450,190,104555,1,0,0:0:0:0:
450,190,104646,6,0,B|460:146|460:146|434:90|434:90|450:0,1,169.999996948242,2|0,3:1|0:0,0:0:0:0:
239,25,104919,2,0,B|250:87|250:87|224:143|224:143|234:187,1,169.999996948242,2|0,3:1|0:0,0:0:0:0:
345,56,105191,5,8,0:0:0:0:
345,78,105373,1,0,0:0:0:0:
317,159,105464,6,0,P|347:161|385:157,2,56.6666634877523,2|2|2,0:0|0:0|0:0,0:0:0:0:
237,317,105737,2,0,B|203:294|182:253|182:253|206:213|235:186,1,169.999996948242,2|0,3:1|0:0,0:0:0:0:
333,243,106010,6,0,P|341:284|344:326,1,84.9999984741211
248,96,106282,2,0,P|239:74|234:41,5,42.5000004291535,8|0|0|0|0|0,0:0|0:0|0:0|0:0|0:0|0:0,0:0:0:0:
128,159,106828,6,0,L|0:147,1,113.333326975505,0|0,3:0|0:0,0:0:0:0:
134,280,107100,2,0,B|186:286|186:286|232:243|206:160,1,169.999996948242,2|0,0:1|0:0,0:0:0:0:
160,79,107373,5,8,0:0:0:0:
158,59,107555,1,2,0:0:0:0:
234,20,107646,6,0,L|346:9,1,113.333326975505,2|2,0:0|0:0,0:0:0:0:
472,72,107919,2,0,P|444:78|418:89,1,56.6666634877523,0|0,3:0|0:0,0:0:0:0:
321,152,108100,1,0,0:0:0:0:
321,152,108192,2,0,B|325:91|325:91|327:48|303:46|350:49,2,56.6666634877523
194,227,108464,2,0,B|249:224|305:247|305:247|290:277|264:250|290:277|294:308,1,113.333330154419,8|0,0:0|0:0,0:0:0:0:
399,168,108737,6,0,B|386:213|386:213|396:254|396:254|381:288|381:288|384:331,1,169.999996948242,2|0,0:1|0:0,0:0:0:0:
476,213,109010,6,0,B|514:244|514:244|504:323|504:323|468:343,1,169.999996948242,2|0,3:1|0:0,0:0:0:0:
303,330,109282,2,0,B|265:299|265:299|275:220|275:220|310:199,1,169.999996948242,2|0,3:1|0:0,0:0:0:0:
399,168,109555,5,8,0:0:0:0:
400,150,109737,1,0,0:0:0:0:
317,115,109828,6,0,P|315:61|341:-8,1,113.333326975505
317,115,110100,6,0,B|250:129|176:102|176:102|213:123|237:158,1,212.499996185303,4|0,3:2|0:0,0:0:0:0:
226,290,110646,6,0,P|278:232|228:173,1,169.999996948242
124,47,110919,5,0,1:0:0:0:
98,77,111010,1,0,1:0:0:0:
99,116,111100,1,0,1:0:0:0:
115,151,111191,6,0,L|129:301,1,113.333326975505,4|0,3:2|0:0,0:0:0:0:
173,365,111464,6,0,L|222:358,1,37.3999977877808
44,299,111737,5,8,0:0:0:0:
46,319,111919,1,0,0:0:0:0:
125,263,112010,6,0,B|179:254|179:254|162:280|189:296|206:273|184:275,1,37.3999977877808
296,167,112282,6,0,B|245:157|245:157|182:190,1,113.333326975505,0|0,3:0|0:0,0:0:0:0:
332,327,112555,2,0,B|399:337|399:337|455:311|455:311|423:285,1,169.999996948242,2|0,0:1|0:0,0:0:0:0:
395,172,112828,5,8,0:0:0:0:
393,192,113010,1,0,0:0:0:0:
332,249,113100,6,0,L|283:242,1,37.3999977877808
140,135,113373,6,0,B|176:177|176:177|231:158|231:158|290:165,1,169.999996948242,2|0,3:1|0:0,0:0:0:0:
393,90,113646,2,0,B|355:48|355:48|300:69|300:69|245:62,1,169.999996948242,2|0,3:1|0:0,0:0:0:0:
162,50,113919,5,8,0:0:0:0:
142,48,114101,1,0,0:0:0:0:
140,135,114191,6,0,L|91:128,1,37.3999977877808
123,230,114464,6,0,B|176:239|176:239|240:223|256:161,1,169.999996948242,2|0,3:1|0:0,0:0:0:0:
162,50,114737,6,0,L|199:55,1,37.3999977877808,0|0,1:0|1:0,0:0:0:0:
361,112,115010,2,0,L|323:117,1,37.3999977877808,8|0,0:0|1:0,0:0:0:0:
123,230,115282,2,0,L|159:236,1,37.3999977877808,0|0,3:0|1:0,0:0:0:0:
248,299,115555,6,0,B|271:250|271:250|246:165,1,113.333326975505,4|0,3:2|0:0,0:0:0:0:
175,140,115828,6,0,L|138:133,1,37.3999977877808
252,50,116100,5,8,0:0:0:0:
247,72,116282,1,0,0:0:0:0:
323,117,116373,6,0,L|359:110,1,37.3999977877808
455,79,116646,6,0,L|436:191,1,113.333326975505,0|0,3:0|0:0,0:0:0:0:
309,204,116919,6,0,L|345:197,1,37.3999977877808
326,315,117191,6,0,L|214:293,1,113.333326975505,8|0,0:0|0:0,0:0:0:0:
396,261,117464,2,0,B|426:277|426:277|445:321|445:321|427:362|427:362|389:382,1,169.999996948242,2|0,0:1|0:0,0:0:0:0:
346,197,117737,5,0,3:0:0:0:
388,181,117828,1,0,1:0:0:0:
432,188,117919,1,0,1:0:0:0:
476,178,118010,1,0,1:0:0:0:
494,137,118100,1,0,1:0:0:0:
477,94,118191,1,0,1:0:0:0:
432,84,118282,5,8,0:0:0:0:
377,99,118373,1,0,1:0:0:0:
324,77,118464,1,0,1:0:0:0:
277,44,118555,1,0,1:0:0:0:
222,29,118646,1,0,1:0:0:0:
169,51,118737,1,0,1:0:0:0:
228,118,118828,5,4,3:2:0:0:
229,131,118918,1,0,1:0:0:0:
231,141,119009,1,0,1:0:0:0:
233,152,119100,1,0,1:0:0:0:
236,163,119191,1,0,1:0:0:0:
239,174,119282,1,0,1:0:0:0:
242,185,119373,1,0,1:0:0:0:
248,195,119464,1,0,1:0:0:0:
252,205,119555,1,0,1:0:0:0:
257,216,119646,1,0,1:0:0:0:
264,224,119737,1,0,1:0:0:0:
271,232,119828,1,0,1:0:0:0:
280,240,119919,6,0,P|151:199|22:251,1,271.999984069825,6|0,3:1|0:0,0:0:0:0:
83,60,120191,2,0,P|144:178|120:309,1,271.999984069825,6|0,3:1|0:0,0:0:0:0:
3,81,120464,5,8,0:0:0:0:
58,144,120737,1,0,0:0:0:0:
83,60,121010,6,0,P|188:139|364:133,1,271.999976440431,6|0,3:1|0:0,0:0:0:0:
479,14,121282,2,0,P|370:93|325:219,1,271.999976440431,6|0,3:1|0:0,0:0:0:0:
335,13,121555,5,8,0:0:0:0:
409,53,121828,1,0,0:0:0:0:
479,14,122100,6,0,P|507:133|437:288,1,271.999984069825,6|0,3:1|0:0,0:0:0:0:
223,162,122373,2,0,P|342:134|497:204,1,271.999976440431,6|0,3:1|0:0,0:0:0:0:
217,263,122646,5,8,0:0:0:0:
305,217,122919,1,0,0:0:0:0:
223,162,123192,6,0,B|169:124|69:148|69:148|46:239|110:317,1,328.666658259074,6|0,3:1|0:0,0:0:0:0:
317,326,123464,5,0,0:0:0:0:
221,267,123646,1,0,0:0:0:0:
221,267,123737,6,0,P|213:309|212:362,2,85.000000858307,6|0|0,3:1|0:0|0:0,0:0:0:0:
226,58,124010,1,8,0:0:0:0:
19,125,124191,1,0,0:0:0:0:
19,125,124282,6,0,P|99:184|281:140,1,271.999976440431,6|0,3:1|0:0,0:0:0:0:
131,88,124555,2,0,P|175:212|295:268,1,271.999976440431,6|0,3:1|0:0,0:0:0:0:
226,58,124828,5,8,0:0:0:0:
151,0,125100,1,0,0:0:0:0:
131,88,125373,6,0,P|81:206|110:373,1,271.999976440431,6|0,3:1|0:0,0:0:0:0:
272,276,125646,2,0,P|149:239|-14:285,1,271.999976440431,6|0,3:1|0:0,0:0:0:0:
312,357,125919,5,8,0:0:0:0:
226,350,126191,1,0,0:0:0:0:
272,276,126464,6,0,P|332:216|507:153,1,271.999976440431,6|0,3:1|0:0,0:0:0:0:
237,183,126737,2,0,P|372:191|490:256,1,271.999976440431,6|0,3:1|0:0,0:0:0:0:
348,22,127010,5,10,0:0:0:0:
400,94,127191,1,2,0:0:0:0:
400,94,127282,1,2,0:0:0:0:
321,105,127463,1,2,0:0:0:0:
321,105,127555,6,0,B|203:113|81:79|81:79|92:130|146:177,1,328.666658259074,6|0,3:1|0:0,0:0:0:0:
265,218,127828,6,0,B|268:175|268:175|286:161|261:144|281:127,1,37.3999988368225
66,267,128100,6,0,B|184:259|306:293|306:293|295:242|241:195,1,328.666658259074,14|0,0:1|0:0,0:0:0:0:
122,154,128373,6,0,L|120:191,1,37.3999988368225,8|0,0:0|0:0,0:0:0:0:
5,69,128646,6,0,P|127:137|315:51,1,294.666644912721,6|0,3:1|0:0,0:0:0:0:
132,4,128919,2,0,P|134:143|305:265,1,294.666644912721,6|0,3:1|0:0,0:0:0:0:
250,7,129191,5,8,0:0:0:0:
274,103,129373,1,0,0:0:0:0:
274,103,129464,6,0,L|278:154,1,37.3999988368225,2|0,0:1|0:0,0:0:0:0:
250,7,129737,6,0,P|319:154|283:303,1,294.666636647544,6|0,3:1|0:0,0:0:0:0:
135,169,130010,2,0,P|278:148|407:215,1,294.666636647544,6|0,3:1|0:0,0:0:0:0:
205,289,130282,5,10,0:0:0:0:
265,371,130464,1,0,0:0:0:0:
265,371,130555,1,2,0:0:0:0:
300,283,130737,1,0,0:0:0:0:
300,283,130828,6,0,P|323:209|254:-13,1,294.666636647544,6|0,3:1|0:0,0:0:0:0:
135,169,131100,2,0,P|208:192|431:127,1,294.666644912721,6|0,3:1|0:0,0:0:0:0:
181,0,131373,5,8,0:0:0:0:
222,80,131555,1,0,0:0:0:0:
222,80,131646,6,0,B|219:122|219:122|197:120|241:124|219:124|219:158|196:156|242:159,1,37.3999988368225,2|0,0:0|0:0,0:0:0:0:
357,169,131919,6,0,B|224:131|224:131|95:208|95:208|153:233,1,351.333316304525,6|0,3:1|0:0,0:0:0:0:
328,278,132191,1,0,0:0:0:0:
328,278,132464,6,0,B|386:303|386:303|257:379|257:379|124:342,1,351.333316304525,14|0,0:1|0:0,0:0:0:0:
242,254,132737,1,0,0:0:0:0:
242,254,133010,6,0,P|296:154|507:134,1,317.333305847169,6|0,3:1|0:0,0:0:0:0:
328,278,133282,2,0,P|297:126|397:10,1,317.333305847169,6|0,3:1|0:0,0:0:0:0:
378,207,133555,5,0,3:0:0:0:
306,366,133737,1,0,0:0:0:0:
306,366,133828,6,0,L|260:361,1,37.3999977877808,6|0,3:1|0:0,0:0:0:0:
160,369,134100,6,0,P|221:271|176:69,1,317.333305847169,6|0,3:1|0:0,0:0:0:0:
82,291,134373,2,0,P|224:228|286:86,1,317.333305847169,6|0,3:1|0:0,0:0:0:0:
44,137,134646,5,2,3:2:0:0:
90,55,134828,1,0,0:0:0:0:
90,55,134919,1,2,3:2:0:0:
140,138,135101,1,0,0:0:0:0:
140,138,135192,6,0,B|132:180|132:180|137:208|137:208|128:269,2,113.333330154419,0|8|8,3:0|0:0|0:0,0:0:0:0:
233,121,135464,1,0,1:0:0:0:
233,121,135555,1,8,0:0:0:0:
233,121,135646,1,8,0:0:0:0:
324,126,135737,2,0,B|330:84|330:84|325:56|325:56|333:14,2,113.333330154419,0|0|0,3:0|1:0|1:0,0:0:0:0:
391,274,136010,2,0,B|397:232|397:232|392:204|392:204|400:162,1,113.333330154419,0|0,3:0|1:0,0:0:0:0:
487,77,136191,1,0,3:0:0:0:
484,167,136282,6,0,B|476:209|476:209|481:237|481:237|475:279,2,113.333330154419,8|8|8,0:0|1:0|0:0,0:0:0:0:
233,121,136555,2,0,B|241:79|241:79|236:50|236:50|242:9,2,113.333330154419,8|8|8,0:0|0:0|0:0,0:0:0:0:
320,371,136828,5,12,0:0:0:0:
327,317,136919,1,8,0:0:0:0:
335,263,137009,1,8,0:0:0:0:
343,209,137100,1,12,0:0:0:0:
350,155,137191,1,8,0:0:0:0:
358,101,137282,1,8,0:0:0:0:
366,47,137373,1,0,0:0:0:0:
256,192,143919,12,0,145828,0:0:0:0:
146,62,146100,6,0,P|187:146|150:221,1,169.999985275269,4|0,3:2|0:0,0:0:0:0:
140,227,146646,5,0,3:0:0:0:
122,52,146919,1,0,0:0:0:0:
19,231,147191,5,0,3:0:0:0:
87,144,147464,1,0,0:0:0:0:
5,79,147737,5,0,3:0:0:0:
5,79,148010,1,0,0:0:0:0:
188,133,148282,6,0,B|362:120|362:120|373:97|385:73|373:98|397:96|386:73|405:115,1,169.999990043641,6|0,3:2|0:0,0:0:0:0:
366,87,148828,5,0,3:0:0:0:
183,160,149100,1,0,0:0:0:0:
263,51,149373,5,0,3:0:0:0:
278,218,149646,1,0,0:0:0:0:
270,135,149919,5,0,3:0:0:0:
270,135,150191,2,0,L|221:140,2,33.9999970550538
357,125,150464,1,4,3:2:0:0:
169,59,150737,5,0,0:0:0:0:
151,144,151010,1,0,3:0:0:0:
182,224,151282,1,0,0:0:0:0:
357,125,151555,5,0,3:0:0:0:
83,21,151828,1,0,0:0:0:0:
113,296,152100,1,0,3:0:0:0:
357,125,152373,1,0,0:0:0:0:
15,165,152646,5,4,3:2:0:0:
256,192,152737,12,0,154555,0:0:0:0:
345,23,154828,6,0,P|336:81|335:182,1,113.333326975505,4|0,1:2|0:0,0:0:0:0:
329,224,155100,5,0,0:0:0:0:
326,239,155282,1,0,0:0:0:0:
265,178,155373,6,0,P|208:181|152:189,1,113.333326975505,0|0,1:0|0:0,0:0:0:0:
333,135,155646,2,0,B|388:144|451:147|451:147|455:104|479:114|457:124|477:145,1,113.333326975505
261,94,155919,5,0,1:0:0:0:
258,79,156101,1,0,0:0:0:0:
336,48,156191,5,0,0:0:0:0:
155,193,156373,1,0,1:0:0:0:
155,193,156464,1,0,1:0:0:0:
413,319,156646,1,0,0:0:0:0:
413,319,156737,5,0,0:0:0:0:
383,302,156828,1,0,0:0:0:0:
349,304,156919,1,0,1:0:0:0:
320,322,157010,6,0,L|174:340,1,113.333326975505,0|0,1:0|0:0,0:0:0:0:
190,231,157282,2,0,B|225:233|250:253|250:253|271:300|263:277|241:278|236:298|249:253,1,56.6666634877523
143,370,157464,1,0,1:0:0:0:
141,295,157555,2,0,P|139:238|127:182,1,113.333326975505,0|0,1:0|0:0,0:0:0:0:
214,93,157828,2,0,P|185:96|159:105,2,56.6666634877523,0|0|0,1:0|1:0|1:0,1:0:0:0:
328,67,158100,5,0,1:0:0:0:
335,99,158191,1,0,1:0:0:0:
325,132,158282,1,0,1:0:0:0:
309,161,158373,1,0,1:0:0:0:
299,194,158464,1,0,1:0:0:0:
305,227,158555,1,0,1:0:0:0:
323,255,158646,2,0,L|329:319,1,56.6666634877523,0|0,1:0|1:0,1:0:0:0:
394,194,158828,1,0,1:0:0:0:
471,237,158919,5,0,3:0:0:0:
471,237,159191,5,0,1:0:0:0:
215,151,159373,1,0,1:0:0:0:
215,151,159464,1,0,1:0:0:0:
456,75,159646,1,0,1:0:0:0:
455,58,159737,1,0,1:0:0:0:
301,278,159919,1,0,1:0:0:0:
305,322,160010,1,0,1:0:0:0:
151,73,160191,1,0,1:0:0:0:
120,155,160282,6,0,L|63:149,2,56.6666634877523,0|0|0,1:0|1:0|1:0,1:0:0:0:
301,278,160555,2,0,L|386:269,2,84.9999984741211,0|0|0,1:0|1:0|1:0,1:0:0:0:
214,343,160828,5,0,1:0:0:0:
209,309,160919,1,0,1:0:0:0:
204,275,161010,1,0,1:0:0:0:
224,247,161100,5,0,1:0:0:0:
218,196,161191,1,0,1:0:0:0:
212,145,161282,1,0,1:0:0:0:
151,73,161373,5,4,1:2:0:0:
151,73,163010,5,0,1:0:0:0:
316,224,163282,6,0,L|324:142,1,63.7500006437302,2|0,0:0|0:0,0:0:0:0:
316,224,163555,6,0,B|328:100|328:100|377:114|377:114|415:161,1,215.333315503439,6|0,3:1|0:0,0:0:0:0:
417,251,163828,5,0,0:0:0:0:
420,272,164010,1,0,0:0:0:0:
345,315,164100,6,0,B|306:309|306:309|290:318|290:318|248:295|248:295|227:302|227:302|177:295,1,169.999996948242,10|0,0:1|0:0,0:0:0:0:
47,240,164373,5,0,0:0:0:0:
30,279,164464,1,0,0:0:0:0:
37,320,164555,1,0,0:0:0:0:
114,291,164646,6,0,B|136:226|99:139|99:139|75:166,1,192.666659533183,2|0,3:1|0:0,0:0:0:0:
30,279,164919,6,0,L|40:363,2,84.9999984741211,2|2|2,0:0|0:0|0:0,0:0:0:0:
208,246,165191,2,0,B|216:203|216:203|194:158,1,84.9999984741211,12|0,0:0|0:0,0:0:0:0:
38,89,165373,1,0,0:0:0:0:
74,166,165464,6,0,B|144:158|144:158|210:118|210:118|275:135,1,215.333315503439,2|0,0:1|0:0,0:0:0:0:
389,159,165737,5,0,3:0:0:0:
405,162,165919,1,0,0:0:0:0:
383,241,166010,6,0,L|369:353,2,84.9999984741211,2|0|0,0:0|0:0|0:0,0:0:0:0:
479,101,166282,2,0,B|451:61|418:41|418:41|381:49|344:79,1,170.000001716614,10|0,0:1|0:0,0:0:0:0:
263,138,166555,1,2,0:0:0:0:
261,128,166646,1,2,0:0:0:0:
259,119,166737,1,2,0:0:0:0:
258,111,166828,6,0,L|251:41,2,56.6666634877523,0|0|0,3:0|0:0|0:0,0:0:0:0:
259,222,167101,2,0,B|225:237|225:237|189:228,1,73.666659161886,2|0,0:0|0:0,0:0:0:0:
8,126,167282,1,0,0:0:0:0:
8,126,167373,2,0,B|59:120|88:100|88:100|121:122|121:122|173:115,1,170.000001716614,14|0,0:0|0:0,0:0:0:0:
91,249,167646,2,0,L|85:186,1,56.6666634877523,0|0,1:0|1:0,1:0:0:0:
153,37,167828,1,8,0:0:0:0:
185,118,167919,6,0,B|231:103|231:103|270:113|270:113|309:97|309:97|364:111,1,169.999996948242,6|0,3:1|0:0,0:0:0:0:
438,167,168191,6,0,B|449:124|449:124|437:80,1,85.000000858307
318,205,168464,6,0,B|322:232|322:232|311:257|311:257|317:286,2,84.9999984741211,8|0|0,0:0|0:0|0:0,0:0:0:0:
380,4,168737,5,2,0:0:0:0:
380,23,168919,1,0,0:0:0:0:
324,79,169010,6,0,L|162:73,1,113.333326975505,0|0,3:0|0:0,0:0:0:0:
159,18,169282,2,0,B|174:75|174:75|154:125,1,113.333326975505,2|2,0:0|0:0,0:0:0:0:
6,42,169555,6,0,P|50:48|93:77,1,85.000000858307,12|0,0:0|0:0,0:0:0:0:
201,225,169737,1,0,0:0:0:0:
149,152,169828,6,0,B|107:170|107:170|90:232|119:289|119:289|163:306,1,215.333315503439,2|0,0:1|0:0,0:0:0:0:
238,144,170100,5,6,3:2:0:0:
0,185,170282,1,2,0:0:0:0:
5,79,170373,5,2,0:0:0:0:
106,304,170555,1,2,0:0:0:0:
0,299,170646,5,2,0:0:0:0:
231,254,170828,1,2,0:0:0:0:
226,360,170919,6,0,L|303:363,2,56.6666634877523,2|2|2,0:0|0:0|0:0,0:0:0:0:
144,181,171192,5,6,3:2:0:0:
144,181,171464,1,2,0:0:0:0:
144,181,171737,1,2,0:0:0:0:
350,203,171919,1,0,0:0:0:0:
350,203,172010,1,2,0:0:0:0:
350,203,172282,6,0,B|372:128|372:128|331:64|331:64|309:121,1,215.333315503439,6|0,3:1|0:0,0:0:0:0:
277,247,172555,5,0,0:0:0:0:
273,265,172737,1,0,0:0:0:0:
208,199,172828,6,0,B|154:190|97:206|97:206|64:261,1,169.999996948242,10|0,0:1|0:0,0:0:0:0:
163,378,173100,5,0,0:0:0:0:
184,331,173191,1,0,0:0:0:0:
168,282,173282,1,0,0:0:0:0:
105,326,173373,6,0,B|177:318|177:318|234:354|234:354|257:344|286:346,1,192.666659533183,2|0,3:1|0:0,0:0:0:0:
433,284,173646,2,0,B|444:329|444:329|421:402,2,96.3333297665914,2|2|2,0:0|0:0|0:0,0:0:0:0:
300,117,173919,2,0,P|286:162|282:210,1,96.3333324686686,12|0,0:0|0:0,0:0:0:0:
361,326,174100,1,0,0:0:0:0:
357,245,174191,6,0,B|387:201|387:201|447:195|447:195|499:219|499:219|513:263,1,215.333315503439,2|0,0:1|0:0,0:0:0:0:
287,290,174464,5,0,3:0:0:0:
268,290,174646,1,0,0:0:0:0:
209,236,174737,6,0,L|90:242,2,84.9999984741211,2|0|0,0:0|0:0|0:0,0:0:0:0:
371,95,175010,6,0,B|328:96|294:78|294:78|251:87|207:124,1,169.999996948242,10|0,0:1|0:0,0:0:0:0:
344,192,175282,1,2,0:0:0:0:
352,191,175373,1,2,0:0:0:0:
360,191,175464,1,2,0:0:0:0:
368,191,175555,6,0,L|449:186,1,56.6666634877523,0|0,3:0|0:0,0:0:0:0:
299,263,175737,1,2,0:0:0:0:
363,321,175828,5,2,0:0:0:0:
379,320,176010,1,0,0:0:0:0:
303,372,176100,6,0,B|245:386|171:379|171:379|216:321,1,169.999996948242,14|0,0:0|0:0,0:0:0:0:
205,186,176373,2,0,B|208:248,1,56.6666634877523,0|0,1:0|1:0,1:0:0:0:
115,281,176555,1,8,0:0:0:0:
210,266,176646,6,0,B|263:258|263:258|312:278|312:278|381:268,1,169.999996948242,6|0,3:1|0:0,0:0:0:0:
105,192,176919,6,0,P|39:195|-1:191,1,84.9999984741211
203,102,177191,6,0,B|208:134|208:134|204:149|204:149|207:165|207:165|204:185,2,84.9999984741211,8|0|0,0:0|0:0|0:0,0:0:0:0:
64,54,177464,5,2,0:0:0:0:
67,75,177646,1,0,0:0:0:0:
145,27,177737,6,0,L|271:22,1,113.333326975505,0|0,3:0|0:0,0:0:0:0:
364,75,178010,2,0,B|298:81|298:81|254:53,1,113.333326975505,0|2,0:0|0:0,0:0:0:0:
454,57,178282,6,0,L|449:173,1,84.9999984741211,12|0,0:0|0:0,0:0:0:0:
355,297,178464,1,0,0:0:0:0:
320,209,178555,6,0,B|396:180|396:239|481:224|481:224|411:268,1,215.333315503439,2|0,0:1|0:0,0:0:0:0:
262,278,178828,5,6,3:2:0:0:
414,370,179010,1,2,0:0:0:0:
307,374,179100,5,2,0:0:0:0:
494,177,179282,1,2,0:0:0:0:
483,285,179372,5,2,0:0:0:0:
309,101,179555,1,2,0:0:0:0:
320,209,179646,5,0,1:0:0:0:
321,227,179828,1,0,1:0:0:0:
229,169,179919,6,0,B|210:154|198:122|198:122|215:43,1,113.333330154419,6|0,3:1|0:0,0:0:0:0:
322,246,180373,1,6,3:1:0:0:
322,246,180737,6,0,L|250:254,1,63.7499988555908,2|0,0:0|0:0,0:0:0:0:
322,246,181010,6,0,L|315:302,2,56.6666634877523,2|0|0,0:0|0:0|0:0,0:0:0:0:
415,162,181282,1,2,0:0:0:0:
255,150,181464,1,0,0:0:0:0:
255,150,181555,2,0,P|171:161|101:160,1,113.333326975505,10|0,0:0|0:0,0:0:0:0:
38,158,181828,5,0,0:0:0:0:
38,158,181919,1,0,0:0:0:0:
38,158,182010,1,0,0:0:0:0:
38,158,182101,6,0,B|56:105|53:27|53:27|101:96,1,192.666659533183,6|0,3:1|0:0,0:0:0:0:
85,237,182373,6,0,L|-52:230,2,84.9999984741211,2|2|2,0:0|0:0|0:0,0:0:0:0:
256,69,182646,2,0,B|269:109|269:109|243:181,1,84.9999984741211,12|0,0:0|0:0,0:0:0:0:
193,259,182828,1,0,0:0:0:0:
146,178,182919,6,0,B|187:165|239:171|239:171|262:200|262:200|304:214|345:205,1,215.333315503439,2|0,0:1|0:0,0:0:0:0:
466,195,183191,5,0,3:0:0:0:
468,210,183373,1,0,0:0:0:0:
428,298,183464,6,0,L|530:291,2,84.9999984741211,2|0|0,0:0|0:0|0:0,0:0:0:0:
351,361,183737,2,0,B|343:330|324:307|324:307|350:254|350:254|345:203,1,169.999996948242,10|0,0:1|0:0,0:0:0:0:
277,129,184010,1,2,0:0:0:0:
269,129,184100,1,2,0:0:0:0:
261,129,184191,1,2,0:0:0:0:
254,128,184282,6,0,L|184:121,2,56.6666634877523
380,51,184555,2,0,B|344:38|344:38|299:46,1,73.666659161886,2|0,0:0|0:0,0:0:0:0:
144,186,184737,1,0,0:0:0:0:
144,186,184828,2,0,B|107:154|107:154|111:79|111:79|149:53,1,169.999996948242,14|0,0:0|0:0,0:0:0:0:
254,128,185101,2,0,L|246:210,1,56.6666634877523
226,300,185282,1,0,0:0:0:0:
245,212,185373,6,0,B|306:198|306:198|372:220|372:220|338:238,1,169.999996948242,6|0,3:1|0:0,0:0:0:0:
231,383,185646,6,0,P|222:328|236:271,1,84.9999984741211
168,120,185919,6,0,B|165:155|165:155|154:171|154:171|150:201,2,84.9999984741211,8|0|0,0:0|0:0|0:0,0:0:0:0:
326,124,186191,5,0,0:0:0:0:
347,127,186373,1,0,0:0:0:0:
409,183,186464,6,0,B|429:127|429:127|401:60,1,113.333326975505,0|0,3:0|0:0,0:0:0:0:
340,40,186737,2,0,L|481:22,1,113.333326975505,2|2,0:0|0:0,0:0:0:0:
335,213,187010,6,0,L|230:192,1,84.9999984741211,12|0,0:0|0:0,0:0:0:0:
123,150,187191,1,0,0:0:0:0:
205,103,187282,6,0,B|229:153|207:199|207:199|240:243|227:310,1,215.333315503439,2|0,0:1|0:0,0:0:0:0:
57,218,187555,5,6,3:2:0:0:
326,82,187737,1,2,0:0:0:0:
335,213,187828,5,2,0:0:0:0:
123,26,188009,1,2,0:0:0:0:
252,14,188100,5,2,0:0:0:0:
81,240,188282,1,2,0:0:0:0:
69,110,188373,6,0,L|5:116,2,56.6666634877523,2|2|2,0:0|0:0|0:0,0:0:0:0:
252,14,188646,5,6,3:2:0:0:
252,14,188919,1,2,0:0:0:0:
196,165,189100,1,0,0:0:0:0:
196,165,189191,1,2,0:0:0:0:
350,147,189373,1,0,0:0:0:0:
350,147,189464,2,0,L|406:141,2,42.4999992370606,2|0|0,0:0|0:0|0:0,0:0:0:0:
252,243,189737,6,0,B|323:234|323:234|363:257|363:257|411:244|411:244|409:292,1,215.333315503439,6|0,3:1|0:0,0:0:0:0:
283,345,190010,5,0,0:0:0:0:
259,347,190191,1,0,0:0:0:0:
181,312,190282,6,0,B|166:274|133:243|133:243|163:210|186:160,1,169.999996948242,10|0,0:1|0:0,0:0:0:0:
286,51,190555,5,0,0:0:0:0:
283,93,190646,1,0,0:0:0:0:
280,135,190737,1,0,0:0:0:0:
357,104,190828,6,0,B|316:84|316:84|269:99|226:78|226:78|172:89,1,192.666659533183,2|0,3:1|0:0,0:0:0:0:
83,161,191100,2,0,L|67:72,2,84.9999984741211
246,301,191373,2,0,B|259:258|259:258|237:185,1,84.9999984741211,12|0,0:0|0:0,0:0:0:0:
172,89,191555,1,0,0:0:0:0:
169,179,191646,6,0,B|145:220|140:275|140:275|180:322|177:397,1,215.333315503439,2|0,0:1|0:0,0:0:0:0:
332,307,191919,5,0,3:0:0:0:
351,309,192100,1,0,0:0:0:0:
332,226,192191,6,0,L|247:219,2,84.9999984741211,2|0|0,0:0|0:0|0:0,0:0:0:0:
489,153,192464,2,0,B|439:124|439:124|394:144|394:144|302:137,1,169.999996948242,10|0,0:1|0:0,0:0:0:0:
424,304,192737,1,2,0:0:0:0:
425,295,192828,1,2,0:0:0:0:
426,286,192919,1,2,0:0:0:0:
427,277,193010,6,0,L|432:220,1,56.6666634877523,0|0,3:0|0:0,0:0:0:0:
470,373,193191,1,2,0:0:0:0:
368,362,193282,5,2,0:0:0:0:
365,379,193464,1,0,0:0:0:0:
315,290,193555,6,0,B|281:274|281:274|232:272|196:291|196:291|186:334,1,170.000001716614,14|0,0:0|0:0,0:0:0:0:
91,358,193828,2,0,L|85:299,1,56.6666634877523,0|0,1:0|1:0,1:0:0:0:
19,185,194010,1,8,0:0:0:0:
126,215,194100,6,0,P|161:213|209:198,2,56.6666634877523,6|0|0,3:1|1:0|1:0,1:0:0:0:
61,101,194373,2,0,P|33:95|4:94,2,56.6666634877523,0|0|0,1:0|1:0|1:0,1:0:0:0:
156,27,194646,5,8,0:0:0:0:
194,15,194737,1,0,1:0:0:0:
233,22,194828,1,0,1:0:0:0:
269,37,194919,1,0,1:0:0:0:
307,49,195010,1,0,1:0:0:0:
346,42,195101,1,0,1:0:0:0:
380,22,195192,1,0,3:0:0:0:
430,26,195282,1,0,1:0:0:0:
462,65,195373,1,0,1:0:0:0:
458,115,195464,2,0,L|446:185,2,56.6666634877523,0|0|0,1:0|1:0|1:0,1:0:0:0:
473,247,195737,6,0,B|430:252|430:252|393:232,1,84.9999984741211,12|0,0:0|0:0,0:0:0:0:
213,202,195919,1,0,0:0:0:0:
299,183,196010,6,0,B|304:217|304:217|293:245|293:245|325:292|325:292|317:330|317:330|327:384,1,215.333315503439,2|0,0:1|0:0,0:0:0:0:
154,285,196282,5,6,3:2:0:0:
329,75,196464,1,2,0:0:0:0:
221,86,196554,5,2,0:0:0:0:
254,284,196737,1,2,0:0:0:0:
299,183,196828,5,2,0:0:0:0:
118,111,197009,1,2,0:0:0:0:
182,200,197100,5,0,1:0:0:0:
192,214,197282,1,0,1:0:0:0:
103,208,197373,6,0,B|74:200|74:200|49:209|49:209|20:205|20:205|-5:214,1,113.333330154419,6|0,3:1|0:0,0:0:0:0:
224,88,197828,1,6,3:1:0:0:
224,88,198191,6,0,B|256:91|256:91|288:80,1,63.7499988555908,2|0,0:0|0:0,0:0:0:0:
224,88,198464,5,2,0:0:0:0:
256,192,198555,12,0,201737,0:0:0:0:
