osu file format v14

[General]
AudioFilename: audio.mp3
AudioLeadIn: 0
PreviewTime: 119829
Countdown: 0
SampleSet: Soft
StackLeniency: 0.2
Mode: 0
LetterboxInBreaks: 0
WidescreenStoryboard: 1

[Editor]
Bookmarks: 1011,5374,14101,15192,23919,32646,41373,50101,58828,60464,67555,76282,85010,93737,102464,111192,119919,128646,137373,146101,154828,163555,172282,181010,189737,198464
DistanceSpacing: 0.7
BeatDivisor: 6
GridSize: 4
TimelineZoom: 1.8

[Metadata]
Title:Sengoku HOP
TitleUnicode:戦国HOP
Artist:YUC'e
ArtistUnicode:ゆーしえ
Creator:Nathan
Version:Gamu's Extra
Source:
Tags:glitch hop gamu sukinathan appleeaterx athenarium
BeatmapID:1475812
BeatmapSetID:564329

[Difficulty]
HPDrainRate:6
CircleSize:4
OverallDifficulty:8.5
ApproachRate:9.4
SliderMultiplier:3.39999990463257
SliderTickRate:1

[Events]
//Background and Video events
0,0,"hop.jpg",0,0
//Break Periods
2,6256,13561
2,41574,49561
2,137574,145561
//Storyboard Layer 0 (Background)
//Storyboard Layer 1 (Fail)
//Storyboard Layer 2 (Pass)
//Storyboard Layer 3 (Foreground)
//Storyboard Sound Samples

[TimingPoints]
1011,545.454545454546,4,2,1,70,1,0
15192,545.454545454546,4,2,1,70,1,0
15464,-80,4,2,1,70,0,0
15737,-100,4,2,1,70,0,0
15919,-100,4,2,2,70,0,0
16010,-100,4,2,1,70,0,0
16555,-80,4,2,1,70,0,0
16828,-100,4,2,1,70,0,0
17010,-100,4,2,2,70,0,0
17373,-80,4,2,1,70,0,0
17919,-100,4,2,1,70,0,0
18192,-100,4,2,2,70,0,0
18464,-100,4,2,1,70,0,0
19010,-200,4,2,1,70,0,0
19101,-200,4,2,1,40,0,0
19555,-100,4,2,1,70,0,0
19828,-80,4,2,1,70,0,0
20101,-100,4,2,1,70,0,0
20282,-100,4,2,2,70,0,0
20373,-100,4,2,1,70,0,0
20646,-80,4,2,1,70,0,0
20919,-100,4,2,1,70,0,0
21010,-100,4,2,2,70,0,0
21192,-100,4,2,1,70,0,0
21373,-100,4,2,2,70,0,0
21464,-80,4,2,1,70,0,0
21646,-66.6666666666667,4,2,2,70,0,0
21737,-80,4,2,1,70,0,0
22282,-100,4,2,1,70,0,0
22464,-100,4,2,2,70,0,0
22828,-133.333333333333,4,2,1,70,0,0
23373,-200,4,2,1,70,0,0
23646,-100,4,2,1,70,0,0
24192,-80,4,2,1,70,0,0
24464,-100,4,2,1,70,0,0
24646,-100,4,2,2,70,0,0
24737,-100,4,2,1,70,0,0
25282,-80,4,2,1,70,0,0
25555,-100,4,2,1,70,0,0
25737,-100,4,2,2,70,0,0
26101,-80,4,2,1,70,0,0
26646,-100,4,2,1,70,0,0
26919,-100,4,2,2,70,0,0
27192,-100,4,2,1,70,0,0
27737,-200,4,2,1,70,0,0
27828,-200,4,2,1,40,0,0
28282,-100,4,2,1,70,0,0
28555,-80,4,2,1,70,0,0
28828,-100,4,2,1,70,0,0
29010,-100,4,2,2,70,0,0
29101,-100,4,2,1,70,0,0
29373,-80,4,2,1,70,0,0
29646,-100,4,2,1,70,0,0
29737,-100,4,2,2,70,0,0
29919,-100,4,2,1,70,0,0
30101,-100,4,2,2,70,0,0
30192,-80,4,2,1,70,0,0
30373,-80,4,2,2,70,0,0
30464,-80,4,2,1,70,0,0
31010,-100,4,2,1,70,0,0
31192,-100,4,2,2,70,0,0
31555,-133.333333333333,4,2,1,70,0,0
32101,-200,4,2,1,70,0,0
32373,-100,4,2,2,70,0,0
32646,-100,4,2,1,70,0,0
32919,-80,4,2,1,70,0,0
33192,-100,4,2,1,70,0,0
33373,-100,4,2,2,70,0,0
33464,-80,4,2,1,70,0,0
33737,-100,4,2,1,70,0,0
34010,-80,4,2,1,70,0,0
34282,-100,4,2,1,70,0,0
34464,-100,4,2,2,70,0,0
34555,-80,4,2,1,70,0,0
34737,-80,4,2,2,70,0,0
34828,-100,4,2,1,70,0,0
35101,-80,4,2,1,70,0,0
35373,-100,4,2,1,70,0,0
35646,-80,4,2,2,70,0,0
35919,-100,4,2,1,70,0,0
36192,-80,4,2,1,70,0,0
37010,-100,4,2,1,70,0,0
37282,-80,4,2,1,70,0,0
37555,-100,4,2,1,70,0,0
37737,-100,4,2,2,70,0,0
37828,-80,4,2,1,70,0,0
38101,-100,4,2,1,70,0,0
38373,-100,4,2,1,70,0,0
38464,-80,4,2,2,70,0,0
38646,-100,4,2,1,70,0,0
38919,-80,4,2,1,70,0,0
39101,-80,4,2,2,70,0,0
39192,-100,4,2,1,50,0,0
40282,-100,4,2,1,70,0,0
40373,-100,4,2,1,50,0,0
41373,-200,4,2,1,50,0,0
57737,-133.333333333333,4,2,1,55,0,0
58828,-133.333333333333,4,2,1,60,0,0
59101,-133.333333333333,4,2,2,60,0,0
59373,-133.333333333333,4,2,1,60,0,0
59646,-133.333333333333,4,2,2,60,0,0
59919,-133.333333333333,4,2,1,60,0,0
60192,-133.333333333333,4,2,2,60,0,0
60464,-133.333333333333,4,2,1,60,0,0
60737,-133.333333333333,4,2,2,60,0,0
61010,-133.333333333333,4,2,1,60,0,0
61282,-133.333333333333,4,2,2,60,0,0
61555,-133.333333333333,4,2,1,60,0,0
61828,-133.333333333333,4,2,2,60,0,0
62101,-133.333333333333,4,2,1,60,0,0
62373,-133.333333333333,4,2,2,60,0,0
62646,-133.333333333333,4,2,1,60,0,0
65373,-100,4,2,1,60,0,0
67010,-100,4,2,1,80,0,0
67282,-100,4,2,1,70,0,0
67464,-100,4,2,1,30,0,0
67555,-66.6666666666667,4,2,1,70,0,1
67828,-80,4,2,1,70,0,1
68101,-66.6666666666667,4,2,1,70,0,1
68373,-80,4,2,1,70,0,1
68919,-66.6666666666667,4,2,1,70,0,1
69192,-80,4,2,1,70,0,1
69464,-66.6666666666667,4,2,1,70,0,1
69737,-80,4,2,1,70,0,1
70282,-66.6666666666667,4,2,1,70,0,1
70555,-80,4,2,2,70,0,1
70828,-80,4,2,1,70,0,1
71373,-66.6666666666667,4,2,1,70,0,1
71555,-80,4,2,1,70,0,1
71919,-66.6666666666667,4,2,1,70,0,1
72192,-80,4,2,1,70,0,1
73010,-66.6666666666667,4,2,1,70,0,1
73282,-80,4,2,2,70,0,1
73555,-80,4,2,1,70,0,1
73828,-66.6666666666667,4,2,1,70,0,1
74101,-80,4,2,2,70,0,0
76010,-100,4,2,1,70,0,0
76282,-66.6666666666667,4,2,1,70,0,1
76555,-80,4,2,2,70,0,1
76737,-80,4,2,1,70,0,1
76828,-66.6666666666667,4,2,1,70,0,1
77101,-80,4,2,1,70,0,1
77646,-66.6666666666667,4,2,1,70,0,1
77919,-80,4,2,1,70,0,1
78192,-66.6666666666667,4,2,1,70,0,1
78464,-80,4,2,1,70,0,1
79010,-66.6666666666667,4,2,1,70,0,1
79282,-80,4,2,2,70,0,1
79555,-80,4,2,1,70,0,1
80101,-66.6666666666667,4,2,1,70,0,1
80373,-80,4,2,1,70,0,1
80646,-66.6666666666667,4,2,1,70,0,1
80919,-80,4,2,1,70,0,1
81737,-66.6666666666667,4,2,1,70,0,1
82010,-80,4,2,2,70,0,1
82282,-80,4,2,1,70,0,1
82555,-66.6666666666667,4,2,1,70,0,1
82828,-80,4,2,2,70,0,0
83919,-66.6666666666667,4,2,1,70,0,0
84373,-80,4,2,2,70,0,0
84737,-100,4,2,1,70,0,0
84919,-100,4,2,1,30,0,0
85010,-80,4,2,1,70,0,1
86101,-66.6666666666667,4,2,1,70,0,1
86373,-80,4,2,1,70,0,1
86919,-66.6666666666667,4,2,1,70,0,1
87192,-80,4,2,1,70,0,1
87737,-66.6666666666667,4,2,1,70,0,1
88010,-80,4,2,2,70,0,1
88282,-80,4,2,1,70,0,1
88828,-66.6666666666667,4,2,1,70,0,1
89010,-80,4,2,1,70,0,1
89373,-66.6666666666667,4,2,1,70,0,1
89646,-80,4,2,1,70,0,1
90464,-66.6666666666667,4,2,1,70,0,1
90737,-80,4,2,2,70,0,1
91010,-80,4,2,1,70,0,1
91282,-66.6666666666667,4,2,1,70,0,1
91555,-80,4,2,2,70,0,0
93737,-66.6666666666667,4,2,1,70,0,1
94010,-80,4,2,2,70,0,1
94282,-66.6666666666667,4,2,1,70,0,1
94555,-80,4,2,1,70,0,1
95101,-66.6666666666667,4,2,1,70,0,1
95373,-80,4,2,1,70,0,1
95646,-66.6666666666667,4,2,1,70,0,1
95919,-80,4,2,1,70,0,1
96464,-66.6666666666667,4,2,1,70,0,1
96737,-80,4,2,2,70,0,1
97010,-80,4,2,1,70,0,1
97555,-66.6666666666667,4,2,1,70,0,1
97828,-80,4,2,1,50,0,1
99646,-80,4,2,2,50,0,1
99737,-80,4,2,1,50,0,1
100282,-80,4,2,2,70,0,0
101373,-66.6666666666667,4,2,2,70,0,0
101828,-80,4,2,2,70,0,0
102192,-100,4,2,1,70,0,0
102373,-100,4,2,1,30,0,0
102464,-100,4,2,1,70,0,0
102737,-80,4,2,1,70,0,0
103010,-100,4,2,1,70,0,0
103192,-100,4,2,2,70,0,0
103282,-100,4,2,1,70,0,0
103828,-80,4,2,1,70,0,0
104101,-100,4,2,1,70,0,0
104282,-100,4,2,2,70,0,0
104646,-80,4,2,1,70,0,0
105192,-100,4,2,1,70,0,0
105464,-100,4,2,2,70,0,0
105737,-100,4,2,1,70,0,0
106282,-200,4,2,1,70,0,0
106373,-200,4,2,1,40,0,0
106828,-100,4,2,1,70,0,0
107101,-80,4,2,1,70,0,0
107373,-100,4,2,1,70,0,0
107555,-100,4,2,2,70,0,0
107646,-100,4,2,1,70,0,0
107919,-80,4,2,1,70,0,0
108192,-100,4,2,2,70,0,0
108464,-100,4,2,1,70,0,0
108737,-80,4,2,1,70,0,0
109555,-100,4,2,1,70,0,0
109737,-100,4,2,2,70,0,0
110101,-133.333333333333,4,2,1,70,0,0
110646,-200,4,2,1,70,0,0
110919,-100,4,2,1,70,0,0
111464,-80,4,2,1,70,0,0
111737,-100,4,2,1,70,0,0
111919,-100,4,2,2,70,0,0
112010,-80,4,2,1,70,0,0
112282,-100,4,2,1,70,0,0
112555,-80,4,2,1,70,0,0
112828,-100,4,2,1,70,0,0
113010,-100,4,2,2,70,0,0
113101,-80,4,2,2,70,0,0
113373,-100,4,2,1,70,0,0
113646,-80,4,2,1,70,0,0
113919,-100,4,2,1,70,0,0
114101,-100,4,2,2,70,0,0
114737,-80,4,2,1,70,0,0
115555,-100,4,2,1,70,0,0
115828,-80,4,2,1,70,0,0
116101,-100,4,2,1,70,0,0
116282,-100,4,2,2,70,0,0
116373,-80,4,2,1,70,0,0
116646,-100,4,2,1,70,0,0
116919,-100,4,2,2,70,0,0
117192,-100,4,2,1,70,0,0
117373,-100,4,2,2,70,0,0
117464,-80,4,2,2,70,0,0
117737,-100,4,2,1,50,0,0
118828,-100,4,2,1,70,0,0
118919,-100,4,2,1,50,0,0
119919,-80,4,2,1,70,0,1
123464,-100,4,2,1,70,0,1
123737,-80,4,2,2,70,0,1
124010,-80,4,2,1,70,0,1
127010,-100,4,2,1,70,0,1
127192,-100,4,2,2,70,0,1
127555,-80,4,2,1,70,0,1
127828,-100,4,2,1,70,0,1
128646,-80,4,2,1,70,0,1
129192,-66.6666666666667,4,2,1,70,0,1
129737,-80,4,2,1,70,0,1
130282,-66.6666666666667,4,2,1,70,0,1
130828,-80,4,2,1,70,0,1
131373,-66.6666666666667,4,2,1,70,0,1
131919,-80,4,2,1,70,0,1
132192,-100,4,2,1,70,0,1
132464,-80,4,2,1,70,0,1
133555,-66.6666666666667,4,2,1,70,0,1
134101,-80,4,2,1,70,0,1
134646,-66.6666666666667,4,2,1,70,0,1
135192,-80,4,2,1,70,0,1
137373,-200,4,2,1,70,0,0
146101,-200,4,2,1,50,0,0
153737,-133.333333333333,4,2,1,55,0,0
154828,-133.333333333333,4,2,1,60,0,0
155101,-133.333333333333,4,2,2,60,0,0
155374,-133.333333333333,4,2,1,60,0,0
155647,-133.333333333333,4,2,2,60,0,0
155920,-133.333333333333,4,2,1,60,0,0
156192,-133.333333333333,4,2,2,60,0,0
156465,-133.333333333333,4,2,1,60,0,0
156738,-133.333333333333,4,2,2,60,0,0
156920,-133.333333333333,4,2,1,60,0,0
157283,-133.333333333333,4,2,2,60,0,0
157556,-133.333333333333,4,2,1,60,0,0
157829,-133.333333333333,4,2,2,60,0,0
158101,-133.333333333333,4,2,1,60,0,0
158374,-133.333333333333,4,2,2,60,0,0
158647,-133.333333333333,4,2,1,60,0,0
161374,-100,4,2,1,60,0,0
163011,-100,4,2,1,80,0,0
163283,-100,4,2,1,70,0,0
163464,-100,4,2,1,30,0,0
163555,-66.6666666666667,4,2,1,70,0,1
163828,-80,4,2,1,70,0,1
164101,-66.6666666666667,4,2,1,70,0,1
164373,-80,4,2,1,70,0,1
164919,-66.6666666666667,4,2,1,70,0,1
165192,-80,4,2,1,70,0,1
165464,-66.6666666666667,4,2,1,70,0,1
165737,-79.7448165869218,4,2,1,70,0,1
166282,-66.6666666666667,4,2,1,70,0,1
166555,-80,4,2,2,70,0,1
167373,-66.6666666666667,4,2,1,70,0,1
167646,-80,4,2,1,70,0,1
167919,-66.6666666666667,4,2,1,70,0,1
168192,-80,4,2,1,70,0,1
169010,-66.6666666666667,4,2,1,70,0,1
169282,-80,4,2,2,70,0,1
169555,-80,4,2,1,70,0,1
169828,-66.6666666666667,4,2,1,70,0,1
170101,-80,4,2,2,70,0,0
172010,-100,4,2,1,70,0,0
172282,-66.6666666666667,4,2,1,70,0,1
172555,-80,4,2,1,70,0,1
172828,-66.6666666666667,4,2,1,70,0,1
173101,-80,4,2,1,70,0,1
173646,-66.6666666666667,4,2,1,70,0,1
173919,-80,4,2,1,70,0,1
174192,-66.6666666666667,4,2,1,70,0,1
174464,-80,4,2,1,70,0,1
175010,-66.6666666666667,4,2,1,70,0,1
175282,-80,4,2,2,70,0,1
176101,-66.6666666666667,4,2,1,70,0,1
176373,-80,4,2,1,70,0,1
176646,-66.6666666666667,4,2,1,70,0,1
176919,-80,4,2,1,70,0,1
177737,-66.6666666666667,4,2,1,70,0,1
178010,-80,4,2,1,70,0,1
178192,-80,4,2,2,70,0,1
178282,-80,4,2,1,70,0,1
178555,-66.6666666666667,4,2,1,70,0,1
178828,-80,4,2,2,70,0,0
179919,-66.6666666666667,4,2,2,70,0,0
180373,-80,4,2,2,70,0,0
180737,-100,4,2,1,70,0,0
180919,-100,4,2,1,30,0,0
181010,-80,4,2,1,70,0,1
182101,-66.6666666666667,4,2,1,70,0,1
182373,-80,4,2,1,70,0,1
182919,-66.6666666666667,4,2,1,70,0,1
183192,-80,4,2,1,70,0,1
183737,-66.6666666666667,4,2,1,70,0,1
184010,-80,4,2,2,70,0,1
184828,-66.6666666666667,4,2,1,70,0,1
185010,-80,4,2,1,70,0,1
185373,-66.6666666666667,4,2,1,70,0,1
185646,-80,4,2,1,70,0,1
186464,-66.6666666666667,4,2,1,70,0,1
186737,-80,4,2,2,70,0,1
187010,-80,4,2,1,70,0,1
187282,-66.6666666666667,4,2,1,70,0,1
187555,-80,4,2,2,70,0,0
189737,-66.6666666666667,4,2,1,70,0,1
190010,-80,4,2,1,70,0,1
190282,-66.6666666666667,4,2,1,70,0,1
190555,-80,4,2,1,70,0,1
191101,-66.6666666666667,4,2,1,70,0,1
191373,-80,4,2,1,70,0,1
191646,-66.6666666666667,4,2,1,70,0,1
191919,-80,4,2,1,70,0,1
192464,-66.6666666666667,4,2,1,70,0,1
192737,-80,4,2,2,70,0,1
193555,-66.6666666666667,4,2,1,70,0,1
193828,-80,4,2,1,70,0,1
194101,-80,4,2,1,50,0,1
195646,-80,4,2,2,50,0,1
195737,-80,4,2,1,50,0,1
196282,-80,4,2,2,70,0,0
197373,-66.6666666666667,4,2,2,70,0,0
197828,-80,4,2,2,70,0,0
198192,-100,4,2,2,70,0,0
198373,-100,4,2,2,30,0,0
198464,-100,4,2,1,70,0,0
198555,-100,4,2,2,40,0,0
199010,-100,4,2,2,35,0,0
199555,-100,4,2,2,25,0,0
200101,-100,4,2,2,20,0,0
200646,-100,4,2,2,15,0,0
201192,-100,4,2,2,10,0,0
201737,-100,4,2,2,5,0,0

[Colours]
Combo1 : 255,234,168
Combo2 : 121,205,255
Combo3 : 251,132,135
Combo4 : 254,148,254

[HitObjects]
256,192,874,12,0,5272,1:0:0:0:
248,136,5920,6,0,L|260:232,1,84.9999976158143,0|0,1:0|1:0,0:0:0:0:
256,192,14101,5,2,0:3:0:0:
216,340,14374,1,2,0:3:0:0:
172,248,14556,1,2,0:3:0:0:
172,248,14647,1,2,0:3:0:0:
316,328,14829,1,2,0:3:0:0:
364,340,14920,1,2,0:3:0:0:
416,340,15011,1,2,0:3:0:0:
460,312,15101,1,2,0:3:0:0:
484,268,15192,6,0,P|492:212|484:148,1,113.333330154419,4|0,1:2|0:0,0:0:0:0:
316,36,15465,6,0,P|305:110|316:176,1,141.666662693024,2|0,0:1|0:0,0:0:0:0:
380,252,15738,5,8,0:0:0:0:
380,252,15920,1,2,0:0:0:0:
344,324,16011,2,0,L|272:320,1,56.6666650772095,2|0,0:0|0:0,0:0:0:0:
136,176,16192,1,2,0:0:0:0:
172,248,16283,6,0,L|292:240,1,113.333330154419,0|2,1:0|0:0,0:0:0:0:
160,332,16556,6,0,B|112:320|88:284|88:240|88:240|76:276,1,141.666662693024,2|0,0:1|0:0,0:0:0:0:
136,176,16829,1,10,0:0:0:0:
228,368,17011,1,2,0:0:0:0:
228,368,17101,1,2,0:0:0:0:
424,292,17283,1,2,0:0:0:0:
424,292,17374,6,0,B|428:244|428:244|416:200|416:200|420:152,1,141.666662693024,2|0,1:0|0:0,0:0:0:0:
492,36,17647,2,2,B|488:84|488:84|500:128|500:128|496:176,1,141.666662693024,2|2,1:0|0:0,0:0:0:0:
362,356,17920,6,0,P|335:307|344:252,1,113.333330154419,8|0,0:0|0:0,0:0:0:0:
496,175,18192,1,2,0:0:0:0:
500,224,18283,1,2,0:0:0:0:
504,276,18374,1,2,0:0:0:0:
508,328,18465,6,0,P|460:296|404:296,1,113.333330154419,0|0,1:0|0:0,0:0:0:0:
256,364,18738,1,2,0:0:0:0:
256,364,19011,2,0,L|216:360,5,28.3333325386048,8|2|2|2|2|2,0:0|0:3|0:3|0:3|0:3|0:3,0:0:0:0:
40,320,19556,6,0,L|160:316,1,113.333330154419,4|0,1:2|0:0,0:0:0:0:
405,295,19829,6,0,B|332:299|332:299|260:280,1,141.666662693024,2|0,0:1|0:0,0:0:0:0:
340,212,20101,5,8,0:0:0:0:
227,361,20283,1,2,0:0:0:0:
227,361,20374,2,0,L|212:304,1,56.6666650772095,2|0,0:0|0:0,0:0:0:0:
188,216,20556,1,2,0:0:0:0:
104,256,20647,6,0,P|96:192|144:132,1,141.666662693024,0|2,1:0|0:1,0:0:0:0:
188,216,20920,1,2,0:0:0:0:
236,232,21011,1,2,0:0:0:0:
284,220,21101,1,2,0:0:0:0:
316,180,21192,2,0,P|320:124|304:64,1,113.333330154419,8|2,0:0|0:0,0:0:0:0:
105,52,21465,6,0,P|81:111|141:133,1,141.666662693024,2|2,0:1|0:0,0:0:0:0:
306,68,21738,6,0,B|360:56|416:80|416:80|412:48,1,141.666662693024,2|0,1:0|0:0,0:0:0:0:
512,168,22011,2,0,B|458:180|402:156|402:156|406:188,1,141.666662693024,2|0,1:0|0:0,0:0:0:0:
420,312,22283,5,8,0:0:0:0:
420,312,22465,1,2,0:0:0:0:
356,256,22556,2,0,P|300:246|240:256,1,113.333330154419,2|2,0:0|0:0,0:0:0:0:
100,332,22829,6,0,L|104:244,1,85.000000858307,4|0,1:2|0:0,0:0:0:0:
136,100,23101,2,0,L|139:184,1,85.000000858307,2|0,0:3|0:0,0:0:0:0:
172,332,23374,6,0,L|174:267,1,56.6666650772095,2|0,0:1|0:0,0:0:0:0:
208,100,23647,1,2,0:3:0:0:
210,150,23738,1,2,0:3:0:0:
212,201,23829,1,2,0:3:0:0:
214,251,23920,6,0,L|332:256,1,113.333330154419,4|0,1:2|0:0,0:0:0:0:
504,304,24192,6,0,B|444:336|444:336|360:332,1,141.666662693024,2|0,0:1|0:0,0:0:0:0:
328,256,24465,5,8,0:0:0:0:
172,332,24647,1,2,0:0:0:0:
172,332,24738,2,0,P|120:340|56:328,1,113.333330154419,2|2,0:0|0:0,0:0:0:0:
32,168,25011,2,0,P|84:160|148:172,1,113.333330154419,0|2,1:0|0:0,0:0:0:0:
328,256,25283,6,0,P|272:272|240:208,1,141.666662693024,2|0,0:1|0:0,0:0:0:0:
280,132,25556,1,8,0:0:0:0:
484,120,25738,1,2,0:0:0:0:
484,120,25829,1,2,0:0:0:0:
280,132,26011,1,2,0:0:0:0:
209,84,26101,6,0,P|198:152|240:207,1,141.666662693024,2|0,1:0|0:0,0:0:0:0:
400,304,26374,2,0,P|411:235|369:181,1,141.666662693024,2|0,1:0|0:0,0:0:0:0:
172,284,26647,6,0,P|220:308|284:300,1,113.333330154419,8|0,0:0|0:0,0:0:0:0:
280,132,26920,1,2,0:0:0:0:
232,112,27011,1,2,0:0:0:0:
180,108,27101,1,2,0:0:0:0:
132,124,27192,6,0,P|116:176|120:240,1,113.333330154419,0|0,1:0|0:0,0:0:0:0:
152,372,27465,1,2,0:0:0:0:
152,372,27738,2,0,L|192:368,5,28.3333325386048,8|2|2|2|2|2,0:0|0:3|0:3|0:3|0:3|0:3,0:0:0:0:
272,360,28283,6,0,B|284:304|284:304|276:232,1,113.333330154419,4|0,1:2|0:0,0:0:0:0:
208,96,28556,6,0,B|196:168|196:168|204:240,1,141.666662693024,2|0,0:1|0:0,0:0:0:0:
272,360,28829,5,8,0:0:0:0:
124,248,29011,1,2,0:0:0:0:
124,248,29101,2,0,B|100:244|100:244|40:252|40:252|12:248,1,113.333330154419,2|2,0:0|0:0,0:0:0:0:
277,248,29374,6,0,B|320:244|320:244|380:252|380:252|424:248,1,141.666662693024,0|2,1:0|0:1,0:0:0:0:
484,296,29647,5,0,0:0:0:0:
499,247,29738,1,2,0:0:0:0:
481,199,29829,1,2,0:0:0:0:
438,170,29920,2,0,B|380:176|380:176|320:168,1,113.333330154419,8|2,0:0|0:0,0:0:0:0:
160,48,30192,6,0,B|218:42|218:42|276:48|276:48|256:80,1,141.666662693024,2|2,0:1|0:0,0:0:0:0:
152,232,30465,6,0,B|120:280|136:344|136:344|160:324,1,141.666662693024,2|0,1:0|0:0,0:0:0:0:
232,200,30738,2,0,B|206:148|143:130|143:130|148:160,1,141.666662693024,2|0,1:0|0:0,0:0:0:0:
219,285,31011,5,8,0:0:0:0:
384,352,31192,1,2,0:0:0:0:
332,280,31283,2,0,L|218:284,1,113.333330154419,2|2,0:0|0:0,0:0:0:0:
48,292,31556,6,0,P|92:296|136:308,1,85.000000858307,4|0,1:2|0:0,0:0:0:0:
332,280,31829,2,0,P|288:284|244:296,1,85.000000858307,2|0,0:3|0:0,0:0:0:0:
76,212,32101,6,0,P|106:214|137:223,1,56.6666650772095,2|0,0:3|0:0,0:0:0:0:
248,294,32374,1,2,0:0:0:0:
252,244,32465,1,2,0:0:0:0:
256,192,32556,1,2,0:0:0:0:
260,140,32647,6,0,L|252:24,1,113.333330154419,4|0,1:2|0:0,0:0:0:0:
45,92,32920,6,0,B|49:148|49:148|43:198|43:198|77:212,1,141.666662693024,2|0,0:1|0:0,0:0:0:0:
128,152,33192,5,8,0:0:0:0:
248,294,33374,1,2,0:0:0:0:
315,218,33465,6,0,P|347:280|332:348,1,141.666662693024,2|2,0:1|0:0,0:0:0:0:
136,292,33738,6,0,B|192:304|192:304|248:294,1,113.333330154419,0|0,1:0|0:0,0:0:0:0:
454,220,34011,6,0,B|384:205|384:205|314:218,1,141.666662693024,2|0,0:1|0:0,0:0:0:0:
136,292,34283,6,0,L|132:352,1,56.6666650772095,8|0,0:0|0:0,0:0:0:0:
52,356,34465,1,2,0:0:0:0:
52,356,34556,6,0,L|63:211,1,141.666662693024,2|2,0:1|0:0,0:0:0:0:
140,56,34829,6,0,B|136:116|136:116|144:176,1,113.333330154419,0|0,1:0|0:0,0:0:0:0:
248,294,35101,6,0,B|332:274|332:274|276:256,1,141.666662693024,2|0,1:0|0:0,0:0:0:0:
63,214,35374,5,8,0:0:0:0:
232,368,35556,1,2,0:0:0:0:
232,368,35647,5,2,0:0:0:0:
284,364,35738,1,2,0:0:0:0:
336,360,35829,1,2,0:0:0:0:
388,356,35920,6,0,P|408:296|400:240,1,113.333330154419,0|0,1:0|0:0,0:0:0:0:
356,160,36192,6,0,L|280:156,1,70.8333313465119,2|0,0:3|0:0,0:0:0:0:
120,148,36374,1,2,0:3:0:0:
63,214,36465,2,0,P|40:184|32:148,1,70.8333313465119,8|0,0:0|0:0,0:0:0:0:
240,80,36647,1,2,0:3:0:0:
285,156,36738,2,0,P|288:192|280:232,1,70.8333313465119,8|0,0:0|0:0,0:0:0:0:
184,384,36920,1,2,0:3:0:0:
124,320,37011,6,0,L|248:316,1,113.333330154419,4|0,1:2|0:0,0:0:0:0:
423,230,37283,6,0,L|268:225,1,141.666662693024,2|0,0:1|0:0,0:0:0:0:
120,148,37556,5,8,0:0:0:0:
237,316,37738,1,2,0:0:0:0:
281,225,37829,6,0,B|276:120|276:120|244:140,1,141.666662693024,2|2,0:1|0:0,0:0:0:0:
104,232,38101,6,0,L|-12:224,1,113.333330154419,0|0,1:0|0:0,0:0:0:0:
133,324,38374,5,2,0:1:0:0:
185,320,38465,1,2,0:0:0:0:
237,316,38556,1,2,0:0:0:0:
289,312,38647,2,0,L|416:320,1,113.333330154419,8|0,0:0|0:0,0:0:0:0:
505,188,38920,6,0,B|444:224|444:224|364:228,1,141.666662693024,2|2,0:1|0:0,0:0:0:0:
245,139,39192,5,0,1:0:0:0:
228,92,39283,1,0,1:0:0:0:
190,57,39374,1,0,1:0:0:0:
139,47,39465,1,2,1:0:0:0:
90,62,39556,1,0,1:0:0:0:
56,100,39647,1,0,1:0:0:0:
43,149,39738,1,8,1:0:0:0:
56,198,39829,1,0,1:0:0:0:
91,234,39920,1,0,1:0:0:0:
139,250,40011,1,2,1:0:0:0:
189,241,40101,1,0,1:0:0:0:
227,207,40192,1,0,1:0:0:0:
246,160,40283,5,4,1:0:0:0:
248,176,40374,1,0,1:0:0:0:
250,192,40465,1,0,1:0:0:0:
252,208,40556,1,0,1:0:0:0:
254,224,40647,1,0,1:0:0:0:
256,240,40738,1,0,1:0:0:0:
258,256,40829,1,0,1:0:0:0:
260,272,40920,1,0,1:0:0:0:
262,288,41011,1,0,1:0:0:0:
264,304,41101,1,0,1:0:0:0:
266,320,41192,1,0,1:0:0:0:
268,336,41283,1,0,1:0:0:0:
270,352,41374,5,2,0:0:0:0:
270,352,50101,5,4,1:2:0:0:
284,252,50647,1,0,1:0:0:0:
270,152,51192,1,0,1:0:0:0:
284,52,51738,1,0,1:0:0:0:
416,178,52283,5,4,1:2:0:0:
316,164,52829,1,0,1:0:0:0:
216,178,53374,1,0,1:0:0:0:
116,164,53920,1,0,1:0:0:0:
356,312,54192,6,0,L|400:316,2,28.3333325386048
270,352,54465,1,4,1:2:0:0:
284,252,55011,1,0,1:0:0:0:
270,152,55556,1,0,1:0:0:0:
284,52,56101,1,0,1:0:0:0:
416,178,56647,5,4,1:2:0:0:
316,164,56920,1,2,0:3:0:0:
252,244,57192,2,0,L|248:288,1,28.3333325386048,0|0,1:0|0:0,0:0:0:0:
240,356,57374,1,2,0:3:0:0:
216,352,57465,1,2,0:3:0:0:
192,348,57556,1,2,0:3:0:0:
168,344,57647,1,2,0:3:0:0:
144,340,57738,5,2,1:3:0:0:
112,320,57829,1,2,0:3:0:0:
92,288,57920,1,2,0:3:0:0:
84,252,58011,1,2,0:3:0:0:
92,216,58101,1,2,0:3:0:0:
112,184,58192,1,2,0:3:0:0:
144,164,58283,5,2,1:3:0:0:
192,176,58374,1,2,0:3:0:0:
244,180,58465,1,2,0:3:0:0:
292,168,58556,1,2,0:3:0:0:
336,140,58647,1,2,0:3:0:0:
360,96,58738,1,2,0:3:0:0:
364,44,58829,6,0,L|372:140,1,85.000000858307,8|0,0:0|0:0,0:0:0:0:
404,204,59101,2,0,P|428:208|452:208,1,42.5000004291535,2|0,0:0|0:0,0:0:0:0:
456,288,59283,1,0,0:0:0:0:
456,288,59374,2,0,P|416:288|368:276,1,85.000000858307,8|0,0:0|0:0,0:0:0:0:
284,244,59647,2,0,P|244:244|196:256,1,85.000000858307,2|0,0:0|0:0,0:0:0:0:
116,300,59920,6,0,L|112:356,1,42.5000004291535,8|0,0:0|0:0,0:0:0:0:
72,216,60101,1,0,0:0:0:0:
72,216,60192,2,0,L|76:120,1,85.000000858307,2|0,0:0|1:0,0:0:0:0:
146,69,60465,2,0,P|188:63|229:83,1,85.000000858307,8|0,0:0|0:0,0:0:0:0:
288,152,60738,1,2,0:0:0:0:
324,164,60829,1,2,0:3:0:0:
364,168,60920,1,2,0:3:0:0:
400,160,61011,6,0,P|412:116|408:72,1,85.000000858307,8|0,0:0|0:0,0:0:0:0:
288,152,61283,2,0,L|284:196,1,42.5000004291535,2|0,0:0|0:0,0:0:0:0:
276,288,61465,1,2,0:3:0:0:
276,288,61556,2,0,L|364:284,1,85.000000858307,8|0,0:0|0:0,0:0:0:0:
480,296,61829,5,2,0:0:0:0:
440,292,61920,1,2,0:3:0:0:
400,288,62011,1,2,0:3:0:0:
360,284,62101,2,0,L|356:240,2,42.5000004291535,8|2|2,0:0|0:3|0:3,0:0:0:0:
260,324,62374,2,0,L|256:366,2,42.5000004291535,2|2|2,0:0|0:3|0:3,0:0:0:0:
160,284,62647,2,0,L|156:241,1,42.5000004291535,8|2,0:0|0:3,0:0:0:0:
164,368,62829,1,0,1:0:0:0:
164,368,62920,1,0,1:0:0:0:
164,368,63192,6,0,P|124:376|76:364,1,85.000000858307,8|2,0:0|0:3,0:0:0:0:
260,308,63465,2,0,P|300:300|348:312,1,85.000000858307,8|2,0:0|0:3,0:0:0:0:
164,244,63738,2,0,P|124:252|76:240,1,85.000000858307,8|2,0:0|0:3,0:0:0:0:
260,184,64011,2,0,P|300:176|348:188,1,85.000000858307,8|2,0:0|0:3,0:0:0:0:
164,120,64283,5,8,0:0:0:0:
128,136,64374,1,2,0:3:0:0:
92,144,64465,1,2,0:3:0:0:
56,140,64556,1,8,0:0:0:0:
20,124,64647,1,2,0:3:0:0:
4,88,64738,1,2,0:3:0:0:
4,48,64829,5,8,0:0:0:0:
40,72,64920,1,2,0:3:0:0:
60,112,65011,1,2,0:3:0:0:
68,156,65101,1,8,0:0:0:0:
64,200,65192,1,2,0:3:0:0:
48,240,65283,1,2,0:3:0:0:
16,268,65374,5,2,0:0:0:0:
16,268,67011,5,0,1:0:0:0:
19,381,67283,2,0,L|16:268,1,113.333330154419,2|0,0:0|0:0,0:0:0:0:
16,168,67556,6,0,B|68:160|68:160|144:176|144:176|192:164,1,170.000001716614,4|0,1:2|0:0,0:0:0:0:
152,28,67829,6,0,L|145:98,1,70.8333313465119,2|0,0:0|0:0,0:0:0:0:
128,252,68011,1,0,1:0:0:0:
80,320,68101,6,0,B|120:356|192:328|204:284|204:284|216:324,1,170.000001716614,8|0,0:0|0:0,0:0:0:0:
292,356,68374,5,2,0:1:0:0:
296,320,68465,1,2,0:1:0:0:
300,284,68556,1,2,0:1:0:0:
304,248,68647,2,0,B|308:188|308:188|288:148|292:100,1,141.666662693024,0|0,1:0|0:0,0:0:0:0:
388,68,68920,6,0,P|396:108|388:152,2,85.000000858307
291,109,69192,1,8,0:0:0:0:
380,272,69374,1,2,0:1:0:0:
296,320,69465,6,0,B|368:364|368:364|452:338,1,170.000001716614,2|0,0:1|0:0,0:0:0:0:
383,201,69738,6,0,L|379:282,1,70.8333313465119,0|0,1:0|0:0,0:0:0:0:
296,320,69920,1,2,0:0:0:0:
256,292,70011,1,2,0:0:0:0:
208,280,70101,1,2,0:0:0:0:
160,292,70192,1,2,0:0:0:0:
120,320,70283,6,0,B|112:360|112:360|60:316|76:240,1,170.000001716614,8|0,0:1|0:0,0:0:0:0:
104,144,70556,1,2,0:0:0:0:
152,140,70647,1,2,0:0:0:0:
200,136,70738,1,2,0:0:0:0:
248,132,70829,6,0,L|252:60,2,70.8333313465119,0|0|0,1:0|0:0|0:0,0:0:0:0:
177,241,71101,2,0,L|113:272,2,70.8333313465119,2|0|0,0:1|0:0|0:0,0:0:0:0:
308,248,71374,6,0,L|381:295,1,85.000000858307,8|0,0:0|0:0,0:0:0:0:
456,344,71556,5,0,0:0:0:0:
364,360,71647,2,0,P|380:292|437:251,1,141.666662693024,2|0,0:0|0:0,0:0:0:0:
512,116,71920,6,0,B|424:120|424:120|388:92|388:92|396:136,1,170.000001716614,2|0,1:0|0:0,0:0:0:0:
308,248,72192,6,0,L|280:108,1,141.666662693024,2|0,0:0|0:0,0:0:0:0:
156,136,72465,1,8,0:0:0:0:
163,171,72556,1,0,0:0:0:0:
170,206,72647,1,0,0:0:0:0:
177,240,72738,2,0,L|172:312,1,70.8333313465119,2|0,0:1|0:0,0:0:0:0:
88,360,72920,1,2,0:1:0:0:
25,285,73011,6,0,P|104:264|172:311,1,170.000001716614,0|0,1:0|0:0,0:0:0:0:
88,360,73283,5,2,0:0:0:0:
156,136,73465,1,2,0:0:0:0:
244,196,73556,2,0,L|396:192,1,141.666662693024,8|2,0:0|0:1,0:0:0:0:
464,72,73829,6,0,B|440:112|464:152|464:152|488:192|464:232,1,170.000001716614,2|0,0:1|0:0,0:0:0:0:
368,344,74101,5,2,1:2:0:0:
244,196,74283,1,2,0:0:0:0:
232,308,74374,1,2,0:0:0:0:
295,124,74556,1,2,0:0:0:0:
398,79,74647,1,2,0:0:0:0:
208,116,74829,1,2,0:0:0:0:
117,49,74920,2,0,L|40:44,2,70.8333313465119,2|2|2,0:0|0:0|0:0,0:0:0:0:
257,60,75192,5,0,1:0:0:0:
257,60,75465,1,2,0:0:0:0:
257,60,75738,1,2,0:0:0:0:
232,308,75920,1,2,0:0:0:0:
164,248,76011,6,0,P|208:220|268:224,1,113.333330154419,2|0,0:0|0:0,0:0:0:0:
397,314,76283,6,0,B|352:304|352:304|272:320|272:320|232:308,1,170.000001716614,4|0,1:2|0:0,0:0:0:0:
164,248,76556,1,2,0:0:0:0:
384,148,76738,1,0,1:0:0:0:
440,84,76829,6,0,B|384:48|336:68|312:104|312:104|280:100,1,170.000001716614,8|0,0:0|0:0,0:0:0:0:
108,48,77101,5,2,0:1:0:0:
144,44,77192,1,2,0:1:0:0:
180,48,77283,1,2,0:1:0:0:
212,60,77374,2,0,P|216:128|204:204,1,141.666662693024,0|0,1:0|0:0,0:0:0:0:
132,280,77647,6,0,B|92:272|92:272|40:276,2,85.000000858307
200,364,77920,5,8,0:0:0:0:
287,100,78101,1,2,0:1:0:0:
336,176,78192,6,0,P|377:103|339:26,1,170.000001716614,2|0,0:1|0:0,0:0:0:0:
216,102,78465,6,0,L|287:100,1,70.8333313465119,0|0,1:0|0:0,0:0:0:0:
384,180,78647,1,2,0:0:0:0:
336,176,78738,1,2,0:0:0:0:
288,188,78829,1,2,0:0:0:0:
252,224,78920,1,2,0:0:0:0:
236,272,79011,6,0,B|248:372|248:372|268:304,1,170.000001716614,8|0,0:0|0:0,0:0:0:0:
288,188,79283,1,2,0:0:0:0:
240,180,79374,1,2,0:0:0:0:
192,172,79465,1,2,0:0:0:0:
144,164,79556,6,0,L|64:168,2,70.8333313465119,0|0|0,1:0|0:0|0:0,0:0:0:0:
336,176,79829,2,0,L|416:180,2,70.8333313465119,2|0|0,0:1|0:0|0:0,0:0:0:0:
128,76,80101,6,0,L|31:80,2,85.000000858307,8|0|0,0:0|0:0|0:0,0:0:0:0:
224,72,80374,1,2,0:0:0:0:
272,88,80465,1,0,0:0:0:0:
320,92,80556,1,0,0:0:0:0:
368,72,80647,6,0,B|380:128|380:128|368:192|368:192|376:248,1,170.000001716614,2|0,1:0|0:0,0:0:0:0:
460,352,80920,6,0,B|448:296|448:296|460:232|460:232|452:176,1,141.666662693024,2|0,0:0|0:0,0:0:0:0:
288,196,81192,1,8,0:0:0:0:
293,231,81283,1,0,0:0:0:0:
298,266,81374,1,0,0:0:0:0:
303,301,81465,2,0,L|295:379,1,70.8333313465119,2|0,0:1|0:0,0:0:0:0:
374,239,81647,1,2,0:1:0:0:
288,196,81738,6,0,B|216:176|152:212|152:212|168:184,1,170.000001716614,0|0,1:0|0:0,0:0:0:0:
220,104,82011,5,2,0:0:0:0:
304,300,82192,1,2,0:0:0:0:
374,239,82283,2,0,L|386:83,1,141.666662693024,8|2,0:0|0:1,0:0:0:0:
456,144,82556,6,0,P|382:181|308:128,1,170.000001716614,2|0,0:1|0:0,0:0:0:0:
272,16,82829,5,2,1:2:0:0:
166,186,83011,1,2,0:0:0:0:
52,176,83101,1,2,0:0:0:0:
228,252,83283,1,2,0:0:0:0:
342,242,83374,1,2,0:0:0:0:
166,318,83556,1,2,0:0:0:0:
52,308,83647,1,2,0:0:0:0:
52,308,83829,5,2,0:0:0:0:
166,318,83920,2,0,B|228:336|228:336|288:316|288:316|340:336|340:336|408:312|408:312|448:336|448:336|488:324,1,340.000003433228,2|0,1:1|0:0,0:0:0:0:
495,157,84374,6,0,B|476:208|476:208|416:188|416:188|388:224|388:224|342:242,1,212.499994039536,2|0,1:2|0:0,0:0:0:0:
228,252,84738,6,0,P|236:196|272:148,1,113.333330154419,2|0,0:0|0:0,0:0:0:0:
360,72,85011,5,2,0:0:0:0:
312,68,85101,1,2,0:0:0:0:
264,64,85192,1,2,0:0:0:0:
216,60,85283,2,0,L|136:64,1,70.8333313465119,2|0,0:0|0:0,0:0:0:0:
68,104,85465,1,2,0:0:0:0:
8,164,85556,2,0,P|68:188|136:156,1,141.666662693024,10|0,0:0|0:0,0:0:0:0:
216,60,85829,5,2,0:1:0:0:
220,96,85920,1,2,0:1:0:0:
224,132,86011,1,2,0:1:0:0:
228,168,86101,2,0,B|232:240|232:240|216:292|216:292|220:344,1,170.000001716614,0|0,1:0|0:0,0:0:0:0:
304,300,86374,6,0,P|339:297|373:304,2,70.8333313465119
220,336,86647,1,8,0:0:0:0:
448,352,86829,1,2,0:1:0:0:
448,352,86920,6,0,B|468:304|448:264|448:264|424:224|448:188,1,170.000001716614,2|0,0:1|0:0,0:0:0:0:
492,92,87192,6,0,P|460:108|420:108,1,70.8333313465119,0|0,1:0|0:0,0:0:0:0:
328,80,87374,1,2,0:0:0:0:
284,60,87465,1,2,0:0:0:0:
236,52,87556,1,2,0:0:0:0:
188,60,87647,1,2,0:0:0:0:
144,80,87738,6,0,B|116:136|148:200|148:200|136:256,1,170.000001716614,8|0,0:0|0:0,0:0:0:0:
112,340,88011,1,2,0:0:0:0:
68,316,88101,1,2,0:0:0:0:
43,272,88192,1,2,0:0:0:0:
42,222,88283,6,0,L|52:136,2,70.8333313465119,0|0|0,1:0|0:0|0:0,0:0:0:0:
112,340,88556,2,0,L|198:350,2,70.8333313465119,2|0|0,0:1|0:0|0:0,0:0:0:0:
138,244,88829,6,0,L|205:190,1,85.000000858307,8|0,0:0|0:0,0:0:0:0:
272,136,89011,5,0,0:0:0:0:
341,82,89101,2,0,P|359:154|318:211,1,141.666662693024,2|0,0:0|0:0,0:0:0:0:
119,120,89374,6,0,P|199:96|272:136,1,170.000001716614,2|0,1:0|0:0,0:0:0:0:
305,347,89647,6,0,L|324:207,1,141.666662693024,2|0,0:0|0:0,0:0:0:0:
341,82,89920,1,8,0:0:0:0:
376,80,90011,1,0,0:0:0:0:
412,76,90101,1,0,0:0:0:0:
448,72,90192,2,0,L|456:152,1,70.8333313465119,2|0,0:1|0:0,0:0:0:0:
464,232,90374,1,2,0:1:0:0:
432,316,90465,6,0,B|396:304|368:260|376:216|376:216|352:260,1,170.000001716614,0|0,1:0|0:0,0:0:0:0:
305,347,90738,5,2,0:0:0:0:
104,276,90920,1,2,0:0:0:0:
43,209,91011,2,0,P|12:270|34:335,1,141.666662693024,8|2,0:0|0:1,0:0:0:0:
208,348,91283,6,0,B|232:288|232:288|220:232|220:232|240:180,1,170.000001716614,2|0,0:1|0:0,0:0:0:0:
272,96,91556,5,2,1:2:0:0:
123,166,91738,1,2,0:0:0:0:
237,187,91829,1,2,0:0:0:0:
337,371,92011,1,2,0:0:0:0:
297,261,92101,1,2,0:0:0:0:
407,83,92283,1,2,0:0:0:0:
332,172,92374,2,0,L|272:220,2,70.8333313465119,2|2|2,0:0|0:0|0:0,0:0:0:0:
407,83,92647,5,0,1:0:0:0:
337,371,92920,1,2,0:0:0:0:
332,172,93101,1,2,0:0:0:0:
358,271,93192,1,2,0:0:0:0:
407,83,93374,1,2,0:0:0:0:
488,144,93465,2,0,L|480:228,2,70.8333313465119,2|2|2,0:0|0:0|0:0,0:0:0:0:
407,83,93738,6,0,B|352:76|352:76|284:92|284:92|232:88,1,170.000001716614,4|0,1:2|0:0,0:0:0:0:
84,68,94011,6,0,L|168:64,1,70.8333313465119,2|0,0:0|0:0,0:0:0:0:
240,88,94192,1,0,1:0:0:0:
192,164,94283,6,0,L|20:172,1,170.000001716614,8|0,0:0|0:0,0:0:0:0:
40,276,94556,5,2,0:1:0:0:
75,274,94647,1,2,0:1:0:0:
110,272,94738,1,2,0:1:0:0:
146,270,94829,2,0,B|212:267|212:267|286:282,1,141.666662693024,0|0,1:0|0:0,0:0:0:0:
384,324,95101,6,0,B|424:328|424:328|472:324,2,85.000000858307
286,282,95374,5,8,0:0:0:0:
272,72,95556,1,2,0:1:0:0:
350,112,95647,6,0,P|284:160|208:132,1,170.000001716614,2|0,0:1|0:0,0:0:0:0:
72,64,95920,6,0,L|142:67,1,70.8333313465119,0|0,1:0|0:0,0:0:0:0:
208,132,96101,1,2,0:0:0:0:
220,180,96192,1,2,0:0:0:0:
224,228,96283,1,2,0:0:0:0:
212,276,96374,1,2,0:0:0:0:
184,320,96465,6,0,B|120:352|46:313|46:313|71:298,1,170.000001716614,8|0,0:0|0:0,0:0:0:0:
224,228,96738,1,2,0:0:0:0:
272,220,96829,1,2,0:0:0:0:
320,220,96920,1,2,0:0:0:0:
368,228,97011,6,0,L|376:300,2,70.8333313465119,0|0|0,1:0|0:0|0:0,0:0:0:0:
400,84,97283,2,0,L|407:13,2,70.8333313465119,2|0|0,0:1|0:0|0:0,0:0:0:0:
448,244,97556,6,0,L|458:334,2,85.000000858307,10|0|0,0:1|0:0|0:0,0:0:0:0:
420,164,97829,1,2,1:2:0:0:
372,156,97920,1,0,1:0:0:0:
324,160,98011,1,0,1:0:0:0:
284,188,98101,5,2,1:0:0:0:
268,236,98192,1,0,1:0:0:0:
244,280,98283,1,0,1:0:0:0:
200,300,98374,1,2,1:2:0:0:
152,304,98465,1,0,1:0:0:0:
104,292,98556,1,0,1:0:0:0:
68,256,98647,1,8,1:2:0:0:
60,208,98738,1,0,1:0:0:0:
68,160,98829,1,0,1:0:0:0:
104,128,98920,1,2,1:0:0:0:
152,116,99011,1,0,1:0:0:0:
200,128,99101,1,2,1:0:0:0:
240,160,99192,5,0,1:0:0:0:
256,208,99283,1,0,1:0:0:0:
264,256,99374,1,0,1:0:0:0:
292,296,99465,1,2,1:2:0:0:
336,320,99556,1,0,1:0:0:0:
384,328,99647,1,2,1:2:0:0:
432,320,99737,1,8,1:2:0:0:
476,296,99829,1,0,1:0:0:0:
504,256,99920,1,2,1:0:0:0:
508,208,100011,1,2,1:0:0:0:
504,160,100101,1,0,1:0:0:0:
484,116,100192,1,0,1:0:0:0:
444,88,100283,5,2,1:2:0:0:
376,248,100465,1,2,0:0:0:0:
368,140,100556,1,2,0:0:0:0:
268,8,100738,1,2,0:0:0:0:
260,116,100829,1,2,0:0:0:0:
184,280,101011,1,2,0:0:0:0:
176,172,101101,1,2,0:0:0:0:
176,172,101283,5,2,0:0:0:0:
184,280,101374,2,0,P|72:204|176:64,1,340.000003433228,2|0,1:0|0:0,0:0:0:0:
378,172,101829,6,0,B|340:172|340:172|284:156|284:156|224:184|224:184|176:172,1,212.499994039536,2|0,1:2|0:0,0:0:0:0:
55,63,102192,6,0,B|112:53|112:53|167:65,1,113.333330154419,2|0,0:0|0:0,0:0:0:0:
300,152,102465,6,0,L|312:264,1,113.333330154419,4|0,1:2|0:0,0:0:0:0:
360,356,102738,6,0,P|404:308|404:224,1,141.666662693024,2|0,0:1|0:0,0:0:0:0:
312,264,103011,5,8,0:0:0:0:
191,136,103192,1,2,0:0:0:0:
191,136,103283,2,0,L|72:132,1,113.333330154419,2|2,0:0|0:0,0:0:0:0:
20,48,103556,2,0,L|133:51,1,113.333330154419,0|0,1:0|0:0,0:0:0:0:
278,54,103829,6,0,B|234:52|234:52|232:88|220:116|191:136,1,141.666662693024,2|0,0:1|0:0,0:0:0:0:
133,51,104101,1,8,0:0:0:0:
196,268,104283,1,2,0:0:0:0:
196,268,104374,1,2,0:0:0:0:
278,54,104556,1,2,0:0:0:0:
278,54,104647,6,0,B|321:44|321:44|377:60|377:60|425:52,1,141.666662693024,2|0,1:0|0:0,0:0:0:0:
496,188,104920,2,0,B|457:181|457:181|401:197|401:197|358:187,1,141.666662693024,2|0,1:0|0:0,0:0:0:0:
192,136,105192,6,0,B|180:80|180:80|184:24,1,113.333330154419,8|0,0:0|0:0,0:0:0:0:
280,144,105465,1,2,0:0:0:0:
276,196,105556,1,2,0:0:0:0:
272,248,105647,1,2,0:0:0:0:
268,300,105738,6,0,P|216:312|160:296,1,113.333330154419,0|0,1:0|0:0,0:0:0:0:
24,192,106011,1,2,0:0:0:0:
24,192,106283,2,0,L|20:236,5,28.3333325386048,8|2|2|2|2|2,0:0|0:3|0:3|0:3|0:3|0:3,0:0:0:0:
32,104,106829,6,0,P|88:92|148:100,1,113.333330154419,4|0,1:2|0:0,0:0:0:0:
308,172,107101,6,0,B|252:196|196:168|196:168|200:212,1,141.666662693024,2|0,0:1|0:0,0:0:0:0:
208,284,107374,1,8,0:0:0:0:
384,232,107556,1,2,0:0:0:0:
384,232,107647,2,0,L|392:176,1,56.6666650772095,2|0,0:0|0:0,0:0:0:0:
404,84,107829,1,2,0:0:0:0:
467,14,107920,6,0,P|496:72|472:148,1,141.666662693024,0|2,1:0|0:1,0:0:0:0:
384,232,108192,5,0,0:0:0:0:
336,220,108283,1,2,0:0:0:0:
284,220,108374,1,2,0:0:0:0:
236,236,108465,2,0,L|232:356,1,113.333330154419,8|0,0:0|0:0,0:0:0:0:
384,232,108738,6,0,B|381:156|381:156|320:124,1,141.666662693024,2|0,0:1|0:0,0:0:0:0:
196,64,109011,6,0,P|124:76|48:68,1,141.666662693024,2|0,1:0|0:0,0:0:0:0:
12,228,109283,2,0,P|84:216|160:224,1,141.666662693024,2|0,1:0|0:0,0:0:0:0:
300,300,109556,5,8,0:0:0:0:
323,125,109738,1,2,0:0:0:0:
380,192,109829,2,0,L|392:320,1,113.333330154419,2|2,0:0|0:0,0:0:0:0:
216,352,110101,6,0,L|224:258,1,85.000000858307,4|0,1:2|0:0,0:0:0:0:
270,114,110374,2,0,L|277:198,1,85.000000858307,2|0,0:3|0:0,0:0:0:0:
392,304,110647,6,0,L|452:308,1,56.6666650772095,2|0,0:3|0:0,0:0:0:0:
380,192,110920,1,2,0:3:0:0:
329,195,111011,1,2,0:3:0:0:
278,198,111101,1,2,0:3:0:0:
227,202,111192,6,0,L|108:200,1,113.333330154419,4|0,1:2|0:0,0:0:0:0:
24,280,111465,6,0,B|110:282|110:282|136:344,1,141.666662693024,2|0,0:1|0:0,0:0:0:0:
52,364,111738,5,8,0:0:0:0:
40,152,111920,1,2,0:0:0:0:
113,199,112011,6,0,B|132:176|136:124|104:92|104:92|136:84,1,141.666662693024,2|2,0:1|0:0,0:0:0:0:
240,56,112283,6,0,L|304:60,1,56.6666650772095,0|0,1:0|0:0,0:0:0:0:
384,68,112465,1,2,0:1:0:0:
460,24,112556,6,0,P|472:68|424:148,1,141.666662693024,2|0,0:1|0:0,0:0:0:0:
384,68,112829,5,8,0:0:0:0:
252,208,113011,1,2,0:0:0:0:
176,164,113101,6,0,P|164:208|212:288,1,141.666662693024,2|2,0:1|0:0,0:0:0:0:
415,254,113374,6,0,B|413:225|413:225|433:189|433:189|426:147,1,113.333330154419,0|0,1:0|0:0,0:0:0:0:
253,33,113647,6,0,B|295:34|295:34|342:67|342:67|384:68,1,141.666662693024,2|0,1:0|0:0,0:0:0:0:
460,24,113919,5,8,0:0:0:0:
348,168,114101,1,2,0:0:0:0:
348,168,114192,5,2,0:0:0:0:
340,216,114283,1,2,0:0:0:0:
332,268,114374,1,2,0:0:0:0:
324,320,114465,2,0,P|268:328|208:320,1,113.333330154419,0|0,1:0|0:0,0:0:0:0:
36,228,114738,6,0,L|40:156,1,70.8333313465119,2|0,0:3|0:0,0:0:0:0:
111,33,114920,1,2,0:3:0:0:
143,121,115011,2,0,L|146:191,1,70.8333313465119,8|0,0:0|0:0,0:0:0:0:
211,321,115192,1,2,0:3:0:0:
243,233,115283,2,0,L|246:162,1,70.8333313465119,8|0,0:0|0:0,0:0:0:0:
311,33,115465,1,2,0:3:0:0:
343,121,115556,6,0,P|396:136|456:128,1,113.333330154419,4|0,1:2|0:0,0:0:0:0:
512,232,115829,6,0,P|448:216|376:240,1,141.666662693024,2|0,0:1|0:0,0:0:0:0:
300,328,116101,5,8,0:0:0:0:
104,312,116283,1,2,0:0:0:0:
164,368,116374,6,0,L|156:224,1,141.666662693024,2|2,0:1|0:0,0:0:0:0:
100,56,116647,6,0,L|92:197,1,113.333330154419,0|2,1:0|0:0,0:0:0:0:
104,312,116920,5,2,0:1:0:0:
156,320,117011,1,2,0:0:0:0:
208,312,117101,1,2,0:0:0:0:
252,284,117192,2,0,P|264:228|256:172,1,113.333330154419,8|2,0:0|0:0,0:0:0:0:
100,56,117465,6,0,L|248:52,1,141.666662693024,2|2,0:1|0:0,0:0:0:0:
336,104,117738,5,0,1:0:0:0:
348,152,117829,1,0,1:0:0:0:
392,180,117920,1,0,1:0:0:0:
444,188,118011,1,2,1:0:0:0:
492,168,118101,1,0,1:0:0:0:
504,120,118192,1,0,1:0:0:0:
488,72,118283,1,8,1:0:0:0:
448,104,118374,1,0,1:0:0:0:
428,152,118465,1,0,1:0:0:0:
416,200,118556,1,2,1:0:0:0:
420,252,118647,1,0,1:0:0:0:
440,300,118738,1,0,1:0:0:0:
476,336,118829,5,4,1:2:0:0:
460,332,118920,1,0,1:0:0:0:
444,328,119011,1,0,1:0:0:0:
428,324,119101,1,0,1:0:0:0:
412,320,119192,1,0,1:0:0:0:
396,316,119283,1,0,1:0:0:0:
380,312,119374,1,0,1:0:0:0:
364,308,119465,1,0,1:0:0:0:
348,304,119556,1,0,1:0:0:0:
332,300,119647,1,0,1:0:0:0:
316,296,119738,1,0,1:0:0:0:
300,292,119829,1,0,1:0:0:0:
284,288,119920,6,0,B|212:280|212:280|140:292,1,141.666662693024,0|0,1:0|0:0,0:0:0:0:
24,204,120192,2,0,B|96:212|96:212|168:200,1,141.666662693024,0|0,1:0|0:0,0:0:0:0:
292,128,120465,1,8,0:0:0:0:
292,128,120738,1,0,0:0:0:0:
292,128,121011,6,0,L|288:272,1,141.666662693024,0|0,1:0|0:0,0:0:0:0:
164,200,121283,2,0,L|160:58,1,141.666662693024,0|0,1:0|0:0,0:0:0:0:
296,16,121556,1,8,0:0:0:0:
296,16,121829,1,0,0:0:0:0:
296,16,122101,6,0,P|366:12|440:24,1,141.666662693024,0|0,1:0|0:0,0:0:0:0:
472,160,122374,2,0,P|401:163|328:152,1,141.666662693024,0|0,1:0|0:0,0:0:0:0:
204,88,122647,1,8,0:0:0:0:
204,88,122920,1,0,0:0:0:0:
204,88,123192,6,0,B|196:136|196:136|204:192|204:192|196:232,1,141.666662693024,0|0,1:0|0:0,0:0:0:0:
124,308,123465,6,0,P|176:336|228:332,1,113.333330154419,2|2,0:0|0:0,0:0:0:0:
316,272,123738,6,0,P|320:232|328:200,1,70.8333313465119,0|0,1:0|0:0,0:0:0:0:
388,136,123920,1,0,0:0:0:0:
464,88,124011,2,0,P|416:52|336:64,1,141.666662693024,8|0,0:0|0:0,0:0:0:0:
232,160,124283,6,0,L|88:156,1,141.666662693024,0|0,1:0|0:0,0:0:0:0:
20,296,124556,2,0,L|161:299,1,141.666662693024,0|0,1:0|0:0,0:0:0:0:
316,272,124829,1,8,0:0:0:0:
316,272,125101,1,0,0:0:0:0:
316,272,125374,6,0,B|312:216|312:216|332:164|332:164|308:140,1,141.666662693024,0|0,1:0|0:0,0:0:0:0:
156,170,125647,2,0,B|160:226|160:226|140:278|140:278|164:302,1,141.666662693024,0|0,1:0|0:0,0:0:0:0:
304,360,125920,1,8,0:0:0:0:
304,360,126192,1,0,0:0:0:0:
304,360,126465,6,0,P|376:368|448:356,1,141.666662693024,0|0,1:0|0:0,0:0:0:0:
161,299,126738,2,0,P|89:291|17:303,1,141.666662693024,0|0,1:0|0:0,0:0:0:0:
304,238,127011,1,8,0:0:0:0:
256,88,127192,1,2,0:0:0:0:
182,129,127283,2,0,P|173:73|199:24,1,113.333330154419,2|2,0:0|0:0,0:0:0:0:
393,77,127556,6,0,B|368:76|368:76|308:96|308:96|256:88,1,141.666662693024,0|0,1:0|0:0,0:0:0:0:
69,126,127829,6,0,P|125:121|182:129,1,113.333330154419
324,188,128101,1,0,1:0:0:0:
292,184,128192,1,0,0:0:0:0:
260,188,128283,1,0,0:0:0:0:
228,200,128374,1,8,0:0:0:0:
200,220,128465,1,0,0:0:0:0:
180,248,128556,1,0,0:0:0:0:
168,280,128647,6,0,B|176:372|176:372|196:328,1,141.666662693024,0|0,1:0|0:0,0:0:0:0:
260,188,128920,2,0,B|284:104|284:104|304:160,1,141.666662693024,0|0,1:0|0:0,0:0:0:0:
352,280,129192,6,0,B|420:300|420:300|488:284|488:284|460:328,1,170.000001716614,10|0,0:1|0:0,0:0:0:0:
260,188,129465,2,0,B|192:168|192:168|124:184|124:184|152:140,1,170.000001716614,2|0,0:1|0:0,0:0:0:0:
420,224,129738,6,0,B|431:175|431:175|420:128|436:72,1,141.666662693024,0|0,1:0|0:0,0:0:0:0:
260,188,130011,2,0,B|248:236|248:236|260:284|244:340,1,141.666662693024,0|0,1:0|0:0,0:0:0:0:
100,152,130283,6,0,B|111:103|111:103|100:52|112:4|112:4|128:36,1,170.000001716614,10|0,0:1|0:0,0:0:0:0:
260,188,130556,2,0,B|296:222|296:222|346:237|382:272|382:272|346:270,1,170.000001716614,2|2,0:1|0:1,0:0:0:0:
148,308,130829,6,0,B|100:322|100:322|60:312|60:312|72:372,1,141.666662693024,0|0,1:0|0:0,0:0:0:0:
172,184,131101,2,0,B|219:198|219:198|260:188|260:188|248:248,1,141.666662693024,0|0,1:0|0:0,0:0:0:0:
148,60,131374,6,0,B|100:74|100:74|60:64|60:64|36:96|40:152,1,170.000001716614,10|0,0:1|0:0,0:0:0:0:
250,237,131647,2,0,B|298:223|298:223|338:233|338:233|362:201|358:145,1,170.000001716614,2|0,0:1|0:0,0:0:0:0:
148,60,131920,6,0,P|132:124|172:184,1,141.666662693024,0|0,1:0|0:0,0:0:0:0:
358,158,132192,6,0,P|304:140|244:148,1,113.333330154419
112,244,132465,5,8,0:0:0:0:
116,276,132556,1,0,0:3:0:0:
120,308,132647,1,0,0:3:0:0:
124,340,132738,2,0,L|140:192,1,141.666662693024,2|0,0:1|0:3,0:0:0:0:
242,8,133011,6,0,B|252:48|252:48|240:96|240:96|248:146,1,141.666662693024,0|0,1:0|0:0,0:0:0:0:
424,284,133283,2,0,B|383:273|383:273|348:239|348:239|300:220,1,141.666662693024,0|0,1:0|0:0,0:0:0:0:
84,308,133556,6,0,B|120:270|120:270|180:253|180:253|229:213,1,170.000001716614,2|0,1:0|0:0,0:0:0:0:
460,60,133829,2,0,B|423:97|423:97|363:114|363:114|314:154,1,170.000001716614,2|0,1:0|0:0,0:0:0:0:
84,308,134101,6,0,B|64:248|92:192|92:192|72:184,1,141.666662693024,0|0,1:0|0:0,0:0:0:0:
307,24,134374,2,0,B|327:84|299:140|299:140|319:148,1,141.666662693024,0|0,1:0|0:0,0:0:0:0:
424,320,134647,6,0,P|345:348|265:324,1,170.000001716614,2|0,1:0|0:0,0:0:0:0:
72,88,134920,2,0,P|151:60|231:84,1,170.000001716614,2|0,1:0|0:0,0:0:0:0:
424,320,135192,5,0,1:0:0:0:
428,280,135283,1,0,1:0:0:0:
432,236,135374,1,0,1:0:0:0:
436,192,135465,2,0,L|428:116,2,70.8333313465119,2|0|0,0:3|1:0|1:0,0:0:0:0:
344,256,135738,5,0,1:0:0:0:
300,260,135829,1,2,0:3:0:0:
256,256,135920,1,2,0:3:0:0:
216,236,136011,2,0,P|200:172|216:96,1,141.666662693024,2|0,0:3|1:0,0:0:0:0:
296,116,136283,5,0,1:0:0:0:
276,156,136374,1,0,1:0:0:0:
239,178,136465,1,0,1:0:0:0:
196,181,136556,1,0,1:0:0:0:
158,160,136647,1,0,1:0:0:0:
135,123,136738,1,0,1:0:0:0:
132,80,136829,1,0,1:0:0:0:
152,42,136920,1,0,1:0:0:0:
187,18,137011,1,0,1:0:0:0:
229,15,137101,1,0,1:0:0:0:
267,33,137192,1,0,1:0:0:0:
292,66,137283,1,0,1:0:0:0:
296,116,137374,5,4,0:2:0:0:
88,60,146101,5,4,1:2:0:0:
188,40,146647,1,0,1:0:0:0:
284,72,147192,1,0,1:2:0:0:
384,52,147738,1,0,1:0:0:0:
136,200,148283,5,4,1:2:0:0:
236,180,148829,1,0,1:2:0:0:
332,212,149374,1,0,1:0:0:0:
432,192,149920,1,0,1:2:0:0:
72,236,150192,6,0,L|76:204,2,28.3333325386048
88,328,150465,1,4,1:2:0:0:
188,348,151011,1,0,1:0:0:0:
284,316,151556,1,0,1:2:0:0:
384,336,152101,1,0,1:0:0:0:
432,192,152647,5,4,1:2:0:0:
412,84,152920,1,2,0:3:0:0:
328,156,153192,2,0,L|292:152,1,28.3333325386048,0|0,1:0|0:0,0:0:0:0:
224,140,153374,1,2,0:3:0:0:
200,144,153465,1,2,0:3:0:0:
176,148,153556,1,2,0:3:0:0:
152,152,153647,1,2,0:3:0:0:
128,156,153738,5,2,1:3:0:0:
96,176,153829,1,2,0:3:0:0:
80,212,153920,1,2,0:3:0:0:
76,252,154011,1,2,0:3:0:0:
80,292,154101,1,2,0:3:0:0:
96,324,154192,1,2,0:3:0:0:
128,344,154283,5,2,1:3:0:0:
168,316,154374,1,2,0:3:0:0:
216,300,154465,1,2,0:3:0:0:
268,296,154556,1,2,0:3:0:0:
320,300,154647,1,2,0:3:0:0:
368,316,154738,1,2,0:3:0:0:
412,344,154829,6,0,P|456:352|500:340,1,85.000000858307,8|0,0:0|0:0,0:0:0:0:
512,260,155101,2,0,L|508:212,1,42.5000004291535,2|0,0:0|0:0,0:0:0:0:
500,132,155283,1,0,0:0:0:0:
500,132,155374,2,0,P|460:124|408:132,1,85.000000858307,8|0,0:0|0:0,0:0:0:0:
336,160,155647,2,0,P|296:168|244:160,1,85.000000858307,2|0,0:0|0:0,0:0:0:0:
172,136,155920,6,0,L|168:80,1,42.5000004291535,8|0,0:0|0:0,0:0:0:0:
84,72,156101,1,0,0:0:0:0:
84,72,156192,2,0,L|90:156,1,85.000000858307,2|0,0:0|1:0,0:0:0:0:
96,244,156465,1,8,0:0:0:0:
252,162,156647,1,0,0:0:0:0:
252,162,156738,2,0,L|255:119,2,42.5000004291535,2|2|0,0:0|0:3|1:0,0:0:0:0:
244,248,157011,6,0,L|252:352,1,85.000000858307,8|0,0:0|0:0,0:0:0:0:
328,300,157283,2,0,L|321:215,1,85.000000858307,2|0,0:0|0:0,0:0:0:0:
252,162,157556,2,0,P|212:156|160:160,1,85.000000858307,8|0,0:0|0:0,0:0:0:0:
84,180,157829,2,0,L|80:224,2,42.5000004291535,2|2|2,0:0|0:3|0:3,0:0:0:0:
83,85,158101,5,8,0:0:0:0:
107,55,158192,1,2,0:3:0:0:
142,37,158283,1,2,0:3:0:0:
180,36,158374,1,2,0:0:0:0:
215,51,158465,1,2,0:3:0:0:
239,81,158556,1,2,0:3:0:0:
248,119,158647,2,0,L|252:164,1,42.5000004291535,8|2,0:0|0:3,0:0:0:0:
260,248,158829,1,0,1:0:0:0:
260,248,158920,1,0,1:0:0:0:
260,248,159192,6,0,L|360:244,1,85.000000858307,8|2,0:0|0:3,0:0:0:0:
496,208,159465,2,0,L|396:204,1,85.000000858307,8|2,0:0|0:3,0:0:0:0:
412,364,159738,2,0,L|408:264,1,85.000000858307,8|2,0:0|0:3,0:0:0:0:
348,88,160011,2,0,L|344:188,1,85.000000858307,8|2,0:0|0:3,0:0:0:0:
308,324,160283,5,8,0:0:0:0:
273,339,160374,1,2,0:3:0:0:
234,335,160465,1,2,0:3:0:0:
200,316,160556,1,8,0:0:0:0:
177,284,160647,1,2,0:3:0:0:
170,246,160738,1,2,0:3:0:0:
178,208,160829,5,8,0:0:0:0:
193,168,160920,1,2,0:3:0:0:
191,125,161011,1,2,0:3:0:0:
168,89,161101,1,8,0:0:0:0:
131,67,161192,1,2,0:3:0:0:
88,64,161283,1,2,0:3:0:0:
48,81,161374,5,2,0:0:0:0:
48,81,163011,5,0,1:0:0:0:
160,72,163283,2,0,L|48:81,1,113.333330154419,2|0,0:0|0:0,0:0:0:0:
20,172,163555,6,0,B|148:164|148:164|136:216,1,170.000001716614,4|0,1:2|0:0,0:0:0:0:
216,256,163828,6,0,L|229:186,1,70.8333313465119,2|0,0:0|0:0,0:0:0:0:
284,108,164010,1,0,1:0:0:0:
353,53,164101,6,0,P|368:133|311:191,1,170.000001716614,8|0,0:0|0:0,0:0:0:0:
138,204,164373,5,2,0:1:0:0:
134,168,164464,1,2,0:1:0:0:
130,132,164555,1,2,0:1:0:0:
126,96,164646,2,0,B|120:16|120:16|84:68,1,141.666662693024,0|0,1:0|0:0,0:0:0:0:
20,172,164919,6,0,B|16:216|16:216|20:264,2,85.000000858307
85,66,165192,5,8,0:0:0:0:
353,53,165373,1,2,0:1:0:0:
416,116,165464,6,0,B|384:156|312:148|288:112|288:112|280:144,1,170.000001716614,2|0,0:1|0:0,0:0:0:0:
248,288,165737,6,0,L|252:368,1,71.0599952852541,0|0,1:0|0:0,0:0:0:0:
176,263,165919,1,2,0:0:0:0:
206,224,166009,1,2,0:0:0:0:
254,211,166100,1,2,0:0:0:0:
300,232,166191,1,2,0:0:0:0:
324,276,166282,6,0,P|396:324|464:288,1,170.000001716614,8|0,0:0|0:0,0:0:0:0:
495,172,166555,1,2,0:0:0:0:
491,124,166646,1,2,0:0:0:0:
467,80,166737,1,2,0:0:0:0:
423,56,166828,6,0,L|351:52,2,70.8333313465119,0|0|0,1:0|0:0|0:0,0:0:0:0:
292,116,167101,2,0,L|220:120,2,70.8333313465119,2|0|0,0:1|0:0|0:0,0:0:0:0:
161,56,167373,6,0,L|62:50,1,85.000000858307,8|0,0:0|0:0,0:0:0:0:
16,115,167555,1,0,0:0:0:0:
76,51,167646,6,0,P|104:112|76:180,1,141.666662693024,2|0,0:0|0:0,0:0:0:0:
0,276,167919,6,0,B|36:264|36:264|84:280|84:280|140:268|140:268|180:280,1,170.000001716614,2|0,1:0|0:0,0:0:0:0:
336,360,168192,6,0,B|300:348|300:348|236:364|236:364|196:352,1,141.666662693024,2|0,0:0|0:0,0:0:0:0:
163,274,168464,1,8,0:0:0:0:
156,240,168555,1,0,0:0:0:0:
156,204,168646,1,0,0:0:0:0:
164,168,168737,2,0,P|189:143|224:132,1,70.8333313465119,2|0,0:1|0:0,0:0:0:0:
312,136,168919,1,2,0:1:0:0:
392,176,169010,6,0,B|412:124|390:72|346:54|346:54|379:45,1,170.000001716614,0|0,1:0|0:0,0:0:0:0:
460,24,169282,5,2,0:0:0:0:
312,136,169464,1,2,0:0:0:0:
392,176,169555,2,0,P|408:248|396:320,1,141.666662693024,8|2,0:0|0:1,0:0:0:0:
200,348,169828,6,0,B|181:264|181:264|193:180,1,170.000001716614,2|0,0:1|0:0,0:0:0:0:
216,72,170101,5,2,1:2:0:0:
392,176,170282,1,2,0:0:0:0:
280,200,170373,1,2,0:0:0:0:
81,156,170555,1,2,0:0:0:0:
193,180,170646,1,2,0:0:0:0:
276,1,170828,1,2,0:0:0:0:
300,113,170919,2,0,L|292:192,2,70.8333313465119,2|2|2,0:0|0:0|0:0,0:0:0:0:
276,1,171192,5,0,1:0:0:0:
276,1,171464,1,2,0:0:0:0:
276,1,171737,1,2,0:0:0:0:
240,272,171919,1,2,0:0:0:0:
187,344,172010,2,0,P|237:363|296:342,1,113.333330154419,2|0,0:0|0:0,0:0:0:0:
292,183,172282,6,0,B|236:172|236:172|184:216|124:192,1,170.000001716614,4|0,1:2|0:0,0:0:0:0:
164,100,172555,5,2,0:0:0:0:
240,272,172737,1,0,1:0:0:0:
292,183,172828,6,0,B|296:128|296:128|288:72|288:72|296:8,1,170.000001716614,8|0,0:0|0:0,0:0:0:0:
424,68,173101,5,2,0:1:0:0:
421,103,173191,1,2,0:1:0:0:
418,138,173282,1,2,0:1:0:0:
415,173,173373,2,0,B|412:224|424:280|424:280|440:248,1,141.666662693024,0|0,1:0|0:0,0:0:0:0:
500,104,173646,6,0,P|504:56|492:16,2,85.000000858307
415,173,173919,5,8,0:0:0:0:
164,100,174101,1,2,0:1:0:0:
96,160,174192,6,0,L|280:152,1,170.000001716614,2|0,0:1|0:0,0:0:0:0:
348,96,174464,5,0,1:0:0:0:
256,252,174646,1,2,0:0:0:0:
220,284,174737,1,2,0:0:0:0:
172,296,174828,1,2,0:0:0:0:
124,288,174919,1,2,0:0:0:0:
88,256,175010,6,0,B|72:192|96:160|96:160|72:132|75:87,1,170.000001716614,8|0,0:0|0:0,0:0:0:0:
164,100,175282,1,2,0:0:0:0:
212,116,175373,1,2,0:0:0:0:
260,120,175464,1,2,0:0:0:0:
304,100,175555,6,0,L|312:28,2,70.8333313465119,0|0|0,1:0|0:0|0:0,0:0:0:0:
256,252,175828,2,0,L|191:280,2,70.8333313465119,2|0|0,0:1|0:0|0:0,0:0:0:0:
412,218,176101,6,0,L|500:282,2,85.000000858307,8|0|0,0:0|0:0|0:0,0:0:0:0:
340,164,176373,1,2,0:0:0:0:
292,148,176464,1,0,0:0:0:0:
244,148,176555,1,0,0:0:0:0:
196,156,176646,6,0,B|136:196|64:164|64:164|88:144,1,170.000001716614,2|0,1:0|0:0,0:0:0:0:
273,14,176919,6,0,P|301:78|292:148,1,141.666662693024,2|0,0:0|0:0,0:0:0:0:
190,280,177192,1,8,0:0:0:0:
156,276,177282,1,0,0:0:0:0:
120,272,177373,1,0,0:0:0:0:
84,268,177464,2,0,L|92:344,1,70.8333313465119,2|0,0:1|0:0,0:0:0:0:
184,380,177646,1,2,0:1:0:0:
272,328,177737,6,0,B|264:256|264:256|288:160,1,170.000001716614,0|0,1:0|0:0,0:0:0:0:
316,76,178010,5,2,0:0:0:0:
340,260,178192,1,2,0:0:0:0:
272,328,178282,2,0,P|204:348|136:324,1,141.666662693024,8|2,0:0|0:1,0:0:0:0:
340,260,178555,6,0,B|400:264|400:264|460:284|460:284|512:280,1,170.000001716614,2|0,0:1|0:0,0:0:0:0:
468,200,178828,5,2,1:2:0:0:
272,328,179010,1,2,0:0:0:0:
260,216,179101,1,2,0:0:0:0:
200,56,179282,1,2,0:0:0:0:
188,168,179373,1,2,0:0:0:0:
128,328,179555,1,2,0:0:0:0:
116,216,179646,1,2,0:0:0:0:
116,216,179828,5,2,0:0:0:0:
128,328,179919,2,0,B|160:372|232:384|272:328|272:328|308:376|396:376|424:332,1,340.000003433228,2|0,1:0|0:0,0:0:0:0:
512,304,180373,6,0,P|445:234|348:264,1,212.499994039536,2|0,1:2|0:0,0:0:0:0:
422,333,180737,6,0,L|448:216,1,113.333330154419,2|0,0:0|0:0,0:0:0:0:
468,120,181010,5,2,0:0:0:0:
424,144,181101,1,2,0:0:0:0:
376,152,181192,1,2,0:0:0:0:
328,140,181282,2,0,P|256:120|192:136,1,141.666662693024,2|2,0:0|0:0,0:0:0:0:
120,212,181555,2,0,L|124:360,1,141.666662693024,8|0,0:0|0:0,0:0:0:0:
216,304,181828,2,0,L|214:233,2,70.8333313465119,2|2|2,0:1|0:1|0:1,0:0:0:0:
124,352,182101,6,0,B|16:364|16:364|24:300,1,170.000001716614,0|0,1:0|0:0,0:0:0:0:
101,144,182373,6,0,P|116:176|119:211,2,70.8333313465119
32,92,182646,1,8,0:0:0:0:
23,303,182828,1,2,0:1:0:0:
124,352,182919,6,0,B|172:344|172:344|248:356|248:356|296:348,1,170.000001716614,2|0,0:1|0:0,0:0:0:0:
396,292,183192,6,0,L|404:364,1,70.8333313465119,0|0,1:0|0:0,0:0:0:0:
476,268,183373,1,2,0:0:0:0:
448,226,183464,1,2,0:0:0:0:
401,208,183555,1,2,0:0:0:0:
352,220,183646,1,2,0:0:0:0:
320,258,183737,6,0,P|253:296|172:256,1,170.000001716614,8|0,0:0|0:0,0:0:0:0:
136,164,184010,1,2,0:0:0:0:
132,116,184101,1,2,0:0:0:0:
136,68,184192,1,2,0:0:0:0:
156,24,184282,6,0,L|232:20,2,70.8333313465119,0|0|0,1:0|0:0|0:0,0:0:0:0:
136,164,184555,2,0,L|60:160,2,70.8333313465119,2|0|0,0:1|0:0|0:0,0:0:0:0:
156,304,184828,6,0,L|252:298,1,85.000000858307,8|0,0:0|0:0,0:0:0:0:
332,296,185010,5,0,0:0:0:0:
412,348,185101,2,0,P|426:281|376:212,1,141.666662693024,2|0,0:0|0:0,0:0:0:0:
232,196,185373,6,0,L|248:384,1,170.000001716614,2|0,1:0|0:0,0:0:0:0:
156,304,185646,6,0,L|144:156,1,141.666662693024,2|0,0:0|0:0,0:0:0:0:
132,64,185919,2,0,P|96:60|56:64,2,70.8333313465119,8|0|0,0:0|0:0|0:0,0:0:0:0:
224,104,186192,2,0,P|260:108|300:104,1,70.8333313465119,2|0,0:1|0:0,0:0:0:0:
386,65,186373,1,2,0:1:0:0:
472,116,186464,6,0,B|464:148|408:176|360:164|360:164|372:208,1,170.000001716614,0|0,1:0|0:0,0:0:0:0:
392,288,186737,5,2,0:0:0:0:
386,65,186919,1,2,0:0:0:0:
294,105,187010,2,0,B|284:160|284:160|308:256,1,141.666662693024,8|2,0:0|0:1,0:0:0:0:
212,284,187282,6,0,B|180:159|180:159|200:55,1,170.000001716614,2|2,0:1|0:1,0:0:0:0:
208,28,187555,5,2,1:2:0:0:
386,65,187737,1,2,0:0:0:0:
496,56,187828,1,2,0:0:0:0:
372,188,188010,1,2,0:0:0:0:
482,179,188101,1,2,0:0:0:0:
358,311,188282,1,2,0:0:0:0:
468,302,188373,2,0,P|480:336|480:376,2,70.8333313465119,2|2|2,0:0|0:0|0:0,0:0:0:0:
372,188,188646,6,0,L|228:180,1,141.666662693024,0|0,1:0|0:0,0:0:0:0:
136,176,188919,1,2,0:0:0:0:
358,311,189101,1,2,0:0:0:0:
372,188,189192,1,2,0:0:0:0:
216,57,189373,1,2,0:0:0:0:
230,180,189464,2,0,L|224:256,2,70.8333313465119,2|2|2,0:0|0:0|0:0,0:0:0:0:
216,57,189737,6,0,B|168:52|168:52|92:60|92:60|44:52,1,170.000001716614,4|0,1:2|0:0,0:0:0:0:
10,183,190010,6,0,P|71:151|136:176,1,141.666662693024,2|0,0:0|1:0,0:0:0:0:
128,343,190282,6,0,B|88:368|56:320|56:320|76:236,1,170.000001716614,8|0,0:0|0:0,0:0:0:0:
230,180,190555,1,2,0:1:0:0:
264,184,190646,1,2,0:1:0:0:
300,188,190737,1,2,0:1:0:0:
336,192,190828,2,0,L|488:188,1,141.666662693024,0|0,1:0|0:0,0:0:0:0:
440,104,191101,6,0,P|436:60|444:16,2,85.000000858307
477,188,191373,5,8,0:0:0:0:
264,184,191555,1,2,0:1:0:0:
219,254,191646,2,0,P|180:181|221:111,1,170.000001716614,2|0,0:1|0:0,0:0:0:0:
346,160,191919,6,0,P|346:196|334:236,1,70.8333313465119,0|0,1:0|0:0,0:0:0:0:
219,254,192101,1,2,0:0:0:0:
170,248,192192,1,2,0:0:0:0:
121,242,192282,1,2,0:0:0:0:
71,236,192373,1,2,0:0:0:0:
21,230,192464,6,0,B|9:353|9:353|32:304,1,170.000001716614,8|0,0:0|0:0,0:0:0:0:
104,164,192737,1,2,0:0:0:0:
148,144,192828,1,2,0:0:0:0:
196,136,192919,1,2,0:0:0:0:
244,140,193010,6,0,P|280:152|320:152,2,70.8333313465119,0|0|0,1:0|0:0|0:0,0:0:0:0:
432,80,193282,2,0,P|403:105|383:139,2,70.8333313465119,2|0|0,0:1|0:0|0:0,0:0:0:0:
398,283,193555,6,0,P|386:243|365:206,1,85.000000858307,10|0,0:1|0:0,0:0:0:0:
244,140,193737,1,0,0:0:0:0:
172,200,193828,6,0,P|100:216|32:196,1,141.666662693024,2|0,0:0|0:0,0:0:0:0:
4,108,194101,5,2,1:0:0:0:
16,60,194192,1,0,1:0:0:0:
52,24,194282,1,0,1:0:0:0:
100,12,194373,1,2,1:2:0:0:
148,24,194464,1,0,1:0:0:0:
184,60,194555,1,0,1:0:0:0:
204,104,194646,1,8,1:0:0:0:
232,144,194737,1,0,1:0:0:0:
276,168,194828,1,0,1:0:0:0:
324,168,194919,1,2,1:0:0:0:
368,144,195010,1,0,1:0:0:0:
392,100,195101,1,2,1:0:0:0:
384,52,195192,5,0,1:0:0:0:
348,20,195282,1,0,1:0:0:0:
300,20,195373,1,0,1:0:0:0:
256,44,195464,1,2,1:2:0:0:
232,88,195555,1,0,1:0:0:0:
228,136,195646,1,2,1:2:0:0:
236,184,195737,1,8,1:0:0:0:
268,224,195828,1,0,1:0:0:0:
316,236,195919,1,2,1:0:0:0:
364,228,196010,1,2,1:0:0:0:
400,192,196101,1,0,1:0:0:0:
416,144,196192,1,0,1:0:0:0:
392,100,196282,5,2,1:2:0:0:
456,308,196464,1,2,0:0:0:0:
484,196,196555,1,2,0:0:0:0:
268,224,196737,1,2,0:0:0:0:
350,304,196828,1,2,0:0:0:0:
392,100,197010,1,2,0:0:0:0:
281,131,197101,1,2,0:0:0:0:
281,131,197282,5,2,0:0:0:0:
392,100,197373,2,0,P|440:244|336:188,1,340.000003433228,2|0,1:0|0:0,0:0:0:0:
281,131,197828,6,0,P|207:107|115:195,1,212.499994039536,2|0,1:2|0:0,0:0:0:0:
220,319,198192,6,0,P|223:262|215:207,1,113.333330154419,2|0,0:0|0:0,0:0:0:0:
120,40,198464,5,2,0:0:0:0:
256,192,198555,12,0,201737,0:0:0:0:
