osu file format v14

[General]
AudioFilename: audio.mp3
AudioLeadIn: 0
PreviewTime: 22950
Countdown: 0
SampleSet: Soft
StackLeniency: 0.4
Mode: 0
LetterboxInBreaks: 0
WidescreenStoryboard: 1

[Editor]
DistanceSpacing: 0.7
BeatDivisor: 8
GridSize: 32
TimelineZoom: 1.4

[Metadata]
Title:SPACE INVADER
TitleUnicode:SPACE INVADER
Artist:YUC'e
ArtistUnicode:YUC'e
Creator:SMOKELIND
Version:RespaDogi's INSANE
Source:
Tags:YUCe Sugary Galaxy Hybrid Trap Electronic Instrumental Japanese Aqua -Aqua La+- Laplus- Hinsvar Paradogi Respirte Nachmark
BeatmapID:4204981
BeatmapSetID:2005892

[Difficulty]
HPDrainRate:4.5
CircleSize:4.4
OverallDifficulty:8
ApproachRate:9
SliderMultiplier:2.4
SliderTickRate:1

[Events]
//Background and Video events
0,0,"92447070_p0.jpg",0,0
//Break Periods
//Storyboard Layer 0 (Background)
//Storyboard Layer 1 (Fail)
//Storyboard Layer 2 (Pass)
//Storyboard Layer 3 (Foreground)
//Storyboard Layer 4 (Overlay)
//Storyboard Sound Samples

[TimingPoints]
150,600,4,2,77,77,1,0
450,-83.3333333333333,4,2,77,77,0,0
674,-83.3333333333333,4,2,77,5,0,0
750,-100,4,2,77,77,0,0
975,-100,4,2,77,5,0,0
1050,-125,4,2,77,77,0,0
1275,-125,4,2,77,5,0,0
1350,-166.666666666667,4,2,77,77,0,0
1574,-166.666666666667,4,2,77,5,0,0
1650,-250,4,2,77,77,0,0
1875,-250,4,2,77,5,0,0
1950,-250,4,2,77,77,0,0
2850,-83.3333333333333,4,2,77,77,0,0
3074,-83.3333333333333,4,2,77,5,0,0
3150,-100,4,2,77,77,0,0
3375,-100,4,2,77,5,0,0
3450,-125,4,2,77,77,0,0
3675,-125,4,2,77,5,0,0
3750,-125,4,2,77,77,0,0
5250,-83.3333333333333,4,2,77,77,0,0
5474,-83.3333333333333,4,2,77,5,0,0
5550,-100,4,2,77,77,0,0
5775,-100,4,2,77,5,0,0
5850,-125,4,2,77,77,0,0
6075,-125,4,2,77,5,0,0
6150,-166.666666666667,4,2,77,77,0,0
6374,-166.666666666667,4,2,77,5,0,0
6450,-250,4,2,77,77,0,0
6675,-250,4,2,77,5,0,0
6750,-250,4,2,77,77,0,0
7650,-83.3333333333333,4,2,77,77,0,0
7874,-83.3333333333333,4,2,77,5,0,0
7950,-100,4,2,77,77,0,0
8175,-100,4,2,77,5,0,0
8250,-125,4,2,77,77,0,0
8475,-125,4,2,77,5,0,0
8550,-125,4,2,77,77,0,0
10050,-83.3333333333333,4,2,77,77,0,0
10274,-83.3333333333333,4,2,77,5,0,0
10350,-100,4,2,77,77,0,0
10575,-100,4,2,77,5,0,0
10650,-125,4,2,77,77,0,0
10875,-125,4,2,77,5,0,0
10950,-166.666666666667,4,2,77,77,0,0
11174,-166.666666666667,4,2,77,5,0,0
11250,-250,4,2,77,77,0,0
11475,-250,4,2,77,5,0,0
11550,-250,4,2,77,77,0,0
12450,-83.3333333333333,4,2,77,77,0,0
12674,-83.3333333333333,4,2,77,5,0,0
12750,-100,4,2,77,77,0,0
12975,-100,4,2,77,5,0,0
13050,-125,4,2,77,77,0,0
13275,-125,4,2,77,5,0,0
13350,-125,4,2,77,77,0,0
14850,-83.3333333333333,4,2,77,77,0,0
15074,-83.3333333333333,4,2,77,5,0,0
15150,-100,4,2,77,77,0,0
15375,-100,4,2,77,5,0,0
15450,-125,4,2,77,77,0,0
15675,-125,4,2,77,5,0,0
15750,-166.666666666667,4,2,77,77,0,0
15974,-166.666666666667,4,2,77,5,0,0
16050,-250,4,2,77,77,0,0
16275,-250,4,2,77,5,0,0
16350,-250,4,2,77,77,0,0
18150,-100,4,2,77,77,0,0
23475,-100,4,2,77,5,0,0
23550,-100,4,2,77,77,0,0
24150,-83.3333333333333,4,2,77,77,0,0
24524,-83.3333333333333,4,2,77,5,0,0
24600,-83.3333333333333,4,2,77,77,0,0
25574,-83.3333333333333,4,2,77,5,0,0
25650,-83.3333333333333,4,2,77,77,0,0
26024,-83.3333333333333,4,2,77,5,0,0
26100,-83.3333333333333,4,2,77,77,0,0
26174,-83.3333333333333,4,2,77,5,0,0
26250,-83.3333333333333,4,2,77,77,0,0
26324,-83.3333333333333,4,2,77,5,0,0
26400,-83.3333333333333,4,2,77,77,0,0
26474,-83.3333333333333,4,2,77,5,0,0
26550,-83.3333333333333,4,2,77,77,0,0
26924,-83.3333333333333,4,2,77,5,0,0
27000,-83.3333333333333,4,2,77,77,0,0
27974,-83.3333333333333,4,2,77,5,0,0
28050,-83.3333333333333,4,2,77,77,0,0
28724,-83.3333333333333,4,2,77,5,0,0
28800,-83.3333333333333,4,2,77,77,0,0
29324,-83.3333333333333,4,2,77,5,0,0
29400,-83.3333333333333,4,2,77,77,0,0
30374,-83.3333333333333,4,2,77,5,0,0
30450,-83.3333333333333,4,2,77,77,0,0
30824,-83.3333333333333,4,2,77,5,0,0
30900,-83.3333333333333,4,2,77,77,0,0
31724,-83.3333333333333,4,2,77,5,0,0
31800,-83.3333333333333,4,2,77,77,0,0
33074,-83.3333333333333,4,2,77,5,0,0
33150,-83.3333333333333,4,2,77,77,0,0
33224,-83.3333333333333,4,2,77,5,0,0
33300,-83.3333333333333,4,2,77,77,0,0
33374,-83.3333333333333,4,2,77,5,0,0
33450,-83.3333333333333,4,2,77,77,0,0
33524,-83.3333333333333,4,2,77,5,0,0
33600,-83.3333333333333,4,2,77,77,0,0
33674,-83.3333333333333,4,2,77,5,0,0
33750,-83.3333333333333,4,2,77,77,0,0
34124,-83.3333333333333,4,2,77,5,0,0
34200,-83.3333333333333,4,2,77,77,0,0
35174,-83.3333333333333,4,2,77,5,0,0
35250,-83.3333333333333,4,2,77,77,0,0
36524,-83.3333333333333,4,2,77,5,0,0
36600,-83.3333333333333,4,2,77,77,0,0
38324,-83.3333333333333,4,2,77,5,0,0
38400,-83.3333333333333,4,2,77,77,0,0
38924,-83.3333333333333,4,2,77,5,0,0
39000,-83.3333333333333,4,2,77,77,0,0
40124,-83.3333333333333,4,2,77,5,0,0
40200,-83.3333333333333,4,2,77,77,0,0
41324,-83.3333333333333,4,2,77,5,0,0
41400,-83.3333333333333,4,2,77,77,0,0
41474,-83.3333333333333,4,2,77,5,0,0
41550,-83.3333333333333,4,2,77,77,0,0
42524,-83.3333333333333,4,2,77,5,0,0
42600,-83.3333333333333,4,2,77,77,0,0
42824,-83.3333333333333,4,2,77,5,0,0
42900,-83.3333333333333,4,2,77,77,0,0
42974,-83.3333333333333,4,2,77,5,0,0
43050,-83.3333333333333,4,2,77,77,0,0
43124,-83.3333333333333,4,2,77,5,0,0
43200,-83.3333333333333,4,2,77,77,0,0
43274,-83.3333333333333,4,2,77,5,0,0
43350,-83.3333333333333,4,2,77,77,0,0
48150,-133.333333333333,4,2,77,77,0,0
52950,-83.3333333333333,4,2,77,87,0,0
54074,-83.3333333333333,4,2,77,5,0,0
54150,-83.3333333333333,4,2,77,87,0,0
57524,-83.3333333333333,4,2,77,5,0,0
57600,-83.3333333333333,4,2,77,87,0,0
57674,-83.3333333333333,4,2,77,5,0,0
57750,-83.3333333333333,4,2,77,87,0,0
59174,-83.3333333333333,4,2,77,5,0,0
59250,-83.3333333333333,4,2,77,87,0,0
62024,-83.3333333333333,4,2,77,5,0,0
62100,-83.3333333333333,4,2,77,87,0,0
63224,-83.3333333333333,4,2,77,5,0,0
63300,-83.3333333333333,4,2,77,87,0,0
64424,-83.3333333333333,4,2,77,5,0,0
64500,-83.3333333333333,4,2,77,87,0,0
64874,-83.3333333333333,4,2,77,5,0,0
64950,-83.3333333333333,4,2,77,87,0,0
65624,-83.3333333333333,4,2,77,5,0,0
65700,-83.3333333333333,4,2,77,87,0,0
66824,-83.3333333333333,4,2,77,5,0,0
66900,-83.3333333333333,4,2,77,87,0,0
68024,-83.3333333333333,4,2,77,5,0,0
68100,-83.3333333333333,4,2,77,87,0,0
69224,-83.3333333333333,4,2,77,5,0,0
69300,-83.3333333333333,4,2,77,87,0,0
69674,-83.3333333333333,4,2,77,5,0,0
69750,-83.3333333333333,4,2,77,87,0,0
70424,-83.3333333333333,4,2,77,5,0,0
70500,-83.3333333333333,4,2,77,87,0,0
71774,-83.3333333333333,4,2,77,5,0,0
71850,-83.3333333333333,4,2,77,87,0,0
71924,-83.3333333333333,4,2,77,5,0,0
72000,-83.3333333333333,4,2,77,87,0,0
72074,-83.3333333333333,4,2,77,5,0,0
72150,-100,4,2,77,77,0,0
79875,-100,4,2,77,5,0,0
79950,-100,4,2,77,77,0,0
81225,-100,4,2,77,5,0,0
81300,-100,4,2,77,77,0,0
81375,-100,4,2,77,5,0,0
81450,-100,4,2,77,77,0,0
81525,-100,4,2,77,5,0,0
81600,-100,4,2,77,77,0,0
81675,-100,4,2,77,5,0,0
81750,-100,4,2,77,77,0,0
90150,-90.9090909090909,4,2,77,77,0,0
90975,-90.9090909090909,4,2,77,5,0,0
91050,-90.9090909090909,4,2,77,77,0,0
91125,-90.9090909090909,4,2,77,5,0,0
91200,-90.9090909090909,4,2,77,77,0,0
91275,-90.9090909090909,4,2,77,5,0,0
91350,-90.9090909090909,4,2,77,77,0,0
96150,-133.333333333333,4,2,77,77,0,0
100950,-83.3333333333333,4,2,77,87,0,0
102074,-83.3333333333333,4,2,77,5,0,0
102150,-83.3333333333333,4,2,77,87,0,0
104774,-83.3333333333333,4,2,77,5,0,0
104850,-83.3333333333333,4,2,77,87,0,0
106274,-83.3333333333333,4,2,77,5,0,0
106350,-83.3333333333333,4,2,77,87,0,0
106574,-83.3333333333333,4,2,77,5,0,0
106650,-83.3333333333333,4,2,77,87,0,0
110174,-83.3333333333333,4,2,77,5,0,0
110250,-83.3333333333333,4,2,77,87,0,0
110324,-83.3333333333333,4,2,77,5,0,0
110400,-83.3333333333333,4,2,77,87,0,0
110474,-83.3333333333333,4,2,77,5,0,0
110550,-83.3333333333333,4,2,77,87,0,0
111224,-83.3333333333333,4,2,77,5,0,0
111300,-83.3333333333333,4,2,77,87,0,0
112424,-83.3333333333333,4,2,77,5,0,0
112500,-83.3333333333333,4,2,77,87,0,0
112874,-83.3333333333333,4,2,77,5,0,0
112950,-83.3333333333333,4,2,77,87,0,0
113624,-83.3333333333333,4,2,77,5,0,0
113700,-83.3333333333333,4,2,77,87,0,0
114974,-83.3333333333333,4,2,77,5,0,0
115050,-83.3333333333333,4,2,77,87,0,0
115124,-83.3333333333333,4,2,77,5,0,0
115200,-83.3333333333333,4,2,77,87,0,0
115274,-83.3333333333333,4,2,77,5,0,0
115350,-83.3333333333333,4,2,77,87,0,0
117674,-83.3333333333333,4,2,77,5,0,0
117750,-100,4,2,77,87,0,0
119700,-83.3333333333333,4,2,77,87,0,0
119774,-83.3333333333333,4,2,77,5,0,0
119850,-83.3333333333333,4,2,77,87,0,0
119924,-83.3333333333333,4,2,77,5,0,0
120000,-83.3333333333333,4,2,77,87,0,0
120074,-83.3333333333333,4,2,77,5,0,0
120150,-83.3333333333333,4,2,77,77,0,0
120824,-83.3333333333333,4,2,77,5,0,0
120900,-83.3333333333333,4,2,77,77,0,0
122024,-83.3333333333333,4,2,77,5,0,0
122100,-83.3333333333333,4,2,77,77,0,0
123224,-83.3333333333333,4,2,77,5,0,0
123300,-83.3333333333333,4,2,77,77,0,0
123824,-83.3333333333333,4,2,77,5,0,0
123900,-83.3333333333333,4,2,77,77,0,0
125624,-83.3333333333333,4,2,77,5,0,0
125700,-83.3333333333333,4,2,77,77,0,0
126824,-83.3333333333333,4,2,77,5,0,0
126900,-83.3333333333333,4,2,77,77,0,0
129224,-83.3333333333333,4,2,77,5,0,0
129300,-83.3333333333333,4,2,77,77,0,0
129750,-71.4285714285714,4,2,77,77,0,0
130350,-90.9090909090909,4,2,77,77,0,0
130425,-90.9090909090909,4,2,77,5,0,0
130500,-83.3333333333333,4,2,77,77,0,0
130950,-100,4,2,77,77,0,0
131625,-100,4,2,77,5,0,0
132150,-100,4,2,77,77,0,0
132750,-111.111111111111,4,2,77,77,0,0
132824,-111.111111111111,4,2,77,5,0,0
132900,-111.111111111111,4,2,77,77,0,0
133350,-100,4,2,77,77,0,0
133950,-111.111111111111,4,2,77,77,0,0
134024,-111.111111111111,4,2,77,5,0,0
134100,-90.9090909090908,4,2,77,77,0,0
134550,-71.4285714285714,4,2,77,77,0,0
135150,-90.9090909090909,4,2,77,77,0,0
135225,-90.9090909090909,4,2,77,5,0,0
135300,-83.3333333333333,4,2,77,77,0,0
135750,-100,4,2,77,77,0,0
136425,-100,4,2,77,5,0,0
137100,-125,4,2,77,67,0,0
138750,-166.666666666667,4,2,77,67,0,0
139350,-166.666666666667,4,2,77,77,0,0
139650,-83.3333333333333,4,2,77,77,0,0
139874,-83.3333333333333,4,2,77,5,0,0
139950,-100,4,2,77,77,0,0
140175,-100,4,2,77,5,0,0
140250,-125,4,2,77,77,0,0
140475,-125,4,2,77,5,0,0
140550,-166.666666666667,4,2,77,77,0,0
140774,-166.666666666667,4,2,77,5,0,0
140850,-250,4,2,77,77,0,0
141075,-250,4,2,77,5,0,0
141150,-250,4,2,77,77,0,0
142050,-83.3333333333333,4,2,77,77,0,0
142274,-83.3333333333333,4,2,77,5,0,0
142350,-100,4,2,77,77,0,0
142575,-100,4,2,77,5,0,0
142650,-125,4,2,77,77,0,0
142875,-125,4,2,77,5,0,0
142950,-125,4,2,77,77,0,0
144450,-83.3333333333333,4,2,77,77,0,0
144674,-83.3333333333333,4,2,77,5,0,0
144750,-100,4,2,77,77,0,0
144975,-100,4,2,77,5,0,0
145050,-125,4,2,77,77,0,0
145275,-125,4,2,77,5,0,0
145350,-166.666666666667,4,2,77,77,0,0
145574,-166.666666666667,4,2,77,5,0,0
145650,-250,4,2,77,77,0,0
145875,-250,4,2,77,5,0,0
145950,-250,4,2,77,77,0,0
146850,-83.3333333333333,4,2,77,77,0,0
147074,-83.3333333333333,4,2,77,5,0,0
147150,-100,4,2,77,77,0,0
147375,-100,4,2,77,5,0,0
147450,-125,4,2,77,77,0,0
147675,-125,4,2,77,5,0,0
147750,-125,4,2,77,77,0,0
149250,-83.3333333333333,4,2,77,77,0,0
149474,-83.3333333333333,4,2,77,5,0,0
149550,-100,4,2,77,77,0,0
149775,-100,4,2,77,5,0,0
149850,-125,4,2,77,77,0,0
150075,-125,4,2,77,5,0,0
150150,-166.666666666667,4,2,77,77,0,0
150374,-166.666666666667,4,2,77,5,0,0
150450,-250,4,2,77,77,0,0
150675,-250,4,2,77,5,0,0
150750,-250,4,2,77,77,0,0
151650,-83.3333333333333,4,2,77,77,0,0
151874,-83.3333333333333,4,2,77,5,0,0
151950,-100,4,2,77,77,0,0
152175,-100,4,2,77,5,0,0
152250,-125,4,2,77,77,0,0
152475,-125,4,2,77,5,0,0
152550,-125,4,2,77,77,0,0
154050,-83.3333333333333,4,2,77,77,0,0
154274,-83.3333333333333,4,2,77,5,0,0
154350,-100,4,2,77,77,0,0
154575,-100,4,2,77,5,0,0
154650,-125,4,2,77,77,0,0
154875,-125,4,2,77,5,0,0
154950,-166.666666666667,4,2,77,77,0,0
155174,-166.666666666667,4,2,77,5,0,0
155250,-250,4,2,77,77,0,0
155475,-250,4,2,77,5,0,0
155550,-250,4,2,77,77,0,0
157350,-100,4,2,77,77,0,0
157725,-100,4,2,77,5,0,0
157800,-100,4,2,77,77,0,0
158175,-100,4,2,77,5,0,0
158250,-100,4,2,77,77,0,0

[Colours]
Combo1 : 191,191,255
Combo2 : 255,191,223

[HitObjects]
9,12,150,5,10,1:0:0:0:
9,12,450,6,0,P|77:31|85:71,1,107.999996704102,8|0,2:1|2:0,2:0:0:0:
112,133,750,6,0,P|135:177|183:181,1,90,8|0,2:1|2:0,2:0:0:0:
220,215,1050,6,0,P|247:195|290:194,1,72,8|0,2:1|2:0,2:0:0:0:
316,175,1350,6,0,P|334:196|367:199,1,53.9999983520508,10|0,1:0|2:0,2:0:0:0:
374,212,1650,6,0,P|393:194|404:192,1,36,8|0,2:1|2:0,2:0:0:0:
426,199,1950,5,8,2:1:0:0:
425,199,2100,1,0,2:0:0:0:
426,199,2250,1,8,2:1:0:0:
503,375,2550,5,10,1:0:0:0:
503,375,2850,6,0,P|435:356|427:316,1,107.999996704102,8|0,1:0|2:0,2:0:0:0:
400,254,3150,6,0,P|377:210|329:206,1,90,8|0,2:1|2:0,2:0:0:0:
292,172,3450,6,0,P|265:192|222:193,1,72,8|0,2:1|2:0,2:0:0:0:
213,185,3750,5,10,1:0:0:0:
17,28,4050,5,8,2:1:0:0:
90,59,4200,1,2,1:0:0:0:
186,306,4500,5,0,2:0:0:0:
261,282,4650,1,8,1:0:0:0:
392,67,4950,5,10,1:0:0:0:
392,67,5250,6,0,B|427:109|427:109|414:181,1,107.999996704102,8|0,2:1|2:0,2:0:0:0:
366,216,5550,6,0,B|319:226|319:226|277:179,1,90,8|0,2:1|2:0,2:0:0:0:
235,194,5850,6,0,B|208:171|208:171|151:182,1,72,8|0,2:1|2:0,2:0:0:0:
133,208,6150,6,0,B|109:228|109:228|123:262,1,53.9999983520508,10|0,1:0|2:0,2:0:0:0:
130,274,6450,6,0,B|137:290|137:290|123:306,1,36,8|0,2:1|2:0,2:0:0:0:
101,329,6750,5,8,2:1:0:0:
101,329,6900,1,0,2:0:0:0:
101,329,7050,1,8,2:1:0:0:
440,379,7350,5,10,1:0:0:0:
440,379,7650,6,0,B|463:330|463:330|420:278,1,107.999996704102,8|0,1:0|2:0,2:0:0:0:
356,278,7950,6,0,B|323:248|323:248|334:194,1,90,8|0,2:1|2:0,2:0:0:0:
371,169,8250,6,0,B|384:137|384:137|351:97,1,72,8|0,2:1|2:0,2:0:0:0:
329,89,8550,5,10,2:1:0:0:
166,8,8850,5,8,2:1:0:0:
90,26,9000,1,2,2:0:0:0:
7,197,9450,5,8,1:0:0:0:
123,373,9750,5,10,1:0:0:0:
123,373,10050,6,0,B|112:365|112:365|101:252,1,107.999996704102,8|0,2:1|2:0,2:0:0:0:
147,207,10350,6,0,B|159:194|159:194|246:182,1,90,8|0,2:1|2:0,2:0:0:0:
271,157,10650,6,0,B|278:168|278:168|349:185,1,72,8|0,2:1|2:0,2:0:0:0:
356,207,10950,6,0,B|363:202|363:202|419:191,1,53.9999983520508,10|0,1:0|2:0,2:0:0:0:
422,181,11250,6,0,B|426:187|426:187|459:192,1,36,8|0,2:1|2:0,2:0:0:0:
501,180,11550,5,8,2:1:0:0:
501,180,11700,1,0,2:0:0:0:
501,180,11850,1,8,1:0:0:0:
354,380,12150,5,10,1:0:0:0:
354,380,12450,6,0,B|340:370|340:370|331:266,1,107.999996704102,8|0,2:1|2:0,2:0:0:0:
276,229,12750,6,0,B|284:224|284:224|296:123,1,90,8|0,2:1|2:0,2:0:0:0:
323,104,13050,6,0,B|316:100|316:100|309:30,1,72,8|0,2:1|2:0,2:0:0:0:
287,22,13350,5,10,1:0:0:0:
88,132,13650,5,8,2:1:0:0:
58,204,13800,1,0,1:0:0:0:
198,366,14100,5,0,2:0:0:0:
179,290,14250,1,8,1:0:0:0:
306,96,14550,5,10,1:0:0:0:
306,96,14850,6,0,P|367:106|389:154,1,107.999996704102,8|0,2:1|2:0,2:0:0:0:
464,169,15150,6,0,P|467:208|427:246,1,90,8|0,2:1|2:0,2:0:0:0:
434,287,15450,6,0,P|406:311|363:303,1,72,8|0,2:1|2:0,2:0:0:0:
356,330,15750,6,0,P|324:314|313:292,1,53.9999983520508,10|0,1:0|2:0,2:0:0:0:
292,293,16050,6,0,P|287:280|294:259,1,36,8|0,2:1|2:0,2:0:0:0:
308,240,16350,5,8,2:1:0:0:
308,240,16500,1,0,2:0:0:0:
308,240,16650,1,8,1:0:0:0:
189,55,16950,5,10,1:0:0:0:
45,144,17250,5,10,1:0:0:0:
72,218,17400,1,2,2:0:0:0:
202,263,17550,5,10,1:0:0:0:
94,378,17850,5,10,1:0:0:0:
104,342,18000,1,2,2:0:0:0:
202,263,18150,2,0,L|268:248,2,60,10|0|8,1:0|1:0|1:0,2:0:0:0:
324,300,18600,1,0,1:0:0:0:
221,177,18750,2,0,L|241:112,2,60,10|0|8,1:0|1:0|1:0,2:0:0:0:
324,300,19200,1,0,1:0:0:0:
358,227,19350,5,2,1:0:0:0:
256,192,19500,12,0,22650,2:0:0:0:
227,108,22950,6,0,B|225:67|218:33|218:33|263:16|268:42|261:75|240:72|240:72|247:91|276:107,1,210,0|0,2:0|2:0,2:0:0:0:
249,121,23550,5,4,1:3:0:0:
9,15,24150,6,0,L|67:191,1,179.999994506836,2|0,1:0|2:0,2:0:0:0:
64,200,24600,1,0,1:0:0:0:
0,346,24750,2,0,B|1:327|1:327|29:274,1,71.9999978027344,10|0,2:0|2:0,2:0:0:0:
151,219,25050,1,2,1:0:0:0:
151,219,25200,1,0,2:0:0:0:
253,12,25350,6,0,B|235:36|235:36|211:146,1,107.999996704102,2|0,1:0|2:0,2:0:0:0:
222,137,25650,1,2,1:0:0:0:
271,197,25800,1,0,2:0:0:0:
241,376,25950,2,0,L|234:334,1,35.9999989013672,10|0,2:0|2:0,2:0:0:0:
245,372,26100,2,0,L|238:330,1,35.9999989013672,0|0,2:0|2:0,2:0:0:0:
249,368,26250,2,0,L|242:326,1,35.9999989013672,0|0,2:0|2:0,2:0:0:0:
253,363,26400,2,0,L|246:321,1,35.9999989013672,0|0,1:0|2:0,2:0:0:0:
311,270,26550,6,0,B|338:275|338:275|482:212,1,179.999994506836,2|0,1:0|2:0,2:0:0:0:
490,205,27000,1,0,1:0:0:0:
378,156,27150,2,0,B|362:141|362:141|294:138,1,71.9999978027344,10|0,2:0|2:0,2:0:0:0:
234,34,27450,2,0,B|214:34|214:34|154:61,1,71.9999978027344,2|0,1:0|2:0,2:0:0:0:
21,168,27750,6,0,P|82:165|132:220,1,107.999996704102,2|0,1:0|2:0,2:0:0:0:
130,207,28050,1,2,1:0:0:0:
92,277,28200,1,0,2:0:0:0:
259,383,28350,2,0,L|212:198,1,179.999994506836,10|0,2:0|2:0,2:0:0:0:
224,197,28800,1,0,1:0:0:0:
372,83,28950,6,0,B|351:109|351:109|322:261,1,179.999994506836,2|0,1:0|2:0,2:0:0:0:
331,266,29400,1,0,1:0:0:0:
436,192,29550,2,0,L|508:165,1,71.9999978027344,10|0,2:0|2:0,2:0:0:0:
278,103,29850,2,0,L|205:87,1,71.9999978027344,2|0,1:0|2:0,2:0:0:0:
67,10,30150,6,0,P|113:50|110:118,1,107.999996704102,0|0,1:0|2:0,2:0:0:0:
102,120,30450,1,2,1:0:0:0:
168,163,30600,1,0,2:0:0:0:
52,293,30750,2,0,L|39:251,1,35.9999989013672,10|0,2:0|2:0,2:0:0:0:
0,189,30900,2,0,L|17:115,2,71.9999978027344,0|0|0,2:0|2:0|1:0,2:0:0:0:
126,242,31350,2,0,P|195:296|315:293,1,179.999994506836,2|0,1:0|2:0,2:0:0:0:
303,298,31800,1,0,2:0:0:0:
503,20,33000,6,0,L|488:59,1,35.9999989013672,0|0,1:0|2:0,2:0:0:0:
500,17,33150,2,0,L|485:56,1,35.9999989013672,0|0,1:0|2:0,2:0:0:0:
497,14,33300,2,0,L|482:53,1,35.9999989013672,0|0,1:0|2:0,2:0:0:0:
494,11,33450,2,0,L|479:50,1,35.9999989013672,0|0,1:0|2:0,2:0:0:0:
491,8,33600,2,0,L|476:47,1,35.9999989013672,0|0,1:0|2:0,2:0:0:0:
416,90,33750,6,0,L|471:265,1,179.999994506836,2|0,1:0|2:0,2:0:0:0:
468,270,34200,1,0,1:0:0:0:
365,372,34350,1,10,2:0:0:0:
393,301,34500,1,0,2:0:0:0:
363,180,34650,2,0,L|287:160,1,71.9999978027344,2|0,1:0|2:0,2:0:0:0:
149,109,34950,6,0,B|235:93|235:93|267:66,1,107.999996704102,2|0,1:0|2:0,2:0:0:0:
265,62,35250,1,2,1:0:0:0:
209,7,35400,1,0,2:0:0:0:
142,122,35550,2,0,L|125:194,1,71.9999978027344,10|0,2:0|2:0,2:0:0:0:
12,257,35850,1,2,2:0:0:0:
38,328,36000,1,0,1:0:0:0:
168,381,36150,6,0,P|213:295|206:202,1,179.999994506836,2|0,1:0|2:0,2:0:0:0:
224,195,36600,1,0,1:0:0:0:
359,338,36750,2,0,P|327:337|291:307,1,71.9999978027344,10|0,2:0|2:0,2:0:0:0:
416,258,37050,1,2,1:0:0:0:
416,258,37200,1,0,2:0:0:0:
501,160,37350,2,0,L|428:140,1,71.9999978027344,2|0,1:0|2:0,2:0:0:0:
372,26,37650,2,0,P|344:51|338:92,1,71.9999978027344,2|0,1:0|2:0,2:0:0:0:
236,96,37950,2,0,L|195:285,1,179.999994506836,10|0,2:0|2:0,2:0:0:0:
202,281,38400,1,0,1:0:0:0:
61,380,38550,6,0,L|12:197,1,179.999994506836,2|0,1:0|2:0,2:0:0:0:
34,176,39000,2,0,L|54:100,2,71.9999978027344,0|2|0,1:0|2:0|2:0,2:0:0:0:
66,262,39450,1,2,1:0:0:0:
71,102,39750,2,0,L|245:53,1,179.999994506836,2|0,1:0|2:0,2:0:0:0:
276,37,40200,2,0,L|351:64,2,71.9999978027344,0|2|0,1:0|2:0|2:0,2:0:0:0:
208,117,40650,1,10,1:2:0:0:
400,8,40950,5,0,1:0:0:0:
500,100,41250,2,0,L|488:138,1,35.9999989013672,2|0,2:0|2:0,2:0:0:0:
505,105,41400,2,0,L|493:143,1,35.9999989013672,0|0,1:0|2:0,2:0:0:0:
436,195,41550,2,0,L|464:273,2,71.9999978027344,2|0|2,2:0|2:0|1:0,2:0:0:0:
361,159,42000,1,0,2:0:0:0:
361,159,42150,2,0,P|310:208|308:344,1,179.999994506836,2|0,1:0|2:0,2:0:0:0:
307,337,42600,1,0,1:0:0:0:
213,234,42750,2,0,L|196:192,1,35.9999989013672,8|0,1:0|2:0,2:0:0:0:
207,231,42900,2,0,L|190:189,1,35.9999989013672,8|0,1:3|2:0,2:0:0:0:
201,227,43050,2,0,L|184:185,1,35.9999989013672,8|0,1:3|2:0,2:0:0:0:
195,224,43200,2,0,L|178:182,1,35.9999989013672,12|0,1:3|2:0,2:0:0:0:
114,156,43350,5,6,1:2:0:0:
172,102,43800,5,0,1:0:0:0:
223,43,44250,5,0,1:0:0:0:
350,10,44550,5,0,1:0:0:0:
369,86,45000,5,0,1:0:0:0:
388,161,45450,5,0,1:0:0:0:
499,281,45750,5,2,1:0:0:0:
439,327,46200,5,0,1:0:0:0:
380,376,46650,5,8,1:0:0:0:
163,369,46950,5,0,1:0:0:0:
223,323,47400,5,0,1:0:0:0:
282,274,47850,5,8,1:0:0:0:
298,24,48150,6,0,P|267:28|253:16,1,45.0000017166138,2|0,1:0|1:0,2:0:0:0:
257,20,48450,2,0,P|226:16|212:28,1,45.0000017166138,0|2,1:0|1:0,2:0:0:0:
276,105,48750,6,0,P|245:101|231:113,1,45.0000017166138,0|0,1:0|1:0,2:0:0:0:
218,118,49050,2,0,P|187:122|173:110,1,45.0000017166138,2|0,1:0|1:0,2:0:0:0:
370,212,49350,6,0,P|339:216|325:204,1,45.0000017166138,2|0,1:0|1:0,2:0:0:0:
266,196,49650,2,0,P|297:192|311:204,1,45.0000017166138,0|2,1:0|1:0,2:0:0:0:
309,284,49950,6,0,P|278:280|264:292,1,45.0000017166138,0|0,1:0|1:0,2:0:0:0:
188,307,50250,2,0,P|219:311|233:299,1,45.0000017166138,2|0,1:0|1:0,2:0:0:0:
100,352,50550,5,2,1:0:0:0:
94,338,50625,1,0,1:0:0:0:
89,323,50700,1,0,1:0:0:0:
84,309,50775,1,0,1:0:0:0:
77,295,50850,2,0,L|65:266,3,22.5000008583069,0|0|2|0,1:0|1:0|1:0|1:0,2:0:0:0:
3,220,51150,5,0,1:0:0:0:
9,206,51225,1,0,1:0:0:0:
14,191,51300,1,0,1:0:0:0:
19,177,51375,1,0,1:0:0:0:
26,163,51450,2,0,L|38:134,3,22.5000008583069,2|0|0|0,1:0|1:0|1:0|1:0,2:0:0:0:
0,75,51750,5,0,1:0:0:0:
30,21,52950,6,0,P|107:38|128:103,1,143.999995605469,2|2,1:0|2:0,2:0:0:0:
50,198,53400,2,0,P|24:147|32:134,2,71.9999978027344,0|2|0,1:0|2:0|2:0,2:0:0:0:
6,337,53850,2,0,P|25:287|84:279,1,107.999996704102,2|0,2:0|2:0,2:0:0:0:
101,287,54150,2,0,P|122:321|169:317,1,71.9999978027344,2|0,2:0|2:0,2:0:0:0:
280,220,54450,1,2,2:0:0:0:
208,191,54600,1,0,2:0:0:0:
316,290,54750,1,10,2:0:0:0:
389,152,54900,1,0,2:0:0:0:
385,141,54975,1,0,2:0:0:0:
381,132,55050,2,0,B|377:121|377:121|399:59,1,71.9999978027344,2|0,1:0|2:0,2:0:0:0:
497,148,55350,6,0,B|478:162|478:162|433:301,1,143.999995605469,2|2,1:0|2:0,2:0:0:0:
321,374,55800,1,0,1:0:0:0:
216,292,55950,2,0,P|244:257|278:255,1,71.9999978027344,2|0,2:0|2:0,2:0:0:0:
132,210,56250,2,0,P|193:186|203:112,1,143.999995605469,2|2,2:0|2:0,2:0:0:0:
127,11,56700,1,0,2:0:0:0:
92,74,56850,1,2,2:0:0:0:
197,38,57000,1,0,2:0:0:0:
303,114,57150,2,0,P|290:72|250:70,1,71.9999978027344,10|2,2:0|2:0,2:0:0:0:
413,8,57450,2,0,L|394:48,1,35.9999989013672,2|0,1:0|2:0,2:0:0:0:
469,63,57600,2,0,L|480:102,1,35.9999989013672,2|0,2:0|2:0,2:0:0:0:
492,258,57750,6,0,P|467:206|376:172,1,143.999995605469,2|2,1:0|2:0,2:0:0:0:
266,268,58200,1,0,1:0:0:0:
332,376,58350,2,0,P|368:349|370:313,1,71.9999978027344,2|0,2:0|2:0,2:0:0:0:
251,181,58650,2,0,L|266:252,1,71.9999978027344,2|0,2:0|2:0,2:0:0:0:
137,369,58950,2,0,L|165:254,1,107.999996704102,2|0,2:0|2:0,2:0:0:0:
154,258,59250,1,2,2:0:0:0:
55,171,59400,1,0,2:0:0:0:
119,99,59550,1,10,2:0:0:0:
15,5,59700,1,0,2:0:0:0:
19,15,59775,1,0,2:0:0:0:
24,24,59850,2,0,L|43:67,2,35.9999989013672,2|0|0,1:0|2:0|2:0,2:0:0:0:
191,50,60150,6,0,P|253:66|261:152,1,143.999995605469,2|2,1:0|2:0,2:0:0:0:
186,272,60600,1,0,1:0:0:0:
263,372,60750,2,0,P|315:346|313:315,1,71.9999978027344,2|0,2:0|2:0,2:0:0:0:
429,269,61050,2,0,P|398:225|409:194,1,71.9999978027344,2|0,2:0|2:0,2:0:0:0:
458,91,61350,2,0,P|379:98|350:167,1,143.999995605469,2|2,2:0|2:0,2:0:0:0:
245,155,61800,1,0,2:0:0:0:
245,155,61950,6,0,L|256:199,1,35.9999989013672,10|0,2:0|2:0,2:0:0:0:
283,338,62100,2,0,L|298:251,2,71.9999978027344,2|2|2,2:0|1:0|2:0,2:0:0:0:
84,353,62550,6,0,B|146:351|143:311|216:282,1,143.999995605469,2|0,1:0|2:0,2:0:0:0:
227,364,63000,1,0,1:0:0:0:
78,243,63150,2,0,L|123:258,1,35.9999989013672,10|0,2:0|2:0,2:0:0:0:
191,200,63300,1,2,2:0:0:0:
46,136,63450,2,0,P|4:232|-1:289,2,143.999995605469,2|2|2,2:0|2:0|1:0,2:0:0:0:
339,70,64350,6,0,L|284:77,1,35.9999989013672,10|0,2:0|2:0,2:0:0:0:
227,158,64500,1,0,2:0:0:0:
227,158,64575,1,0,2:0:0:0:
227,158,64650,2,0,P|206:99|154:52,1,107.999996704102,2|0,1:0|2:0,2:0:0:0:
37,57,64950,6,0,B|53:57|69:35|69:35|57:76|38:94|38:94|54:117|57:154,1,143.999995605469,2|2,1:0|2:0,2:0:0:0:
22,201,65400,1,0,1:0:0:0:
156,324,65550,2,0,L|163:281,1,35.9999989013672,10|0,2:0|2:0,2:0:0:0:
147,215,65700,1,2,2:0:0:0:
300,180,65850,2,0,P|283:249|243:309,2,143.999995605469,2|2|2,2:0|2:0|1:0,2:0:0:0:
83,32,66750,6,0,L|142:57,1,35.9999989013672,8|0,2:0|2:0,2:0:0:0:
189,123,66900,2,0,L|279:96,2,71.9999978027344,2|2|2,2:0|1:0|2:0,2:0:0:0:
331,203,67350,6,0,B|322:171|348:122|393:125|436:179|382:196,1,143.999995605469,2|2,1:0|2:0,2:0:0:0:
378,261,67800,1,0,1:0:0:0:
467,106,67950,2,0,L|432:90,1,35.9999989013672,10|0,2:0|2:0,2:0:0:0:
365,42,68100,1,2,2:0:0:0:
269,146,68250,2,0,B|296:75|251:80|286:-13,2,143.999995605469,2|2|2,2:0|2:0|1:0,2:0:0:0:
185,316,69150,6,0,L|237:308,1,35.9999989013672,10|0,2:0|2:0,2:0:0:0:
122,244,69300,1,0,2:0:0:0:
122,244,69375,1,0,2:0:0:0:
122,244,69450,2,0,P|76:252|1:267,1,107.999996704102,2|0,1:0|2:0,2:0:0:0:
60,147,69750,6,0,B|105:147|101:98|149:99|149:99|133:127|143:157,1,143.999995605469,2|2,1:0|2:0,2:0:0:0:
206,176,70200,1,0,1:0:0:0:
325,285,70350,2,0,L|313:248,1,35.9999989013672,10|0,2:0|2:0,2:0:0:0:
327,169,70500,1,2,2:0:0:0:
231,340,70650,2,0,P|293:352|383:371,1,143.999995605469,2|2,2:0|2:0,2:0:0:0:
444,257,71100,1,0,2:0:0:0:
372,219,71250,1,2,1:0:0:0:
325,285,71400,1,0,2:0:0:0:
506,205,71700,6,0,L|490:164,1,35.9999989013672,2|0,2:0|2:0,2:0:0:0:
504,211,71850,2,0,L|488:170,1,35.9999989013672,2|0,1:0|2:0,2:0:0:0:
502,217,72000,2,0,L|486:176,1,35.9999989013672,2|0,2:0|2:0,2:0:0:0:
411,200,72150,6,0,L|371:380,1,180,2|0,1:0|2:0,2:0:0:0:
426,315,72750,1,10,2:0:0:0:
314,257,73050,2,0,L|297:180,1,60,2|0,1:0|2:0,2:0:0:0:
358,136,73350,1,2,2:0:0:0:
247,16,73650,1,2,1:0:0:0:
247,16,73800,1,0,2:0:0:0:
169,31,73950,2,0,P|104:100|114:137,1,120,10|0,2:0|2:0,2:0:0:0:
14,219,74400,1,0,1:0:0:0:
14,219,74550,6,0,L|45:342,1,120,2|2,1:0|2:0,2:0:0:0:
150,258,75000,1,0,2:0:0:0:
150,258,75150,1,10,2:0:0:0:
296,373,75450,2,0,P|250:330|260:273,2,120,2|2|2,1:0|2:0|1:0,2:0:0:0:
377,267,76200,1,0,2:0:0:0:
274,189,76350,2,0,P|318:134|307:79,1,120,10|0,2:0|2:0,2:0:0:0:
416,4,76800,1,0,1:0:0:0:
416,4,76950,6,0,P|483:40|483:105,1,120,2|2,1:0|2:0,2:0:0:0:
388,208,77400,1,0,2:0:0:0:
388,208,77550,2,0,L|375:272,1,60,10|0,2:0|2:0,2:0:0:0:
458,372,77850,1,2,1:0:0:0:
234,245,78150,2,0,L|297:228,1,60,2|0,2:0|2:0,2:0:0:0:
200,334,78450,1,2,1:0:0:0:
200,334,78600,1,0,2:0:0:0:
67,200,78750,2,0,P|129:218|131:274,1,120,10|2,2:0|2:0,2:0:0:0:
189,151,79200,1,0,1:0:0:0:
10,99,79350,6,0,P|91:102|148:-5,1,210,2|0,1:0|2:0,2:0:0:0:
148,0,79950,1,0,2:0:0:0:
504,188,81000,5,0,1:0:0:0:
425,302,81150,6,0,L|437:261,1,30,0|0,1:0|2:0,2:0:0:0:
422,298,81300,2,0,L|434:257,1,30,0|0,1:0|2:0,2:0:0:0:
418,294,81450,2,0,L|430:253,1,30,0|0,1:0|2:0,2:0:0:0:
414,290,81600,2,0,L|426:249,1,30,0|0,1:0|2:0,2:0:0:0:
319,191,81750,6,0,L|347:377,1,180,2|0,1:0|1:0,2:0:0:0:
240,299,82350,2,0,B|201:314|180:292|180:292|173:254|196:232,1,120,10|2,2:0|1:0,2:0:0:0:
247,158,82800,1,0,2:0:0:0:
247,158,82950,2,0,B|213:149|213:149|213:151|213:151|176:157,1,60,2|0,1:0|2:0,2:0:0:0:
97,202,83250,1,2,1:0:0:0:
276,57,83550,1,10,2:0:0:0:
443,182,83850,1,2,2:0:0:0:
512,139,84000,1,0,1:0:0:0:
512,139,84150,6,0,B|443:151|443:151|403:196|403:196|332:209,1,180,2|0,1:0|1:0,2:0:0:0:
244,117,84750,2,0,B|269:138|299:137|299:137|275:159|268:197,1,120,10|2,2:0|1:0,2:0:0:0:
283,300,85200,1,0,2:0:0:0:
283,300,85350,2,0,B|250:291|250:291|250:290|250:290|223:289,1,60,2|0,1:0|2:0,2:0:0:0:
143,333,85650,1,2,1:0:0:0:
143,333,85800,1,0,2:0:0:0:
67,275,85950,2,0,P|60:225|34:89,1,180,10|0,2:0|1:0,2:0:0:0:
151,19,86550,6,0,B|123:37|123:37|119:72|119:72|161:108|161:108|195:94|195:94|207:68,1,180,2|0,1:0|1:0,2:0:0:0:
350,22,87300,1,0,2:0:0:0:
350,22,87450,2,0,P|319:33|275:57,1,60,2|0,1:0|2:0,2:0:0:0:
358,117,87750,2,0,P|302:166|272:218,1,120,2|2,1:0|2:0,2:0:0:0:
338,267,88200,1,0,1:0:0:0:
139,177,88500,1,0,2:0:0:0:
139,177,88650,2,0,B|173:178|173:178|174:181|174:181|204:189,1,60,10|0,1:2|2:0,2:0:0:0:
246,274,88950,5,0,1:0:0:0:
54,348,89250,2,0,L|69:279,1,60,2|0,2:0|1:0,2:0:0:0:
22,263,89550,2,0,L|69:226,1,60,2|0,2:0|2:0,2:0:0:0:
139,177,89850,1,2,1:0:0:0:
139,177,90000,1,0,2:0:0:0:
42,67,90150,6,0,P|104:84|239:105,1,198.000006042481,2|0,1:0|1:0,2:0:0:0:
328,60,90750,1,8,1:0:0:0:
382,142,90900,2,0,L|398:99,1,33.0000010070801,8|0,1:3|2:0,2:0:0:0:
384,148,91050,2,0,L|399:107,1,33.0000010070801,8|0,1:3|2:0,2:0:0:0:
386,154,91200,2,0,L|402:113,1,33.0000010070801,8|0,1:3|2:0,2:0:0:0:
437,227,91350,5,2,1:0:0:0:
379,281,91800,5,0,1:0:0:0:
328,340,92250,5,0,1:0:0:0:
201,373,92550,5,0,1:0:0:0:
182,297,93000,5,0,1:0:0:0:
163,222,93450,5,0,1:0:0:0:
52,102,93750,5,2,1:0:0:0:
112,56,94200,5,0,1:0:0:0:
171,7,94650,5,8,1:0:0:0:
388,14,94950,5,0,1:0:0:0:
328,60,95400,5,0,1:0:0:0:
269,109,95850,5,8,1:0:0:0:
240,352,96150,6,0,L|289:364,1,45.0000017166138,2|0,1:0|1:0,2:0:0:0:
283,362,96450,2,0,L|327:373,1,45.0000017166138,0|2,1:0|1:0,2:0:0:0:
280,278,96750,6,0,L|329:266,1,45.0000017166138,0|0,1:0|1:0,2:0:0:0:
347,262,97050,2,0,L|391:252,1,45.0000017166138,2|0,1:0|1:0,2:0:0:0:
184,180,97350,6,0,L|233:192,1,45.0000017166138,2|0,1:0|1:0,2:0:0:0:
272,202,97650,2,0,L|228:191,1,45.0000017166138,0|2,1:0|1:0,2:0:0:0:
255,109,97950,6,0,L|304:97,1,45.0000017166138,0|0,1:0|1:0,2:0:0:0:
372,80,98250,2,0,L|328:90,1,45.0000017166138,2|0,1:0|1:0,2:0:0:0:
160,6,98550,5,2,1:0:0:0:
154,20,98625,1,0,1:0:0:0:
149,35,98700,1,0,1:0:0:0:
144,49,98775,1,0,1:0:0:0:
137,63,98850,2,0,L|125:92,3,22.5000008583069,0|0|2|0,1:0|1:0|1:0|1:0,2:0:0:0:
63,138,99150,5,0,1:0:0:0:
69,152,99225,1,0,1:0:0:0:
74,167,99300,1,0,1:0:0:0:
79,181,99375,1,0,1:0:0:0:
86,195,99450,2,0,L|98:224,3,22.5000008583069,2|0|0|0,1:0|1:0|1:0|1:0,2:0:0:0:
60,283,99750,5,0,1:0:0:0:
459,361,100950,6,0,P|434:309|508:248,1,143.999995605469,2|2,1:0|2:0,2:0:0:0:
402,112,101400,1,0,1:0:0:0:
299,188,101550,2,0,P|355:208|364:237,1,71.9999978027344,2|0,2:0|2:0,2:0:0:0:
202,130,101850,2,0,P|241:116|269:50,1,107.999996704102,2|0,1:0|2:0,2:0:0:0:
251,27,102150,2,0,P|213:9|184:30,1,71.9999978027344,2|0,2:0|2:0,2:0:0:0:
80,141,102450,1,2,2:0:0:0:
121,205,102600,1,0,2:0:0:0:
1,146,102750,1,10,2:0:0:0:
159,139,102900,1,0,2:0:0:0:
163,129,102975,1,0,2:0:0:0:
169,120,103050,2,0,L|154:79,2,35.9999989013672,2|0|0,1:0|2:0|2:0,2:0:0:0:
9,242,103350,6,0,P|53:259|77:352,1,143.999995605469,2|2,1:0|2:0,2:0:0:0:
189,230,103800,1,0,1:0:0:0:
191,371,103950,2,0,P|161:343|174:307,1,71.9999978027344,2|0,2:0|2:0,2:0:0:0:
258,194,104250,1,2,2:0:0:0:
325,229,104400,1,0,1:0:0:0:
426,384,104550,2,0,P|387:388|351:330,1,107.999996704102,2|0,2:0|2:0,2:0:0:0:
352,321,104850,2,0,P|381:287|415:298,1,71.9999978027344,2|0,2:0|2:0,2:0:0:0:
504,168,105150,1,10,2:0:0:0:
455,115,105300,1,2,2:0:0:0:
496,243,105450,1,2,1:0:0:0:
380,135,105600,1,2,2:0:0:0:
495,11,105750,6,0,P|438:-3|397:67,1,143.999995605469,2|2,1:0|2:0,2:0:0:0:
301,185,106200,2,0,L|316:226,1,35.9999989013672,0|0,1:0|2:0,2:0:0:0:
224,160,106350,2,0,P|250:116|227:59,1,107.999996704102,2|0,2:0|2:0,2:0:0:0:
203,52,106650,2,0,P|161:61|151:91,1,71.9999978027344,2|0,1:0|2:0,2:0:0:0:
43,199,106950,2,0,B|39:214|39:214|69:274,1,71.9999978027344,2|0,2:0|2:0,2:0:0:0:
185,371,107250,1,2,2:0:0:0:
253,340,107400,1,0,2:0:0:0:
127,322,107550,1,10,2:0:0:0:
276,269,107700,1,0,2:0:0:0:
282,257,107775,1,0,2:0:0:0:
288,246,107850,2,0,L|267:169,1,71.9999978027344,2|0,1:0|2:0,2:0:0:0:
355,17,108150,6,0,P|320:19|304:110,1,143.999995605469,2|2,1:0|2:0,2:0:0:0:
410,227,108600,1,0,1:0:0:0:
500,143,108750,2,0,P|475:106|440:107,1,71.9999978027344,2|0,2:0|2:0,2:0:0:0:
393,242,109050,1,2,2:0:0:0:
413,315,109200,1,0,1:0:0:0:
263,375,109350,2,0,P|234:341|239:311,1,71.9999978027344,2|0,2:0|2:0,2:0:0:0:
140,226,109650,1,2,2:0:0:0:
186,167,109800,1,0,2:0:0:0:
165,298,109950,1,10,2:0:0:0:
330,261,110100,2,0,L|341:222,1,35.9999989013672,2|0,2:0|2:0,2:0:0:0:
340,268,110250,2,0,L|351:229,1,35.9999989013672,2|0,1:0|2:0,2:0:0:0:
349,277,110400,2,0,L|360:238,1,35.9999989013672,2|0,2:0|2:0,2:0:0:0:
317,367,110550,6,0,B|298:329|248:333|248:333|200:338|175:286,1,143.999995605469,2|0,1:0|2:0,2:0:0:0:
199,233,111000,1,0,1:0:0:0:
29,342,111150,2,0,L|83:327,1,35.9999989013672,10|0,2:0|2:0,2:0:0:0:
126,280,111300,1,2,2:0:0:0:
64,138,111450,2,0,B|49:127|38:114|38:114|28:161|28:161|30:164|30:164|13:229,2,143.999995605469,2|2|2,1:0|2:0|1:0,2:0:0:0:
317,27,112350,6,0,L|281:34,1,35.9999989013672,10|0,2:0|2:0,2:0:0:0:
204,77,112500,1,0,2:0:0:0:
204,77,112575,1,0,2:0:0:0:
204,77,112650,2,0,P|241:116|313:115,1,107.999996704102,2|0,1:0|2:0,2:0:0:0:
429,96,112950,6,0,B|410:108|389:110|389:110|374:144|391:143|382:178|382:178|363:184|343:209,1,143.999995605469,2|2,1:0|2:0,2:0:0:0:
304,139,113400,1,0,1:0:0:0:
405,314,113550,2,0,L|397:272,1,35.9999989013672,10|0,2:0|2:0,2:0:0:0:
458,216,113700,1,2,2:0:0:0:
362,253,113850,1,2,1:0:0:0:
474,355,114000,2,0,P|387:343|184:340,1,287.999991210938,0|0,1:0|2:0,2:0:0:0:
75,374,114750,5,8,2:0:0:0:
28,291,114900,2,0,L|44:250,1,35.9999989013672,2|0,2:0|2:0,2:0:0:0:
30,297,115050,2,0,L|46:256,1,35.9999989013672,2|0,1:0|2:0,2:0:0:0:
32,303,115200,2,0,L|48:262,1,35.9999989013672,2|0,2:0|2:0,2:0:0:0:
122,224,115350,6,0,B|74:185|124:131|193:143|228:202|198:267,2,215.999993408203,2|2|2,1:0|1:0|1:0,2:0:0:0:
62,122,116550,6,0,B|136:126|136:126|146:122|146:122|229:141,1,143.999995605469,2|2,1:0|1:0,2:0:0:0:
293,212,117000,1,0,1:0:0:0:
85,10,117300,1,0,2:0:0:0:
85,10,117375,1,0,2:0:0:0:
85,10,117450,2,0,P|44:35|50:109,1,107.999996704102,2|0,1:0|2:0,2:0:0:0:
154,79,117750,6,0,L|218:44,1,60,0|0,1:0|1:0,2:0:0:0:
336,79,118050,2,0,L|301:14,1,60,0|0,1:0|1:0,2:0:0:0:
305,204,118350,2,0,L|369:169,1,60,0|0,1:0|1:0,2:0:0:0:
178,172,118650,2,0,L|212:236,1,60,0|0,1:0|1:0,2:0:0:0:
249,133,118950,6,0,L|263:106,7,30,0|0|0|0|0|0|0|0,1:0|1:0|1:0|1:0|1:0|1:0|1:0|1:0,2:0:0:0:
340,313,119700,6,0,L|324:272,1,35.9999989013672,2|0,2:0|2:0,2:0:0:0:
338,319,119850,2,0,L|322:278,1,35.9999989013672,2|0,2:0|2:0,2:0:0:0:
336,325,120000,2,0,L|320:284,1,35.9999989013672,2|0,2:0|2:0,2:0:0:0:
396,235,120150,6,0,P|426:132|517:81,1,215.999993408203,2|0,1:3|2:0,2:0:0:0:
370,48,120750,2,0,L|361:7,1,35.9999989013672,8|0,2:0|2:0,2:0:0:0:
299,94,120900,2,0,B|267:91|238:104|245:133|218:170|155:141,1,143.999995605469,2|0,2:0|2:0,2:0:0:0:
97,41,121350,2,0,P|16:74|13:193,1,215.999993408203,0|0,1:0|2:0,2:0:0:0:
53,316,121950,2,0,L|37:355,1,35.9999989013672,8|0,2:0|2:0,2:0:0:0:
127,356,122100,2,0,B|157:360|157:360|269:297,1,143.999995605469,0|0,2:0|2:0,2:0:0:0:
427,321,122550,6,0,P|486:289|400:296,1,215.999993408203,0|0,1:0|2:0,2:0:0:0:
472,153,123150,2,0,L|512:140,1,35.9999989013672,8|0,2:0|2:0,2:0:0:0:
405,102,123300,2,0,P|365:124|291:66,1,143.999995605469,0|0,2:0|2:0,2:0:0:0:
135,44,123750,2,0,L|122:1,1,35.9999989013672,0|0,1:0|2:0,2:0:0:0:
213,83,123900,2,0,B|202:95|202:95|169:227,1,143.999995605469,0|0,2:0|2:0,2:0:0:0:
80,341,124350,2,0,L|52:269,1,71.9999978027344,8|0,2:0|2:0,2:0:0:0:
185,379,124650,2,0,L|217:297,1,71.9999978027344,0|0,2:0|2:0,2:0:0:0:
276,128,124950,6,0,P|329:127|381:264,1,215.999993408203,0|0,1:0|2:0,2:0:0:0:
306,369,125550,2,0,L|294:317,1,35.9999989013672,8|0,2:0|2:0,2:0:0:0:
222,314,125700,2,0,B|195:198|195:198|154:181,1,143.999995605469,2|0,2:0|2:0,2:0:0:0:
42,56,126150,2,0,B|0:103|0:103|158:46,1,215.999993408203,0|0,1:0|2:0,2:0:0:0:
282,31,126750,2,0,L|294:-10,1,35.9999989013672,8|0,2:0|2:0,2:0:0:0:
346,85,126900,2,0,B|336:120|336:120|393:226,1,143.999995605469,0|0,2:0|2:0,2:0:0:0:
470,384,127350,6,0,P|423:311|301:321,1,215.999993408203,0|0,1:0|2:0,2:0:0:0:
166,376,127950,2,0,P|133:343|143:311,1,71.9999978027344,8|0,2:0|2:0,2:0:0:0:
32,267,128250,2,0,P|72:241|75:198,1,71.9999978027344,2|0,2:0|2:0,2:0:0:0:
11,92,128550,2,0,B|48:77|48:77|217:182,1,215.999993408203,0|0,1:0|2:0,2:0:0:0:
312,241,129150,2,0,L|299:287,1,35.9999989013672,10|0,2:0|2:0,2:0:0:0:
393,224,129300,2,0,B|397:202|397:202|354:79,1,143.999995605469,0|0,2:0|2:0,2:0:0:0:
227,16,129750,6,0,P|220:84|337:42,1,251.999992309571,0|0,1:0|2:0,2:0:0:0:
504,175,130350,2,0,L|480:150,1,33.0000010070801,8|0,2:0|2:0,2:0:0:0:
427,80,130500,2,0,P|401:125|383:242,1,143.999995605469,2|0,2:0|2:0,2:0:0:0:
458,336,130950,6,0,P|451:305|443:271,2,60,0|2|0,1:0|2:0|2:0,2:0:0:0:
512,42,131550,2,0,L|502:76,1,30,8|0,2:0|2:0,2:0:0:0:
298,290,132150,6,0,B|246:291|202:248|215:250|190:219|157:216|157:216|121:222,1,180,0|0,1:0|2:0,2:0:0:0:
35,147,132750,2,0,L|68:159,1,26.9999991760254,8|0,2:0|2:0,2:0:0:0:
138,125,132900,1,0,2:0:0:0:
173,49,133050,1,2,2:0:0:0:
109,287,133350,6,0,B|97:207|97:207|90:147|138:123,1,180,0|0,1:0|2:0,2:0:0:0:
314,194,133950,2,0,L|287:184,1,26.9999991760254,8|0,2:0|2:0,2:0:0:0:
202,175,134100,2,0,P|267:169|345:143,1,132.00000402832,0|0,2:0|2:0,2:0:0:0:
461,19,134550,6,0,B|449:62|415:80|415:80|434:181|434:181|432:185|432:185|451:276,1,251.999992309571,2|0,1:0|2:0,2:0:0:0:
512,350,135150,2,0,L|502:397,1,33.0000010070801,10|0,1:2|2:0,2:0:0:0:
419,348,135300,2,0,P|373:324|347:227,1,143.999995605469,0|0,2:0|2:0,2:0:0:0:
238,197,135750,6,0,P|243:165|250:133,2,60,2|0|0,1:0|2:0|2:0,2:0:0:0:
87,17,136350,2,0,L|96:49,1,30,10|0,1:2|2:0,2:0:0:0:
127,48,137100,6,0,L|112:115,1,48,0|0,2:0|2:0,2:0:0:0:
84,116,137700,6,0,L|95:183,1,48,0|0,2:0|2:0,2:0:0:0:
124,184,138300,6,0,L|112:251,1,48,0|0,2:0|2:0,2:0:0:0:
72,315,138750,6,0,L|66:286,2,17.9999994506836,0|0|0,2:0|2:0|2:0,2:0:0:0:
138,366,139050,6,0,L|144:337,2,17.9999994506836,0|0|0,2:0|2:0|2:0,2:0:0:0:
9,372,139350,5,10,1:0:0:0:
9,372,139650,6,0,P|77:353|85:313,1,107.999996704102,8|0,2:1|2:0,2:0:0:0:
112,251,139950,6,0,P|135:207|183:203,1,90,8|0,2:1|2:0,2:0:0:0:
220,169,140250,6,0,P|247:189|290:190,1,72,8|0,2:1|2:0,2:0:0:0:
316,209,140550,6,0,P|334:188|367:185,1,53.9999983520508,10|0,1:0|2:0,2:0:0:0:
374,172,140850,6,0,P|393:190|404:192,1,36,8|0,2:1|2:0,2:0:0:0:
426,185,141150,5,8,2:1:0:0:
425,185,141300,1,0,2:0:0:0:
426,185,141450,1,8,2:1:0:0:
503,9,141750,5,10,1:0:0:0:
503,9,142050,6,0,P|435:28|427:68,1,107.999996704102,8|0,1:0|2:0,2:0:0:0:
400,130,142350,6,0,P|377:174|329:178,1,90,8|0,2:1|2:0,2:0:0:0:
292,212,142650,6,0,P|265:192|222:191,1,72,8|0,2:1|2:0,2:0:0:0:
213,199,142950,5,10,1:0:0:0:
17,356,143250,5,8,2:1:0:0:
90,325,143400,1,2,1:0:0:0:
186,78,143700,5,0,2:0:0:0:
261,102,143850,1,8,1:0:0:0:
392,317,144150,5,10,1:0:0:0:
392,317,144450,6,0,B|427:275|427:275|414:203,1,107.999996704102,8|0,2:1|2:0,2:0:0:0:
366,168,144750,6,0,B|319:158|319:158|277:205,1,90,8|0,2:1|2:0,2:0:0:0:
235,190,145050,6,0,B|208:213|208:213|151:202,1,72,8|0,2:1|2:0,2:0:0:0:
133,176,145350,6,0,B|109:156|109:156|123:122,1,53.9999983520508,10|0,1:0|2:0,2:0:0:0:
130,110,145650,6,0,B|137:94|137:94|123:78,1,36,8|0,2:1|2:0,2:0:0:0:
101,55,145950,5,8,2:1:0:0:
101,55,146100,1,0,2:0:0:0:
101,55,146250,1,8,2:1:0:0:
440,5,146550,5,10,1:0:0:0:
440,5,146850,6,0,B|463:54|463:54|420:106,1,107.999996704102,8|0,1:0|2:0,2:0:0:0:
356,106,147150,6,0,B|323:136|323:136|334:190,1,90,8|0,2:1|2:0,2:0:0:0:
371,215,147450,6,0,B|384:247|384:247|351:287,1,72,8|0,2:1|2:0,2:0:0:0:
329,295,147750,5,10,2:1:0:0:
166,376,148050,5,8,2:1:0:0:
90,358,148200,1,2,2:0:0:0:
7,187,148650,5,8,1:0:0:0:
123,11,148950,5,10,1:0:0:0:
123,11,149250,6,0,B|112:19|112:19|101:132,1,107.999996704102,8|0,2:1|2:0,2:0:0:0:
147,177,149550,6,0,B|159:190|159:190|246:202,1,90,8|0,2:1|2:0,2:0:0:0:
271,227,149850,6,0,B|278:216|278:216|349:199,1,72,8|0,2:1|2:0,2:0:0:0:
356,177,150150,6,0,B|363:182|363:182|419:193,1,53.9999983520508,10|0,1:0|2:0,2:0:0:0:
422,203,150450,6,0,B|426:197|426:197|459:192,1,36,8|0,2:1|2:0,2:0:0:0:
501,204,150750,5,8,2:1:0:0:
501,204,150900,1,0,2:0:0:0:
501,204,151050,1,8,1:0:0:0:
354,4,151350,5,10,1:0:0:0:
354,4,151650,6,0,B|340:14|340:14|331:118,1,107.999996704102,8|0,2:1|2:0,2:0:0:0:
276,155,151950,6,0,B|284:160|284:160|296:261,1,90,8|0,2:1|2:0,2:0:0:0:
323,280,152250,6,0,B|316:284|316:284|309:354,1,72,8|0,2:1|2:0,2:0:0:0:
287,362,152550,5,10,1:0:0:0:
88,252,152850,5,8,2:1:0:0:
58,180,153000,1,0,1:0:0:0:
198,18,153300,5,0,2:0:0:0:
179,94,153450,1,8,1:0:0:0:
306,288,153750,5,10,1:0:0:0:
306,288,154050,6,0,P|367:278|389:230,1,107.999996704102,8|0,2:1|2:0,2:0:0:0:
464,215,154350,6,0,P|467:176|427:138,1,90,8|0,2:1|2:0,2:0:0:0:
434,97,154650,6,0,P|406:73|363:81,1,72,8|0,2:1|2:0,2:0:0:0:
356,54,154950,6,0,P|324:70|313:92,1,53.9999983520508,10|0,1:0|2:0,2:0:0:0:
292,91,155250,6,0,P|287:104|294:125,1,36,8|0,2:1|2:0,2:0:0:0:
308,144,155550,5,8,2:1:0:0:
308,144,155700,1,0,2:0:0:0:
308,144,155850,1,8,1:0:0:0:
189,329,156150,5,10,1:0:0:0:
45,240,156450,5,10,1:0:0:0:
72,166,156600,1,2,2:0:0:0:
202,121,156750,5,10,1:0:0:0:
94,6,157050,5,10,1:0:0:0:
104,42,157200,1,2,2:0:0:0:
190,217,157350,6,0,P|237:235|307:168,1,150,10|0,1:0|2:0,2:0:0:0:
341,149,157800,2,0,P|354:98|441:63,1,150,8|0,1:0|2:0,2:0:0:0:
477,84,158250,1,8,1:0:0:0:
