osu file format v14

[General]
AudioFilename: audio.mp3
AudioLeadIn: 0
PreviewTime: 22950
Countdown: 0
SampleSet: Soft
StackLeniency: 0.7
Mode: 0
LetterboxInBreaks: 0
WidescreenStoryboard: 1

[Editor]
DistanceSpacing: 1
BeatDivisor: 4
GridSize: 32
TimelineZoom: 1.5

[Metadata]
Title:SPACE INVADER
TitleUnicode:SPACE INVADER
Artist:YUC'e
ArtistUnicode:YUC'e
Creator:SMOKELIND
Version:Nachmark's EXPERT
Source:
Tags:YUCe Sugary Galaxy Hybrid Trap Electronic Instrumental Japanese Aqua -Aqua La+- Laplus- Hinsvar Paradogi Respirte Nachmark
BeatmapID:4206927
BeatmapSetID:2005892

[Difficulty]
HPDrainRate:5
CircleSize:4
OverallDifficulty:9
ApproachRate:9.1
SliderMultiplier:2.77
SliderTickRate:1

[Events]
//Background and Video events
0,0,"92447070_p0.jpg",0,0
//Break Periods
//Storyboard Layer 0 (Background)
//Storyboard Layer 1 (Fail)
//Storyboard Layer 2 (Pass)
//Storyboard Layer 3 (Foreground)
//Storyboard Layer 4 (Overlay)
//Storyboard Sound Samples

[TimingPoints]
150,600,4,2,77,77,1,0
150,-66.6666666666667,4,2,77,77,0,0
750,-100,4,2,77,77,0,0
2250,-500,4,2,77,77,0,0
2475,-500,4,2,77,5,0,0
2550,-66.6666666666667,4,2,77,77,0,0
3150,-100,4,2,77,77,0,0
4650,-50,4,2,77,77,0,0
4950,-66.6666666666667,4,2,77,77,0,0
5550,-100,4,2,77,77,0,0
7050,-500,4,2,77,77,0,0
7275,-500,4,2,77,5,0,0
7350,-66.6666666666667,4,2,77,77,0,0
7950,-100,4,2,77,77,0,0
9450,-50,4,2,77,77,0,0
9750,-66.6666666666667,4,2,77,77,0,0
10350,-100,4,2,77,77,0,0
11850,-500,4,2,77,77,0,0
12075,-500,4,2,77,5,0,0
12150,-66.6666666666667,4,2,77,77,0,0
12750,-100,4,2,77,77,0,0
14250,-50,4,2,77,77,0,0
14550,-66.6666666666667,4,2,77,77,0,0
15150,-100,4,2,77,77,0,0
16650,-500,4,2,77,77,0,0
16875,-500,4,2,77,5,0,0
16950,-66.6666666666667,4,2,77,77,0,0
17550,-50,4,2,77,77,0,0
17775,-50,4,2,77,5,0,0
17850,-50,4,2,77,77,0,0
18075,-50,4,2,77,5,0,0
18150,-50,4,2,77,77,0,0
23550,-333.333333333333,4,2,77,77,0,0
24074,-333.333333333333,4,2,77,5,0,0
24150,-50,4,2,77,77,0,0
24525,-50,4,2,77,5,0,0
24600,-50,4,2,77,77,0,0
24750,-100,4,2,77,77,0,0
25350,-50,4,2,77,77,0,0
26925,-50,4,2,77,5,0,0
27000,-50,4,2,77,77,0,0
27150,-100,4,2,77,77,0,0
27750,-50,4,2,77,77,0,0
29325,-50,4,2,77,5,0,0
29400,-50,4,2,77,77,0,0
29550,-100,4,2,77,77,0,0
30150,-50,4,2,77,77,0,0
30375,-50,4,2,77,5,0,0
30450,-50,4,2,77,77,0,0
30750,-200,4,2,77,77,0,0
31350,-50,4,2,77,77,0,0
33750,-40,4,2,77,77,0,0
34350,-133.333333333333,4,2,77,77,0,0
34950,-40,4,2,77,77,0,0
35175,-40,4,2,77,5,0,0
35250,-40,4,2,77,77,0,0
35475,-40,4,2,77,5,0,0
35550,-100,4,2,77,77,0,0
35625,-100,4,2,77,5,0,0
35850,-100,4,2,77,77,0,0
36150,-40,4,2,77,77,0,0
36750,-100,4,2,77,77,0,0
37350,-40,4,2,77,77,0,0
37575,-40,4,2,77,5,0,0
37650,-40,4,2,77,77,0,0
37875,-40,4,2,77,5,0,0
37950,-133.333333333333,4,2,77,77,0,0
38550,-40,4,2,77,77,0,0
39975,-40,4,2,77,5,0,0
40050,-40,4,2,77,77,0,0
40275,-40,4,2,77,5,0,0
40350,-40,4,2,77,77,0,0
40725,-40,4,2,77,5,0,0
40950,-40,4,2,77,77,0,0
41250,-100,4,2,77,77,0,0
42150,-40,4,2,77,77,0,0
43350,-100,4,2,77,77,0,0
52950,-40,4,2,77,87,0,0
53325,-40,4,2,77,5,0,0
53400,-40,4,2,77,87,0,0
53550,-83.3333333333333,4,2,77,87,0,0
55350,-40,4,2,77,87,0,0
55725,-40,4,2,77,5,0,0
55800,-40,4,2,77,87,0,0
55950,-83.3333333333333,4,2,77,87,0,0
57374,-83.3333333333333,4,2,77,5,0,0
57450,-83.3333333333333,4,2,77,87,0,0
57524,-83.3333333333333,4,2,77,5,0,0
57600,-83.3333333333333,4,2,77,87,0,0
57674,-83.3333333333333,4,2,77,5,0,0
57750,-40,4,2,77,87,0,0
58125,-40,4,2,77,5,0,0
58200,-40,4,2,77,87,0,0
58350,-83.3333333333333,4,2,77,87,0,0
60150,-40,4,2,77,87,0,0
60525,-40,4,2,77,5,0,0
60600,-40,4,2,77,87,0,0
60750,-83.3333333333333,4,2,77,87,0,0
62174,-83.3333333333333,4,2,77,5,0,0
62250,-83.3333333333333,4,2,77,87,0,0
62324,-83.3333333333333,4,2,77,5,0,0
62400,-83.3333333333333,4,2,77,87,0,0
62474,-83.3333333333333,4,2,77,5,0,0
62550,-40,4,2,77,87,0,0
62925,-40,4,2,77,5,0,0
63000,-40,4,2,77,87,0,0
63150,-83.3333333333333,4,2,77,87,0,0
63224,-83.3333333333333,4,2,77,5,0,0
63450,-83.3333333333333,4,2,77,87,0,0
64424,-83.3333333333333,4,2,77,5,0,0
64500,-83.3333333333333,4,2,77,87,0,0
64950,-40,4,2,77,87,0,0
65325,-40,4,2,77,5,0,0
65400,-40,4,2,77,87,0,0
65550,-83.3333333333333,4,2,77,87,0,0
65624,-83.3333333333333,4,2,77,5,0,0
65850,-83.3333333333333,4,2,77,87,0,0
66824,-83.3333333333333,4,2,77,5,0,0
66900,-83.3333333333333,4,2,77,87,0,0
66974,-83.3333333333333,4,2,77,5,0,0
67050,-83.3333333333333,4,2,77,87,0,0
67124,-83.3333333333333,4,2,77,5,0,0
67200,-83.3333333333333,4,2,77,87,0,0
67274,-83.3333333333333,4,2,77,5,0,0
67350,-40,4,2,77,87,0,0
67725,-40,4,2,77,5,0,0
67800,-40,4,2,77,87,0,0
67950,-83.3333333333333,4,2,77,87,0,0
68024,-83.3333333333333,4,2,77,5,0,0
68250,-83.3333333333333,4,2,77,87,0,0
69224,-83.3333333333333,4,2,77,5,0,0
69300,-83.3333333333333,4,2,77,87,0,0
69750,-40,4,2,77,87,0,0
70125,-40,4,2,77,5,0,0
70200,-40,4,2,77,87,0,0
70350,-83.3333333333333,4,2,77,87,0,0
70424,-83.3333333333333,4,2,77,5,0,0
70650,-83.3333333333333,4,2,77,87,0,0
71774,-83.3333333333333,4,2,77,5,0,0
71850,-83.3333333333333,4,2,77,87,0,0
71924,-83.3333333333333,4,2,77,5,0,0
72000,-83.3333333333333,4,2,77,87,0,0
72074,-83.3333333333333,4,2,77,5,0,0
72150,-100,4,2,77,77,0,0
76350,-200,4,2,77,77,0,0
76950,-333.333333333333,4,2,77,77,0,0
77550,-100,4,2,77,77,0,0
79350,-50,4,2,77,77,0,0
81750,-40,4,2,77,77,0,0
82350,-133.333333333333,4,2,77,77,0,0
82950,-40,4,2,77,77,0,0
83175,-40,4,2,77,5,0,0
83250,-40,4,2,77,77,0,0
83475,-40,4,2,77,5,0,0
83550,-100,4,2,77,77,0,0
83625,-100,4,2,77,5,0,0
83850,-100,4,2,77,77,0,0
84150,-40,4,2,77,77,0,0
84750,-100,4,2,77,77,0,0
85350,-40,4,2,77,77,0,0
85425,-40,4,2,77,5,0,0
85500,-40,4,2,77,77,0,0
85950,-133.333333333333,4,2,77,77,0,0
86550,-40,4,2,77,77,0,0
87975,-40,4,2,77,5,0,0
88050,-40,4,2,77,77,0,0
88275,-40,4,2,77,5,0,0
88350,-40,4,2,77,77,0,0
88725,-40,4,2,77,5,0,0
88950,-40,4,2,77,77,0,0
89250,-100,4,2,77,77,0,0
90150,-40,4,2,77,77,0,0
91350,-100,4,2,77,77,0,0
100950,-40,4,2,77,87,0,0
101325,-40,4,2,77,5,0,0
101400,-40,4,2,77,87,0,0
101550,-83.3333333333333,4,2,77,87,0,0
103350,-40,4,2,77,87,0,0
103725,-40,4,2,77,5,0,0
103800,-40,4,2,77,87,0,0
103950,-83.3333333333333,4,2,77,87,0,0
105374,-83.3333333333333,4,2,77,5,0,0
105450,-83.3333333333333,4,2,77,87,0,0
105524,-83.3333333333333,4,2,77,5,0,0
105600,-83.3333333333333,4,2,77,87,0,0
105674,-83.3333333333333,4,2,77,5,0,0
105750,-40,4,2,77,87,0,0
106125,-40,4,2,77,5,0,0
106200,-40,4,2,77,87,0,0
106350,-83.3333333333333,4,2,77,87,0,0
108150,-40,4,2,77,87,0,0
108525,-40,4,2,77,5,0,0
108600,-40,4,2,77,87,0,0
108750,-83.3333333333333,4,2,77,87,0,0
110174,-83.3333333333333,4,2,77,5,0,0
110250,-83.3333333333333,4,2,77,87,0,0
110324,-83.3333333333333,4,2,77,5,0,0
110400,-83.3333333333333,4,2,77,87,0,0
110474,-83.3333333333333,4,2,77,5,0,0
110550,-40,4,2,77,87,0,0
110925,-40,4,2,77,5,0,0
111000,-40,4,2,77,87,0,0
111150,-83.3333333333333,4,2,77,87,0,0
111224,-83.3333333333333,4,2,77,5,0,0
111450,-83.3333333333333,4,2,77,87,0,0
112424,-83.3333333333333,4,2,77,5,0,0
112500,-83.3333333333333,4,2,77,87,0,0
112950,-40,4,2,77,87,0,0
113325,-40,4,2,77,5,0,0
113400,-40,4,2,77,87,0,0
113550,-83.3333333333333,4,2,77,87,0,0
113624,-83.3333333333333,4,2,77,5,0,0
113850,-83.3333333333333,4,2,77,87,0,0
114824,-83.3333333333333,4,2,77,5,0,0
114900,-83.3333333333333,4,2,77,87,0,0
114974,-83.3333333333333,4,2,77,5,0,0
115050,-83.3333333333333,4,2,77,87,0,0
115124,-83.3333333333333,4,2,77,5,0,0
115200,-83.3333333333333,4,2,77,87,0,0
115274,-83.3333333333333,4,2,77,5,0,0
115350,-40,4,2,77,87,0,0
115725,-40,4,2,77,5,0,0
115800,-40,4,2,77,87,0,0
115950,-83.3333333333333,4,2,77,87,0,0
117824,-83.3333333333333,4,2,77,5,0,0
117900,-83.3333333333333,4,2,77,87,0,0
117974,-83.3333333333333,4,2,77,5,0,0
118050,-83.3333333333333,4,2,77,87,0,0
118124,-83.3333333333333,4,2,77,5,0,0
118200,-83.3333333333333,4,2,77,87,0,0
118274,-83.3333333333333,4,2,77,5,0,0
118350,-83.3333333333333,4,2,77,87,0,0
118424,-83.3333333333333,4,2,77,5,0,0
118500,-83.3333333333333,4,2,77,87,0,0
118574,-83.3333333333333,4,2,77,5,0,0
118650,-83.3333333333333,4,2,77,87,0,0
118724,-83.3333333333333,4,2,77,5,0,0
118800,-83.3333333333333,4,2,77,87,0,0
118874,-83.3333333333333,4,2,77,5,0,0
118950,-83.3333333333333,4,2,77,87,0,0
119774,-83.3333333333333,4,2,77,5,0,0
119850,-83.3333333333333,4,2,77,87,0,0
119924,-83.3333333333333,4,2,77,5,0,0
120000,-83.3333333333333,4,2,77,87,0,0
120074,-83.3333333333333,4,2,77,5,0,0
120150,-133.333333333333,4,2,77,77,0,0
120825,-133.333333333333,4,2,77,5,0,0
120900,-133.333333333333,4,2,77,77,0,0
122625,-133.333333333333,4,2,77,5,0,0
122700,-133.333333333333,4,2,77,77,0,0
123825,-133.333333333333,4,2,77,5,0,0
123900,-133.333333333333,4,2,77,77,0,0
125625,-133.333333333333,4,2,77,5,0,0
125700,-133.333333333333,4,2,77,77,0,0
127425,-133.333333333333,4,2,77,5,0,0
127500,-133.333333333333,4,2,77,77,0,0
128625,-133.333333333333,4,2,77,5,0,0
128700,-133.333333333333,4,2,77,77,0,0
129750,-100,4,2,77,77,0,0
130425,-100,4,2,77,5,0,0
130500,-100,4,2,77,77,0,0
132225,-100,4,2,77,5,0,0
132300,-100,4,2,77,77,0,0
133425,-100,4,2,77,5,0,0
133500,-100,4,2,77,77,0,0
135225,-100,4,2,77,5,0,0
135300,-100,4,2,77,77,0,0
136950,-100,4,2,77,67,0,0
137100,-333.333333333333,4,2,77,67,0,0
139350,-66.6666666666667,4,2,77,77,0,0
139950,-100,4,2,77,77,0,0
141450,-500,4,2,77,77,0,0
141675,-500,4,2,77,5,0,0
141750,-66.6666666666667,4,2,77,77,0,0
142350,-100,4,2,77,77,0,0
143850,-50,4,2,77,77,0,0
144150,-66.6666666666667,4,2,77,77,0,0
144750,-100,4,2,77,77,0,0
146250,-500,4,2,77,77,0,0
146475,-500,4,2,77,5,0,0
146550,-66.6666666666667,4,2,77,77,0,0
147150,-100,4,2,77,77,0,0
148650,-50,4,2,77,77,0,0
148950,-66.6666666666667,4,2,77,77,0,0
149550,-100,4,2,77,77,0,0
151050,-500,4,2,77,77,0,0
151275,-500,4,2,77,5,0,0
151350,-66.6666666666667,4,2,77,77,0,0
151950,-100,4,2,77,77,0,0
153450,-50,4,2,77,77,0,0
153750,-66.6666666666667,4,2,77,77,0,0
154350,-100,4,2,77,77,0,0
155850,-500,4,2,77,77,0,0
156075,-500,4,2,77,5,0,0
156150,-66.6666666666667,4,2,77,77,0,0
156750,-50,4,2,77,77,0,0
156975,-50,4,2,77,5,0,0
157050,-50,4,2,77,77,0,0
157275,-50,4,2,77,5,0,0
157350,-50,4,2,77,77,0,0

[Colours]
Combo1 : 191,191,255
Combo2 : 255,191,223

[HitObjects]
363,195,150,6,0,B|358:126|431:115|427:144|492:139|491:54,1,207.750007925034,10|8,1:0|0:1,0:0:0:0:
432,7,600,1,0,0:0:0:0:
500,204,750,6,0,P|452:186|439:141,1,69.25,8|0,0:1|0:0,0:0:0:0:
360,113,1050,2,0,P|351:63|383:29,1,69.25,8|0,0:1|0:0,0:0:0:0:
425,267,1350,6,0,P|379:278|345:293,1,69.25,10|0,1:1|0:0,0:0:0:0:
231,222,1650,2,0,P|198:234|164:241,1,69.25,8|0,0:1|1:0,0:0:0:0:
24,355,1950,1,8,0:1:0:0:
24,355,2100,1,0,0:0:0:0:
89,295,2250,2,0,P|84:283|82:271,1,20.775,8|0,0:1|2:0,0:0:0:0:
12,210,2550,6,0,B|-16:145|42:112|60:148|110:101|83:32,1,207.750007925034,10|8,1:0|1:0,0:0:0:0:
11,9,3000,1,0,0:0:0:0:
176,112,3150,6,0,P|143:124|109:131,1,69.25,8|0,0:1|0:0,0:0:0:0:
161,384,3450,2,0,P|193:371|227:364,1,69.25,8|0,0:1|0:0,0:0:0:0:
491,364,3750,6,0,P|475:292|400:278,1,138.5,10|8,1:0|0:1,0:0:0:0:
164,241,4200,6,0,P|234:263|283:205,1,138.5,2|0,1:0|0:0,0:0:0:0:
434,19,4650,2,0,P|379:68|405:140,1,138.5,8|0,1:0|0:0,0:0:0:0:
398,380,4950,6,0,B|435:332|390:278|364:309|326:251|368:190,1,207.750007925034,10|8,1:0|0:1,0:0:0:0:
442,184,5400,1,0,0:0:0:0:
293,349,5550,6,0,P|315:308|350:298,1,69.25,8|0,0:1|0:0,0:0:0:0:
164,241,5850,2,0,P|137:202|101:197,1,69.25,8|0,0:1|0:0,0:0:0:0:
102,363,6150,6,0,P|136:352|169:344,1,69.25,10|0,1:1|0:0,0:0:0:0:
295,129,6450,2,0,P|261:139|228:147,1,69.25,8|0,0:1|1:0,0:0:0:0:
0,147,6750,1,8,0:1:0:0:
0,147,6900,1,0,0:0:0:0:
64,85,7050,2,0,L|70:109,1,20.775,8|0,0:1|2:0,0:0:0:0:
33,225,7350,6,0,B|107:219|116:288|87:287|113:348|177:343,1,207.750007925034,10|8,1:0|1:0,0:0:0:0:
245,297,7800,1,0,0:0:0:0:
14,356,7950,6,0,P|34:312|71:305,1,69.25,8|0,0:1|0:0,0:0:0:0:
116,223,8250,2,0,P|164:218|188:246,1,69.25,8|0,0:1|0:0,0:0:0:0:
327,374,8550,6,0,P|334:313|347:215,1,138.5,10|8,0:1|0:1,0:0:0:0:
405,352,9000,6,0,P|412:291|425:193,1,138.5,2|0,0:0|0:0,0:0:0:0:
484,335,9450,2,0,P|491:274|504:176,1,138.5,8|0,1:0|0:0,0:0:0:0:
500,12,9750,6,0,B|369:55|474:110|300:147,1,207.75,10|8,1:0|0:1,0:0:0:0:
267,123,10200,1,0,0:0:0:0:
189,229,10350,6,0,P|227:214|267:205,1,69.25,8|0,0:1|1:0,0:0:0:0:
355,19,10650,2,0,P|317:34|277:43,1,69.25,8|0,0:1|0:0,0:0:0:0:
21,109,10950,6,0,P|59:109|86:130,1,69.25,10|0,1:0|0:0,0:0:0:0:
179,160,11250,2,0,P|197:194|193:227,1,69.25,8|0,0:1|1:0,0:0:0:0:
235,328,11550,1,8,0:1:0:0:
235,328,11700,1,0,0:0:0:0:
150,366,11850,2,0,L|142:345,1,20.775,8|0,1:0|2:0,0:0:0:0:
277,250,12150,6,0,B|401:272|313:338|457:360,1,207.750007925034,10|8,1:0|0:1,0:0:0:0:
488,279,12600,1,0,0:0:0:0:
325,384,12750,6,0,P|332:348|345:308,1,69.25,8|0,0:1|1:0,0:0:0:0:
179,160,13050,2,0,P|172:124|159:84,1,69.25,8|0,0:1|0:0,0:0:0:0:
338,49,13350,6,0,P|353:113|309:163,1,138.5,10|8,1:0|0:1,0:0:0:0:
259,336,13800,6,0,P|195:317|174:254,1,138.5,0|0,1:0|0:0,0:0:0:0:
49,124,14250,2,0,P|97:77|162:91,1,138.5,8|0,1:0|0:0,0:0:0:0:
502,71,14550,6,0,B|530:134|459:178|452:149|393:177|426:266,1,207.750007925034,10|8,1:0|0:1,0:0:0:0:
494,276,15000,1,0,0:0:0:0:
421,126,15150,6,0,P|400:99|368:90,1,69.25,8|0,0:1|1:0,0:0:0:0:
270,34,15450,2,0,P|306:6|346:13,1,69.25,8|0,0:1|0:0,0:0:0:0:
202,114,15750,6,0,P|184:61|168:27,1,69.25,10|0,1:0|0:0,0:0:0:0:
311,285,16050,2,0,P|329:232|345:198,1,69.25,8|0,0:1|1:0,0:0:0:0:
217,341,16350,1,8,0:1:0:0:
217,341,16500,1,0,0:0:0:0:
301,383,16650,2,0,L|296:360,1,20.775,8|0,1:0|2:0,0:0:0:0:
131,324,16950,6,0,P|98:245|184:282,1,207.750007925034,10|10,1:0|1:0,0:0:0:0:
217,341,17400,1,2,0:0:0:0:
397,147,17550,6,0,P|481:133|447:211,1,207.750007925034,10|0,1:0|2:0,0:0:0:0:
458,291,17850,2,0,P|395:232|380:316,1,207.750007925034,10|0,1:0|2:0,0:0:0:0:
441,372,18150,1,10,1:0:0:0:
273,177,18300,1,0,1:0:0:0:
273,177,18450,1,8,1:0:0:0:
327,112,18600,1,0,1:0:0:0:
324,101,18675,1,0,0:0:0:0:
320,90,18750,5,10,1:0:0:0:
149,41,18900,1,0,1:0:0:0:
100,211,19050,1,8,1:0:0:0:
271,260,19200,1,0,1:0:0:0:
271,260,19350,1,2,1:0:0:0:
256,192,19650,12,0,22950,0:0:0:0:
50,356,23550,6,0,B|35:318|63:329|50:282,1,72.7124977809907,4|0,1:3|2:0,0:0:0:0:
27,174,24150,6,0,B|-38:161|-26:62|74:52|94:130|94:130|115:209|169:215|208:169,1,346.25,2|0,1:0|2:0,0:0:0:0:
185,188,24600,1,0,1:0:0:0:
257,82,24750,2,0,P|225:98|193:109,1,69.25,10|0,0:0|0:0,0:0:0:0:
133,313,25050,2,0,P|164:297|196:286,1,69.25,2|0,1:0|0:0,0:0:0:0:
401,308,25350,6,0,B|423:364|339:401|275:322|348:244|348:244|407:239|408:157,1,277,2|2,1:0|1:0,0:0:0:0:
333,165,25800,1,0,0:0:0:0:
264,230,25950,5,10,0:0:0:0:
390,101,26100,1,0,0:0:0:0:
264,230,26250,1,0,0:0:0:0:
390,101,26400,1,0,1:0:0:0:
135,8,26550,6,0,B|98:-20|46:27|65:97|141:92|141:92|220:84|242:154|184:207|143:159,1,346.25,2|0,1:0|2:0,0:0:0:0:
161,173,27000,1,0,1:0:0:0:
11,151,27150,2,0,P|65:160|103:168,1,69.25,10|0,0:0|0:0,0:0:0:0:
322,207,27450,2,0,P|268:198|230:190,1,69.25,2|0,1:0|0:0,0:0:0:0:
377,268,27750,6,0,B|416:236|402:189|402:189|501:296|370:370,1,277,2|2,1:0|1:0,0:0:0:0:
255,289,28200,1,0,0:0:0:0:
96,282,28350,2,0,B|36:245|-16:350|54:392|133:342|133:342|160:326|190:348,1,277,10|0,0:0|0:0,0:0:0:0:
255,289,28800,1,0,1:0:0:0:
237,123,28950,6,0,B|216:44|216:44|243:-3|288:36|288:36|313:135|313:135|295:179|340:233,1,346.25,2|0,1:0|2:0,0:0:0:0:
321,206,29400,1,0,1:0:0:0:
457,114,29550,2,0,P|423:106|389:100,1,69.25,10|0,0:0|0:0,0:0:0:0:
120,215,29850,2,0,P|86:207|52:201,1,69.25,2|0,1:0|0:0,0:0:0:0:
58,123,30150,6,0,P|40:46|114:106,1,207.75,0|0,1:0|2:0,0:0:0:0:
130,83,30450,2,0,P|107:33|29:46,1,138.5,2|0,1:0|0:0,0:0:0:0:
38,276,30750,6,0,P|72:282|105:289,1,69.25,10|0,0:0|0:0,0:0:0:0:
459,260,31350,6,0,B|504:364|386:398|342:305|393:207|393:207|434:129|360:94,1,415.5,2|0,1:0|0:0,0:0:0:0:
171,150,33000,5,0,1:0:0:0:
278,85,33150,5,0,1:0:0:0:
107,36,33300,1,0,1:0:0:0:
58,206,33450,1,0,1:0:0:0:
229,255,33600,1,0,1:0:0:0:
409,233,33750,6,0,B|512:212|424:40|290:140|309:263|309:263|317:352|202:374|178:257|250:238,1,519.375,2|0,1:0|1:0,0:0:0:0:
342,299,34350,2,0,P|375:314|398:329,1,51.9375019812585,10|0,0:0|0:0,0:0:0:0:
494,381,34650,1,2,1:0:0:0:
494,381,34800,1,0,0:0:0:0:
148,332,34950,6,0,B|123:290|88:304|88:304|17:325|-21:205|59:188|76:192,1,259.6875,2|0,1:0|2:0,0:0:0:0:
248,232,35250,2,0,B|233:186|267:169|267:169|330:130|267:21|200:70|192:85,1,259.6875,2|0,1:0|2:0,0:0:0:0:
142,150,35550,2,0,L|156:198,1,34.625,10|0,0:0|2:0,0:0:0:0:
470,12,35850,5,2,0:0:0:0:
344,120,36000,1,0,1:0:0:0:
425,266,36150,6,0,B|412:354|307:330|313:240|393:187|393:187|446:150|416:86,1,346.25,2|2,1:0|0:0,0:0:0:0:
354,0,36600,1,0,1:0:0:0:
194,81,36750,2,0,P|246:60|270:40,1,69.25,10|0,0:0|0:0,0:0:0:0:
354,0,37050,1,2,1:0:0:0:
354,0,37200,1,0,0:0:0:0:
93,72,37350,6,0,P|36:170|126:101,1,259.6875,2|0,1:0|2:0,0:0:0:0:
272,222,37650,2,0,P|328:320|238:251,1,259.6875,2|0,1:0|2:0,0:0:0:0:
134,358,37950,6,0,P|141:322|162:248,1,103.875003962517,10|0,0:0|0:0,0:0:0:0:
330,17,38550,6,0,B|343:35|343:35|453:57|453:57|470:109|433:143|433:143|210:98|210:98|170:92|147:128,1,519.375,2|0,1:0|1:0,0:0:0:0:
211,176,39150,1,2,0:0:0:0:
211,176,39300,1,0,0:0:0:0:
139,201,39450,1,2,1:0:0:0:
139,201,39600,1,0,0:0:0:0:
274,311,39750,6,0,B|424:232|424:232|472:208|507:268,1,259.6875,2|0,1:0|2:0,0:0:0:0:
499,266,40050,2,0,B|469:216|421:240|421:240|273:317,1,259.6875,2|0,0:0|2:0,0:0:0:0:
219,378,40350,1,2,0:0:0:0:
219,378,40500,1,0,0:0:0:0:
23,271,40650,6,0,P|2:255|22:274,1,86.5625,10|0,1:2|2:0,0:0:0:0:
493,26,40950,5,0,1:0:0:0:
392,127,41250,2,0,P|424:109|460:95,1,69.25,2|0,0:0|1:0,0:0:0:0:
411,20,41550,2,0,P|378:33|348:50,1,69.25,2|0,0:0|0:0,0:0:0:0:
306,122,41850,1,2,1:0:0:0:
135,154,42150,6,0,B|59:124|87:16|216:33|220:132|220:132|225:181|272:198,1,346.25,2|0,1:0|0:0,0:0:0:0:
347,195,42600,1,0,1:0:0:0:
303,272,42750,5,8,1:0:0:0:
306,122,42900,1,8,1:3:0:0:
427,199,43050,1,8,1:3:0:0:
347,195,43200,1,12,1:3:0:0:
385,349,43350,6,0,P|290:306|188:286,2,207.75,6|0|0,1:2|1:0|1:0,0:0:0:0:
8,109,44550,6,0,P|102:66|204:46,2,207.75,0|0|0,1:0|1:0|1:0,0:0:0:0:
418,270,45750,6,0,P|323:227|221:207,2,207.75,2|0|8,1:0|1:0|1:1,0:0:0:0:
34,192,46950,6,0,P|128:149|230:129,2,207.75,0|0|8,1:0|1:0|1:0,0:0:0:0:
36,378,48150,5,2,1:0:0:0:
27,371,48300,1,0,1:0:0:0:
22,358,48450,1,0,1:0:0:0:
25,340,48600,1,2,1:0:0:0:
41,316,48750,1,0,1:0:0:0:
81,298,48900,1,0,1:0:0:0:
134,300,49050,1,2,1:0:0:0:
195,314,49200,1,0,1:0:0:0:
265,306,49350,5,2,1:0:0:0:
325,256,49500,1,0,1:0:0:0:
360,182,49650,1,0,1:0:0:0:
338,93,49800,1,2,1:0:0:0:
242,42,49950,1,0,1:0:0:0:
126,78,50100,1,0,1:0:0:0:
94,206,50250,1,2,1:0:0:0:
192,326,50400,1,0,1:0:0:0:
464,328,50550,5,2,1:0:0:0:
452,322,50625,1,0,1:0:0:0:
436,319,50700,1,0,1:0:0:0:
420,323,50775,1,0,1:0:0:0:
412,330,50850,2,0,L|401:376,3,34.625,0|0|2|0,1:0|1:0|1:0|1:0,0:0:0:0:
492,221,51150,2,0,L|483:187,3,34.625,0|0|0|0,1:0|1:0|1:0|1:0,0:0:0:0:
425,122,51450,5,2,1:0:0:0:
430,104,51525,1,0,1:0:0:0:
443,85,51600,1,0,1:0:0:0:
458,73,51675,1,0,1:0:0:0:
476,68,51750,1,0,1:0:0:0:
476,68,52950,6,0,B|532:34|478:-73|354:-10|401:102|401:102|429:164|359:215|296:150|331:103,1,432.8125,2|0,1:0|2:0,0:0:0:0:
323,119,53400,1,0,1:0:0:0:
489,178,53550,6,0,P|459:207|441:244,1,83.0999974639893,2|0,0:0|0:0,0:0:0:0:
227,126,53850,2,0,P|200:80|195:31,1,83.0999974639893,2|0,0:0|0:0,0:0:0:0:
279,211,54150,6,0,L|171:244,1,83.0999974639893,2|0,0:0|0:0,0:0:0:0:
409,336,54450,2,0,L|517:369,1,83.0999974639893,2|0,0:0|0:0,0:0:0:0:
339,277,54750,5,10,0:0:0:0:
224,376,54900,1,0,0:0:0:0:
226,361,54975,1,0,0:0:0:0:
229,345,55050,1,2,1:0:0:0:
18,71,55200,1,0,0:0:0:0:
21,87,55275,1,0,0:0:0:0:
25,101,55350,6,0,P|102:179|64:19,1,432.8125,2|0,1:0|2:0,0:0:0:0:
82,9,55800,1,0,1:0:0:0:
234,109,55950,6,0,P|269:81|288:12,1,83.0999974639893,2|0,0:0|0:0,0:0:0:0:
123,236,56250,2,0,P|129:280|180:331,1,83.0999974639893,2|0,0:0|0:0,0:0:0:0:
290,234,56550,6,0,L|182:267,1,83.0999974639893,2|0,0:0|0:0,0:0:0:0:
0,384,56850,2,0,L|79:359,1,83.0999974639893,2|0,0:0|0:0,0:0:0:0:
500,246,57150,1,10,0:0:0:0:
496,360,57300,6,0,P|466:336|462:310,1,41.5499987319947,2|0,0:0|2:0,0:0:0:0:
382,304,57450,2,0,P|387:266|408:249,1,41.5499987319947,2|0,1:0|2:0,0:0:0:0:
381,167,57600,2,0,P|416:153|441:162,1,41.5499987319947,2|0,0:0|2:0,0:0:0:0:
302,90,57750,6,0,B|253:-3|253:-3|190:-19|178:50|178:50|239:167|239:167|294:193|298:284,1,432.8125,2|0,1:0|2:0,0:0:0:0:
290,234,58200,1,0,1:0:0:0:
189,331,58350,6,0,P|192:274|235:249,1,83.0999974639893,2|0,0:0|0:0,0:0:0:0:
382,304,58650,2,0,P|330:328|288:304,1,83.0999974639893,2|0,0:0|0:0,0:0:0:0:
55,181,58950,6,0,L|134:156,1,83.0999974639893,2|0,0:0|0:0,0:0:0:0:
381,167,59250,2,0,L|460:142,1,83.0999974639893,2|0,0:0|0:0,0:0:0:0:
64,91,59550,1,10,0:0:0:0:
69,210,59700,5,0,0:0:0:0:
62,193,59775,1,0,0:0:0:0:
55,181,59850,1,2,1:0:0:0:
282,308,60000,1,0,0:0:0:0:
275,320,60075,1,0,0:0:0:0:
269,332,60150,6,0,B|282:420|432:353|353:235|247:245|247:245|171:248|158:149|258:134|271:196,1,432.8125,2|0,1:0|2:0,0:0:0:0:
243,164,60600,1,0,1:0:0:0:
136,294,60750,6,0,P|182:284|213:249,1,83.0999974639893,2|0,0:0|0:0,0:0:0:0:
446,211,61050,2,0,P|414:176|368:166,1,83.0999974639893,2|0,0:0|0:0,0:0:0:0:
227,82,61350,6,0,L|247:186,1,83.0999974639893,2|0,0:0|0:0,0:0:0:0:
447,382,61650,2,0,L|431:300,1,83.0999974639893,2|0,0:0|0:0,0:0:0:0:
379,10,61950,1,10,0:0:0:0:
463,62,62100,6,0,L|411:82,1,41.5499987319947,2|0,0:0|2:0,0:0:0:0:
348,92,62250,2,0,L|296:72,1,41.5499987319947,2|0,1:0|2:0,0:0:0:0:
227,82,62400,2,0,L|175:102,1,41.5499987319947,2|0,0:0|2:0,0:0:0:0:
83,86,62550,6,0,B|118:-7|-58:-13|-56:135|2:190|65:200|65:200|129:210|124:288,1,432.8125,2|0,1:0|2:0,0:0:0:0:
124,273,63000,1,0,1:0:0:0:
36,372,63150,6,0,L|19:320,1,41.5499987319947,10|0,0:0|2:0,0:0:0:0:
215,261,63450,2,0,P|219:291|177:347,1,83.0999974639893,2|0,0:0|0:0,0:0:0:0:
174,177,63750,6,0,L|276:157,1,83.0999974639893,2|0,0:0|0:0,0:0:0:0:
511,240,64050,2,0,L|429:255,1,83.0999974639893,2|0,1:0|0:0,0:0:0:0:
255,161,64350,6,0,L|238:109,1,41.5499987319947,10|0,0:0|2:0,0:0:0:0:
221,51,64500,1,0,0:0:0:0:
214,33,64575,1,0,0:0:0:0:
207,13,64650,1,2,1:0:0:0:
361,195,64800,1,0,0:0:0:0:
354,215,64875,1,0,0:0:0:0:
348,231,64950,6,0,P|367:344|420:193,1,432.8125,2|0,1:0|2:0,0:0:0:0:
431,194,65400,1,0,1:0:0:0:
269,374,65550,6,0,L|252:322,1,41.5499987319947,10|0,0:0|2:0,0:0:0:0:
231,180,65850,2,0,P|209:234|161:248,1,83.0999974639893,2|0,0:0|0:0,0:0:0:0:
26,159,66150,6,0,L|113:131,1,83.0999974639893,2|0,0:0|0:0,0:0:0:0:
249,42,66450,2,0,L|336:14,1,83.0999974639893,2|0,1:0|0:0,0:0:0:0:
498,111,66750,6,0,L|481:59,1,41.5499987319947,8|0,0:0|2:0,0:0:0:0:
406,69,66900,6,0,P|391:90|387:118,1,41.5499987319947,2|0,0:0|2:0,0:0:0:0:
339,161,67050,2,0,P|347:195|362:211,1,41.5499987319947,2|0,1:0|2:0,0:0:0:0:
376,276,67200,2,0,P|406:289|441:284,1,41.5499987319947,2|0,0:0|2:0,0:0:0:0:
503,210,67350,6,0,P|369:239|65:345,1,432.8125,2|0,1:0|2:0,0:0:0:0:
89,334,67800,1,0,1:0:0:0:
214,381,67950,6,0,L|197:329,1,41.5499987319947,10|0,0:0|2:0,0:0:0:0:
27,207,68250,2,0,P|77:209|116:252,1,83.0999974639893,2|0,0:0|0:0,0:0:0:0:
10,380,68550,6,0,L|-18:284,1,83.0999974639893,2|0,0:0|0:0,0:0:0:0:
184,197,68850,2,0,L|156:101,1,83.0999974639893,2|0,1:0|0:0,0:0:0:0:
12,47,69150,6,0,L|-5:-5,1,41.5499987319947,10|0,0:0|2:0,0:0:0:0:
119,23,69300,5,0,0:0:0:0:
106,30,69375,1,0,0:0:0:0:
94,34,69450,1,2,1:0:0:0:
264,149,69600,1,0,0:0:0:0:
276,145,69675,1,0,0:0:0:0:
293,139,69750,6,0,B|273:51|406:24|442:160|358:196|358:196|308:220|296:300|362:325|412:289,1,432.8125,2|0,1:0|2:0,0:0:0:0:
383,301,70200,1,0,1:0:0:0:
486,234,70350,6,0,L|469:182,1,41.5499987319947,10|0,0:0|2:0,0:0:0:0:
300,307,70650,2,0,P|245:328|239:379,1,83.0999974639893,2|0,0:0|0:0,0:0:0:0:
464,319,70950,6,0,L|355:295,1,83.0999974639893,2|0,0:0|0:0,0:0:0:0:
62,331,71250,2,0,L|144:349,1,83.0999974639893,2|0,1:0|0:0,0:0:0:0:
247,12,71700,6,0,P|232:38|216:55,1,41.5499987319947,2|0,0:0|2:0,0:0:0:0:
291,93,71850,2,0,P|312:126|340:141,1,41.5499987319947,2|0,1:0|2:0,0:0:0:0:
217,194,72000,2,0,P|202:223|189:236,1,41.5499987319947,2|0,0:0|2:0,0:0:0:0:
256,375,72150,5,2,1:0:0:0:
459,122,72600,1,0,0:0:0:0:
407,53,72750,2,0,P|441:43|473:31,1,69.25,10|0,0:0|0:0,0:0:0:0:
512,191,73050,2,0,P|478:200|446:212,1,69.25,2|0,1:0|0:0,0:0:0:0:
459,122,73350,5,2,0:0:0:0:
420,318,73650,1,2,1:0:0:0:
355,250,73800,1,0,0:0:0:0:
376,154,73950,1,10,0:0:0:0:
101,317,74250,1,0,0:0:0:0:
101,317,74400,1,0,1:0:0:0:
1,344,74550,6,0,P|14:284|22:209,1,69.25,2|0,1:0|0:0,0:0:0:0:
176,222,74850,2,0,P|163:162|155:87,1,69.25,2|0,0:0|0:0,0:0:0:0:
141,9,75150,1,10,0:0:0:0:
141,9,75300,1,0,0:0:0:0:
79,83,75450,1,2,1:0:0:0:
79,83,75600,1,0,0:0:0:0:
251,260,75750,6,0,P|230:285|187:300,1,69.25,2|0,0:0|0:0,0:0:0:0:
258,169,76050,2,0,P|290:174|324:204,1,69.25,2|0,1:0|0:0,0:0:0:0:
361,364,76350,6,0,B|370:308|390:332|407:268,1,103.875,10|0,0:0|1:0,0:0:0:0:
469,221,76950,2,0,L|452:157,1,62.324998097992,2|0,1:0|0:0,0:0:0:0:
462,71,77550,6,0,P|417:84|369:94,1,69.25,10|0,0:0|0:0,0:0:0:0:
446,314,77850,2,0,P|491:301|539:291,1,69.25,2|0,1:0|0:0,0:0:0:0:
388,255,78150,1,2,0:0:0:0:
344,321,78300,1,0,0:0:0:0:
264,340,78450,1,2,1:0:0:0:
189,309,78600,1,0,0:0:0:0:
116,364,78750,6,0,P|101:320|82:276,1,69.25,10|0,0:0|0:0,0:0:0:0:
279,171,79050,2,0,P|294:127|313:83,1,69.25,2|0,0:0|1:0,0:0:0:0:
165,93,79350,6,0,P|28:28|121:154,1,415.5,2|0,1:0|0:0,0:0:0:0:
403,144,81000,5,0,1:0:0:0:
325,177,81150,5,0,1:0:0:0:
413,63,81300,1,0,1:0:0:0:
463,203,81450,1,0,1:0:0:0:
403,144,81600,1,0,1:0:0:0:
87,244,81750,6,0,B|-16:223|72:51|206:151|187:274|187:274|172:362|294:385|318:268|246:249,1,519.375,2|0,1:0|1:0,0:0:0:0:
165,308,82350,2,0,P|136:322|107:340,1,51.9375019812585,10|0,0:0|0:0,0:0:0:0:
1,378,82650,1,2,1:0:0:0:
1,378,82800,1,0,0:0:0:0:
325,177,82950,6,0,B|327:82|415:80|410:116|491:91|493:10,1,259.6875,2|0,1:0|2:0,0:0:0:0:
388,19,83250,2,0,B|351:85|409:147|423:112|499:159|453:242,1,259.6875,2|0,1:0|2:0,0:0:0:0:
361,281,83550,2,0,L|375:240,1,34.625,10|0,0:0|2:0,0:0:0:0:
329,368,83850,5,2,0:0:0:0:
180,208,84000,1,0,1:0:0:0:
235,361,84150,6,0,B|213:241|213:241|205:194|254:183|246:137|246:137|220:4,1,346.25,2|2,1:0|0:0,0:0:0:0:
85,13,84600,1,0,1:0:0:0:
71,110,84750,2,0,P|131:86|161:82,1,69.25,10|0,0:0|0:0,0:0:0:0:
381,3,85050,2,0,P|321:27|291:31,1,69.25,2|0,1:0|0:0,0:0:0:0:
40,244,85350,6,0,P|102:273|114:307,1,86.5625,2|0,1:0|2:0,0:0:0:0:
60,346,85500,2,0,P|151:311|245:291,1,173.125,0|2,0:0|1:0,0:0:0:0:
459,349,85800,1,0,0:0:0:0:
358,382,85950,6,0,B|340:319|377:341|356:258,1,103.875003962517,10|0,0:0|0:0,0:0:0:0:
422,46,86550,6,0,B|486:-26|607:63|508:202|384:129|384:129|303:77|301:191|177:97,1,519.375,2|0,1:0|1:0,0:0:0:0:
262,60,87150,1,2,0:0:0:0:
262,60,87300,1,0,0:0:0:0:
347,194,87450,1,2,1:0:0:0:
347,194,87600,1,0,0:0:0:0:
149,265,87750,6,0,P|128:163|74:-39,1,259.6875,2|0,1:0|2:0,0:0:0:0:
82,13,88050,2,0,P|114:138|141:265,1,259.6875,2|0,0:0|2:0,0:0:0:0:
166,346,88350,1,2,0:0:0:0:
166,346,88500,1,0,0:0:0:0:
23,271,88650,6,0,P|2:255|22:274,1,86.5625,10|0,1:2|2:0,0:0:0:0:
412,128,88950,5,0,1:0:0:0:
344,191,89250,2,0,P|330:143|313:105,1,69.25,2|0,0:0|1:0,0:0:0:0:
484,77,89550,2,0,P|498:125|515:163,1,69.25,2|0,0:0|0:0,0:0:0:0:
412,128,89850,1,2,1:0:0:0:
293,290,90150,6,0,B|326:379|223:408|185:328|229:243|229:243|265:175|201:144,1,346.25,2|0,1:0|0:0,0:0:0:0:
77,79,90600,1,0,1:0:0:0:
55,160,90750,5,8,1:0:0:0:
159,60,90900,1,8,1:3:0:0:
19,14,91050,1,8,1:3:0:0:
77,79,91200,1,8,1:3:0:0:
0,220,91350,6,0,P|77:298|122:387,2,207.75,2|0|0,1:0|1:0|1:0,0:0:0:0:
512,164,92550,6,0,P|435:86|390:-3,2,207.75,0|0|0,1:0|1:0|1:0,0:0:0:0:
215,323,93750,6,0,P|138:245|93:156,2,207.75,2|0|8,1:0|1:0|1:0,0:0:0:0:
280,47,94950,6,0,P|357:125|402:214,2,207.75,0|0|8,1:0|1:0|1:0,0:0:0:0:
455,381,96150,5,2,1:0:0:0:
464,374,96300,1,0,1:0:0:0:
469,361,96450,1,0,1:0:0:0:
466,343,96600,1,2,1:0:0:0:
450,319,96750,1,0,1:0:0:0:
410,301,96900,1,0,1:0:0:0:
357,303,97050,1,2,1:0:0:0:
296,317,97200,1,0,1:0:0:0:
226,309,97350,5,2,1:0:0:0:
166,259,97500,1,0,1:0:0:0:
131,185,97650,1,0,1:0:0:0:
153,96,97800,1,2,1:0:0:0:
249,45,97950,1,0,1:0:0:0:
365,81,98100,1,0,1:0:0:0:
397,209,98250,1,2,1:0:0:0:
299,329,98400,1,0,1:0:0:0:
48,328,98550,5,2,1:0:0:0:
60,322,98625,1,0,1:0:0:0:
76,319,98700,1,0,1:0:0:0:
92,323,98775,1,0,1:0:0:0:
100,330,98850,2,0,L|111:376,3,34.625,0|0|2|0,1:0|1:0|1:0|1:0,0:0:0:0:
20,221,99150,2,0,L|29:187,3,34.625,0|0|0|0,1:0|1:0|1:0|1:0,0:0:0:0:
87,122,99450,5,2,1:0:0:0:
82,104,99525,1,0,1:0:0:0:
69,85,99600,1,0,1:0:0:0:
54,73,99675,1,0,1:0:0:0:
36,68,99750,1,0,1:0:0:0:
141,314,100950,6,0,B|152:395|268:395|296:224|129:207|129:207|55:194|47:141,1,432.8125,2|0,1:0|2:0,0:0:0:0:
47,142,101400,1,0,1:0:0:0:
161,103,101550,6,0,P|168:165|150:191,1,83.0999974639893,2|0,0:0|0:0,0:0:0:0:
68,271,101850,2,0,P|17:308|-13:305,1,83.0999974639893,2|0,1:0|0:0,0:0:0:0:
3,64,102150,6,0,P|52:54|98:41,1,83.0999974639893,2|0,0:0|0:0,0:0:0:0:
257,167,102450,2,0,P|297:156|337:148,1,83.0999974639893,2|0,0:0|0:0,0:0:0:0:
502,32,102750,1,10,0:0:0:0:
401,7,102900,5,0,0:0:0:0:
405,25,102975,1,0,0:0:0:0:
409,43,103050,1,2,1:0:0:0:
488,165,103200,1,0,0:0:0:0:
492,183,103275,1,0,0:0:0:0:
492,199,103350,6,0,B|406:145|337:250|337:250|446:254|446:375|360:415|298:341,1,432.8125,2|0,1:0|2:0,0:0:0:0:
319,361,103800,1,0,1:0:0:0:
511,371,103950,6,0,P|459:336|430:336,1,83.0999974639893,2|0,0:0|0:0,0:0:0:0:
195,328,104250,2,0,P|217:293|254:275,1,83.0999974639893,2|0,0:0|1:0,0:0:0:0:
116,384,104550,6,0,P|103:334|90:290,1,83.0999974639893,2|0,0:0|0:0,0:0:0:0:
282,192,104850,2,0,P|295:142|308:98,1,83.0999974639893,2|0,0:0|0:0,0:0:0:0:
165,2,105150,1,10,0:0:0:0:
93,50,105300,6,0,P|116:69|123:91,1,41.5499987319947,2|0,0:0|2:0,0:0:0:0:
174,133,105450,2,0,P|172:171|161:189,1,41.5499987319947,2|0,1:0|2:0,0:0:0:0:
155,245,105600,2,0,P|131:257|101:254,1,41.5499987319947,2|0,0:0|2:0,0:0:0:0:
26,182,105750,6,0,P|139:209|439:314,1,432.8125,2|0,1:0|2:0,0:0:0:0:
437,313,106200,1,0,1:0:0:0:
302,356,106350,6,0,P|267:334|253:295,1,83.0999974639893,2|0,0:0|0:0,0:0:0:0:
410,158,106650,2,0,P|408:198|382:229,1,83.0999974639893,2|0,1:0|0:0,0:0:0:0:
174,133,106950,6,0,P|235:153|267:164,1,83.0999974639893,2|0,0:0|0:0,0:0:0:0:
489,181,107250,2,0,P|444:167|381:151,1,83.0999974639893,2|0,0:0|0:0,0:0:0:0:
93,50,107550,1,10,0:0:0:0:
23,106,107700,5,0,0:0:0:0:
36,113,107775,1,0,0:0:0:0:
49,120,107850,1,2,1:0:0:0:
185,35,108000,1,0,0:0:0:0:
198,28,108075,1,0,0:0:0:0:
213,20,108150,6,0,B|284:-13|345:78|303:156|218:128|218:128|162:116|138:179|161:244|236:222,1,432.8125,2|0,1:0|2:0,0:0:0:0:
230,223,108600,1,0,1:0:0:0:
325,300,108750,6,0,P|334:247|316:218,1,83.0999974639893,2|0,0:0|0:0,0:0:0:0:
334,102,109050,2,0,P|374:107|402:136,1,83.0999974639893,2|0,0:0|1:0,0:0:0:0:
489,230,109350,6,0,P|441:241|408:252,1,83.0999974639893,2|0,0:0|0:0,0:0:0:0:
251,363,109650,2,0,P|211:375|170:384,1,83.0999974639893,2|0,0:0|0:0,0:0:0:0:
6,302,109950,1,10,0:0:0:0:
54,371,110100,6,0,P|76:346|81:329,1,41.5499987319947,2|0,0:0|2:0,0:0:0:0:
167,302,110250,2,0,P|169:278|163:246,1,41.5499987319947,2|0,1:0|2:0,0:0:0:0:
221,201,110400,2,0,P|206:167|194:149,1,41.5499987319947,2|0,0:0|2:0,0:0:0:0:
170,79,110550,6,0,P|89:-4|110:168,1,432.8125,2|0,1:0|2:0,0:0:0:0:
102,170,111000,1,0,1:0:0:0:
268,17,111150,6,0,L|256:80,1,41.5499987319947,10|0,0:0|2:0,0:0:0:0:
377,205,111450,2,0,P|328:188|308:139,1,83.0999974639893,2|0,1:0|0:0,0:0:0:0:
447,68,111750,6,0,P|379:83|333:92,1,83.0999974639893,2|0,0:0|0:0,0:0:0:0:
269,310,112050,2,0,P|309:301|350:292,1,83.0999974639893,2|0,1:0|0:0,0:0:0:0:
512,275,112350,6,0,L|500:338,1,41.5499987319947,10|0,0:0|2:0,0:0:0:0:
441,374,112500,5,0,0:0:0:0:
435,360,112575,1,0,0:0:0:0:
429,346,112650,1,2,1:0:0:0:
167,302,112800,1,0,0:0:0:0:
173,288,112875,1,0,0:0:0:0:
179,272,112950,6,0,B|119:334|31:207|122:151|178:182|178:182|251:222|304:132|246:77|196:94,1,432.8125,2|0,1:0|2:0,0:0:0:0:
211,91,113400,1,0,1:0:0:0:
112,114,113550,6,0,L|100:177,1,41.5499987319947,10|0,0:0|2:0,0:0:0:0:
81,360,113850,1,2,1:0:0:0:
81,360,114000,1,0,1:0:0:0:
7,289,114150,6,0,P|62:277|99:267,1,83.0999974639893,2|0,0:0|0:0,0:0:0:0:
269,310,114450,2,0,P|309:299|349:291,1,83.0999974639893,2|0,1:0|0:0,0:0:0:0:
512,173,114750,6,0,L|500:236,1,41.5499987319947,8|0,0:0|2:0,0:0:0:0:
490,302,114900,6,0,P|462:286|450:271,1,41.5499987319947,2|0,0:0|2:0,0:0:0:0:
385,228,115050,2,0,P|365:189|367:160,1,41.5499987319947,2|0,1:0|2:0,0:0:0:0:
325,106,115200,2,0,P|333:74|351:53,1,41.5499987319947,2|0,0:0|2:0,0:0:0:0:
479,0,115350,6,0,B|345:29|345:29|290:41|308:121|253:131|253:131|89:164,1,432.8125,2|0,1:0|2:0,0:0:0:0:
104,160,115800,1,2,1:0:0:0:
108,20,115950,6,0,P|168:35|181:72,1,83.0999974639893,10|2,0:0|0:0,0:0:0:0:
247,159,116250,2,0,P|264:218|238:248,1,83.0999974639893,2|0,1:0|0:0,0:0:0:0:
133,366,116550,6,0,P|116:318|103:275,1,83.0999974639893,2|0,1:0|0:0,0:0:0:0:
7,186,116850,2,0,P|26:145|37:95,1,83.0999974639893,2|0,1:0|1:0,0:0:0:0:
108,20,117150,1,10,0:0:0:0:
27,26,117300,5,0,0:0:0:0:
15,22,117375,1,0,0:0:0:0:
0,17,117450,1,2,1:0:0:0:
214,373,117600,1,0,0:0:0:0:
226,369,117675,1,0,0:0:0:0:
237,365,117750,6,0,L|225:317,1,41.5499987319947,0|0,1:0|2:0,0:0:0:0:
308,347,117900,2,0,L|297:306,1,41.5499987319947,0|0,1:0|2:0,0:0:0:0:
441,289,118050,6,0,L|453:241,1,41.5499987319947,0|0,1:0|2:0,0:0:0:0:
370,271,118200,2,0,L|380:230,1,41.5499987319947,0|0,1:0|2:0,0:0:0:0:
126,259,118350,6,0,L|114:211,1,41.5499987319947,0|0,1:0|2:0,0:0:0:0:
197,241,118500,2,0,L|186:200,1,41.5499987319947,0|0,1:0|2:0,0:0:0:0:
502,185,118650,6,0,L|514:137,1,41.5499987319947,0|0,1:0|2:0,0:0:0:0:
431,167,118800,2,0,L|441:126,1,41.5499987319947,0|0,1:0|2:0,0:0:0:0:
276,4,118950,5,0,1:0:0:0:
279,15,119025,1,0,1:0:0:0:
283,28,119100,1,0,1:0:0:0:
285,41,119175,1,0,1:0:0:0:
288,53,119250,2,0,L|299:117,3,41.5499987319947,0|0|0|0,1:0|1:0|1:0|1:0,0:0:0:0:
335,157,119550,5,0,1:0:0:0:
380,230,119700,6,0,P|346:242|336:248,1,41.5499987319947,2|0,0:0|2:0,0:0:0:0:
206,118,119850,2,0,P|180:108|148:90,1,41.5499987319947,2|0,0:0|2:0,0:0:0:0:
115,218,120000,2,0,P|89:231|72:247,1,41.5499987319947,2|0,0:0|2:0,0:0:0:0:
7,186,120150,5,2,1:3:0:0:
214,339,120300,2,0,B|225:290|177:296|200:226,1,103.875003962517,2|0,0:0|0:0,0:0:0:0:
315,356,120750,6,0,L|279:368,1,25.9687509906292,8|0,0:0|2:0,0:0:0:0:
126,307,120900,2,0,P|179:308|205:356,1,103.875003962517,2|0,0:0|0:0,0:0:0:0:
69,374,121350,5,0,1:0:0:0:
399,344,121500,2,0,P|389:296|375:231,1,103.875003962517,2|0,0:0|0:0,0:0:0:0:
366,142,121950,6,0,P|415:118|445:200,1,155.812505943775,8|0,0:0|0:0,0:0:0:0:
299,205,122550,6,0,L|284:167,1,25.9687509906292,0|0,1:0|2:0,0:0:0:0:
215,143,122700,2,0,B|230:80|250:112|262:38,1,103.875003962517,2|0,0:0|0:0,0:0:0:0:
191,20,123150,1,8,0:0:0:0:
172,13,123300,1,0,0:0:0:0:
153,19,123450,1,2,0:0:0:0:
77,92,123600,1,0,0:0:0:0:
80,103,123675,1,0,0:0:0:0:
83,114,123750,6,0,L|79:153,1,25.9687509906292,0|0,1:0|2:0,0:0:0:0:
19,187,123900,2,0,P|33:222|99:237,1,103.875003962517
179,199,124350,6,0,B|231:207|231:207|250:241|283:245|283:245|335:250,1,155.812505943775,8|0,0:0|0:0,0:0:0:0:
312,156,124950,5,0,1:0:0:0:
382,302,125100,2,0,P|414:263|389:209,1,103.875003962517,2|0,0:0|0:0,0:0:0:0:
245,272,125550,6,0,L|250:307,1,25.9687509906292,8|0,0:0|2:0,0:0:0:0:
308,365,125700,2,0,P|245:373|187:386,1,103.875003962517,2|0,0:0|0:0,0:0:0:0:
6,292,126150,5,0,1:0:0:0:
104,378,126300,2,0,B|124:322|81:333|100:265,1,103.875003962517,2|0,0:0|0:0,0:0:0:0:
173,152,126750,6,0,B|206:102|158:49|92:83|108:142,1,155.812505943775,8|0,0:0|0:0,0:0:0:0:
52,202,127350,6,0,L|81:196,1,25.9687509906292,0|0,1:0|2:0,0:0:0:0:
177,236,127500,2,0,P|234:223|287:212,1,103.875003962517,2|0,0:0|0:0,0:0:0:0:
467,238,127950,1,8,0:0:0:0:
482,217,128100,1,0,0:0:0:0:
480,190,128250,2,0,L|472:147,2,25.9687509906292,2|0|0,0:0|0:0|0:0,0:0:0:0:
401,297,128550,6,0,L|406:332,1,25.9687509906292,0|0,1:0|2:0,0:0:0:0:
342,371,128700,2,0,L|320:263,1,103.875003962517
276,15,129150,5,10,0:0:0:0:
411,19,129300,2,0,B|354:38|390:65|325:93,1,103.875003962517
83,24,129750,5,0,1:0:0:0:
157,156,129900,2,0,P|195:100|161:23,1,138.5,2|0,0:0|0:0,0:0:0:0:
75,27,130350,6,0,L|82:71,1,34.625,8|0,0:0|2:0,0:0:0:0:
34,137,130500,2,0,P|49:220|59:281,1,138.5,2|0,0:0|0:0,0:0:0:0:
13,382,130950,5,0,1:0:0:0:
252,384,131100,2,0,B|165:359|219:350|114:314,1,138.5,2|0,0:0|0:0,0:0:0:0:
300,290,131550,6,0,P|343:273|350:387,1,207.75,8|0,0:0|0:0,0:0:0:0:
212,278,132150,6,0,L|202:234,1,34.625,0|0,1:0|2:0,0:0:0:0:
339,106,132300,2,0,P|344:150|267:205,1,138.5,2|0,0:0|0:0,0:0:0:0:
205,75,132750,1,8,0:0:0:0:
234,93,132900,1,0,0:0:0:0:
248,133,133050,1,2,0:0:0:0:
117,90,133200,1,0,0:0:0:0:
114,78,133275,1,0,0:0:0:0:
111,66,133350,6,0,L|67:52,1,34.625,0|0,1:0|2:0,0:0:0:0:
34,201,133500,2,0,P|86:184|172:167,1,138.5
461,100,133950,6,0,B|489:76|479:41|479:41|552:120|455:175,1,207.75,8|0,0:0|0:0,0:0:0:0:
399,47,134550,5,2,1:0:0:0:
375,307,134700,2,0,B|355:233|389:254|365:157,1,138.5
272,165,135150,6,0,P|277:180|294:197,1,34.625,10|0,1:2|2:0,0:0:0:0:
476,245,135300,2,0,P|409:252|387:319,1,138.5
482,366,135750,5,2,1:0:0:0:
246,362,135900,2,0,P|298:349|386:319,1,138.5
203,280,136350,6,0,P|136:254|164:351,1,207.75,10|0,1:2|0:0,0:0:0:0:
145,350,136950,1,0,0:0:0:0:
145,350,137100,1,0,0:0:0:0:
423,221,139350,6,0,B|428:152|355:141|359:170|294:165|295:80,1,207.750007925034,10|8,1:0|0:1,0:0:0:0:
497,145,139800,1,0,0:0:0:0:
323,257,139950,6,0,P|319:206|348:171,1,69.25,8|0,0:1|0:0,0:0:0:0:
375,77,140250,2,0,P|417:48|461:55,1,69.25,8|0,0:1|0:0,0:0:0:0:
502,285,140550,6,0,P|457:301|425:320,1,69.25,10|0,1:1|0:0,0:0:0:0:
158,311,140850,2,0,P|190:299|221:283,1,69.25,8|0,0:1|1:0,0:0:0:0:
365,357,141150,1,8,0:1:0:0:
365,357,141300,1,0,0:0:0:0:
329,276,141450,2,0,P|324:264|322:252,1,20.775,8|0,0:1|2:0,0:0:0:0:
274,170,141750,6,0,B|210:174|189:240|229:240|225:307|154:310,1,207.750007925034,10|8,1:0|1:0,0:0:0:0:
46,227,142200,1,0,0:0:0:0:
74,66,142350,6,0,P|89:123|101:154,1,69.25,8|0,0:1|0:0,0:0:0:0:
29,380,142650,2,0,P|19:344|7:314,1,69.25,8|0,0:1|0:0,0:0:0:0:
75,56,142950,6,0,P|107:52|176:133,1,138.5,10|8,1:0|0:1,0:0:0:0:
293,2,143400,6,0,P|312:27|276:127,1,138.5,2|0,1:0|0:0,0:0:0:0:
448,163,143850,2,0,P|435:192|330:211,1,138.5,8|0,1:0|0:0,0:0:0:0:
231,384,144150,6,0,B|268:336|223:282|197:313|159:255|201:194,1,207.750007925034,10|8,1:0|0:1,0:0:0:0:
286,122,144600,1,0,0:0:0:0:
331,347,144750,6,0,P|306:317|272:311,1,69.25,8|0,0:1|0:0,0:0:0:0:
111,328,145050,2,0,P|117:289|144:267,1,69.25,8|0,0:1|0:0,0:0:0:0:
427,368,145350,6,0,P|416:327|409:291,1,69.25,10|0,1:1|0:0,0:0:0:0:
269,189,145650,2,0,P|280:148|287:112,1,69.25,8|0,0:1|1:0,0:0:0:0:
320,0,145950,1,8,0:1:0:0:
320,0,146100,1,0,0:0:0:0:
399,40,146250,2,0,L|405:64,1,20.775,8|0,0:1|2:0,0:0:0:0:
512,109,146550,6,0,B|438:103|429:172|458:171|432:232|368:227,1,207.750007925034,10|8,1:0|1:0,0:0:0:0:
193,130,147000,1,0,0:0:0:0:
243,246,147150,6,0,P|271:208|259:171,1,69.25,8|0,0:1|0:0,0:0:0:0:
106,142,147450,2,0,P|124:185|162:193,1,69.25,8|0,0:1|0:0,0:0:0:0:
98,48,147750,6,0,P|48:50|16:143,1,138.5,10|8,0:1|0:1,0:0:0:0:
34,212,148200,6,0,P|10:256|75:330,1,138.5,2|0,0:0|0:0,0:0:0:0:
153,315,148650,2,0,P|179:357|276:338,1,138.5,8|0,1:0|0:0,0:0:0:0:
462,347,148950,6,0,B|460:272|390:271|394:299|331:280|329:216,1,207.750007925034,10|8,1:0|0:1,0:0:0:0:
367,113,149400,1,0,0:0:0:0:
208,188,149550,6,0,P|246:173|286:164,1,69.25,8|0,0:1|1:0,0:0:0:0:
500,14,149850,2,0,P|462:29|422:38,1,69.25,8|0,0:1|0:0,0:0:0:0:
212,46,150150,6,0,P|250:46|277:67,1,69.25,10|0,1:0|0:0,0:0:0:0:
460,121,150450,2,0,P|478:155|474:188,1,69.25,8|0,0:1|1:0,0:0:0:0:
384,371,150750,1,8,0:1:0:0:
384,371,150900,1,0,0:0:0:0:
294,343,151050,2,0,L|272:338,1,20.775,8|0,1:0|2:0,0:0:0:0:
200,374,151350,6,0,B|69:354|157:288|33:266,1,207.750007925034,10|8,1:0|0:1,0:0:0:0:
0,359,151800,1,0,0:0:0:0:
197,285,151950,6,0,P|204:249|217:209,1,69.25,8|0,0:1|1:0,0:0:0:0:
82,134,152250,2,0,P|75:98|62:58,1,69.25,8|0,0:1|0:0,0:0:0:0:
327,24,152550,6,0,P|246:47|169:69,1,138.5,10|8,1:0|0:1,0:0:0:0:
420,101,153000,6,0,P|339:124|262:146,1,138.5,0|0,1:0|0:0,0:0:0:0:
491,183,153450,2,0,P|410:206|333:228,1,138.5,8|0,1:0|0:0,0:0:0:0:
213,217,153750,6,0,B|281:211|300:292|270:289|277:354|372:352,1,207.750007925034,10|8,1:0|0:1,0:0:0:0:
506,281,154200,1,0,0:0:0:0:
470,381,154350,6,0,P|447:343|416:333,1,69.25,8|0,0:1|1:0,0:0:0:0:
194,354,154650,2,0,P|217:316|248:306,1,69.25,8|0,0:1|0:0,0:0:0:0:
388,181,154950,6,0,P|378:234|372:273,1,69.25,10|0,1:0|0:0,0:0:0:0:
100,302,155250,2,0,P|110:249|116:210,1,69.25,8|0,0:1|1:0,0:0:0:0:
148,12,155550,1,8,0:1:0:0:
148,12,155700,1,0,0:0:0:0:
56,47,155850,2,0,L|60:67,1,20.775,8|0,1:0|2:0,0:0:0:0:
170,100,156150,6,0,P|241:119|218:14,1,207.750007925034,10|10,1:0|1:0,0:0:0:0:
148,12,156600,1,2,0:0:0:0:
112,233,156750,6,0,P|26:232|72:304,1,207.750007925034,10|0,1:0|2:0,0:0:0:0:
213,350,157050,2,0,P|289:313|217:268,1,207.75,10|0,1:0|2:0,0:0:0:0:
149,303,157350,5,10,1:0:0:0:
262,104,157800,5,8,1:0:0:0:
486,188,158250,5,8,1:0:0:0:
