osu file format v14

[General]
AudioFilename: PUMP.mp3
AudioLeadIn: 0
PreviewTime: 119643
Countdown: 0
SampleSet: Normal
StackLeniency: 0.7
Mode: 1
LetterboxInBreaks: 0
WidescreenStoryboard: 0

[Editor]
Bookmarks: 22386,33719,35969,42386,97052
DistanceSpacing: 0.1
BeatDivisor: 4
GridSize: 32
TimelineZoom: 2.799998

[Metadata]
Title:PUMP
TitleUnicode:PUMP
Artist:YUC'e
ArtistUnicode:YUC'e
Creator:Capu
Version:komasy's Muzukashii
Source:
Tags:future cake fügene fugene mrx-016 megarex komasy yuce japanese electronic bass
BeatmapID:2243974
BeatmapSetID:1014283

[Difficulty]
HPDrainRate:6
CircleSize:5
OverallDifficulty:5
ApproachRate:6
SliderMultiplier:1.4
SliderTickRate:1

[Events]
//Background and Video events
0,0,"ppppppppppump.png",0,10
//Break Periods
2,67843,75927
//Storyboard Layer 0 (Background)
//Storyboard Layer 1 (Fail)
//Storyboard Layer 2 (Pass)
//Storyboard Layer 3 (Foreground)
//Storyboard Layer 4 (Overlay)
//Storyboard Sound Samples

[TimingPoints]
-1689,333.333333333333,4,1,0,60,1,0
977,-111.111111111111,4,1,0,60,0,0
14227,-100,4,1,0,60,0,0
24894,-111.111111111111,4,1,0,60,0,0
35561,-100,4,1,0,75,0,0
44977,-111.111111111111,4,1,0,60,0,0
46227,-100,4,1,0,75,0,0
46310,-100,4,1,0,75,0,1
56977,-100,4,1,0,75,0,0
57310,-100,4,1,0,75,0,1
67644,-100,4,1,0,75,0,0
67727,-111.111111111111,4,1,0,60,0,0
88894,-105.263157894737,4,1,0,60,0,0
99561,-111.111111111111,4,1,0,60,0,0
110227,-100,4,1,0,75,0,0
119644,-111.111111111111,4,1,0,60,0,0
120977,-100,4,1,0,60,0,0
121561,-100,4,1,0,75,0,0
121644,-100,4,1,0,75,0,1
131644,-100,4,1,0,75,0,0
131977,-100,4,1,0,75,0,1
142310,-100,4,1,0,75,0,0
143977,-100,4,1,0,75,0,1
146310,-100,4,1,0,75,0,0
147644,-100,4,1,0,75,0,1
150310,-100,4,1,0,75,0,0
153310,-100,4,1,0,75,0,1
156977,-100,4,1,0,75,0,0
158310,-100,4,1,0,75,0,1
163644,-100,4,1,0,75,0,0
163727,-105.263157894737,4,1,0,50,0,0
174227,-111.111111111111,4,1,0,50,0,0

[HitObjects]
256,192,3644,5,4,0:0:0:0:
256,192,4143,1,0,0:0:0:0:
256,192,4310,1,8,0:0:0:0:
270,190,4643,1,8,0:0:0:0:
256,192,5310,1,0,0:0:0:0:
256,192,5643,1,8,0:0:0:0:
256,192,6310,1,0,0:0:0:0:
256,192,6810,1,0,0:0:0:0:
256,192,6977,1,8,0:0:0:0:
256,192,7310,1,0,0:0:0:0:
256,192,7977,1,0,0:0:0:0:
256,192,8310,1,8,0:0:0:0:
265,181,8643,1,0,0:0:0:0:
256,192,8977,1,0,0:0:0:0:
256,192,9477,1,0,0:0:0:0:
256,192,9643,1,8,0:0:0:0:
265,181,9977,1,8,0:0:0:0:
256,192,10643,1,0,0:0:0:0:
256,192,10977,1,8,0:0:0:0:
256,192,11643,1,0,0:0:0:0:
256,192,12143,1,0,0:0:0:0:
256,192,12310,1,8,0:0:0:0:
256,192,12643,1,0,0:0:0:0:
256,192,13310,1,0,0:0:0:0:
256,192,13643,1,8,0:0:0:0:
256,192,13977,1,0,0:0:0:0:
256,192,14310,1,4,0:0:0:0:
256,192,14810,1,0,0:0:0:0:
256,192,14977,1,8,0:0:0:0:
267,185,15310,1,8,0:0:0:0:
271,182,15477,1,8,0:0:0:0:
275,179,15643,1,8,0:0:0:0:
256,192,15977,1,0,0:0:0:0:
256,192,16310,1,8,0:0:0:0:
268,185,16643,1,8,0:0:0:0:
273,181,16810,1,8,0:0:0:0:
256,192,16977,1,0,0:0:0:0:
256,192,17477,1,0,0:0:0:0:
256,192,17643,1,8,0:0:0:0:
256,192,17977,1,0,0:0:0:0:
269,186,18310,1,8,0:0:0:0:
256,192,18643,1,0,0:0:0:0:
261,189,18810,1,0,0:0:0:0:
256,192,18977,1,8,0:0:0:0:
256,192,19310,1,0,0:0:0:0:
64,320,19643,1,4,0:0:0:0:
256,192,20143,1,0,0:0:0:0:
256,192,20310,1,8,0:0:0:0:
263,204,20643,1,8,0:0:0:0:
266,209,20810,1,8,0:0:0:0:
269,214,20977,1,8,0:0:0:0:
256,192,21310,1,0,0:0:0:0:
256,192,21643,1,8,0:0:0:0:
266,203,21977,1,8,0:0:0:0:
270,208,22143,1,8,0:0:0:0:
256,192,22310,1,0,0:0:0:0:
256,192,22643,1,0,0:0:0:0:
263,191,22810,1,0,0:0:0:0:
256,192,22977,1,8,0:0:0:0:
256,192,23310,1,0,0:0:0:0:
256,192,23643,12,8,24643,0:0:0:0:
310,183,24977,5,8,0:0:0:0:
256,192,25977,5,8,0:0:0:0:
256,192,27643,5,8,0:0:0:0:
256,192,28643,1,8,0:0:0:0:
256,192,29643,1,8,0:0:0:0:
256,192,29977,1,8,0:0:0:0:
256,192,30310,1,0,0:0:0:0:
256,192,31310,1,0,0:0:0:0:
256,192,32977,5,8,0:0:0:0:
256,192,33977,1,0,0:0:0:0:
256,192,34310,12,0,35310,0:0:0:0:
256,192,35643,5,8,0:0:0:0:
256,192,35977,1,8,0:0:0:0:
256,192,36143,1,8,0:0:0:0:
256,192,36477,1,8,0:0:0:0:
256,192,36643,1,8,0:0:0:0:
256,192,36977,1,8,0:0:0:0:
259,182,37227,1,8,0:0:0:0:
256,192,37310,1,8,0:0:0:0:
256,192,37477,1,8,0:0:0:0:
256,192,37810,1,8,0:0:0:0:
256,192,37977,1,8,0:0:0:0:
256,190,38143,1,8,0:0:0:0:
256,188,38227,1,8,0:0:0:0:
257,185,38310,1,8,0:0:0:0:
256,192,38643,1,8,0:0:0:0:
256,192,38810,1,8,0:0:0:0:
256,192,39143,1,8,0:0:0:0:
256,192,39310,1,8,0:0:0:0:
256,192,39643,1,8,0:0:0:0:
259,182,39893,1,8,0:0:0:0:
256,192,39977,1,8,0:0:0:0:
256,192,40143,1,8,0:0:0:0:
256,192,40477,1,8,0:0:0:0:
256,192,40643,1,8,0:0:0:0:
256,192,40810,1,0,0:0:0:0:
256,192,40977,1,8,0:0:0:0:
256,192,41310,1,8,0:0:0:0:
256,192,41643,1,8,0:0:0:0:
257,184,41810,1,0,0:0:0:0:
256,192,41977,1,8,0:0:0:0:
256,192,42143,1,8,0:0:0:0:
258,191,42227,1,8,0:0:0:0:
262,190,42310,1,8,0:0:0:0:
256,192,42643,1,8,0:0:0:0:
256,192,42810,1,0,0:0:0:0:
256,192,42977,1,8,0:0:0:0:
257,184,43143,1,0,0:0:0:0:
256,192,43310,1,8,0:0:0:0:
256,192,43477,1,8,0:0:0:0:
257,190,43560,1,8,0:0:0:0:
126,257,43643,1,8,0:0:0:0:
256,192,43810,12,0,44977,0:0:0:0:
256,192,45977,5,12,0:0:0:0:
64,320,46310,5,4,0:0:0:0:
76,313,46643,1,8,0:0:0:0:
81,310,46810,1,8,0:0:0:0:
256,192,46977,1,0,0:0:0:0:
256,192,47227,1,0,0:0:0:0:
255,189,47310,1,8,0:0:0:0:
254,183,47477,1,0,0:0:0:0:
256,192,47643,1,8,0:0:0:0:
259,190,47727,1,8,0:0:0:0:
262,188,47810,1,8,0:0:0:0:
256,192,47977,1,8,0:0:0:0:
256,192,48310,1,0,0:0:0:0:
257,182,48560,1,0,0:0:0:0:
256,192,48643,1,8,0:0:0:0:
256,192,48810,1,0,0:0:0:0:
251,192,48893,1,0,0:0:0:0:
255,192,48977,1,0,0:0:0:0:
268,192,49310,1,0,0:0:0:0:
281,192,49643,1,8,0:0:0:0:
291,192,49893,1,0,0:0:0:0:
256,192,49977,1,8,0:0:0:0:
249,190,50143,1,0,0:0:0:0:
256,192,50310,1,4,0:0:0:0:
256,192,50977,1,4,0:0:0:0:
248,190,51143,1,8,0:0:0:0:
239,191,51310,1,8,0:0:0:0:
256,192,51393,1,8,0:0:0:0:
256,192,51477,1,8,0:0:0:0:
256,192,51643,1,4,0:0:0:0:
256,192,51977,1,8,0:0:0:0:
256,192,52143,1,8,0:0:0:0:
256,192,52310,1,0,0:0:0:0:
264,189,52560,1,0,0:0:0:0:
266,188,52643,1,8,0:0:0:0:
272,186,52810,1,0,0:0:0:0:
256,191,52977,1,8,0:0:0:0:
259,188,53060,1,8,0:0:0:0:
261,185,53143,1,8,0:0:0:0:
255,189,53310,1,8,0:0:0:0:
256,192,53477,1,0,0:0:0:0:
256,192,53643,1,0,0:0:0:0:
256,192,53977,1,8,0:0:0:0:
256,192,54143,1,8,0:0:0:0:
256,192,54310,1,0,0:0:0:0:
267,186,54643,1,12,0:0:0:0:
256,177,54977,1,0,0:0:0:0:
261,164,55310,1,8,0:0:0:0:
256,191,55477,1,8,0:0:0:0:
257,187,55560,1,8,0:0:0:0:
256,192,55643,1,0,0:0:0:0:
256,192,56310,1,0,0:0:0:0:
254,185,56477,1,8,0:0:0:0:
253,181,56643,1,0,0:0:0:0:
256,192,56727,1,0,0:0:0:0:
256,192,56810,1,0,0:0:0:0:
249,188,56977,1,8,0:0:0:0:
245,186,57060,1,8,0:0:0:0:
260,186,57143,1,8,0:0:0:0:
64,320,57310,1,4,0:0:0:0:
256,192,57643,1,8,0:0:0:0:
256,192,57893,1,0,0:0:0:0:
256,192,58143,1,0,0:0:0:0:
256,192,58310,1,8,0:0:0:0:
258,189,58393,1,8,0:0:0:0:
260,187,58477,1,8,0:0:0:0:
265,183,58643,1,0,0:0:0:0:
268,178,58810,1,0,0:0:0:0:
256,191,58977,1,8,0:0:0:0:
262,181,59143,1,8,0:0:0:0:
265,189,59227,1,0,0:0:0:0:
256,192,59477,1,0,0:0:0:0:
256,192,59643,1,0,0:0:0:0:
256,192,59977,1,0,0:0:0:0:
256,192,60143,1,0,0:0:0:0:
256,192,60310,1,8,0:0:0:0:
257,186,60477,1,8,0:0:0:0:
256,192,60560,1,0,0:0:0:0:
261,184,60810,1,0,0:0:0:0:
256,192,60977,1,4,0:0:0:0:
256,192,61643,1,4,0:0:0:0:
260,187,61810,1,8,0:0:0:0:
267,196,61977,1,8,0:0:0:0:
268,193,62060,1,8,0:0:0:0:
269,190,62143,1,8,0:0:0:0:
256,192,62310,1,4,0:0:0:0:
256,181,62560,1,8,0:0:0:0:
256,178,62643,1,0,0:0:0:0:
254,170,62810,1,8,0:0:0:0:
256,192,62977,1,0,0:0:0:0:
255,188,63143,1,8,0:0:0:0:
256,192,63227,1,0,0:0:0:0:
256,192,63477,1,0,0:0:0:0:
261,188,63643,1,8,0:0:0:0:
263,186,63727,1,8,0:0:0:0:
265,184,63810,1,8,0:0:0:0:
256,192,63977,1,8,0:0:0:0:
261,193,64143,1,0,0:0:0:0:
256,192,64310,1,0,0:0:0:0:
256,192,64643,1,0,0:0:0:0:
255,191,64810,1,8,0:0:0:0:
254,189,64893,1,8,0:0:0:0:
256,192,64977,1,0,0:0:0:0:
256,192,65310,1,12,0:0:0:0:
256,192,65643,1,0,0:0:0:0:
256,192,65810,1,0,0:0:0:0:
256,192,65977,1,12,0:0:0:0:
256,192,66310,1,4,0:0:0:0:
256,192,66643,1,8,0:0:0:0:
257,185,66810,1,0,0:0:0:0:
257,182,66893,1,0,0:0:0:0:
256,192,66977,1,0,0:0:0:0:
256,192,67143,1,8,0:0:0:0:
256,192,67310,1,8,0:0:0:0:
256,192,67477,1,0,0:0:0:0:
256,192,67643,1,12,0:0:0:0:
389,150,76977,5,8,0:0:0:0:
389,150,77643,1,8,0:0:0:0:
256,192,78310,5,4,0:0:0:0:
256,192,78810,1,0,0:0:0:0:
256,192,78977,1,8,0:0:0:0:
270,190,79310,1,8,0:0:0:0:
278,188,79477,1,8,0:0:0:0:
285,186,79643,1,8,0:0:0:0:
256,192,79977,1,0,0:0:0:0:
256,192,80310,1,8,0:0:0:0:
269,190,80643,1,8,0:0:0:0:
274,189,80810,1,8,0:0:0:0:
256,192,80977,1,0,0:0:0:0:
256,192,81477,1,0,0:0:0:0:
256,192,81643,1,8,0:0:0:0:
256,192,81977,1,0,0:0:0:0:
250,179,82310,1,8,0:0:0:0:
256,192,82643,1,0,0:0:0:0:
261,187,82810,1,0,0:0:0:0:
256,192,82977,1,8,0:0:0:0:
265,181,83310,1,0,0:0:0:0:
270,176,83477,1,8,0:0:0:0:
256,192,83643,1,0,0:0:0:0:
256,192,84143,1,0,0:0:0:0:
256,192,84310,1,8,0:0:0:0:
265,181,84643,1,8,0:0:0:0:
271,176,84810,1,8,0:0:0:0:
276,172,84977,1,8,0:0:0:0:
256,192,85310,1,0,0:0:0:0:
256,192,85643,1,8,0:0:0:0:
243,188,85977,1,8,0:0:0:0:
236,186,86143,1,8,0:0:0:0:
256,192,86310,1,0,0:0:0:0:
256,192,86810,1,0,0:0:0:0:
256,192,86977,1,8,0:0:0:0:
256,192,87310,1,0,0:0:0:0:
242,188,87643,1,8,0:0:0:0:
236,186,87810,1,8,0:0:0:0:
256,192,87977,1,0,0:0:0:0:
256,192,88310,1,8,0:0:0:0:
256,192,88977,1,4,0:0:0:0:
245,182,89310,1,0,0:0:0:0:
256,192,89643,1,8,0:0:0:0:
267,185,89977,1,0,0:0:0:0:
271,182,90143,1,0,0:0:0:0:
275,179,90310,1,8,0:0:0:0:
256,192,90643,1,0,0:0:0:0:
256,192,90977,1,8,0:0:0:0:
268,185,91310,1,0,0:0:0:0:
273,181,91477,1,8,0:0:0:0:
256,192,91643,1,0,0:0:0:0:
256,177,91977,1,0,0:0:0:0:
256,192,92310,1,8,0:0:0:0:
256,192,92643,1,0,0:0:0:0:
259,186,92810,1,0,0:0:0:0:
269,186,92977,1,8,0:0:0:0:
256,192,93310,1,0,0:0:0:0:
256,192,93643,1,8,0:0:0:0:
259,186,93810,1,0,0:0:0:0:
256,192,93977,1,8,0:0:0:0:
261,189,94143,1,8,0:0:0:0:
64,320,94310,1,4,0:0:0:0:
73,312,94643,1,0,0:0:0:0:
256,192,94977,1,8,0:0:0:0:
263,204,95310,1,0,0:0:0:0:
266,209,95477,1,0,0:0:0:0:
269,214,95643,1,8,0:0:0:0:
256,192,95977,1,0,0:0:0:0:
256,192,96310,1,8,0:0:0:0:
266,203,96643,1,8,0:0:0:0:
270,208,96810,1,8,0:0:0:0:
256,192,96977,1,0,0:0:0:0:
261,187,97143,1,8,0:0:0:0:
256,192,97310,1,0,0:0:0:0:
263,191,97477,1,0,0:0:0:0:
256,192,97643,1,8,0:0:0:0:
261,187,97810,1,0,0:0:0:0:
256,191,97977,1,8,0:0:0:0:
261,187,98143,1,8,0:0:0:0:
256,192,98310,12,8,99310,0:0:0:0:
310,183,99643,5,8,0:0:0:0:
256,192,100643,5,8,0:0:0:0:
256,192,102310,5,8,0:0:0:0:
256,192,103310,1,8,0:0:0:0:
256,192,104310,1,8,0:0:0:0:
256,192,104643,1,8,0:0:0:0:
256,192,104977,1,0,0:0:0:0:
256,192,105977,1,0,0:0:0:0:
256,192,107643,5,8,0:0:0:0:
256,192,108643,1,0,0:0:0:0:
256,192,108977,12,0,109977,0:0:0:0:
256,192,110310,5,8,0:0:0:0:
256,192,110643,1,8,0:0:0:0:
256,192,110810,1,8,0:0:0:0:
256,192,111143,1,8,0:0:0:0:
256,192,111310,1,8,0:0:0:0:
256,192,111643,1,8,0:0:0:0:
257,182,111893,1,8,0:0:0:0:
256,192,111977,1,8,0:0:0:0:
256,192,112143,1,8,0:0:0:0:
256,192,112477,1,8,0:0:0:0:
256,192,112643,1,8,0:0:0:0:
256,190,112810,1,8,0:0:0:0:
256,188,112893,1,8,0:0:0:0:
257,185,112977,1,8,0:0:0:0:
256,192,113310,1,8,0:0:0:0:
256,192,113477,1,8,0:0:0:0:
256,192,113810,1,8,0:0:0:0:
256,192,113977,1,8,0:0:0:0:
256,192,114310,1,8,0:0:0:0:
256,181,114560,1,8,0:0:0:0:
256,192,114643,1,8,0:0:0:0:
256,192,114810,1,8,0:0:0:0:
256,192,115143,1,8,0:0:0:0:
256,192,115310,1,8,0:0:0:0:
256,192,115477,1,0,0:0:0:0:
256,192,115643,1,8,0:0:0:0:
256,192,115977,1,8,0:0:0:0:
256,192,116310,1,8,0:0:0:0:
257,184,116477,1,0,0:0:0:0:
256,192,116643,1,8,0:0:0:0:
256,192,116810,1,8,0:0:0:0:
258,191,116893,1,8,0:0:0:0:
262,190,116977,1,8,0:0:0:0:
256,192,117310,1,8,0:0:0:0:
256,192,117477,1,0,0:0:0:0:
256,192,117643,1,8,0:0:0:0:
257,184,117810,1,0,0:0:0:0:
256,192,117977,1,8,0:0:0:0:
256,192,118143,1,8,0:0:0:0:
257,190,118227,1,8,0:0:0:0:
28,66,118310,1,8,0:0:0:0:
256,192,118477,12,0,119643,0:0:0:0:
256,192,120643,5,12,0:0:0:0:
256,192,121643,1,4,0:0:0:0:
256,192,121893,1,0,0:0:0:0:
255,189,121977,1,8,0:0:0:0:
254,183,122143,1,0,0:0:0:0:
256,192,122310,1,8,0:0:0:0:
259,190,122393,1,8,0:0:0:0:
262,188,122477,1,8,0:0:0:0:
256,192,122643,1,8,0:0:0:0:
256,192,122977,1,0,0:0:0:0:
257,182,123227,1,0,0:0:0:0:
256,192,123310,1,8,0:0:0:0:
256,192,123477,1,0,0:0:0:0:
251,192,123560,1,0,0:0:0:0:
255,192,123643,1,0,0:0:0:0:
268,192,123977,1,0,0:0:0:0:
270,185,124143,1,0,0:0:0:0:
281,192,124310,1,8,0:0:0:0:
291,192,124560,1,0,0:0:0:0:
256,192,124643,1,8,0:0:0:0:
249,190,124810,1,0,0:0:0:0:
256,192,124977,1,4,0:0:0:0:
256,192,125643,1,4,0:0:0:0:
256,191,125810,1,8,0:0:0:0:
256,192,125977,1,8,0:0:0:0:
259,191,126060,1,8,0:0:0:0:
262,189,126143,1,8,0:0:0:0:
256,192,126310,1,4,0:0:0:0:
256,192,126643,1,8,0:0:0:0:
256,192,126810,1,8,0:0:0:0:
256,192,126977,1,0,0:0:0:0:
264,189,127227,1,0,0:0:0:0:
266,188,127310,1,8,0:0:0:0:
272,186,127477,1,0,0:0:0:0:
256,191,127643,1,8,0:0:0:0:
259,188,127727,1,8,0:0:0:0:
261,185,127810,1,8,0:0:0:0:
255,189,127977,1,8,0:0:0:0:
256,192,128143,1,0,0:0:0:0:
256,192,128310,1,0,0:0:0:0:
256,192,128643,1,8,0:0:0:0:
256,192,128810,1,8,0:0:0:0:
256,192,128977,1,0,0:0:0:0:
267,186,129310,1,12,0:0:0:0:
256,177,129643,1,0,0:0:0:0:
261,164,129977,1,8,0:0:0:0:
256,191,130143,1,8,0:0:0:0:
257,187,130227,1,8,0:0:0:0:
256,192,130310,1,0,0:0:0:0:
256,192,130977,1,0,0:0:0:0:
254,185,131143,1,8,0:0:0:0:
253,181,131310,1,0,0:0:0:0:
256,192,131393,1,0,0:0:0:0:
256,192,131477,1,0,0:0:0:0:
256,192,131643,1,8,0:0:0:0:
258,189,131727,1,8,0:0:0:0:
260,186,131810,1,8,0:0:0:0:
64,320,131977,1,4,0:0:0:0:
256,192,132310,1,8,0:0:0:0:
256,192,132560,1,0,0:0:0:0:
256,192,132810,1,0,0:0:0:0:
256,192,132977,1,8,0:0:0:0:
258,189,133060,1,8,0:0:0:0:
260,187,133143,1,8,0:0:0:0:
265,183,133310,1,0,0:0:0:0:
268,178,133477,1,0,0:0:0:0:
256,191,133643,1,8,0:0:0:0:
262,181,133810,1,8,0:0:0:0:
265,189,133893,1,0,0:0:0:0:
256,192,134143,1,0,0:0:0:0:
256,192,134310,1,0,0:0:0:0:
256,192,134643,1,0,0:0:0:0:
256,192,134810,1,0,0:0:0:0:
256,192,134977,1,8,0:0:0:0:
257,186,135143,1,8,0:0:0:0:
256,192,135227,1,0,0:0:0:0:
261,184,135477,1,0,0:0:0:0:
256,192,135643,1,4,0:0:0:0:
256,192,136310,1,4,0:0:0:0:
251,185,136477,1,8,0:0:0:0:
267,196,136643,1,8,0:0:0:0:
268,193,136727,1,8,0:0:0:0:
269,190,136810,1,8,0:0:0:0:
256,192,136977,1,4,0:0:0:0:
256,181,137227,1,8,0:0:0:0:
256,178,137310,1,0,0:0:0:0:
254,170,137477,1,8,0:0:0:0:
256,192,137643,1,0,0:0:0:0:
256,189,137810,1,8,0:0:0:0:
256,192,137893,1,0,0:0:0:0:
256,192,138143,1,0,0:0:0:0:
256,192,138310,1,8,0:0:0:0:
258,190,138393,1,8,0:0:0:0:
256,192,138477,1,8,0:0:0:0:
256,192,138643,1,8,0:0:0:0:
261,193,138810,1,0,0:0:0:0:
256,192,138977,1,0,0:0:0:0:
256,192,139310,1,0,0:0:0:0:
255,191,139477,1,8,0:0:0:0:
254,189,139560,1,8,0:0:0:0:
256,192,139643,1,0,0:0:0:0:
256,192,139977,1,12,0:0:0:0:
256,192,140310,1,0,0:0:0:0:
256,192,140477,1,0,0:0:0:0:
256,192,140643,1,12,0:0:0:0:
256,192,140977,1,4,0:0:0:0:
256,192,141310,1,8,0:0:0:0:
257,185,141477,1,0,0:0:0:0:
257,182,141560,1,0,0:0:0:0:
256,192,141643,1,0,0:0:0:0:
256,192,141810,1,8,0:0:0:0:
256,192,141977,5,8,0:0:0:0:
259,192,142060,1,8,0:0:0:0:
256,192,142143,1,8,0:0:0:0:
258,190,142227,1,8,0:0:0:0:
256,192,142977,1,4,0:0:0:0:
64,320,143227,1,4,0:0:0:0:
64,320,143477,1,4,0:0:0:0:
69,316,143643,1,0,0:0:0:0:
72,313,143727,1,0,0:0:0:0:
75,311,143810,1,0,0:0:0:0:
64,320,143977,1,12,0:0:0:0:
256,192,144310,1,0,0:0:0:0:
256,192,144560,1,0,0:0:0:0:
256,192,144643,1,8,0:0:0:0:
256,192,144810,1,0,0:0:0:0:
251,190,144893,1,0,0:0:0:0:
256,192,144977,1,0,0:0:0:0:
259,185,145143,1,8,0:0:0:0:
256,192,145310,1,0,0:0:0:0:
256,192,145643,1,8,0:0:0:0:
256,192,145893,1,0,0:0:0:0:
256,183,145977,1,8,0:0:0:0:
257,176,146143,1,0,0:0:0:0:
256,191,146310,1,4,0:0:0:0:
256,192,146977,1,4,0:0:0:0:
258,178,147310,1,8,0:0:0:0:
258,175,147393,1,8,0:0:0:0:
259,172,147477,1,8,0:0:0:0:
256,192,147643,1,4,0:0:0:0:
256,192,147977,1,8,0:0:0:0:
256,192,148143,1,8,0:0:0:0:
256,192,148310,1,0,0:0:0:0:
247,186,148560,1,0,0:0:0:0:
256,192,148643,1,8,0:0:0:0:
256,192,148810,1,0,0:0:0:0:
258,187,148977,1,8,0:0:0:0:
256,190,149060,1,8,0:0:0:0:
257,187,149143,1,8,0:0:0:0:
256,192,149310,1,8,0:0:0:0:
255,186,149477,1,0,0:0:0:0:
256,192,149643,1,0,0:0:0:0:
256,192,149977,1,8,0:0:0:0:
258,186,150143,1,8,0:0:0:0:
256,192,150310,5,0,0:0:0:0:
64,320,150643,5,12,0:0:0:0:
256,192,150977,1,0,0:0:0:0:
269,190,151310,1,8,0:0:0:0:
256,192,151477,1,8,0:0:0:0:
258,191,151560,1,8,0:0:0:0:
256,192,151643,1,0,0:0:0:0:
256,192,152310,1,0,0:0:0:0:
260,187,152477,1,8,0:0:0:0:
262,184,152643,1,0,0:0:0:0:
267,178,152727,1,0,0:0:0:0:
269,175,152810,1,0,0:0:0:0:
271,176,152893,1,0,0:0:0:0:
96,320,153310,1,4,0:0:0:0:
256,192,153643,1,8,0:0:0:0:
256,192,153893,1,0,0:0:0:0:
256,192,154143,1,0,0:0:0:0:
256,192,154310,1,8,0:0:0:0:
259,192,154393,1,8,0:0:0:0:
256,192,154477,1,8,0:0:0:0:
256,192,154643,1,0,0:0:0:0:
262,190,154810,1,8,0:0:0:0:
265,189,154893,1,8,0:0:0:0:
256,192,154977,1,8,0:0:0:0:
256,192,155227,1,0,0:0:0:0:
256,192,155477,1,0,0:0:0:0:
256,192,155643,1,0,0:0:0:0:
256,192,155810,1,8,0:0:0:0:
258,189,155893,1,8,0:0:0:0:
256,192,155977,1,0,0:0:0:0:
256,192,156310,1,8,0:0:0:0:
264,194,156560,1,0,0:0:0:0:
257,185,156643,1,8,0:0:0:0:
261,189,156810,1,0,0:0:0:0:
256,192,156977,1,4,0:0:0:0:
256,192,157643,1,4,0:0:0:0:
256,192,157977,1,8,0:0:0:0:
258,191,158060,1,8,0:0:0:0:
261,189,158143,1,8,0:0:0:0:
256,192,158310,1,4,0:0:0:0:
259,181,158560,1,8,0:0:0:0:
256,192,158643,1,0,0:0:0:0:
256,192,158810,1,8,0:0:0:0:
256,192,158977,1,0,0:0:0:0:
259,184,159143,1,8,0:0:0:0:
256,192,159227,1,0,0:0:0:0:
263,186,159477,1,0,0:0:0:0:
256,192,159643,1,8,0:0:0:0:
257,189,159727,1,8,0:0:0:0:
258,186,159810,1,8,0:0:0:0:
262,184,159977,1,0,0:0:0:0:
267,175,160143,1,8,0:0:0:0:
268,173,160227,1,8,0:0:0:0:
269,171,160310,1,8,0:0:0:0:
256,192,160643,1,0,0:0:0:0:
256,191,160810,1,8,0:0:0:0:
257,187,160893,1,8,0:0:0:0:
258,184,160977,1,0,0:0:0:0:
256,192,161310,1,12,0:0:0:0:
256,192,161643,1,0,0:0:0:0:
256,192,161977,1,12,0:0:0:0:
256,192,162310,1,4,0:0:0:0:
256,192,162643,1,8,0:0:0:0:
250,188,162810,1,0,0:0:0:0:
252,185,162893,1,0,0:0:0:0:
253,183,162977,1,0,0:0:0:0:
256,192,163143,1,8,0:0:0:0:
256,192,163310,1,8,0:0:0:0:
256,192,163477,1,0,0:0:0:0:
256,192,163643,1,12,0:0:0:0:
256,192,164977,1,0,0:0:0:0:
256,192,166310,1,8,0:0:0:0:
256,192,166977,1,8,0:0:0:0:
256,192,167643,1,0,0:0:0:0:
256,192,168310,1,0,0:0:0:0:
256,192,168977,1,8,0:0:0:0:
256,192,170310,1,0,0:0:0:0:
256,192,171643,1,0,0:0:0:0:
256,192,172310,1,8,0:0:0:0:
256,192,172977,1,0,0:0:0:0:
256,192,173643,1,0,0:0:0:0:
256,192,174310,1,12,0:0:0:0:
256,192,175643,1,0,0:0:0:0:
256,192,176977,1,8,0:0:0:0:
256,192,177643,1,8,0:0:0:0:
256,192,178310,1,0,0:0:0:0:
256,192,178977,1,0,0:0:0:0:
256,192,179643,1,8,0:0:0:0:
256,192,180977,1,0,0:0:0:0:
256,192,182310,1,0,0:0:0:0:
256,192,182977,1,8,0:0:0:0:
256,192,183643,1,8,0:0:0:0:
256,192,183810,12,0,184977,0:0:0:0:
