osu file format v14

[General]
AudioFilename: PUMP.mp3
AudioLeadIn: 0
PreviewTime: 119643
Countdown: 0
SampleSet: Normal
StackLeniency: 0.7
Mode: 1
LetterboxInBreaks: 0
WidescreenStoryboard: 0

[Editor]
Bookmarks: 22386,33719,35969,42386,97052
DistanceSpacing: 2.9
BeatDivisor: 4
GridSize: 32
TimelineZoom: 2.799998

[Metadata]
Title:PUMP
TitleUnicode:PUMP
Artist:YUC'e
ArtistUnicode:YUC'e
Creator:Capu
Version:Kantan
Source:
Tags:future cake fügene fugene mrx-016 megarex komasy yuce japanese electronic bass
BeatmapID:2122783
BeatmapSetID:1014283

[Difficulty]
HPDrainRate:8
CircleSize:2
OverallDifficulty:3
ApproachRate:9
SliderMultiplier:1.4
SliderTickRate:1

[Events]
//Background and Video events
0,0,"ppppppppppump.png",0,10
//Break Periods
2,67843,77710
//Storyboard Layer 0 (Background)
//Storyboard Layer 1 (Fail)
//Storyboard Layer 2 (Pass)
//Storyboard Layer 3 (Foreground)
//Storyboard Layer 4 (Overlay)
//Storyboard Sound Samples

[TimingPoints]
-1689,333.333333333333,4,1,0,60,1,0
46310,-100,4,1,0,75,0,1
56977,-100,4,1,0,75,0,0
57310,-100,4,1,0,75,0,1
67644,-100,4,1,0,75,0,0
67727,-100,4,1,0,60,0,0
121644,-100,4,1,0,75,0,1
131644,-100,4,1,0,75,0,0
131977,-100,4,1,0,75,0,1
142310,-100,4,1,0,75,0,0
143977,-100,4,1,0,75,0,1
150310,-100,4,1,0,75,0,0
153310,-100,4,1,0,75,0,1
156977,-100,4,1,0,75,0,0
158310,-100,4,1,0,75,0,1
163644,-100,4,1,0,75,0,0
163811,-100,4,1,0,50,0,0

[HitObjects]
256,192,3644,5,0,0:0:0:0:
256,192,4310,1,8,0:0:0:0:
256,192,5643,1,8,0:0:0:0:
256,192,6310,1,0,0:0:0:0:
256,192,6977,1,8,0:0:0:0:
256,192,7977,1,0,0:0:0:0:
256,192,8310,1,8,0:0:0:0:
256,192,8977,1,0,0:0:0:0:
256,192,9643,1,8,0:0:0:0:
256,192,10643,1,0,0:0:0:0:
256,192,10977,1,8,0:0:0:0:
256,192,11643,1,0,0:0:0:0:
256,192,12310,1,8,0:0:0:0:
256,192,13310,1,0,0:0:0:0:
256,192,13643,1,8,0:0:0:0:
256,192,14310,1,4,0:0:0:0:
256,192,14977,1,8,0:0:0:0:
256,192,15977,1,0,0:0:0:0:
256,192,16310,1,8,0:0:0:0:
256,192,16977,1,0,0:0:0:0:
256,192,17643,1,8,0:0:0:0:
256,192,17977,1,0,0:0:0:0:
256,192,18643,1,0,0:0:0:0:
256,192,18977,1,8,0:0:0:0:
64,320,19643,5,4,0:0:0:0:
256,192,20310,1,8,0:0:0:0:
256,192,21310,1,0,0:0:0:0:
256,192,21643,1,8,0:0:0:0:
256,192,22310,1,8,0:0:0:0:
256,192,22977,1,8,0:0:0:0:
256,192,23643,12,8,24977,0:0:0:0:
256,192,25977,5,0,0:0:0:0:
256,192,27643,5,8,0:0:0:0:
256,192,28643,1,8,0:0:0:0:
256,192,30310,1,0,0:0:0:0:
256,192,31310,1,0,0:0:0:0:
256,192,32977,1,8,0:0:0:0:
256,192,33977,1,8,0:0:0:0:
256,192,35643,1,0,0:0:0:0:
256,192,36643,1,0,0:0:0:0:
256,192,36977,1,8,0:0:0:0:
256,192,37977,1,8,0:0:0:0:
256,192,38310,1,8,0:0:0:0:
256,192,38643,1,0,0:0:0:0:
256,192,39310,1,0,0:0:0:0:
256,192,39643,1,8,0:0:0:0:
256,192,40643,1,8,0:0:0:0:
256,192,40977,1,8,0:0:0:0:
256,192,41310,1,8,0:0:0:0:
256,192,41977,1,8,0:0:0:0:
256,192,42310,12,0,44977,0:0:0:0:
64,320,46310,5,12,0:0:0:0:
256,192,46643,1,0,0:0:0:0:
256,192,46977,1,8,0:0:0:0:
256,192,47643,1,8,0:0:0:0:
256,192,48310,1,0,0:0:0:0:
256,192,48643,1,8,0:0:0:0:
256,192,48977,1,8,0:0:0:0:
256,192,49643,1,0,0:0:0:0:
256,192,50310,1,8,0:0:0:0:
256,192,50643,1,8,0:0:0:0:
256,192,50977,1,0,0:0:0:0:
256,192,51643,1,12,0:0:0:0:
256,192,51977,1,0,0:0:0:0:
256,192,52310,1,8,0:0:0:0:
256,192,52977,1,8,0:0:0:0:
256,192,53643,1,0,0:0:0:0:
256,192,53977,1,0,0:0:0:0:
256,192,54310,1,8,0:0:0:0:
256,192,54977,1,8,0:0:0:0:
256,192,55643,1,0,0:0:0:0:
256,192,56310,1,8,0:0:0:0:
64,320,57310,1,12,0:0:0:0:
256,192,57643,1,0,0:0:0:0:
256,192,57977,1,8,0:0:0:0:
256,192,58643,1,8,0:0:0:0:
256,192,58977,1,0,0:0:0:0:
256,192,59310,1,0,0:0:0:0:
256,192,59643,1,8,0:0:0:0:
256,192,60310,1,8,0:0:0:0:
256,192,60977,1,0,0:0:0:0:
256,192,61643,1,0,0:0:0:0:
256,192,62310,1,12,0:0:0:0:
256,192,62643,1,0,0:0:0:0:
256,192,62977,1,8,0:0:0:0:
256,192,63643,1,8,0:0:0:0:
256,192,64310,1,0,0:0:0:0:
256,192,64977,1,0,0:0:0:0:
256,192,65310,1,12,0:0:0:0:
256,192,65643,1,8,0:0:0:0:
256,192,65977,1,4,0:0:0:0:
256,192,66310,1,0,0:0:0:0:
256,192,66977,1,8,0:0:0:0:
256,192,67643,1,0,0:0:0:0:
256,192,78310,5,0,0:0:0:0:
256,192,78977,1,8,0:0:0:0:
256,192,80310,1,8,0:0:0:0:
256,192,80977,1,0,0:0:0:0:
256,192,81643,1,8,0:0:0:0:
256,192,81977,1,0,0:0:0:0:
256,192,82643,1,0,0:0:0:0:
256,192,82977,1,8,0:0:0:0:
256,192,83643,1,0,0:0:0:0:
256,192,84310,1,8,0:0:0:0:
256,192,85310,1,0,0:0:0:0:
256,192,85643,1,8,0:0:0:0:
256,192,86310,1,0,0:0:0:0:
256,192,86977,1,8,0:0:0:0:
256,192,87310,1,0,0:0:0:0:
256,192,87977,1,0,0:0:0:0:
256,192,88310,1,8,0:0:0:0:
256,192,88977,1,4,0:0:0:0:
256,192,89643,1,8,0:0:0:0:
256,192,90643,1,0,0:0:0:0:
256,192,90977,1,8,0:0:0:0:
256,192,91643,1,0,0:0:0:0:
256,192,92310,1,8,0:0:0:0:
256,192,92643,1,0,0:0:0:0:
256,192,93310,1,0,0:0:0:0:
256,192,93643,1,8,0:0:0:0:
64,320,94310,5,4,0:0:0:0:
256,192,94977,1,8,0:0:0:0:
256,192,95977,1,0,0:0:0:0:
256,192,96310,1,8,0:0:0:0:
256,192,96977,1,8,0:0:0:0:
256,192,97643,1,8,0:0:0:0:
256,192,98310,12,8,99643,0:0:0:0:
256,192,100643,5,0,0:0:0:0:
256,192,102310,5,8,0:0:0:0:
256,192,103310,1,8,0:0:0:0:
256,192,104977,1,0,0:0:0:0:
256,192,105977,1,0,0:0:0:0:
256,192,107643,1,8,0:0:0:0:
256,192,108643,1,8,0:0:0:0:
256,192,110310,1,0,0:0:0:0:
256,192,111310,1,0,0:0:0:0:
256,192,111643,1,8,0:0:0:0:
256,192,112643,1,8,0:0:0:0:
256,192,112977,1,8,0:0:0:0:
256,192,113310,1,0,0:0:0:0:
256,192,113977,1,0,0:0:0:0:
256,192,114310,1,8,0:0:0:0:
256,192,115310,1,8,0:0:0:0:
256,192,115643,1,0,0:0:0:0:
256,192,115977,1,0,0:0:0:0:
256,192,116810,1,8,0:0:0:0:
256,192,116977,12,0,119643,0:0:0:0:
256,192,120977,5,0,0:0:0:0:
64,320,121643,5,12,0:0:0:0:
256,192,122310,1,0,0:0:0:0:
256,192,122643,1,0,0:0:0:0:
256,192,122977,1,8,0:0:0:0:
256,192,123643,1,0,0:0:0:0:
256,192,124310,1,8,0:0:0:0:
256,192,124643,1,8,0:0:0:0:
256,192,124977,1,0,0:0:0:0:
256,192,125643,1,8,0:0:0:0:
256,192,126310,1,12,0:0:0:0:
256,192,126977,1,0,0:0:0:0:
256,192,127310,1,0,0:0:0:0:
256,192,127643,1,8,0:0:0:0:
256,192,127977,1,0,0:0:0:0:
256,192,128643,1,8,0:0:0:0:
256,192,128977,1,0,0:0:0:0:
256,192,129643,1,8,0:0:0:0:
256,192,130310,1,0,0:0:0:0:
256,192,130977,1,8,0:0:0:0:
64,320,131977,5,12,0:0:0:0:
256,192,132643,1,0,0:0:0:0:
256,192,132977,1,8,0:0:0:0:
256,192,133310,1,8,0:0:0:0:
256,192,133643,1,0,0:0:0:0:
256,192,134310,1,8,0:0:0:0:
256,192,134977,1,8,0:0:0:0:
256,192,135310,1,0,0:0:0:0:
256,192,135643,1,8,0:0:0:0:
256,192,136310,1,0,0:0:0:0:
256,192,136977,1,12,0:0:0:0:
256,192,137310,1,0,0:0:0:0:
256,192,137643,1,0,0:0:0:0:
256,192,138310,1,0,0:0:0:0:
256,192,138643,1,8,0:0:0:0:
256,192,138977,1,8,0:0:0:0:
256,192,139643,1,0,0:0:0:0:
256,192,139977,1,12,0:0:0:0:
256,192,140310,1,8,0:0:0:0:
256,192,140643,1,4,0:0:0:0:
256,192,140977,1,0,0:0:0:0:
256,192,141643,1,8,0:0:0:0:
256,192,142310,1,0,0:0:0:0:
256,192,143643,1,0,0:0:0:0:
64,320,143977,1,12,0:0:0:0:
256,192,144643,1,8,0:0:0:0:
256,192,144977,1,0,0:0:0:0:
256,192,145310,1,0,0:0:0:0:
256,192,145643,1,8,0:0:0:0:
256,192,146310,1,8,0:0:0:0:
256,192,146977,1,0,0:0:0:0:
256,192,147643,1,8,0:0:0:0:
256,192,148310,1,0,0:0:0:0:
256,192,148977,1,0,0:0:0:0:
256,192,149310,1,8,0:0:0:0:
256,192,149977,1,8,0:0:0:0:
256,192,150310,1,0,0:0:0:0:
64,320,150643,5,12,0:0:0:0:
256,192,150977,1,0,0:0:0:0:
256,192,151310,1,8,0:0:0:0:
256,192,151643,1,0,0:0:0:0:
256,192,152310,1,0,0:0:0:0:
96,320,153310,1,12,0:0:0:0:
256,192,153643,1,0,0:0:0:0:
256,192,153977,1,8,0:0:0:0:
256,192,154643,1,0,0:0:0:0:
256,192,154977,1,8,0:0:0:0:
256,192,155310,1,8,0:0:0:0:
256,192,155643,1,0,0:0:0:0:
256,192,156310,1,8,0:0:0:0:
256,192,156977,1,0,0:0:0:0:
256,192,157643,1,8,0:0:0:0:
256,192,157977,1,8,0:0:0:0:
256,192,158310,1,0,0:0:0:0:
256,192,158977,1,8,0:0:0:0:
256,192,159310,1,0,0:0:0:0:
256,192,159643,1,8,0:0:0:0:
256,192,160310,1,8,0:0:0:0:
256,192,160977,1,0,0:0:0:0:
256,192,161310,1,12,0:0:0:0:
256,192,161643,1,8,0:0:0:0:
256,192,161977,1,4,0:0:0:0:
256,192,162310,1,0,0:0:0:0:
256,192,162977,1,0,0:0:0:0:
256,192,163643,1,8,0:0:0:0:
256,192,164977,1,0,0:0:0:0:
256,192,166310,1,8,0:0:0:0:
256,192,166977,1,8,0:0:0:0:
256,192,167643,1,0,0:0:0:0:
256,192,168310,1,0,0:0:0:0:
256,192,168977,1,8,0:0:0:0:
256,192,170310,1,0,0:0:0:0:
256,192,171643,1,0,0:0:0:0:
256,192,172310,1,8,0:0:0:0:
256,192,172977,1,8,0:0:0:0:
256,192,173643,1,8,0:0:0:0:
256,192,174310,1,8,0:0:0:0:
256,192,175643,1,0,0:0:0:0:
256,192,176977,1,8,0:0:0:0:
256,192,177643,1,8,0:0:0:0:
256,192,178310,1,0,0:0:0:0:
256,192,178977,1,0,0:0:0:0:
256,192,179643,1,8,0:0:0:0:
256,192,180977,1,8,0:0:0:0:
256,192,182310,1,8,0:0:0:0:
256,192,182977,1,0,0:0:0:0:
256,192,183643,1,8,0:0:0:0:
256,192,183810,12,0,184977,0:0:0:0:
