osu file format v14

[General]
AudioFilename: PUMP.mp3
AudioLeadIn: 0
PreviewTime: 119643
Countdown: 0
SampleSet: Normal
StackLeniency: 0.7
Mode: 1
LetterboxInBreaks: 0
WidescreenStoryboard: 0

[Editor]
Bookmarks: 22386,33719,35969,42386,97052
DistanceSpacing: 0.1
BeatDivisor: 6
GridSize: 32
TimelineZoom: 3.399997

[Metadata]
Title:PUMP
TitleUnicode:PUMP
Artist:YUC'e
ArtistUnicode:YUC'e
Creator:Capu
Version:Inner Oni
Source:
Tags:future cake fügene fugene mrx-016 megarex komasy yuce japanese electronic bass
BeatmapID:2122782
BeatmapSetID:1014283

[Difficulty]
HPDrainRate:5
CircleSize:2
OverallDifficulty:7.2
ApproachRate:9
SliderMultiplier:1.4
SliderTickRate:1

[Events]
//Background and Video events
0,0,"ppppppppppump.png",0,10
//Break Periods
2,67843,77710
//Storyboard Layer 0 (Background)
//Storyboard Layer 1 (Fail)
//Storyboard Layer 2 (Pass)
//Storyboard Layer 3 (Foreground)
//Storyboard Layer 4 (Overlay)
//Storyboard Sound Samples

[TimingPoints]
-1689,333.333333333333,4,1,0,60,1,0
22310,-100,4,1,0,60,0,0
22643,-97.5609756097561,4,1,0,60,0,0
22977,-95.2380952380952,4,1,0,60,0,0
23310,-93.0232558139535,4,1,0,60,0,0
23477,-91.9540229885058,4,1,0,60,0,0
23532,-91.6030254647251,4,1,0,60,0,0
23588,-91.2547806098192,4,1,0,60,0,0
23643,-90.9090909090909,4,1,0,60,0,0
23755,-90.2255910452905,4,1,0,60,0,0
23866,-89.5522120739665,4,1,0,60,0,0
23977,-88.8888888888889,4,1,0,60,0,0
24088,-88.2353200692118,4,1,0,60,0,0
24199,-87.591215301835,4,1,0,60,0,0
24310,-86.9565217391304,4,1,0,60,0,0
24393,-86.4864864864865,4,1,0,60,0,0
24477,-86.0215053763441,4,1,0,60,0,0
24560,-85.5614973262032,4,1,0,60,0,0
24643,-85.1063829787234,4,1,0,60,0,0
24699,-84.8056297369244,4,1,0,60,0,0
24755,-84.5070660583285,4,1,0,60,0,0
24810,-84.2105263157895,4,1,0,60,0,0
24893,-83.7696335078534,4,1,0,60,0,0
24977,-83.3333333333333,4,1,0,60,0,0
25144,-100,4,1,0,60,0,0
33643,-100,4,1,0,60,0,0
33726,-99.173586503665,4,1,0,60,0,0
33810,-98.3606234883202,4,1,0,60,0,0
33893,-97.5609756097561,4,1,0,60,0,0
33976,-96.774224765879,4,1,0,60,0,0
34060,-95.9999692800098,4,1,0,60,0,0
34143,-95.2380952380952,4,1,0,60,0,0
34226,-94.4882187364469,4,1,0,60,0,0
34310,-93.7499707031342,4,1,0,60,0,0
34393,-93.0232558139535,4,1,0,60,0,0
34476,-92.3077207100679,4,1,0,60,0,0
34560,-91.6030254647251,4,1,0,60,0,0
34643,-90.9090909090909,4,1,0,60,0,0
34726,-90.2255910452905,4,1,0,60,0,0
34810,-89.5522120739665,4,1,0,60,0,0
34893,-88.8888888888889,4,1,0,60,0,0
34976,-88.2353200692118,4,1,0,60,0,0
35060,-87.591215301835,4,1,0,60,0,0
35143,-86.9565217391304,4,1,0,60,0,0
35226,-86.3309600952403,4,1,0,60,0,0
35310,-85.7142612244968,4,1,0,60,0,0
35393,-85.1063829787234,4,1,0,60,0,0
35476,-84.5070660583285,4,1,0,60,0,0
35560,-83.91606044306,4,1,0,60,0,0
35643,-83.3333333333333,4,1,0,60,0,0
35893,-83.3333333333333,4,1,0,60,0,0
35976,-84.4156118232506,4,1,0,60,0,0
36143,-86.6666782222238,4,1,0,60,0,0
36393,-90.2778028549453,4,1,0,60,0,0
36476,-91.5492699861211,4,1,0,60,0,0
36643,-94.2029395085244,4,1,0,60,0,0
36810,-97.0149470928986,4,1,0,60,0,0
36976,-100,4,1,0,60,0,0
42310,-100,4,1,0,60,0,0
42476,-98.7261366586929,4,1,0,60,0,0
42643,-97.4843196471847,4,1,0,60,0,0
42810,-96.2732620269373,4,1,0,60,0,0
42976,-95.0920157890783,4,1,0,60,0,0
43143,-93.9394053259885,4,1,0,60,0,0
43310,-92.8144018251024,4,1,0,60,0,0
43476,-91.715941055999,4,1,0,60,0,0
43532,-91.3555704972666,4,1,0,60,0,0
43588,-90.9980207930478,4,1,0,60,0,0
43643,-90.643258951475,4,1,0,60,0,0
43726,-90.1163131253509,4,1,0,60,0,0
43810,-89.5953783120052,4,1,0,60,0,0
43893,-89.0804316125072,4,1,0,60,0,0
43976,-88.5714488163312,4,1,0,60,0,0
44060,-88.068171810435,4,1,0,60,0,0
44143,-87.5706585751378,4,1,0,60,0,0
44226,-87.0786590234825,4,1,0,60,0,0
44310,-86.5921570019717,4,1,0,60,0,0
44393,-86.1111350308708,4,1,0,60,0,0
44476,-85.6353543847871,4,1,0,60,0,0
44560,-85.1648024091419,4,1,0,60,0,0
44643,-84.6994651228778,4,1,0,60,0,0
44726,-84.239114411038,4,1,0,60,0,0
44810,-83.7838109569117,4,1,0,60,0,0
44893,-83.3333333333333,4,1,0,60,0,0
44976,-62.5,4,1,0,40,0,0
46310,-90.9090909090909,4,1,0,75,0,1
56977,-90.9090909090909,4,1,0,75,0,0
57310,-90.9090909090909,4,1,0,75,0,1
67644,-90.9090909090909,4,1,0,75,0,0
67727,-100,4,1,0,60,0,0
96977,-100,4,1,0,60,0,0
97143,-98.7685536728074,4,1,0,60,0,0
97310,-97.5671627956895,4,1,0,60,0,0
97476,-96.3945544788284,4,1,0,60,0,0
97643,-95.2498880813815,4,1,0,60,0,0
97810,-94.1319994201469,4,1,0,60,0,0
97976,-93.0401328613097,4,1,0,60,0,0
98143,-91.9732210769512,4,1,0,60,0,0
98199,-91.6230006715966,4,1,0,60,0,0
98254,-91.2755206355697,4,1,0,60,0,0
98310,-90.9305835924855,4,1,0,60,0,0
98421,-90.2484720933675,4,1,0,60,0,0
98532,-89.5765180532515,4,1,0,60,0,0
98643,-88.9145753217596,4,1,0,60,0,0
98754,-88.2622660277655,4,1,0,60,0,0
98865,-87.6194581787945,4,1,0,60,0,0
98976,-86.9860213463696,4,1,0,60,0,0
99060,-86.5168655977796,4,1,0,60,0,0
99143,-86.0527434475138,4,1,0,60,0,0
99226,-85.5935743191887,4,1,0,60,0,0
99310,-85.1393518341145,4,1,0,60,0,0
99365,-84.8391576829069,4,1,0,60,0,0
99421,-84.5410730122069,4,1,0,60,0,0
99476,-84.2450756647147,4,1,0,60,0,0
99560,-83.8049456650635,4,1,0,60,0,0
99643,-83.3693905947656,4,1,0,60,0,0
99727,-100,4,1,0,60,0,0
116977,-100,4,1,0,60,0,0
117143,-98.7294506989551,4,1,0,60,0,0
117310,-97.4908772911575,4,1,0,60,0,0
117476,-96.2829022747799,4,1,0,60,0,0
117643,-95.1044960650515,4,1,0,60,0,0
117810,-93.9546743859827,4,1,0,60,0,0
117976,-92.8322372940517,4,1,0,60,0,0
118143,-91.7363863202701,4,1,0,60,0,0
118199,-91.3767738516224,4,1,0,60,0,0
118254,-91.01996978137,4,1,0,60,0,0
118310,-90.6660235423397,4,1,0,60,0,0
118393,-90.140195045354,4,1,0,60,0,0
118476,-89.620350272177,4,1,0,60,0,0
118560,-89.1065464797568,4,1,0,60,0,0
118643,-88.5986004965065,4,1,0,60,0,0
118726,-88.0963351043633,4,1,0,60,0,0
118810,-87.5998090324163,4,1,0,60,0,0
118893,-87.10884860395,4,1,0,60,0,0
118976,-86.6232857251755,4,1,0,60,0,0
119060,-86.143180302845,4,1,0,60,0,0
119143,-85.6683674693222,4,1,0,60,0,0
119226,-85.1986875994162,4,1,0,60,0,0
119310,-84.7342015199621,4,1,0,60,0,0
119393,-84.2747525482578,4,1,0,60,0,0
119476,-83.8202591890055,4,1,0,60,0,0
119560,-83.370572188911,4,1,0,60,0,0
119643,-62.5,4,1,0,75,0,0
120977,-100,4,1,0,75,0,0
121560,-95.2380952380952,4,1,0,75,0,0
121644,-90.9090909090909,4,1,0,75,0,1
131644,-90.9090909090909,4,1,0,75,0,0
131977,-90.9090909090909,4,1,0,75,0,1
142310,-90.9090909090909,4,1,0,75,0,0
142643,-100,4,1,0,70,0,0
143643,-98.0392156862745,4,1,0,70,0,0
143727,-96.1538461538461,4,1,0,70,0,0
143810,-94.3396226415094,4,1,0,70,0,0
143893,-92.5925925925926,4,1,0,70,0,0
143977,-90.9090909090909,4,1,0,70,0,1
146310,-90.9090909090909,4,1,0,70,0,0
147644,-90.9090909090909,4,1,0,70,0,1
150310,-90.9090909090909,4,1,0,70,0,0
153310,-90.9090909090909,4,1,0,70,0,1
156977,-90.9090909090909,4,1,0,70,0,0
158310,-90.9090909090909,4,1,0,70,0,1
160643,-92.5925925925926,4,1,0,70,0,1
160727,-94.3396226415094,4,1,0,70,0,1
160810,-96.1538461538461,4,1,0,70,0,1
160893,-98.0392156862745,4,1,0,70,0,1
160977,-100,4,1,0,70,0,1
161143,-98.7685536728074,4,1,0,70,0,1
161199,-98.3648805899532,4,1,0,70,0,1
161255,-97.9643977785593,4,1,0,70,0,1
161310,-97.5671627956895,4,1,0,70,0,1
161643,-95.2498880813815,4,1,0,70,0,1
161810,-94.1319994201469,4,1,0,70,0,1
161866,-93.7651782382273,4,1,0,70,0,1
161921,-93.4012921134751,4,1,0,70,0,1
161977,-93.0401328613097,4,1,0,70,0,1
162310,-90.9305835924855,4,1,0,70,0,1
162477,-89.9112396242429,4,1,0,70,0,1
162560,-89.4100901074888,4,1,0,70,0,1
162643,-88.9145753217596,4,1,0,70,0,1
162810,-87.9396874447629,4,1,0,70,0,1
162893,-87.4602165340041,4,1,0,70,0,1
162977,-86.9860213463696,4,1,0,70,0,1
163143,-86.0527434475138,4,1,0,70,0,1
163310,-85.1393518341145,4,1,0,70,0,1
163477,-84.2450756647147,4,1,0,70,0,1
163644,-83.3693905947656,4,1,0,70,0,0
163727,-133.333333333333,4,1,0,50,0,0

[HitObjects]
256,192,3643,5,0,0:0:0:0:
256,192,4143,1,0,0:0:0:0:
256,192,4310,1,8,0:0:0:0:
256,192,4643,1,0,0:0:0:0:
256,192,4810,1,8,0:0:0:0:
256,192,4977,1,8,0:0:0:0:
256,192,5310,1,0,0:0:0:0:
256,192,5643,1,8,0:0:0:0:
256,192,5977,1,0,0:0:0:0:
256,192,6143,1,8,0:0:0:0:
256,192,6310,1,0,0:0:0:0:
256,192,6810,1,0,0:0:0:0:
256,192,6977,1,8,0:0:0:0:
256,192,7310,1,0,0:0:0:0:
256,192,7977,1,0,0:0:0:0:
256,192,8310,1,8,0:0:0:0:
256,192,8643,1,0,0:0:0:0:
256,192,8977,1,8,0:0:0:0:
256,192,9477,1,0,0:0:0:0:
256,192,9643,1,8,0:0:0:0:
256,192,9977,1,8,0:0:0:0:
256,192,10143,1,0,0:0:0:0:
256,192,10310,1,8,0:0:0:0:
256,192,10643,1,0,0:0:0:0:
256,192,10977,1,8,0:0:0:0:
256,192,11310,1,0,0:0:0:0:
256,192,11477,1,8,0:0:0:0:
256,192,11643,1,0,0:0:0:0:
256,192,12143,1,0,0:0:0:0:
256,192,12310,1,8,0:0:0:0:
256,192,12643,1,0,0:0:0:0:
256,192,13310,1,0,0:0:0:0:
256,192,13643,1,8,0:0:0:0:
256,192,13977,1,0,0:0:0:0:
256,192,14310,1,8,0:0:0:0:
256,192,14477,1,8,0:0:0:0:
256,192,14643,1,0,0:0:0:0:
256,192,14810,1,0,0:0:0:0:
256,192,14977,1,8,0:0:0:0:
256,192,15310,1,0,0:0:0:0:
256,192,15477,1,8,0:0:0:0:
256,192,15643,1,0,0:0:0:0:
256,192,15810,1,0,0:0:0:0:
256,192,15977,1,8,0:0:0:0:
256,192,16310,1,8,0:0:0:0:
256,192,16421,1,0,0:0:0:0:
256,192,16532,1,0,0:0:0:0:
256,192,16643,1,8,0:0:0:0:
256,192,16810,1,8,0:0:0:0:
256,192,16977,1,0,0:0:0:0:
256,192,17477,1,0,0:0:0:0:
256,192,17643,1,8,0:0:0:0:
256,192,17810,1,0,0:0:0:0:
256,192,17977,1,8,0:0:0:0:
256,192,18310,1,0,0:0:0:0:
256,192,18643,1,8,0:0:0:0:
256,192,18810,1,0,0:0:0:0:
256,192,18977,1,8,0:0:0:0:
256,192,19143,1,0,0:0:0:0:
256,192,19310,1,8,0:0:0:0:
64,320,19643,1,4,0:0:0:0:
256,192,19977,1,0,0:0:0:0:
256,192,20143,1,0,0:0:0:0:
256,192,20310,1,8,0:0:0:0:
256,192,20643,1,0,0:0:0:0:
256,192,20810,1,8,0:0:0:0:
256,192,20977,1,8,0:0:0:0:
256,192,21143,1,0,0:0:0:0:
256,192,21310,1,0,0:0:0:0:
256,192,21643,1,8,0:0:0:0:
256,192,21755,1,0,0:0:0:0:
256,192,21866,1,0,0:0:0:0:
256,192,21977,1,8,0:0:0:0:
256,192,22143,1,8,0:0:0:0:
256,192,22310,5,0,0:0:0:0:
256,192,22643,1,0,0:0:0:0:
256,192,22977,1,8,0:0:0:0:
256,192,23310,1,8,0:0:0:0:
256,192,23477,1,0,0:0:0:0:
256,192,23532,1,0,0:0:0:0:
256,192,23588,1,0,0:0:0:0:
256,192,23643,1,8,0:0:0:0:
256,192,23755,1,0,0:0:0:0:
256,192,23866,1,0,0:0:0:0:
256,192,23977,1,8,0:0:0:0:
256,192,24088,1,8,0:0:0:0:
256,192,24199,1,0,0:0:0:0:
256,192,24310,1,8,0:0:0:0:
256,192,24393,1,0,0:0:0:0:
256,192,24477,1,8,0:0:0:0:
256,192,24560,1,8,0:0:0:0:
256,192,24643,1,0,0:0:0:0:
256,192,24699,1,0,0:0:0:0:
256,192,24755,1,0,0:0:0:0:
256,192,24810,1,8,0:0:0:0:
256,192,24893,1,8,0:0:0:0:
256,192,24977,1,0,0:0:0:0:
256,192,25977,1,8,0:0:0:0:
256,192,27643,1,0,0:0:0:0:
256,192,28643,1,8,0:0:0:0:
256,192,29643,1,8,0:0:0:0:
256,192,29977,1,0,0:0:0:0:
256,192,30310,1,8,0:0:0:0:
256,192,31310,1,0,0:0:0:0:
256,192,32977,1,8,0:0:0:0:
256,192,33643,5,0,0:0:0:0:
256,192,33727,1,0,0:0:0:0:
256,192,33810,1,0,0:0:0:0:
256,192,33893,1,0,0:0:0:0:
256,192,33977,1,8,0:0:0:0:
256,192,34060,1,8,0:0:0:0:
256,192,34143,1,0,0:0:0:0:
256,192,34227,1,0,0:0:0:0:
256,192,34310,1,8,0:0:0:0:
256,192,34393,1,8,0:0:0:0:
256,192,34477,1,0,0:0:0:0:
256,192,34560,1,0,0:0:0:0:
256,192,34643,1,8,0:0:0:0:
256,192,34727,1,8,0:0:0:0:
256,192,34810,1,0,0:0:0:0:
256,192,34893,1,0,0:0:0:0:
256,192,34977,1,8,0:0:0:0:
256,192,35060,1,8,0:0:0:0:
256,192,35143,1,8,0:0:0:0:
256,192,35227,1,8,0:0:0:0:
256,192,35310,1,0,0:0:0:0:
256,192,35393,1,0,0:0:0:0:
256,192,35477,1,0,0:0:0:0:
256,192,35560,1,0,0:0:0:0:
256,192,35643,1,8,0:0:0:0:
256,192,35893,5,0,0:0:0:0:
256,192,35977,1,8,0:0:0:0:
256,192,36143,1,8,0:0:0:0:
256,192,36393,1,8,0:0:0:0:
256,192,36477,1,0,0:0:0:0:
256,192,36643,1,8,0:0:0:0:
256,192,36810,1,8,0:0:0:0:
256,192,36977,1,8,0:0:0:0:
256,192,37227,1,0,0:0:0:0:
256,192,37310,1,8,0:0:0:0:
256,192,37477,1,8,0:0:0:0:
256,192,37727,1,0,0:0:0:0:
256,192,37810,1,8,0:0:0:0:
256,192,37977,1,8,0:0:0:0:
256,192,38060,1,8,0:0:0:0:
256,192,38143,1,0,0:0:0:0:
256,192,38199,1,0,0:0:0:0:
256,192,38255,1,0,0:0:0:0:
256,192,38310,1,8,0:0:0:0:
256,192,38560,1,0,0:0:0:0:
256,192,38643,1,8,0:0:0:0:
256,192,38810,1,8,0:0:0:0:
256,192,39060,1,8,0:0:0:0:
256,192,39143,1,8,0:0:0:0:
256,192,39310,1,8,0:0:0:0:
256,192,39477,1,8,0:0:0:0:
256,192,39643,1,8,0:0:0:0:
256,192,39893,1,0,0:0:0:0:
256,192,39977,1,8,0:0:0:0:
256,192,40143,1,8,0:0:0:0:
256,192,40393,1,0,0:0:0:0:
256,192,40477,1,8,0:0:0:0:
256,192,40643,1,8,0:0:0:0:
256,192,40699,1,8,0:0:0:0:
256,192,40810,1,0,0:0:0:0:
256,192,40977,1,8,0:0:0:0:
256,192,41143,1,8,0:0:0:0:
256,192,41310,1,8,0:0:0:0:
256,192,41477,1,8,0:0:0:0:
256,192,41643,1,8,0:0:0:0:
256,192,41810,1,8,0:0:0:0:
256,192,41977,1,8,0:0:0:0:
256,192,42143,1,8,0:0:0:0:
256,192,42199,1,8,0:0:0:0:
256,192,42310,5,8,0:0:0:0:
256,192,42477,1,8,0:0:0:0:
256,192,42643,1,8,0:0:0:0:
256,192,42810,1,8,0:0:0:0:
256,192,42977,1,8,0:0:0:0:
256,192,43143,1,8,0:0:0:0:
256,192,43310,1,8,0:0:0:0:
256,192,43477,1,0,0:0:0:0:
256,192,43532,1,0,0:0:0:0:
256,192,43588,1,0,0:0:0:0:
256,192,43643,1,8,0:0:0:0:
256,192,43727,1,8,0:0:0:0:
256,192,43810,1,0,0:0:0:0:
256,192,43893,1,0,0:0:0:0:
256,192,43977,1,8,0:0:0:0:
256,192,44060,1,8,0:0:0:0:
256,192,44143,1,0,0:0:0:0:
256,192,44227,1,0,0:0:0:0:
256,192,44310,1,8,0:0:0:0:
256,192,44393,1,8,0:0:0:0:
256,192,44477,1,0,0:0:0:0:
256,192,44560,1,0,0:0:0:0:
256,192,44643,1,8,0:0:0:0:
256,192,44727,1,8,0:0:0:0:
256,192,44810,1,0,0:0:0:0:
256,192,44893,1,0,0:0:0:0:
256,192,44977,1,12,0:0:0:0:
256,192,45143,1,12,0:0:0:0:
256,192,45310,1,4,0:0:0:0:
256,192,45477,1,12,0:0:0:0:
256,192,45643,1,12,0:0:0:0:
256,192,45810,1,4,0:0:0:0:
256,192,45977,1,12,0:0:0:0:
64,320,46310,1,12,0:0:0:0:
256,192,46477,1,0,0:0:0:0:
256,192,46560,1,0,0:0:0:0:
256,192,46643,1,8,0:0:0:0:
256,192,46727,1,0,0:0:0:0:
256,192,46810,1,8,0:0:0:0:
256,192,46893,1,8,0:0:0:0:
256,192,46977,1,0,0:0:0:0:
256,192,47143,1,8,0:0:0:0:
256,192,47227,1,0,0:0:0:0:
256,192,47310,1,8,0:0:0:0:
256,192,47477,1,0,0:0:0:0:
256,192,47560,1,8,0:0:0:0:
256,192,47643,1,8,0:0:0:0:
256,192,47727,1,0,0:0:0:0:
256,192,47810,1,8,0:0:0:0:
256,192,47893,1,0,0:0:0:0:
256,192,47977,1,8,0:0:0:0:
256,192,48143,1,0,0:0:0:0:
256,192,48227,1,8,0:0:0:0:
256,192,48310,1,0,0:0:0:0:
256,192,48477,1,8,0:0:0:0:
256,192,48560,1,0,0:0:0:0:
256,192,48643,1,8,0:0:0:0:
256,192,48810,1,0,0:0:0:0:
256,192,48866,1,0,0:0:0:0:
256,192,48921,1,0,0:0:0:0:
256,192,48977,1,8,0:0:0:0:
256,192,49310,1,8,0:0:0:0:
256,192,49366,1,8,0:0:0:0:
256,192,49421,1,8,0:0:0:0:
256,192,49477,1,0,0:0:0:0:
256,192,49560,1,0,0:0:0:0:
256,192,49643,1,8,0:0:0:0:
256,192,49810,1,0,0:0:0:0:
256,192,49893,1,8,0:0:0:0:
256,192,49977,1,0,0:0:0:0:
256,192,50032,1,0,0:0:0:0:
256,192,50088,1,0,0:0:0:0:
256,192,50143,1,8,0:0:0:0:
256,192,50227,1,8,0:0:0:0:
256,192,50310,1,0,0:0:0:0:
256,192,50477,1,0,0:0:0:0:
256,192,50643,1,8,0:0:0:0:
256,192,50699,1,0,0:0:0:0:
256,192,50755,1,0,0:0:0:0:
256,192,50810,1,8,0:0:0:0:
256,192,50866,1,0,0:0:0:0:
256,192,50921,1,0,0:0:0:0:
256,192,50977,1,8,0:0:0:0:
256,192,51143,1,0,0:0:0:0:
256,192,51310,1,8,0:0:0:0:
256,192,51366,1,8,0:0:0:0:
256,192,51421,1,8,0:0:0:0:
256,192,51477,1,0,0:0:0:0:
64,320,51643,1,12,0:0:0:0:
256,192,51810,1,0,0:0:0:0:
256,192,51893,1,0,0:0:0:0:
256,192,51977,1,8,0:0:0:0:
256,192,52060,1,0,0:0:0:0:
256,192,52143,1,8,0:0:0:0:
256,192,52227,1,8,0:0:0:0:
256,192,52310,1,0,0:0:0:0:
256,192,52477,1,8,0:0:0:0:
256,192,52560,1,0,0:0:0:0:
256,192,52643,1,8,0:0:0:0:
256,192,52810,1,0,0:0:0:0:
256,192,52893,1,8,0:0:0:0:
256,192,52977,1,8,0:0:0:0:
256,192,53060,1,0,0:0:0:0:
256,192,53143,1,8,0:0:0:0:
256,192,53227,1,0,0:0:0:0:
256,192,53310,1,8,0:0:0:0:
256,192,53477,1,0,0:0:0:0:
256,192,53560,1,8,0:0:0:0:
256,192,53643,1,0,0:0:0:0:
256,192,53810,1,8,0:0:0:0:
256,192,53893,1,0,0:0:0:0:
256,192,53977,1,8,0:0:0:0:
256,192,54060,1,8,0:0:0:0:
256,192,54143,1,0,0:0:0:0:
256,192,54227,1,0,0:0:0:0:
256,192,54310,1,8,0:0:0:0:
256,192,54643,1,8,0:0:0:0:
256,192,54699,1,8,0:0:0:0:
256,192,54755,1,8,0:0:0:0:
256,192,54810,1,0,0:0:0:0:
256,192,54893,1,0,0:0:0:0:
256,192,54977,1,8,0:0:0:0:
256,192,55143,1,8,0:0:0:0:
256,192,55227,1,8,0:0:0:0:
256,192,55310,1,0,0:0:0:0:
256,192,55366,1,0,0:0:0:0:
256,192,55421,1,0,0:0:0:0:
256,192,55477,1,8,0:0:0:0:
256,192,55532,1,8,0:0:0:0:
256,192,55588,1,8,0:0:0:0:
256,192,55643,1,0,0:0:0:0:
256,192,55810,1,8,0:0:0:0:
256,192,55893,1,8,0:0:0:0:
256,192,55977,1,0,0:0:0:0:
256,192,56060,1,0,0:0:0:0:
256,192,56143,1,8,0:0:0:0:
256,192,56227,1,0,0:0:0:0:
256,192,56310,1,8,0:0:0:0:
256,192,56477,1,8,0:0:0:0:
256,192,56560,1,8,0:0:0:0:
256,192,56643,1,8,0:0:0:0:
256,192,56727,1,0,0:0:0:0:
256,192,56810,1,0,0:0:0:0:
256,192,56893,1,0,0:0:0:0:
256,192,56977,1,8,0:0:0:0:
256,192,57060,1,0,0:0:0:0:
256,192,57143,1,8,0:0:0:0:
64,320,57310,1,12,0:0:0:0:
256,192,57477,1,0,0:0:0:0:
256,192,57560,1,0,0:0:0:0:
256,192,57643,1,8,0:0:0:0:
256,192,57810,1,8,0:0:0:0:
256,192,57893,1,0,0:0:0:0:
256,192,57977,1,8,0:0:0:0:
256,192,58143,1,0,0:0:0:0:
256,192,58227,1,8,0:0:0:0:
256,192,58310,1,8,0:0:0:0:
256,192,58393,1,0,0:0:0:0:
256,192,58477,1,8,0:0:0:0:
256,192,58560,1,0,0:0:0:0:
256,192,58643,1,8,0:0:0:0:
256,192,58810,1,8,0:0:0:0:
256,192,58893,1,8,0:0:0:0:
256,192,58977,1,0,0:0:0:0:
256,192,59143,1,8,0:0:0:0:
256,192,59227,1,0,0:0:0:0:
256,192,59393,1,8,0:0:0:0:
256,192,59477,1,0,0:0:0:0:
256,192,59560,1,0,0:0:0:0:
256,192,59643,1,8,0:0:0:0:
256,192,59810,1,8,0:0:0:0:
256,192,59893,1,8,0:0:0:0:
256,192,59977,1,0,0:0:0:0:
256,192,60032,1,0,0:0:0:0:
256,192,60088,1,0,0:0:0:0:
256,192,60143,1,8,0:0:0:0:
256,192,60227,1,0,0:0:0:0:
256,192,60310,1,8,0:0:0:0:
256,192,60477,1,8,0:0:0:0:
256,192,60560,1,0,0:0:0:0:
256,192,60643,1,8,0:0:0:0:
256,192,60727,1,8,0:0:0:0:
256,192,60810,1,0,0:0:0:0:
256,192,60893,1,0,0:0:0:0:
256,192,60977,1,8,0:0:0:0:
256,192,61143,1,8,0:0:0:0:
256,192,61310,1,8,0:0:0:0:
256,192,61477,1,0,0:0:0:0:
256,192,61560,1,0,0:0:0:0:
256,192,61643,1,8,0:0:0:0:
256,192,61810,1,0,0:0:0:0:
256,192,61977,1,8,0:0:0:0:
256,192,62032,1,8,0:0:0:0:
256,192,62088,1,8,0:0:0:0:
256,192,62143,1,0,0:0:0:0:
64,320,62310,1,12,0:0:0:0:
256,192,62477,1,0,0:0:0:0:
256,192,62560,1,8,0:0:0:0:
256,192,62643,1,0,0:0:0:0:
256,192,62810,1,8,0:0:0:0:
256,192,62893,1,0,0:0:0:0:
256,192,62977,1,8,0:0:0:0:
256,192,63143,1,8,0:0:0:0:
256,192,63227,1,0,0:0:0:0:
256,192,63393,1,8,0:0:0:0:
256,192,63477,1,0,0:0:0:0:
256,192,63560,1,8,0:0:0:0:
256,192,63643,1,8,0:0:0:0:
256,192,63727,1,0,0:0:0:0:
256,192,63810,1,8,0:0:0:0:
256,192,63893,1,0,0:0:0:0:
256,192,63977,1,8,0:0:0:0:
256,192,64143,1,0,0:0:0:0:
256,192,64227,1,8,0:0:0:0:
256,192,64310,1,0,0:0:0:0:
256,192,64477,1,8,0:0:0:0:
256,192,64560,1,0,0:0:0:0:
256,192,64643,1,0,0:0:0:0:
256,192,64727,1,8,0:0:0:0:
256,192,64810,1,8,0:0:0:0:
256,192,64893,1,0,0:0:0:0:
256,192,64977,1,8,0:0:0:0:
256,192,65143,1,8,0:0:0:0:
256,192,65199,1,0,0:0:0:0:
256,192,65255,1,0,0:0:0:0:
256,192,65310,1,12,0:0:0:0:
256,192,65643,1,0,0:0:0:0:
256,192,65810,1,8,0:0:0:0:
256,192,65866,1,8,0:0:0:0:
256,192,65921,1,8,0:0:0:0:
256,192,65977,1,4,0:0:0:0:
256,192,66310,1,8,0:0:0:0:
256,192,66477,1,0,0:0:0:0:
256,192,66643,1,8,0:0:0:0:
256,192,66810,1,8,0:0:0:0:
256,192,66893,1,0,0:0:0:0:
256,192,66977,1,8,0:0:0:0:
256,192,67143,1,8,0:0:0:0:
256,192,67310,1,8,0:0:0:0:
256,192,67477,1,0,0:0:0:0:
256,192,67643,1,0,0:0:0:0:
256,192,78310,5,0,0:0:0:0:
256,192,78810,1,0,0:0:0:0:
256,192,78977,1,8,0:0:0:0:
256,192,79310,1,0,0:0:0:0:
256,192,79477,1,8,0:0:0:0:
256,192,79643,1,0,0:0:0:0:
256,192,79977,1,0,0:0:0:0:
256,192,80310,1,8,0:0:0:0:
256,192,80643,1,0,0:0:0:0:
256,192,80810,1,8,0:0:0:0:
256,192,80977,1,0,0:0:0:0:
256,192,81477,1,0,0:0:0:0:
256,192,81643,1,8,0:0:0:0:
256,192,81977,1,0,0:0:0:0:
256,192,82643,1,0,0:0:0:0:
256,192,82977,1,8,0:0:0:0:
256,192,83310,1,0,0:0:0:0:
256,192,83643,1,8,0:0:0:0:
256,192,84143,1,0,0:0:0:0:
256,192,84310,1,8,0:0:0:0:
256,192,84643,1,8,0:0:0:0:
256,192,84810,1,0,0:0:0:0:
256,192,84977,1,8,0:0:0:0:
256,192,85310,1,0,0:0:0:0:
256,192,85643,1,8,0:0:0:0:
256,192,85977,1,0,0:0:0:0:
256,192,86143,1,8,0:0:0:0:
256,192,86310,1,0,0:0:0:0:
256,192,86810,1,0,0:0:0:0:
256,192,86977,1,8,0:0:0:0:
256,192,87310,1,0,0:0:0:0:
256,192,87977,1,0,0:0:0:0:
256,192,88310,1,8,0:0:0:0:
256,192,88643,1,8,0:0:0:0:
256,192,88977,1,4,0:0:0:0:
256,192,89310,1,0,0:0:0:0:
256,192,89643,1,8,0:0:0:0:
256,192,89977,1,0,0:0:0:0:
256,192,90143,1,8,0:0:0:0:
256,192,90310,1,0,0:0:0:0:
256,192,90643,1,0,0:0:0:0:
256,192,90977,1,8,0:0:0:0:
256,192,91088,1,0,0:0:0:0:
256,192,91199,1,0,0:0:0:0:
256,192,91310,1,8,0:0:0:0:
256,192,91477,1,8,0:0:0:0:
256,192,91643,1,0,0:0:0:0:
256,192,91977,1,0,0:0:0:0:
256,192,92310,1,8,0:0:0:0:
256,192,92643,1,0,0:0:0:0:
256,192,92977,1,0,0:0:0:0:
256,192,93310,1,0,0:0:0:0:
256,192,93643,1,8,0:0:0:0:
256,192,93977,1,0,0:0:0:0:
64,320,94310,1,4,0:0:0:0:
256,192,94643,1,0,0:0:0:0:
256,192,94977,1,8,0:0:0:0:
256,192,95310,1,0,0:0:0:0:
256,192,95477,1,8,0:0:0:0:
256,192,95643,1,0,0:0:0:0:
256,192,95977,1,0,0:0:0:0:
256,192,96310,1,8,0:0:0:0:
256,192,96421,1,0,0:0:0:0:
256,192,96532,1,0,0:0:0:0:
256,192,96643,1,8,0:0:0:0:
256,192,96810,1,8,0:0:0:0:
256,192,96977,5,0,0:0:0:0:
256,192,97143,1,0,0:0:0:0:
256,192,97310,1,0,0:0:0:0:
256,192,97477,1,0,0:0:0:0:
256,192,97643,1,8,0:0:0:0:
256,192,97810,1,0,0:0:0:0:
256,192,97977,1,0,0:0:0:0:
256,192,98143,1,0,0:0:0:0:
256,192,98199,1,0,0:0:0:0:
256,192,98255,1,0,0:0:0:0:
256,192,98310,1,8,0:0:0:0:
256,192,98421,1,0,0:0:0:0:
256,192,98532,1,0,0:0:0:0:
256,192,98643,1,8,0:0:0:0:
256,192,98755,1,8,0:0:0:0:
256,192,98866,1,0,0:0:0:0:
256,192,98977,1,8,0:0:0:0:
256,192,99060,1,0,0:0:0:0:
256,192,99143,1,8,0:0:0:0:
256,192,99227,1,8,0:0:0:0:
256,192,99310,1,0,0:0:0:0:
256,192,99366,1,0,0:0:0:0:
256,192,99421,1,0,0:0:0:0:
256,192,99477,1,8,0:0:0:0:
256,192,99560,1,8,0:0:0:0:
256,192,99643,1,0,0:0:0:0:
256,192,100643,1,8,0:0:0:0:
256,192,102310,1,0,0:0:0:0:
256,192,103310,1,8,0:0:0:0:
256,192,104310,1,8,0:0:0:0:
256,192,104643,1,0,0:0:0:0:
256,192,104977,1,8,0:0:0:0:
256,192,105977,1,0,0:0:0:0:
256,192,107643,1,8,0:0:0:0:
256,192,108310,1,0,0:0:0:0:
256,192,108643,1,8,0:0:0:0:
256,192,108977,12,0,109977,0:0:0:0:
256,192,110310,5,8,0:0:0:0:
256,192,110560,5,0,0:0:0:0:
256,192,110643,1,8,0:0:0:0:
256,192,110810,1,8,0:0:0:0:
256,192,111060,1,8,0:0:0:0:
256,192,111143,1,0,0:0:0:0:
256,192,111310,1,8,0:0:0:0:
256,192,111477,1,8,0:0:0:0:
256,192,111643,1,8,0:0:0:0:
256,192,111893,1,0,0:0:0:0:
256,192,111977,1,8,0:0:0:0:
256,192,112143,1,8,0:0:0:0:
256,192,112393,1,0,0:0:0:0:
256,192,112477,1,8,0:0:0:0:
256,192,112643,1,8,0:0:0:0:
256,192,112727,1,8,0:0:0:0:
256,192,112810,1,0,0:0:0:0:
256,192,112866,1,0,0:0:0:0:
256,192,112921,1,0,0:0:0:0:
256,192,112977,1,8,0:0:0:0:
256,192,113227,1,0,0:0:0:0:
256,192,113310,1,8,0:0:0:0:
256,192,113477,1,8,0:0:0:0:
256,192,113727,1,8,0:0:0:0:
256,192,113810,1,8,0:0:0:0:
256,192,113977,1,8,0:0:0:0:
256,192,114143,1,8,0:0:0:0:
256,192,114310,1,8,0:0:0:0:
256,192,114560,1,0,0:0:0:0:
256,192,114643,1,8,0:0:0:0:
256,192,114810,5,8,0:0:0:0:
256,192,115060,1,8,0:0:0:0:
256,192,115143,1,0,0:0:0:0:
256,192,115310,1,8,0:0:0:0:
256,192,115366,1,8,0:0:0:0:
256,192,115477,1,0,0:0:0:0:
256,192,115643,1,8,0:0:0:0:
256,192,115810,1,8,0:0:0:0:
256,192,115977,1,8,0:0:0:0:
256,192,116143,1,8,0:0:0:0:
256,192,116310,1,8,0:0:0:0:
256,192,116477,1,8,0:0:0:0:
256,192,116643,1,8,0:0:0:0:
256,192,116810,1,8,0:0:0:0:
256,192,116866,1,8,0:0:0:0:
256,192,116977,5,8,0:0:0:0:
256,192,117143,1,8,0:0:0:0:
256,192,117310,1,8,0:0:0:0:
256,192,117477,1,8,0:0:0:0:
256,192,117643,1,8,0:0:0:0:
256,192,117810,1,8,0:0:0:0:
256,192,117977,1,8,0:0:0:0:
256,192,118143,1,8,0:0:0:0:
256,192,118199,1,0,0:0:0:0:
256,192,118255,1,0,0:0:0:0:
256,192,118310,1,8,0:0:0:0:
256,192,118393,1,8,0:0:0:0:
256,192,118477,1,0,0:0:0:0:
256,192,118560,1,0,0:0:0:0:
256,192,118643,1,8,0:0:0:0:
256,192,118727,1,8,0:0:0:0:
256,192,118810,1,0,0:0:0:0:
256,192,118893,1,0,0:0:0:0:
256,192,118977,1,8,0:0:0:0:
256,192,119060,1,8,0:0:0:0:
256,192,119143,1,0,0:0:0:0:
256,192,119227,1,0,0:0:0:0:
256,192,119310,1,8,0:0:0:0:
256,192,119393,1,8,0:0:0:0:
256,192,119477,1,0,0:0:0:0:
256,192,119560,1,0,0:0:0:0:
256,192,119643,1,12,0:0:0:0:
256,192,119810,1,12,0:0:0:0:
256,192,119977,1,4,0:0:0:0:
256,192,120143,1,12,0:0:0:0:
256,192,120310,1,12,0:0:0:0:
256,192,120477,1,4,0:0:0:0:
256,192,120643,1,12,0:0:0:0:
256,192,120977,1,8,0:0:0:0:
256,192,121143,1,0,0:0:0:0:
256,192,121227,1,8,0:0:0:0:
256,192,121310,1,0,0:0:0:0:
256,192,121477,1,0,0:0:0:0:
256,192,121560,1,0,0:0:0:0:
64,320,121644,1,12,0:0:0:0:
256,192,121810,1,8,0:0:0:0:
256,192,121893,1,0,0:0:0:0:
256,192,121977,1,8,0:0:0:0:
256,192,122143,1,0,0:0:0:0:
256,192,122227,1,8,0:0:0:0:
256,192,122310,1,8,0:0:0:0:
256,192,122393,1,0,0:0:0:0:
256,192,122477,1,8,0:0:0:0:
256,192,122560,1,0,0:0:0:0:
256,192,122643,1,8,0:0:0:0:
256,192,122810,1,0,0:0:0:0:
256,192,122893,1,8,0:0:0:0:
256,192,122977,1,0,0:0:0:0:
256,192,123143,1,8,0:0:0:0:
256,192,123227,1,0,0:0:0:0:
256,192,123310,1,8,0:0:0:0:
256,192,123477,1,0,0:0:0:0:
256,192,123532,1,8,0:0:0:0:
256,192,123588,1,8,0:0:0:0:
256,192,123643,1,0,0:0:0:0:
256,192,123977,1,8,0:0:0:0:
256,192,124032,1,0,0:0:0:0:
256,192,124088,1,0,0:0:0:0:
256,192,124143,1,8,0:0:0:0:
256,192,124227,1,0,0:0:0:0:
256,192,124310,1,8,0:0:0:0:
256,192,124477,1,8,0:0:0:0:
256,192,124560,1,0,0:0:0:0:
256,192,124643,1,8,0:0:0:0:
256,192,124699,1,8,0:0:0:0:
256,192,124755,1,8,0:0:0:0:
256,192,124810,1,0,0:0:0:0:
256,192,124893,1,0,0:0:0:0:
256,192,124977,1,8,0:0:0:0:
256,192,125143,1,0,0:0:0:0:
256,192,125310,1,8,0:0:0:0:
256,192,125366,1,0,0:0:0:0:
256,192,125421,1,0,0:0:0:0:
256,192,125477,1,8,0:0:0:0:
256,192,125532,1,0,0:0:0:0:
256,192,125588,1,0,0:0:0:0:
256,192,125643,1,8,0:0:0:0:
256,192,125810,1,0,0:0:0:0:
256,192,125977,1,8,0:0:0:0:
256,192,126032,1,8,0:0:0:0:
256,192,126088,1,8,0:0:0:0:
256,192,126143,1,0,0:0:0:0:
64,320,126310,1,12,0:0:0:0:
256,192,126477,1,0,0:0:0:0:
256,192,126560,1,0,0:0:0:0:
256,192,126643,1,8,0:0:0:0:
256,192,126810,1,8,0:0:0:0:
256,192,126893,1,8,0:0:0:0:
256,192,126977,1,0,0:0:0:0:
256,192,127143,1,8,0:0:0:0:
256,192,127227,1,0,0:0:0:0:
256,192,127310,1,8,0:0:0:0:
256,192,127477,1,0,0:0:0:0:
256,192,127560,1,8,0:0:0:0:
256,192,127643,1,8,0:0:0:0:
256,192,127727,1,0,0:0:0:0:
256,192,127810,1,8,0:0:0:0:
256,192,127893,1,0,0:0:0:0:
256,192,127977,1,8,0:0:0:0:
256,192,128143,1,0,0:0:0:0:
256,192,128227,1,8,0:0:0:0:
256,192,128310,1,0,0:0:0:0:
256,192,128477,1,8,0:0:0:0:
256,192,128560,1,0,0:0:0:0:
256,192,128643,1,8,0:0:0:0:
256,192,128810,1,8,0:0:0:0:
256,192,128977,1,0,0:0:0:0:
256,192,129310,1,8,0:0:0:0:
256,192,129366,1,8,0:0:0:0:
256,192,129421,1,8,0:0:0:0:
256,192,129477,1,0,0:0:0:0:
256,192,129560,1,0,0:0:0:0:
256,192,129643,1,8,0:0:0:0:
256,192,129810,1,8,0:0:0:0:
256,192,129893,1,8,0:0:0:0:
256,192,129977,1,0,0:0:0:0:
256,192,130032,1,0,0:0:0:0:
256,192,130088,1,0,0:0:0:0:
256,192,130143,1,8,0:0:0:0:
256,192,130199,1,8,0:0:0:0:
256,192,130255,1,8,0:0:0:0:
256,192,130310,1,0,0:0:0:0:
256,192,130477,1,0,0:0:0:0:
256,192,130643,1,8,0:0:0:0:
256,192,130810,1,0,0:0:0:0:
256,192,130893,1,8,0:0:0:0:
256,192,130977,1,8,0:0:0:0:
256,192,131143,1,8,0:0:0:0:
256,192,131227,1,8,0:0:0:0:
256,192,131310,1,8,0:0:0:0:
256,192,131393,1,0,0:0:0:0:
256,192,131477,1,0,0:0:0:0:
256,192,131560,1,0,0:0:0:0:
256,192,131643,1,8,0:0:0:0:
256,192,131727,1,0,0:0:0:0:
256,192,131810,1,8,0:0:0:0:
64,320,131977,1,12,0:0:0:0:
256,192,132143,1,0,0:0:0:0:
256,192,132199,1,0,0:0:0:0:
256,192,132255,1,0,0:0:0:0:
256,192,132310,1,8,0:0:0:0:
256,192,132477,1,8,0:0:0:0:
256,192,132560,1,0,0:0:0:0:
256,192,132727,1,8,0:0:0:0:
256,192,132810,1,0,0:0:0:0:
256,192,132893,1,8,0:0:0:0:
256,192,132977,1,8,0:0:0:0:
256,192,133060,1,0,0:0:0:0:
256,192,133143,1,8,0:0:0:0:
256,192,133227,1,0,0:0:0:0:
256,192,133310,1,8,0:0:0:0:
256,192,133477,1,0,0:0:0:0:
256,192,133560,1,8,0:0:0:0:
256,192,133643,1,0,0:0:0:0:
256,192,133810,1,8,0:0:0:0:
256,192,133893,1,0,0:0:0:0:
256,192,134060,1,8,0:0:0:0:
256,192,134143,1,0,0:0:0:0:
256,192,134227,1,0,0:0:0:0:
256,192,134310,1,8,0:0:0:0:
256,192,134477,1,8,0:0:0:0:
256,192,134560,1,8,0:0:0:0:
256,192,134643,1,0,0:0:0:0:
256,192,134699,1,0,0:0:0:0:
256,192,134755,1,0,0:0:0:0:
256,192,134810,1,8,0:0:0:0:
256,192,134893,1,0,0:0:0:0:
256,192,134977,1,8,0:0:0:0:
256,192,135143,1,8,0:0:0:0:
256,192,135227,1,0,0:0:0:0:
256,192,135310,1,8,0:0:0:0:
256,192,135393,1,8,0:0:0:0:
256,192,135477,1,0,0:0:0:0:
256,192,135560,1,0,0:0:0:0:
256,192,135643,1,8,0:0:0:0:
256,192,135810,1,0,0:0:0:0:
256,192,135977,1,8,0:0:0:0:
256,192,136143,1,8,0:0:0:0:
256,192,136227,1,0,0:0:0:0:
256,192,136310,1,8,0:0:0:0:
256,192,136477,1,0,0:0:0:0:
256,192,136643,1,8,0:0:0:0:
256,192,136699,1,8,0:0:0:0:
256,192,136755,1,8,0:0:0:0:
256,192,136810,1,0,0:0:0:0:
256,192,136893,1,0,0:0:0:0:
256,192,136977,1,12,0:0:0:0:
256,192,137143,1,0,0:0:0:0:
256,192,137227,1,0,0:0:0:0:
256,192,137310,1,8,0:0:0:0:
256,192,137477,1,0,0:0:0:0:
256,192,137560,1,8,0:0:0:0:
256,192,137643,1,8,0:0:0:0:
256,192,137810,1,8,0:0:0:0:
256,192,137893,1,0,0:0:0:0:
256,192,138060,1,8,0:0:0:0:
256,192,138143,1,0,0:0:0:0:
256,192,138227,1,8,0:0:0:0:
256,192,138310,1,8,0:0:0:0:
256,192,138393,1,0,0:0:0:0:
256,192,138477,1,8,0:0:0:0:
256,192,138560,1,0,0:0:0:0:
256,192,138643,1,8,0:0:0:0:
256,192,138810,1,0,0:0:0:0:
256,192,138893,1,8,0:0:0:0:
256,192,138977,1,0,0:0:0:0:
256,192,139143,1,8,0:0:0:0:
256,192,139227,1,0,0:0:0:0:
256,192,139310,1,8,0:0:0:0:
256,192,139393,1,8,0:0:0:0:
256,192,139477,1,0,0:0:0:0:
256,192,139560,1,0,0:0:0:0:
256,192,139643,1,8,0:0:0:0:
256,192,139810,1,8,0:0:0:0:
256,192,139866,1,0,0:0:0:0:
256,192,139921,1,0,0:0:0:0:
256,192,139977,1,12,0:0:0:0:
256,192,140310,1,8,0:0:0:0:
256,192,140477,1,8,0:0:0:0:
256,192,140532,1,8,0:0:0:0:
256,192,140588,1,8,0:0:0:0:
256,192,140643,1,4,0:0:0:0:
256,192,140977,1,0,0:0:0:0:
256,192,141143,1,8,0:0:0:0:
256,192,141310,1,8,0:0:0:0:
256,192,141477,1,0,0:0:0:0:
256,192,141560,1,0,0:0:0:0:
256,192,141643,1,8,0:0:0:0:
256,192,141810,1,8,0:0:0:0:
256,192,141977,1,0,0:0:0:0:
256,192,142060,1,8,0:0:0:0:
256,192,142143,1,8,0:0:0:0:
256,192,142227,1,8,0:0:0:0:
256,192,142310,1,0,0:0:0:0:
256,192,142643,1,0,0:0:0:0:
64,320,142977,1,12,0:0:0:0:
64,320,143227,1,12,0:0:0:0:
64,320,143477,1,12,0:0:0:0:
256,192,143643,1,0,0:0:0:0:
256,192,143727,1,0,0:0:0:0:
256,192,143810,1,0,0:0:0:0:
256,192,143893,1,0,0:0:0:0:
64,320,143977,1,12,0:0:0:0:
256,192,144143,1,0,0:0:0:0:
256,192,144310,1,8,0:0:0:0:
256,192,144477,1,0,0:0:0:0:
256,192,144560,1,8,0:0:0:0:
256,192,144643,1,8,0:0:0:0:
256,192,144810,1,8,0:0:0:0:
256,192,144866,1,0,0:0:0:0:
256,192,144921,1,0,0:0:0:0:
256,192,144977,1,8,0:0:0:0:
256,192,145310,1,0,0:0:0:0:
256,192,145477,1,0,0:0:0:0:
256,192,145532,1,0,0:0:0:0:
256,192,145588,1,0,0:0:0:0:
256,192,145643,1,8,0:0:0:0:
256,192,145810,1,0,0:0:0:0:
256,192,145893,1,8,0:0:0:0:
256,192,145977,1,8,0:0:0:0:
256,192,146143,1,0,0:0:0:0:
256,192,146310,1,8,0:0:0:0:
256,192,146393,1,0,0:0:0:0:
256,192,146477,1,8,0:0:0:0:
256,192,146560,1,8,0:0:0:0:
256,192,146643,1,0,0:0:0:0:
256,192,146727,1,0,0:0:0:0:
256,192,146810,1,8,0:0:0:0:
256,192,146893,1,0,0:0:0:0:
256,192,146977,1,8,0:0:0:0:
256,192,147143,1,0,0:0:0:0:
256,192,147310,1,8,0:0:0:0:
256,192,147366,1,8,0:0:0:0:
256,192,147421,1,8,0:0:0:0:
256,192,147477,1,0,0:0:0:0:
256,192,147560,1,0,0:0:0:0:
256,192,147643,1,8,0:0:0:0:
256,192,147810,1,0,0:0:0:0:
256,192,147977,1,8,0:0:0:0:
256,192,148060,1,8,0:0:0:0:
256,192,148143,1,0,0:0:0:0:
256,192,148227,1,8,0:0:0:0:
256,192,148310,1,0,0:0:0:0:
256,192,148477,1,8,0:0:0:0:
256,192,148560,1,0,0:0:0:0:
256,192,148643,1,8,0:0:0:0:
256,192,148810,1,8,0:0:0:0:
256,192,148977,1,0,0:0:0:0:
256,192,149060,1,0,0:0:0:0:
256,192,149143,1,0,0:0:0:0:
256,192,149227,1,0,0:0:0:0:
256,192,149310,1,8,0:0:0:0:
256,192,149477,1,0,0:0:0:0:
256,192,149643,1,8,0:0:0:0:
256,192,149810,1,0,0:0:0:0:
256,192,149977,1,8,0:0:0:0:
256,192,150060,1,8,0:0:0:0:
256,192,150143,1,0,0:0:0:0:
256,192,150227,1,0,0:0:0:0:
256,192,150310,1,8,0:0:0:0:
64,320,150643,1,12,0:0:0:0:
256,192,150977,1,8,0:0:0:0:
256,192,151143,1,0,0:0:0:0:
256,192,151199,1,0,0:0:0:0:
256,192,151255,1,0,0:0:0:0:
256,192,151310,1,8,0:0:0:0:
256,192,151477,1,8,0:0:0:0:
256,192,151532,1,8,0:0:0:0:
256,192,151588,1,8,0:0:0:0:
256,192,151643,1,0,0:0:0:0:
256,192,152310,1,0,0:0:0:0:
256,192,152477,1,8,0:0:0:0:
256,192,152560,1,0,0:0:0:0:
256,192,152643,1,8,0:0:0:0:
256,192,152727,1,0,0:0:0:0:
256,192,152810,1,8,0:0:0:0:
256,192,152893,1,8,0:0:0:0:
256,192,152977,1,0,0:0:0:0:
96,320,153310,1,12,0:0:0:0:
256,192,153643,1,8,0:0:0:0:
256,192,153810,1,0,0:0:0:0:
256,192,153893,1,8,0:0:0:0:
256,192,153977,1,0,0:0:0:0:
256,192,154143,1,0,0:0:0:0:
256,192,154310,1,8,0:0:0:0:
256,192,154393,1,0,0:0:0:0:
256,192,154477,1,8,0:0:0:0:
256,192,154560,1,8,0:0:0:0:
256,192,154643,1,0,0:0:0:0:
256,192,154727,1,0,0:0:0:0:
256,192,154810,1,8,0:0:0:0:
256,192,154893,1,8,0:0:0:0:
256,192,154977,1,0,0:0:0:0:
256,192,155143,1,8,0:0:0:0:
256,192,155227,1,0,0:0:0:0:
256,192,155393,1,8,0:0:0:0:
256,192,155477,1,0,0:0:0:0:
256,192,155560,1,0,0:0:0:0:
256,192,155643,1,8,0:0:0:0:
256,192,155810,1,8,0:0:0:0:
256,192,155893,1,0,0:0:0:0:
256,192,155977,1,0,0:0:0:0:
256,192,156143,1,8,0:0:0:0:
256,192,156227,1,0,0:0:0:0:
256,192,156310,1,8,0:0:0:0:
256,192,156477,1,8,0:0:0:0:
256,192,156560,1,0,0:0:0:0:
256,192,156643,1,8,0:0:0:0:
256,192,156727,1,8,0:0:0:0:
256,192,156810,1,0,0:0:0:0:
256,192,156893,1,8,0:0:0:0:
256,192,156977,1,0,0:0:0:0:
256,192,157643,1,8,0:0:0:0:
256,192,157977,1,8,0:0:0:0:
256,192,158032,1,0,0:0:0:0:
256,192,158088,1,0,0:0:0:0:
256,192,158143,1,8,0:0:0:0:
256,192,158227,1,8,0:0:0:0:
256,192,158310,1,0,0:0:0:0:
256,192,158477,1,0,0:0:0:0:
256,192,158560,1,8,0:0:0:0:
256,192,158643,1,0,0:0:0:0:
256,192,158810,1,8,0:0:0:0:
256,192,158977,1,0,0:0:0:0:
256,192,159143,1,8,0:0:0:0:
256,192,159227,1,0,0:0:0:0:
256,192,159393,1,8,0:0:0:0:
256,192,159477,1,0,0:0:0:0:
256,192,159560,1,8,0:0:0:0:
256,192,159643,1,8,0:0:0:0:
256,192,159727,1,8,0:0:0:0:
256,192,159810,1,0,0:0:0:0:
256,192,159893,1,0,0:0:0:0:
256,192,159977,1,8,0:0:0:0:
256,192,160060,1,0,0:0:0:0:
256,192,160143,1,8,0:0:0:0:
256,192,160227,1,8,0:0:0:0:
256,192,160310,1,0,0:0:0:0:
256,192,160477,1,8,0:0:0:0:
256,192,160643,1,0,0:0:0:0:
256,192,160727,1,8,0:0:0:0:
256,192,160810,1,8,0:0:0:0:
256,192,160893,1,8,0:0:0:0:
256,192,160977,5,0,0:0:0:0:
256,192,161143,1,8,0:0:0:0:
256,192,161199,1,0,0:0:0:0:
256,192,161255,1,0,0:0:0:0:
256,192,161310,1,12,0:0:0:0:
256,192,161643,1,8,0:0:0:0:
256,192,161810,1,8,0:0:0:0:
256,192,161866,1,8,0:0:0:0:
256,192,161921,1,8,0:0:0:0:
256,192,161977,1,4,0:0:0:0:
256,192,162310,1,8,0:0:0:0:
256,192,162477,1,0,0:0:0:0:
256,192,162560,1,0,0:0:0:0:
256,192,162643,1,8,0:0:0:0:
256,192,162810,1,0,0:0:0:0:
256,192,162893,1,0,0:0:0:0:
256,192,162977,1,0,0:0:0:0:
256,192,163143,1,8,0:0:0:0:
256,192,163310,1,8,0:0:0:0:
256,192,163477,1,0,0:0:0:0:
256,192,163644,1,8,0:0:0:0:
256,192,164977,1,0,0:0:0:0:
256,192,166310,1,8,0:0:0:0:
256,192,166977,1,8,0:0:0:0:
256,192,167643,1,0,0:0:0:0:
256,192,168310,1,0,0:0:0:0:
256,192,168977,1,8,0:0:0:0:
256,192,170310,1,0,0:0:0:0:
256,192,171643,1,0,0:0:0:0:
256,192,172310,1,8,0:0:0:0:
256,192,172977,1,8,0:0:0:0:
256,192,173643,1,8,0:0:0:0:
256,192,174310,1,8,0:0:0:0:
256,192,175643,1,0,0:0:0:0:
256,192,176977,1,8,0:0:0:0:
256,192,177643,1,8,0:0:0:0:
256,192,178310,1,0,0:0:0:0:
256,192,178977,1,0,0:0:0:0:
256,192,179643,1,8,0:0:0:0:
256,192,180977,1,8,0:0:0:0:
256,192,182310,1,8,0:0:0:0:
256,192,182977,1,0,0:0:0:0:
256,192,183643,1,8,0:0:0:0:
256,192,183810,12,0,184977,0:0:0:0:
