osu file format v14

[General]
AudioFilename: audio.mp3
AudioLeadIn: 0
PreviewTime: 45075
Countdown: 0
SampleSet: Soft
StackLeniency: 0.4
Mode: 0
LetterboxInBreaks: 0
WidescreenStoryboard: 1

[Editor]
Bookmarks: 11594,17241,22888,28535,34182,39829,45476,56770,68064,79358,90652,101947,113241,118888,124535,135829,137241,147123,158417,169711,175358,181005,186652,192299
DistanceSpacing: 0.9
BeatDivisor: 8
GridSize: 32
TimelineZoom: 2.599999

[Metadata]
Title:POISON -KO3 Remix-
TitleUnicode:POISON -KO3 Remix-
Artist:YUC'e
ArtistUnicode:YUC'e
Creator:JrSzZ
Version:Insane
Source:
Tags:Magical Mixer electronic future bass dance music female vocals Tokyo YUCE-0006 Instrumental English
BeatmapID:2044890
BeatmapSetID:967021

[Difficulty]
HPDrainRate:5
CircleSize:3.8
OverallDifficulty:8
ApproachRate:9.1
SliderMultiplier:2
SliderTickRate:1

[Events]
//Background and Video events
0,0,"bg.jpg",0,0
//Break Periods
//Storyboard Layer 0 (Background)
//Storyboard Layer 1 (Fail)
//Storyboard Layer 2 (Pass)
//Storyboard Layer 3 (Foreground)
//Storyboard Layer 4 (Overlay)
//Storyboard Sound Samples

[TimingPoints]
300,352.941176470588,4,2,1,60,1,0
300,-100,4,2,1,60,0,0
11594,-90.9090909090909,4,2,1,60,0,0
17241,-83.3333333333333,4,2,1,60,0,0
21476,-90.9090909090909,4,2,1,60,0,0
22888,-125,4,2,1,60,0,0
28182,-83.3333333333333,4,2,1,60,0,0
28535,-90.9090909090909,4,2,1,60,0,0
34182,-86.9565217391304,4,2,1,60,0,0
36829,-86.9565217391304,4,2,50,60,0,0
36917,-86.9565217391304,4,2,1,60,0,0
39035,-86.9565217391304,4,2,1,60,0,0
39123,-86.9565217391304,4,2,1,60,0,0
39829,-100,4,2,1,60,0,0
40182,-90.9090909090909,4,2,1,60,0,0
40535,-83.3333333333333,4,2,1,60,0,0
40888,-76.9230769230769,4,2,1,60,0,0
41947,-66.6666666666667,4,2,1,60,0,0
42652,-133.333333333333,4,2,1,60,0,0
43005,-133.333333333333,4,2,1,60,0,0
44064,-133.333333333333,4,2,22,60,0,0
44417,-100,4,2,22,60,0,0
44770,-80,4,2,22,60,0,0
45123,-83.3333333333333,4,2,1,60,0,0
45476,-66.6666666666667,4,2,2,70,0,1
45741,-66.6666666666667,4,2,2,5,0,1
45829,-100,4,2,2,70,0,1
46005,-83.3333333333333,4,2,2,70,0,1
46888,-100,4,2,2,70,0,1
47947,-66.6666666666667,4,2,2,70,0,1
48652,-100,4,2,2,70,0,1
50417,-66.6666666666667,4,2,2,70,0,1
50770,-133.333333333333,4,2,2,70,0,1
51123,-66.6666666666667,4,2,2,70,0,1
51388,-66.6666666666667,4,2,2,5,0,1
51476,-100,4,2,2,70,0,1
53594,-66.6666666666667,4,2,2,70,0,1
54299,-100,4,2,2,70,0,1
55358,-83.3333333333333,4,2,1,70,0,0
55711,-66.6666666666667,4,2,1,70,0,0
56064,-83.3333333333333,4,2,1,70,0,0
56417,-66.6666666666667,4,2,1,70,0,0
56770,-66.6666666666667,4,2,2,70,0,1
57035,-66.6666666666667,4,2,2,5,0,1
57123,-100,4,2,2,70,0,1
58182,-83.3333333333333,4,2,2,70,0,1
59594,-66.6666666666667,4,2,2,70,0,1
59858,-66.6666666666667,4,2,2,5,0,1
59947,-100,4,2,2,70,0,1
61358,-83.3333333333333,4,2,2,70,0,1
62064,-133.333333333333,4,2,2,70,0,1
62417,-66.6666666666667,4,2,2,70,0,1
62682,-66.6666666666667,4,2,2,5,0,1
62770,-100,4,2,2,70,0,1
63829,-83.3333333333333,4,2,2,70,0,1
65241,-86.9565217391304,4,2,1,70,0,1
68064,-83.3333333333333,4,2,2,70,0,0
69476,-100,4,2,2,70,0,0
70888,-83.3333333333333,4,2,2,70,0,0
72299,-100,4,2,2,70,0,0
73711,-83.3333333333333,4,2,2,70,0,0
75123,-100,4,2,2,70,0,0
76535,-83.3333333333333,4,2,2,70,0,0
77947,-100,4,2,2,70,0,0
78652,-100,4,2,1,70,0,0
79358,-76.9230769230769,4,2,2,70,0,1
80770,-83.3333333333333,4,2,2,70,0,1
82182,-76.9230769230769,4,2,2,70,0,1
83594,-83.3333333333333,4,2,2,70,0,1
85005,-76.9230769230769,4,2,2,70,0,1
86417,-83.3333333333333,4,2,2,70,0,1
87829,-76.9230769230769,4,2,2,70,0,1
89947,-66.6666666666667,4,2,1,70,0,1
90652,-100,4,2,1,70,0,0
90829,-200,4,2,1,30,0,0
91182,-200,4,2,1,40,0,0
91535,-200,4,2,1,50,0,0
91888,-200,4,2,1,60,0,0
92241,-200,4,2,1,30,0,0
92594,-200,4,2,1,40,0,0
92947,-200,4,2,1,50,0,0
93299,-200,4,2,1,60,0,0
93652,-200,4,2,1,30,0,0
94005,-200,4,2,1,40,0,0
94358,-200,4,2,1,50,0,0
94711,-200,4,2,1,60,0,0
95064,-200,4,2,1,50,0,0
95417,-200,4,2,1,60,0,0
95770,-200,4,2,1,70,0,0
96476,-166.666666666667,4,2,1,30,0,0
96829,-166.666666666667,4,2,1,40,0,0
97182,-166.666666666667,4,2,1,50,0,0
97535,-166.666666666667,4,2,1,60,0,0
97888,-166.666666666667,4,2,1,30,0,0
98241,-166.666666666667,4,2,1,40,0,0
98594,-166.666666666667,4,2,1,50,0,0
98946,-166.666666666667,4,2,1,60,0,0
99299,-166.666666666667,4,2,1,30,0,0
99652,-166.666666666667,4,2,1,40,0,0
100005,-166.666666666667,4,2,1,50,0,0
100358,-166.666666666667,4,2,1,60,0,0
100711,-166.666666666667,4,2,1,50,0,0
101064,-166.666666666667,4,2,1,60,0,0
101417,-166.666666666667,4,2,1,70,0,0
101594,-66.6666666666667,4,2,1,70,0,0
101947,-125,4,2,1,60,0,0
112182,-166.666666666667,4,2,1,60,0,0
112535,-250,4,2,1,60,0,0
112888,-100,4,2,1,60,0,0
113241,-86.9565217391304,4,2,1,70,0,0
115888,-86.9565217391304,4,2,50,70,0,0
115976,-86.9565217391304,4,2,1,70,0,0
118535,-250,4,2,1,60,0,0
118888,-100,4,2,1,60,0,0
119241,-90.9090909090909,4,2,1,60,0,0
119594,-83.3333333333333,4,2,1,60,0,0
119947,-76.9230769230769,4,2,1,60,0,0
121005,-66.6666666666667,4,2,1,60,0,0
121711,-133.333333333333,4,2,1,60,0,0
122417,-100,4,2,1,60,0,0
123123,-133.333333333333,4,2,22,60,0,0
123476,-100,4,2,22,60,0,0
123829,-80,4,2,22,60,0,0
124182,-200,4,2,1,60,0,0
125241,-66.6666666666667,4,2,1,60,0,0
125594,-200,4,2,2,70,0,1
126211,-200,4,2,2,5,0,1
126299,-83.3333333333333,4,2,2,70,0,1
127358,-200,4,2,2,70,0,1
127976,-200,4,2,2,5,0,1
128064,-83.3333333333333,4,2,2,70,0,1
128417,-200,4,2,2,70,0,1
129035,-200,4,2,2,5,0,1
129123,-100,4,2,2,70,0,1
129476,-83.3333333333333,4,2,2,70,0,1
130182,-200,4,2,2,70,0,1
130799,-200,4,2,2,5,0,1
130887,-83.3333333333333,4,2,2,70,0,1
131241,-200,4,2,2,70,0,1
131858,-200,4,2,2,5,0,1
131946,-83.3333333333333,4,2,2,70,0,1
133005,-200,4,2,2,70,0,1
133622,-200,4,2,2,5,0,1
133710,-83.3333333333333,4,2,2,70,0,1
134064,-200,4,2,2,70,0,1
134681,-200,4,2,2,5,0,1
134770,-100,4,2,2,70,0,1
135035,-200,4,2,2,5,0,1
135123,-83.3333333333333,4,2,2,70,0,1
135829,-133.333333333333,4,2,2,70,0,0
136799,-133.333333333333,4,2,2,5,0,0
136888,-133.333333333333,4,2,2,70,0,0
137241,-66.6666666666667,4,2,2,70,0,1
137505,-66.6666666666667,4,2,2,5,0,1
137594,-133.333333333333,4,2,2,70,0,1
137858,-133.333333333333,4,2,2,5,0,1
137947,-66.6666666666667,4,2,2,70,0,1
138917,-66.6666666666667,4,2,2,5,0,1
139005,-133.333333333333,4,2,2,70,0,1
139358,-100,4,2,2,70,0,1
139535,-66.6666666666667,4,2,2,5,0,1
139623,-80,4,2,2,70,0,1
139799,-66.6666666666667,4,2,2,5,0,1
139888,-66.6666666666667,4,2,2,70,0,1
139976,-66.6666666666667,4,2,2,5,0,1
140064,-66.6666666666667,4,2,2,70,0,1
141741,-66.6666666666667,4,2,2,5,0,1
141829,-133.333333333333,4,2,2,70,0,1
142182,-100,4,2,2,70,0,1
142359,-66.6666666666667,4,2,2,5,0,1
142447,-80,4,2,2,70,0,1
142623,-66.6666666666667,4,2,2,5,0,1
142712,-66.6666666666667,4,2,2,70,0,1
142800,-66.6666666666667,4,2,2,5,0,1
142888,-66.6666666666667,4,2,2,70,0,1
144299,-66.6666666666667,4,2,2,70,0,1
144564,-66.6666666666667,4,2,2,5,0,1
144652,-66.6666666666667,4,2,2,70,0,1
144917,-66.6666666666667,4,2,2,5,0,1
145005,-100,4,2,2,70,0,1
145182,-66.6666666666667,4,2,2,5,0,1
145270,-80,4,2,2,70,0,1
145446,-66.6666666666667,4,2,2,5,0,1
145535,-66.6666666666667,4,2,2,70,0,1
145623,-66.6666666666667,4,2,2,5,0,1
145711,-76.9230769230769,4,2,2,70,0,1
147123,-83.3333333333333,4,2,2,70,0,0
148535,-100,4,2,2,70,0,0
149947,-83.3333333333333,4,2,2,70,0,0
151358,-100,4,2,2,70,0,0
152770,-83.3333333333333,4,2,2,70,0,0
154182,-100,4,2,2,70,0,0
155594,-83.3333333333333,4,2,2,70,0,0
157005,-100,4,2,2,70,0,0
157710,-100,4,2,1,70,0,0
157711,-83.3333333333333,4,2,1,70,0,0
158417,-76.9230769230769,4,2,2,70,0,1
159829,-83.3333333333333,4,2,2,70,0,1
161241,-76.9230769230769,4,2,2,70,0,1
162652,-83.3333333333333,4,2,2,70,0,1
164064,-76.9230769230769,4,2,2,70,0,1
165476,-83.3333333333333,4,2,2,70,0,1
166888,-76.9230769230769,4,2,2,70,0,1
169005,-66.6666666666667,4,2,1,70,0,1
169711,-100,4,2,1,60,0,0
181005,-90.9090909090909,4,2,1,60,0,0
186652,-90.9090909090909,4,2,1,60,0,0
190182,-83.3333333333333,4,2,1,60,0,0
190888,-90.9090909090909,4,2,1,60,0,0

[Colours]
Combo1 : 138,138,255
Combo2 : 41,155,248
Combo3 : 17,17,255
Combo4 : 255,70,70
Combo5 : 255,143,32
Combo6 : 112,112,112
Combo7 : 192,192,192
Combo8 : 140,26,255

[HitObjects]
73,31,300,70,0,B|106:113|27:103|68:181,1,150,12|0,0:0|0:0,0:0:0:0:
64,173,652,2,0,P|100:155|130:160,1,50,8|0,0:0|0:0,0:0:0:0:
182,168,829,1,0,0:0:0:0:
129,331,1005,2,0,B|124:284|124:284|120:281|120:281|116:233,2,100,8|0|8,0:0|0:0|0:0,0:0:0:0:
38,273,1535,1,0,0:0:0:0:
208,300,1711,6,0,B|283:306|283:306|287:310|287:310|378:318,1,150,8|0,0:0|0:0,0:0:0:0:
355,316,2064,2,0,P|381:348|406:354,1,50,8|0,0:0|0:0,0:0:0:0:
461,361,2241,1,0,0:0:0:0:
439,185,2417,2,0,B|435:233|435:233|431:236|431:236|426:283,2,100,8|0|8,0:0|0:0|0:0,0:0:0:0:
356,52,2947,1,0,0:0:0:0:
471,112,3123,102,0,B|394:83|391:157|316:117,1,150,8|0,0:0|0:0,0:0:0:0:
327,122,3476,2,0,P|301:147|300:190,1,50,8|0,0:0|0:0,0:0:0:0:
300,233,3652,1,0,0:0:0:0:
153,236,3829,2,0,P|197:195|253:222,2,100,8|0|8,0:0|0:0|0:0,0:0:0:0:
62,211,4358,1,0,0:0:0:0:
78,358,4535,6,0,B|72:289|72:289|67:286|67:286|61:210,1,150,8|0,0:0|0:0,0:0:0:0:
61,211,4888,2,0,P|30:193|19:141,1,50,8|0,0:0|0:0,0:0:0:0:
12,108,5064,1,0,0:0:0:0:
144,53,5241,2,0,P|104:85|97:143,1,100,8|0,0:0|0:0,0:0:0:0:
167,205,5594,1,0,0:0:0:0:
167,205,5770,1,0,0:0:0:0:
136,291,5947,102,0,B|218:324|208:245|286:286,1,150,8|0,0:0|0:0,0:0:0:0:
278,282,6299,2,0,P|297:338|316:347,1,50,8|0,0:0|0:0,0:0:0:0:
343,378,6476,1,0,0:0:0:0:
452,274,6652,2,0,B|405:279|405:279|402:283|402:283|354:287,2,100,8|0|8,0:0|0:0|0:0,0:0:0:0:
512,331,7182,1,0,0:0:0:0:
496,180,7358,6,0,L|501:131,1,50,10|0,0:0|0:0,0:0:0:0:
422,197,7535,2,0,L|427:148,1,50,2|0,0:0|0:0,0:0:0:0:
344,120,7711,102,0,L|348:169,1,50,10|0,0:0|0:0,0:0:0:0:
270,103,7888,2,0,L|274:152,1,50,2|0,0:0|0:0,0:0:0:0:
291,245,8064,6,0,B|196:202|199:321|107:281,1,200,10|8,0:0|0:0,0:0:0:0:
56,356,8594,1,0,0:0:0:0:
56,356,8770,2,0,P|17:293|38:224,1,150,8|0,0:0|0:0,0:0:0:0:
37,224,9123,1,8,0:0:0:0:
11,107,9299,1,0,0:0:0:0:
11,107,9476,2,0,P|50:141|117:142,1,100,8|0,0:0|0:0,0:0:0:0:
85,57,9829,2,0,P|124:23|186:26,1,100,8|0,0:0|0:0,0:0:0:0:
193,142,10182,102,0,L|198:93,1,50,10|0,0:0|0:0,0:0:0:0:
267,125,10358,2,0,L|272:76,1,50,2|0,0:0|0:0,0:0:0:0:
344,33,10535,6,0,L|349:82,1,50,10|0,0:0|0:0,0:0:0:0:
418,50,10711,2,0,L|423:99,1,50,2|0,0:0|0:0,0:0:0:0:
501,135,10888,102,0,P|450:142|431:194,1,100,10|0,0:0|0:0,0:0:0:0:
456,286,11241,1,8,0:1:0:0:
459,271,11329,1,8,0:1:0:0:
457,261,11417,1,8,0:0:0:0:
492,360,11594,22,0,B|391:402|395:270|284:335,1,220.000006713867,12|8,0:0|0:0,0:0:0:0:
181,349,12123,1,0,0:0:0:0:
181,349,12299,2,0,P|106:369|69:302,1,165.000005035401,8|8,0:0|0:0,0:0:0:0:
68,302,12652,2,0,P|116:272|126:206,1,110.000003356934,8|8,0:0|0:0,0:0:0:0:
49,225,13005,6,0,P|43:197|45:171,1,55.0000016784668,10|0,0:0|0:0,0:0:0:0:
14,93,13182,2,0,P|39:77|64:71,1,55.0000016784668,2|0,0:0|0:0,0:0:0:0:
129,18,13358,2,0,P|151:37|165:59,1,55.0000016784668,10|0,0:0|0:0,0:0:0:0:
237,102,13535,2,0,P|226:129|209:149,1,55.0000016784668,2|0,0:0|0:0,0:0:0:0:
130,223,13711,102,0,B|207:196|199:281|282:257,1,165.000005035401,10|8,0:0|0:0,0:0:0:0:
281,257,14064,2,0,P|293:213|325:189,1,55.0000016784668,8|0,0:0|0:0,0:0:0:0:
376,219,14241,2,0,P|421:217|454:240,1,55.0000016784668,8|0,0:0|0:0,0:0:0:0:
458,315,14417,6,0,B|467:207|467:207|463:203|463:203|473:87,1,220.000006713867,8|8,0:0|0:0,0:0:0:0:
504,16,14947,1,0,0:0:0:0:
504,16,15123,2,0,B|420:-10|417:68|346:39,1,165.000005035401,8|8,0:0|0:0,0:0:0:0:
348,39,15476,2,0,B|352:90|352:90|356:94|356:94|361:146,1,110.000003356934,8|8,0:0|0:0,0:0:0:0:
290,218,15829,102,0,L|284:163,1,55.0000016784668,10|0,0:0|0:0,0:0:0:0:
216,201,16005,2,0,L|210:146,1,55.0000016784668,2|0,0:0|0:0,0:0:0:0:
146,77,16182,6,0,L|140:131,1,55.0000016784668,10|0,0:0|0:0,0:0:0:0:
72,94,16358,2,0,L|66:148,1,55.0000016784668,2|0,0:0|0:0,0:0:0:0:
25,242,16535,102,0,B|102:215|94:300|177:276,1,165.000005035401,10|8,0:0|0:0,0:0:0:0:
176,276,16888,2,0,B|171:327|171:327|167:331|167:331|162:383,1,110.000003356934,8|8,0:0|0:0,0:0:0:0:
247,252,17241,53,8,0:0:0:0:
338,329,17417,1,8,0:0:0:0:
438,265,17594,5,8,0:0:0:0:
347,341,17770,1,8,0:0:0:0:
406,167,17947,101,8,0:0:0:0:
356,353,18123,1,8,0:0:0:0:
289,186,18299,6,0,B|262:169|234:174|234:174|233:170|233:170|234:174|234:174|198:180|182:209,1,119.999996337891,8|8,0:0|0:0,0:0:0:0:
52,246,18652,101,10,0:0:0:0:
165,340,18829,1,10,0:0:0:0:
247,252,19005,5,10,0:0:0:0:
156,328,19182,1,10,0:0:0:0:
108,137,19358,101,10,0:0:0:0:
147,316,19535,1,8,0:0:0:0:
29,134,19711,6,0,B|29:102|50:81|50:81|47:78|47:78|50:81|50:81|76:56|109:59,1,119.999996337891,8|8,0:0|0:0,0:0:0:0:
214,73,20064,101,8,0:0:0:0:
222,80,20152,1,8,0:0:0:0:
240,90,20240,1,8,0:0:0:0:
264,92,20328,1,8,0:0:0:0:
295,82,20417,1,8,0:0:0:0:
320,53,20505,1,8,0:0:0:0:
358,29,20593,1,8,0:0:0:0:
410,30,20681,1,8,0:0:0:0:
420,45,20770,6,0,L|414:108,3,59.9999981689454,8|8|8|8,0:0|0:0|0:0|0:0,0:0:0:0:
496,27,21123,2,0,L|490:86,3,59.9999981689454,8|8|8|8,0:0|0:0|0:0|0:0,0:0:0:0:
467,167,21476,102,0,B|509:268|377:264|442:375,1,220.000006713867,10|10,0:0|0:0,0:0:0:0:
397,203,22005,6,0,P|343:200|304:237,1,110.000003356934,10|10,0:1|0:0,0:0:0:0:
322,312,22358,1,8,0:1:0:0:
244,189,22535,2,0,P|227:239|248:288,1,110.000003356934,8|8,0:0|0:1,0:0:0:0:
322,312,22888,6,0,B|252:317|252:317|248:321|248:321|164:328,1,160,12|0,0:3|0:0,0:0:0:0:
57,355,23417,1,0,0:0:0:0:
57,355,23594,2,0,P|79:324|82:283,1,80,0|0,0:0|0:0,0:0:0:0:
103,208,23947,2,0,P|87:172|53:149,1,80,0|0,0:0|0:0,0:0:0:0:
26,229,24299,5,2,0:0:0:0:
26,229,24476,1,2,0:0:0:0:
18,57,24652,2,0,B|54:60|54:60|58:64|58:64|110:69,1,80,2|2,0:0|0:0,0:0:0:0:
160,139,25005,2,0,B|224:175|242:97|313:133,1,160,2|0,0:0|0:0,0:0:0:0:
414,54,25535,1,0,0:0:0:0:
413,54,25711,102,0,P|356:101|384:171,1,160,0|0,0:0|0:0,0:0:0:0:
457,209,26241,1,0,0:0:0:0:
457,209,26417,2,0,P|432:241|394:253,1,80,0|0,0:0|0:0,0:0:0:0:
399,356,26770,2,0,P|360:342|337:309,1,80,0|0,0:0|0:0,0:0:0:0:
322,216,27123,5,2,0:0:0:0:
322,216,27299,1,2,0:0:0:0:
323,323,27476,2,0,B|287:326|287:326|283:330|283:330|231:335,1,80,2|2,0:0|0:0,0:0:0:0:
169,343,27829,1,2,0:0:0:0:
169,343,28182,102,0,B|137:322|129:281|129:281|108:346|34:360,1,179.999994506836,8|0,0:1|0:0,0:0:0:0:
44,344,28535,22,0,P|116:268|71:175,1,220.000006713867,12|8,0:3|0:1,0:0:0:0:
32,52,29064,5,0,0:0:0:0:
32,52,29152,1,0,0:0:0:0:
32,52,29241,102,0,L|37:106,1,55.0000016784668,0|0,0:0|0:0,0:0:0:0:
108,57,29417,2,0,L|113:113,1,55.0000016784668,8|0,0:3|0:0,0:0:0:0:
181,148,29594,6,0,P|227:135|244:113,1,55.0000016784668,8|0,0:0|0:0,0:0:0:0:
229,54,29770,2,0,P|275:67|292:89,1,55.0000016784668,8|0,0:0|0:0,0:0:0:0:
307,144,29947,102,0,B|408:186|404:54|515:119,1,220.000006713867,10|10,0:3|0:1,0:0:0:0:
456,237,30476,5,2,0:0:0:0:
456,237,30564,1,0,0:0:0:0:
456,237,30652,102,0,L|461:183,1,55.0000016784668,2|0,0:0|0:0,0:0:0:0:
374,304,30829,2,0,L|379:358,1,55.0000016784668,8|0,0:3|0:0,0:0:0:0:
371,225,31005,6,0,P|325:238|308:260,1,55.0000016784668,8|0,0:0|0:0,0:0:0:0:
274,305,31182,2,0,P|246:302|223:288,1,55.0000016784668,8|0,0:0|0:0,0:0:0:0:
148,204,31358,102,0,B|191:186|191:186|191:181|191:181|195:185|195:185|235:169|235:169|222:305,1,220.000006713867,8|8,0:3|0:1,0:0:0:0:
139,358,31888,5,0,0:0:0:0:
139,358,31976,1,0,0:0:0:0:
139,358,32064,102,0,P|107:353|82:334,1,55.0000016784668,0|0,0:0|0:0,0:0:0:0:
14,315,32241,2,0,P|8:283|19:253,1,55.0000016784668,8|0,0:3|0:0,0:0:0:0:
93,207,32417,6,0,L|148:203,1,55.0000016784668,8|0,0:0|0:0,0:0:0:0:
163,123,32594,2,0,L|99:128,1,55.0000016784668,8|0,0:0|0:0,0:0:0:0:
24,59,32770,102,0,B|42:28|75:21|75:21|132:47|132:47|248:39,1,220.000006713867,10|10,0:3|0:1,0:0:0:0:
400,24,33299,5,2,0:0:0:0:
400,24,33388,1,0,0:0:0:0:
400,24,33476,102,0,P|402:48|394:77,1,55.0000016784668,2|0,0:0|0:0,0:0:0:0:
309,71,33652,2,0,P|307:44|315:18,1,55.0000016784668,8|0,0:3|0:0,0:0:0:0:
450,136,33829,6,0,P|427:152|401:157,2,55.0000016784668,8|8|8,0:1|0:1|0:0,0:0:0:0:
466,231,34182,102,0,B|461:282|461:282|465:287|465:287|459:354,1,115.000002193451,12|0,0:3|0:0,0:0:0:0:
368,237,34535,1,8,0:1:0:0:
373,359,34711,5,0,0:0:0:0:
373,359,34799,1,0,0:0:0:0:
373,359,34888,102,0,P|341:354|316:335,1,57.5000010967255,0|0,0:0|0:0,0:0:0:0:
261,288,35064,2,0,P|229:293|204:312,1,57.5000010967255,8|0,0:3|0:0,0:0:0:0:
154,366,35241,5,8,0:0:0:0:
154,366,35417,1,10,0:0:0:0:
83,274,35594,102,0,B|97:333|52:320|71:388,1,115.000002193451,10|0,0:3|0:0,0:0:0:0:
4,283,35947,5,8,0:1:0:0:
145,217,36123,1,0,0:0:0:0:
145,217,36211,1,0,0:0:0:0:
145,217,36299,102,0,L|203:212,1,57.5000010967255
0,191,36476,2,0,L|57:196,1,57.5000010967255,10|0,0:3|0:0,0:0:0:0:
112,133,36652,6,0,P|128:48|63:49,1,172.500003290176,10|0,0:0|0:0,0:0:0:0:
65,47,37005,102,0,B|120:71|115:24|179:54,1,115.000002193451,8|0,0:3|0:0,0:0:0:0:
263,151,37358,5,8,0:1:0:0:
271,33,37535,1,0,0:0:0:0:
271,33,37623,1,0,0:0:0:0:
271,33,37711,102,0,P|302:36|325:51,1,57.5000010967255,0|0,0:0|0:0,0:0:0:0:
402,5,37888,2,0,P|414:34|412:62,1,57.5000010967255,8|0,0:3|0:0,0:0:0:0:
493,119,38064,5,8,0:0:0:0:
493,119,38241,1,10,0:0:0:0:
328,198,38417,102,0,B|360:219|368:260|368:260|384:200|466:183,1,172.500003290176,10|0,0:3|0:0,0:0:0:0:
447,206,38770,6,0,P|392:241|408:343,1,172.500003290176,8|0,0:1|0:0,0:0:0:0:
485,336,39123,101,8,0:1:0:0:
485,336,39211,1,8,0:1:0:0:
485,336,39299,1,10,0:1:0:0:
447,206,39476,5,10,0:0:0:0:
496,196,39829,38,0,L|447:206,1,50,8|0,0:0|0:0,0:0:0:0:
506,117,40005,2,0,L|457:127,1,50,8|0,0:0|0:0,0:0:0:0:
375,113,40182,6,0,L|321:104,1,55.0000016784668,8|0,0:0|0:0,0:0:0:0:
365,34,40358,2,0,L|311:25,1,55.0000016784668,8|0,0:0|0:0,0:0:0:0:
236,154,40535,102,0,L|177:165,1,59.9999981689454,8|0,0:0|0:0,0:0:0:0:
246,75,40711,2,0,L|187:86,1,59.9999981689454,8|0,0:0|0:0,0:0:0:0:
0,103,40888,6,0,B|-2:72|-2:72|15:43,1,64.9999970245363,8|0,0:0|0:0,0:0:0:0:
103,65,41064,2,0,B|104:94|104:94|86:123,1,64.9999970245363,8|0,0:0|0:0,0:0:0:0:
0,206,41241,101,8,0:0:0:0:
5,217,41329,1,8,0:0:0:0:
17,231,41417,1,8,0:0:0:0:
40,241,41505,1,8,0:0:0:0:
72,242,41594,1,8,0:0:0:0:
106,223,41682,1,8,0:0:0:0:
150,214,41770,1,8,0:0:0:0:
198,231,41858,1,8,0:0:0:0:
216,283,41947,6,0,P|211:322|179:355,3,75.0000028610231,8|8|8|8,0:0|0:0|0:0|0:0,0:0:0:0:
271,219,42299,2,0,P|263:186|280:143,3,75.0000028610231,8|8|8|8,0:0|0:0|0:0|0:0,0:0:0:0:
298,298,42652,102,0,P|326:326|375:330,1,75.0000028610231,12|8,0:0|0:3,0:0:0:0:
463,354,43005,1,8,0:0:0:0:
456,360,43182,6,0,L|452:323,1,37.5000014305115,8|8,0:1|0:1,0:0:0:0:
487,249,43358,2,0,L|491:212,1,37.5000014305115,8|0,0:0|0:0,0:0:0:0:
440,146,43535,1,8,0:3:0:0:
367,254,43711,101,8,0:0:0:0:
367,254,43887,1,8,0:0:0:0:
363,131,44064,6,0,P|385:86|435:71,1,75.0000028610231,8|0,0:1|0:0,0:0:0:0:
311,196,44417,102,0,P|283:159|288:95,1,100,8|0,0:3|0:0,0:0:0:0:
367,254,44770,6,0,P|301:277|241:236,1,125,8|0,0:2|0:0,0:0:0:0:
56,316,45123,1,8,0:0:0:0:
66,314,45211,1,8,0:0:0:0:
81,317,45299,1,8,0:3:0:0:
154,354,45476,86,0,B|196:253|69:251|129:145,1,225.000008583069,14|0,0:0|0:0,0:0:0:0:
209,131,45829,102,0,L|257:119,1,50,10|0,0:0|0:0,0:0:0:0:
93,70,46005,6,0,B|15:52|15:52|-5:2,2,119.999996337891,2|8|2,0:0|0:0|0:0,0:0:0:0:
287,53,46535,101,10,0:0:0:0:
287,53,46711,2,0,B|284:87|284:87|292:112,1,59.9999981689454,2|0,0:0|0:0,0:0:0:0:
220,266,46888,6,0,L|270:274,1,50,10|0,0:0|0:0,0:0:0:0:
411,223,47064,2,0,L|461:215,1,50,2|0,0:0|0:0,0:0:0:0:
254,198,47241,102,0,L|304:208,1,50,10|0,0:0|0:0,0:0:0:0:
377,157,47417,2,0,L|426:147,1,50,2|0,0:0|0:0,0:0:0:0:
348,273,47594,5,10,0:0:0:0:
410,361,47770,1,2,0:0:0:0:
417,350,47858,1,2,0:0:0:0:
425,339,47947,102,0,B|355:313|355:313|295:359,1,150.000005722046,10|2,0:0|0:0,0:0:0:0:
139,316,48299,6,0,B|172:332|202:326|202:326|269:273,1,150.000005722046,10|0,0:0|0:0,0:0:0:0:
88,259,48652,102,0,P|63:296|64:330,1,50,10|0,0:0|0:0,0:0:0:0:
165,241,48829,6,0,P|139:197|91:182,2,100,2|8|2,0:0|0:0|0:0,0:0:0:0:
139,316,49358,101,10,0:0:0:0:
54,190,49535,1,2,0:0:0:0:
170,90,49711,6,0,L|219:80,1,50,10|0,0:0|0:0,0:0:0:0:
56,24,49887,2,0,L|105:34,1,50,2|0,0:0|0:0,0:0:0:0:
197,159,50064,102,0,L|246:149,1,50,10|0,0:0|0:0,0:0:0:0:
28,94,50240,2,0,L|77:103,1,50,2|0,0:0|0:0,0:0:0:0:
197,4,50417,6,0,B|277:-18|274:72|360:20,1,150.000005722046,10|2,0:0|0:0,0:0:0:0:
481,5,50770,101,10,0:0:0:0:
481,5,50858,1,2,0:0:0:0:
481,5,50947,2,0,P|467:20|458:35,1,37.5000014305115,2|2,0:0|0:0,0:0:0:0:
439,141,51123,6,0,B|471:156|481:188|481:188|459:247|459:247|475:362,1,225.000008583069,14|0,0:0|0:0,0:0:0:0:
337,355,51476,102,0,P|356:340|380:334,1,50,10|0,0:0|0:0,0:0:0:0:
260,311,51652,6,0,P|221:281|171:282,2,100,2|8|2,0:0|0:0|0:0,0:0:0:0:
351,148,52182,101,10,0:0:0:0:
351,148,52358,2,0,B|329:134|329:134|305:137,1,50,2|0,0:0|0:0,0:0:0:0:
325,275,52535,6,0,L|310:227,1,50,10|0,0:0|0:0,0:0:0:0:
206,176,52711,2,0,L|221:128,1,50,2|0,0:0|0:0,0:0:0:0:
260,311,52888,102,0,L|245:263,1,50,10|0,0:0|0:0,0:0:0:0:
141,140,53064,2,0,L|156:92,1,50,2|0,0:0|0:0,0:0:0:0:
166,355,53241,5,10,0:0:0:0:
68,254,53417,1,2,0:0:0:0:
79,249,53505,1,2,0:0:0:0:
89,245,53594,102,0,B|150:278|150:278|103:289|87:341,1,150.000005722046,10|2,0:0|0:0,0:0:0:0:
17,195,53947,6,0,B|22:127|22:127|27:123|27:123|34:43,1,150.000005722046,10|0,0:0|0:0,0:0:0:0:
147,152,54299,102,0,P|107:131|101:115,1,50,10|0,0:0|0:0,0:0:0:0:
211,17,54476,6,0,B|215:63|215:63|211:68|211:68|216:116,2,100,2|8|2,0:0|0:0|0:0,0:0:0:0:
147,152,55005,101,10,0:0:0:0:
317,35,55182,1,2,0:0:0:0:
403,144,55358,22,0,P|380:123|369:96,1,59.9999981689454,14|0,0:0|0:0,0:0:0:0:
294,89,55535,2,0,P|300:59|318:35,1,59.9999981689454,8|8,0:1|0:1,0:0:0:0:
448,79,55711,6,0,P|482:144|449:208,1,150.000005722046,8|8,0:0|0:0,0:0:0:0:
319,215,55976,101,0,0:0:0:0:
328,215,56064,2,0,P|357:221|381:239,1,59.9999981689454,8|8,0:1|0:1,0:0:0:0:
450,207,56241,2,0,P|459:235|455:264,1,59.9999981689454,8|8,0:1|0:1,0:0:0:0:
451,356,56417,6,0,L|376:349,1,75.0000028610231,2|2,0:0|0:0,0:0:0:0:
320,294,56594,2,0,L|245:287,1,75.0000028610231,2|2,0:0|0:0,0:0:0:0:
169,366,56770,86,0,B|210:281|210:281|175:191|175:191|170:258,1,225.000008583069,14|0,0:0|0:0,0:0:0:0:
108,308,57123,102,0,P|83:312|58:306,1,50,10|0,0:3|0:0,0:0:0:0:
44,229,57299,6,0,B|47:185|47:185|51:181|51:181|56:109,2,100,2|8|2,0:0|0:0|0:0,0:0:0:0:
121,63,57829,101,10,0:0:0:0:
121,63,58005,2,0,L|117:14,1,50,2|0,0:0|0:0,0:0:0:0:
166,147,58182,6,0,P|202:151|233:177,1,59.9999981689454,10|0,0:0|0:0,0:0:0:0:
280,80,58358,1,2,0:0:0:0:
292,212,58535,102,0,P|307:186|333:172,1,59.9999981689454,10|0,0:3|0:0,0:0:0:0:
280,80,58711,1,2,0:0:0:0:
472,172,58888,6,0,L|413:183,1,59.9999981689454,10|0,0:0|0:0,0:0:0:0:
280,80,59064,2,0,L|221:70,1,59.9999981689454,2|0,0:0|0:0,0:0:0:0:
446,102,59241,102,0,L|387:113,1,59.9999981689454,10|0,0:3|0:0,0:0:0:0:
307,11,59417,2,0,L|247:1,1,59.9999981689454,2|0,0:0|0:0,0:0:0:0:
446,102,59594,6,0,B|488:203|365:211|422:312,1,225.000008583069,10|0,0:0|0:0,0:0:0:0:
421,311,59947,102,0,P|397:308|374:317,1,50,10|0,0:3|0:0,0:0:0:0:
220,344,60123,6,0,P|262:371|311:367,2,100,2|8|2,0:0|0:0|0:0,0:0:0:0:
201,246,60652,101,10,0:3:0:0:
98,331,60829,1,2,0:0:0:0:
22,164,61005,6,0,P|39:188|67:202,1,50,10|0,0:0|0:0,0:0:0:0:
109,321,61182,2,0,P|121:293|119:262,1,50,2|0,0:0|0:0,0:0:0:0:
202,167,61358,102,0,P|172:170|146:187,1,59.9999981689454,10|0,0:3|0:0,0:0:0:0:
120,73,61535,1,0,0:0:0:0:
271,130,61711,6,0,P|253:106|227:93,1,59.9999981689454,10|0,0:0|0:0,0:0:0:0:
120,73,61888,1,2,0:0:0:0:
47,168,62064,101,10,0:0:0:0:
47,168,62152,1,2,0:0:0:0:
47,168,62241,2,0,L|40:131,1,37.5000014305115,2|2,0:0|0:0,0:0:0:0:
227,93,62417,6,0,B|248:44|303:39|303:39|385:85|385:85|382:117,1,225.000008583069,14|0,0:0|0:0,0:0:0:0:
388,194,62770,102,0,L|394:141,1,50,10|0,0:3|0:0,0:0:0:0:
468,99,62947,6,0,L|479:0,2,100,2|8|2,0:0|0:0|0:0,0:0:0:0:
497,266,63476,101,10,0:0:0:0:
497,266,63652,2,0,P|467:247|430:252,1,50,2|0,0:0|0:0,0:0:0:0:
385,297,63829,6,0,P|354:313|340:348,1,59.9999981689454,10|0,0:0|0:0,0:0:0:0:
247,365,64005,1,2,0:0:0:0:
298,179,64182,102,0,P|297:214|320:243,1,59.9999981689454,10|0,0:3|0:0,0:0:0:0:
247,365,64358,1,2,0:0:0:0:
206,219,64535,6,0,B|183:200|183:200|152:202,1,59.9999981689454,10|0,0:0|0:0,0:0:0:0:
134,324,64711,2,0,B|111:342|111:342|80:340,1,59.9999981689454,2|0,0:0|0:0,0:0:0:0:
8,261,64888,101,10,0:3:0:0:
8,261,65064,1,2,0:0:0:0:
104,128,65241,21,12,0:0:0:0:
146,282,65417,1,8,0:1:0:0:
117,116,65594,5,8,0:0:0:0:
84,231,65770,1,8,0:0:0:0:
128,106,65947,101,8,0:0:0:0:
231,243,66123,1,8,0:0:0:0:
260,88,66299,5,8,0:0:0:0:
224,253,66476,1,8,0:0:0:0:
323,155,66652,101,12,0:0:0:0:
332,150,66740,1,8,0:1:0:0:
350,149,66828,1,8,0:1:0:0:
371,157,66916,1,8,0:1:0:0:
392,177,67005,5,8,0:0:0:0:
402,210,67093,1,8,0:1:0:0:
424,245,67181,1,8,0:1:0:0:
467,260,67269,1,8,0:1:0:0:
511,243,67358,101,8,0:0:0:0:
467,226,67447,1,8,0:1:0:0:
424,245,67535,1,8,0:1:0:0:
407,288,67623,1,8,0:1:0:0:
357,302,67711,6,0,P|311:271|299:229,3,57.5000010967255,10|10|10|10,0:0|0:0|0:0|0:0,0:0:0:0:
265,360,68064,38,0,B|200:332|201:395|136:349,1,119.999996337891,12|0,0:0|0:0,0:0:0:0:
20,317,68417,2,0,P|75:294|75:221,1,119.999996337891,8|0,0:3|0:0,0:0:0:0:
5,136,68770,5,8,0:0:0:0:
5,136,68947,1,0,0:0:0:0:
68,32,69123,2,0,B|123:36|123:36|127:41|127:41|187:46,1,119.999996337891,8|0,0:3|0:0,0:0:0:0:
393,47,69476,102,0,P|359:52|332:81,1,50,8|0,0:0|0:0,0:0:0:0:
281,19,69652,2,0,P|268:50|279:88,1,50,0|0,0:0|0:0,0:0:0:0:
302,162,69829,1,8,0:3:0:0:
302,162,70005,1,0,0:0:0:0:
401,267,70182,6,0,L|352:259,1,50,10|0,0:0|0:0,0:0:0:0:
243,272,70358,2,0,L|193:280,1,50,2|0,0:0|0:0,0:0:0:0:
410,342,70535,102,0,L|361:334,1,50,10|0,0:3|0:0,0:0:0:0:
234,347,70711,2,0,L|184:355,1,50,2|0,0:0|0:0,0:0:0:0:
99,316,70888,6,0,P|139:271|208:296,1,119.999996337891,8|0,0:0|0:0,0:0:0:0:
55,381,71241,2,0,B|51:326|51:326|46:322|46:322|41:262,1,119.999996337891,8|0,0:3|0:0,0:0:0:0:
134,171,71594,101,8,0:0:0:0:
134,171,71770,1,0,0:0:0:0:
193,279,71947,2,0,B|258:307|257:244|322:290,1,119.999996337891,8|0,0:3|0:0,0:0:0:0:
400,342,72299,6,0,P|422:310|422:283,1,50,8|0,0:0|0:0,0:0:0:0:
494,265,72476,2,0,P|477:229|453:216,1,50,0|0,0:0|0:0,0:0:0:0:
376,218,72652,1,8,0:3:0:0:
376,218,72829,1,0,0:0:0:0:
467,81,73005,102,0,L|459:131,1,50,10|0,0:0|0:0,0:0:0:0:
400,48,73182,2,0,L|391:97,1,50,2|0,0:0|0:0,0:0:0:0:
318,140,73358,6,0,L|310:91,1,50,2|0,0:0|0:0,0:0:0:0:
251,174,73535,2,0,L|242:124,1,50,2|0,0:0|0:0,0:0:0:0:
200,37,73711,102,0,B|135:9|136:72|71:26,1,119.999996337891,12|0,0:0|0:0,0:0:0:0:
99,152,74064,2,0,B|95:97|95:97|90:93|90:93|85:33,1,119.999996337891,8|0,0:3|0:0,0:0:0:0:
15,191,74417,5,8,0:0:0:0:
15,191,74593,1,0,0:0:0:0:
171,202,74770,2,0,P|113:198|80:245,1,119.999996337891,8|0,0:3|0:0,0:0:0:0:
147,357,75123,102,0,L|138:306,1,50,8|0,0:0|0:0,0:0:0:0:
221,360,75299,2,0,L|212:309,1,50,0|0,0:0|0:0,0:0:0:0:
288,243,75476,1,8,0:3:0:0:
288,243,75652,1,0,0:0:0:0:
365,343,75829,6,0,P|391:308|389:279,1,50,10|0,0:0|0:0,0:0:0:0:
461,264,76005,2,0,P|443:223|417:211,1,50,2|0,0:0|0:0,0:0:0:0:
314,283,76182,102,0,P|288:248|290:219,1,50,10|0,0:3|0:0,0:0:0:0:
218,204,76358,2,0,P|235:163|261:151,1,50,2|0,0:0|0:0,0:0:0:0:
335,111,76535,6,0,P|253:102|251:38,1,119.999996337891,8|0,0:0|0:0,0:0:0:0:
434,25,76888,2,0,B|429:83|429:83|424:87|424:87|420:142,1,119.999996337891,8|0,0:3|0:0,0:0:0:0:
351,235,77241,101,8,0:0:0:0:
351,235,77417,1,0,0:0:0:0:
446,312,77594,2,0,B|380:286|383:349|314:308,1,119.999996337891,8|0,0:3|0:0,0:0:0:0:
247,234,77947,6,0,P|239:264|237:283,1,50,10|0,0:0|0:0,0:0:0:0:
172,329,78123,2,0,P|190:352|221:370,1,50,2|0,0:0|0:0,0:0:0:0:
237,226,78299,102,0,P|231:252|237:290,1,50,2|0,0:0|0:0,0:0:0:0:
179,332,78475,2,0,P|201:353|234:363,1,50,2|0,0:0|0:0,0:0:0:0:
33,228,78652,53,8,0:1:0:0:
91,347,78829,1,8,0:1:0:0:
158,187,79005,5,8,0:0:0:0:
86,360,79182,1,8,0:0:0:0:
66,133,79358,86,0,P|105:76|190:104,1,129.999994049073,14|2,0:0|0:0,0:0:0:0:
221,136,79623,1,0,0:0:0:0:
221,136,79711,2,0,B|216:76|216:76|211:71|211:71|205:8,1,129.999994049073,8|2,0:3|0:0,0:0:0:0:
286,197,80064,102,0,B|354:181|341:248|424:222,1,129.999994049073,10|2,0:0|0:0,0:0:0:0:
512,76,80417,2,0,P|453:96|448:157,1,129.999994049073,8|2,0:3|0:0,0:0:0:0:
486,291,80770,6,0,P|493:263|486:227,1,59.9999981689454,10|0,0:0|0:0,0:0:0:0:
407,226,80947,2,0,P|382:210|346:206,1,59.9999981689454,2|0,0:0|0:0,0:0:0:0:
371,345,81123,101,10,0:3:0:0:
337,212,81299,1,2,0:0:0:0:
286,317,81476,6,0,P|332:342|376:336,1,59.9999981689454,10|0,0:0|0:0,0:0:0:0:
173,343,81652,2,0,P|127:368|83:362,1,59.9999981689454,2|0,0:0|0:0,0:0:0:0:
223,176,81829,102,0,P|250:220|291:237,1,59.9999981689454,10|0,0:3|0:0,0:0:0:0:
139,230,82005,2,0,P|126:257|105:279,1,59.9999981689454,2|0,0:0|0:0,0:0:0:0:
224,94,82182,6,0,B|154:83|173:148|88:130,1,129.999994049073,10|2,0:0|0:0,0:0:0:0:
40,74,82447,1,0,0:0:0:0:
40,74,82535,2,0,B|45:134|45:134|50:139|50:139|56:202,1,129.999994049073,8|2,0:3|0:0,0:0:0:0:
26,345,82888,102,0,P|46:285|107:280,1,129.999994049073,10|2,0:0|0:0,0:0:0:0:
190,347,83241,2,0,P|261:363|315:311,1,129.999994049073,8|2,0:3|0:0,0:0:0:0:
260,228,83594,6,0,P|243:262|241:291,1,59.9999981689454,10|0,0:0|0:0,0:0:0:0:
372,275,83770,2,0,P|389:309|391:338,1,59.9999981689454,2|0,0:0|0:0,0:0:0:0:
223,149,83947,102,0,P|186:160|164:179,1,59.9999981689454,10|0,0:3|0:0,0:0:0:0:
405,188,84123,2,0,P|440:199|462:219,1,59.9999981689454,2|0,0:0|0:0,0:0:0:0:
307,120,84299,5,10,0:0:0:0:
307,120,84476,1,2,0:0:0:0:
421,11,84652,101,10,0:0:0:0:
421,11,84829,1,2,0:0:0:0:
511,82,85005,6,0,B|444:60|451:127|371:94,1,129.999994049073,14|2,0:0|0:0,0:0:0:0:
333,38,85270,1,0,0:0:0:0:
333,38,85358,2,0,P|246:15|194:72,1,129.999994049073,8|2,0:3|0:0,0:0:0:0:
200,160,85711,102,0,B|205:100|205:100|210:95|210:95|216:32,1,129.999994049073,10|2,0:0|0:0,0:0:0:0:
125,127,86064,2,0,B|130:67|130:67|135:62|135:62|141:-1,1,129.999994049073,8|2,0:3|0:0,0:0:0:0:
44,117,86417,6,0,P|53:167|74:190,1,59.9999981689454,10|0,0:0|0:0,0:0:0:0:
30,249,86594,2,0,P|77:266|108:259,1,59.9999981689454,2|0,0:0|0:0,0:0:0:0:
137,327,86770,102,0,P|175:294|185:264,1,59.9999981689454,10|0,0:3|0:0,0:0:0:0:
258,273,86947,2,0,P|249:223|228:200,1,59.9999981689454,2|0,0:0|0:0,0:0:0:0:
147,209,87123,5,10,0:0:0:0:
147,209,87299,1,2,0:0:0:0:
200,124,87476,101,10,0:3:0:0:
258,273,87652,1,2,0:0:0:0:
304,131,87829,6,0,B|371:109|364:176|444:143,1,129.999994049073,10|2,0:0|0:0,0:0:0:0:
512,142,88094,1,0,0:0:0:0:
512,142,88182,2,0,P|453:162|448:223,1,129.999994049073,8|2,0:3|0:0,0:0:0:0:
439,356,88535,102,0,P|498:336|503:275,1,129.999994049073,10|2,0:0|0:0,0:0:0:0:
374,301,88888,2,0,B|314:306|314:306|309:311|309:311|246:317,1,129.999994049073,8|2,0:3|0:0,0:0:0:0:
154,365,89241,5,10,0:0:0:0:
154,365,89417,1,2,0:0:0:0:
104,220,89594,101,2,0:0:0:0:
104,220,89770,1,2,0:0:0:0:
5,273,89947,22,0,P|23:306|54:327,1,75.0000028610231,10|0,0:0|0:0,0:0:0:0:
188,214,90123,2,0,P|182:250|161:281,1,75.0000028610231,8|0,0:0|0:0,0:0:0:0:
55,139,90299,6,0,P|58:102|77:71,1,75.0000028610231,8|0,0:1|0:0,0:0:0:0:
235,140,90476,2,0,P|261:165|274:200,1,75.0000028610231,8|0,0:1|0:0,0:0:0:0:
137,4,90652,5,12,0:0:0:0:
78,71,90829,2,0,P|123:95|176:87,1,100,2|2,0:0|0:0,0:0:0:0:
245,37,91535,2,0,P|290:13|343:21,1,100,2|2,0:0|0:0,0:0:0:0:
381,98,92241,6,0,L|373:197,1,100,2|2,0:0|0:0,0:0:0:0:
456,90,92947,2,0,L|448:189,1,100,2|2,0:0|0:0,0:0:0:0:
467,279,93652,102,0,P|418:290|370:278,1,100,2|2,0:0|0:0,0:0:0:0:
316,351,94358,2,0,P|282:314|268:267,1,100,2|2,0:0|0:0,0:0:0:0:
156,262,95064,6,0,P|238:269|256:257,1,100,2|2,0:0|0:0,0:0:0:0:
330,179,95770,1,2,0:0:0:0:
330,179,96476,101,2,0:0:0:0:
345,191,96829,2,0,B|414:161|414:161|457:176,2,119.999996337891,2|2|2,0:0|0:0|0:0,0:0:0:0:
263,72,97888,5,2,0:0:0:0:
255,55,98241,2,0,B|186:25|186:25|143:40,2,119.999996337891,2|2|2,0:0|0:0|0:0,0:0:0:0:
202,219,99299,101,2,0:0:0:0:
195,237,99652,2,0,L|183:109,2,119.999996337891,2|2|2,0:0|0:0|0:0,0:0:0:0:
71,262,100711,5,2,0:0:0:0:
81,245,101064,2,0,P|141:224|205:243,1,119.999996337891,2|2,0:0|0:0,0:0:0:0:
244,328,101594,70,0,P|250:240|329:301,1,225.000008583069,2|0,0:0|0:0,0:0:0:0:
344,306,101947,22,0,B|408:270|426:348|497:312,1,160,4|0,0:0|0:0,0:0:0:0:
460,243,102476,1,0,0:0:0:0:
460,243,102653,2,0,P|438:212|435:171,1,80,0|0,0:0|0:0,0:0:0:0:
355,152,103005,2,0,P|370:117|404:94,1,80,0|0,0:0|0:0,0:0:0:0:
491,109,103358,5,2,0:0:0:0:
491,109,103535,1,2,0:0:0:0:
412,2,103711,2,0,B|409:38|409:38|405:42|405:42|400:94,1,80,2|2,0:0|0:0,0:0:0:0:
355,152,104064,2,0,B|285:147|285:147|281:143|281:143|197:136,1,160,2|0,0:0|0:0,0:0:0:0:
172,38,104594,1,0,0:0:0:0:
172,38,104682,1,0,0:0:0:0:
172,38,104770,102,0,P|226:45|198:135,1,160,0|0,0:0|0:0,0:0:0:0:
114,120,105299,1,0,0:0:0:0:
114,120,105476,2,0,L|19:103,1,80,0|0,0:0|0:0,0:0:0:0:
112,195,105829,2,0,L|17:178,1,80,0|0,0:0|0:0,0:0:0:0:
114,274,106182,5,2,0:0:0:0:
114,274,106358,1,2,0:0:0:0:
34,318,106535,2,0,P|60:347|97:361,1,80,2|2,0:0|0:0,0:0:0:0:
176,332,106888,1,0,0:0:0:0:
241,241,107241,102,0,L|235:304,1,40,0|0,0:0|0:0,0:0:0:0:
251,231,107417,2,0,L|245:294,1,40,0|0,0:0|0:0,0:0:0:0:
298,341,107594,6,0,B|362:377|380:299|451:335,1,160,0|0,0:0|0:0,0:0:0:0:
397,208,108123,1,8,0:1:0:0:
471,255,108299,2,0,P|486:206|472:167,1,80,0|0,0:0|0:0,0:0:0:0:
474,174,108564,1,8,0:1:0:0:
469,169,108652,2,0,P|454:120|468:81,1,80,8|0,0:1|0:0,0:0:0:0:
511,33,109005,101,2,0:0:0:0:
379,28,109182,1,10,0:1:0:0:
379,28,109270,1,8,0:1:0:0:
378,28,109358,2,0,P|357:61|321:77,1,80,2|2,0:0|0:0,0:0:0:0:
328,166,109711,2,0,P|281:157|234:62,1,160,0|0,0:0|0:0,0:0:0:0:
169,24,110241,1,0,0:0:0:0:
47,78,110417,6,0,B|83:81|83:81|87:85|87:85|139:90,1,80,0|8,0:0|0:1,0:0:0:0:
129,95,110682,1,8,0:1:0:0:
133,101,110770,2,0,P|102:150|105:191,1,80,8|0,0:1|0:0,0:0:0:0:
16,227,111123,2,0,P|36:274|71:295,1,80,0|0,0:0|0:0,0:0:0:0:
66,290,111388,1,0,0:0:0:0:
73,289,111476,2,0,P|118:265|159:272,1,80,8|0,0:1|0:0,0:0:0:0:
253,329,111829,102,0,L|236:234,1,80,2|10,0:0|0:1,0:0:0:0:
335,249,112182,2,0,L|388:204,1,59.9999981689454,10|2,0:1|0:0,0:0:0:0:
445,280,112535,2,0,L|490:296,1,40,2|0,0:0|0:0,0:0:0:0:
363,356,112888,86,0,L|370:331,2,25
335,249,113064,6,0,L|327:218,2,25
480,192,113241,38,0,B|493:142|493:142|489:137|489:137|508:71,1,115.000002193451,12|0,0:3|0:0,0:0:0:0:
432,6,113594,1,8,0:1:0:0:
321,135,113770,5,0,0:0:0:0:
321,135,113858,1,0,0:0:0:0:
321,135,113947,102,0,P|289:130|264:111,1,57.5000010967255,0|0,0:0|0:0,0:0:0:0:
268,31,114123,2,0,P|236:36|211:55,1,57.5000010967255,8|0,0:3|0:0,0:0:0:0:
181,133,114299,5,8,0:0:0:0:
181,133,114476,1,10,0:0:0:0:
108,39,114652,102,0,B|122:98|77:85|96:153,1,115.000002193451,10|0,0:3|0:0,0:0:0:0:
28,52,115005,5,8,0:1:0:0:
57,220,115182,1,0,0:0:0:0:
57,220,115270,1,0,0:0:0:0:
57,220,115358,102,0,L|0:209,1,57.5000010967255,0|0,0:0|0:0,0:0:0:0:
195,188,115535,2,0,L|252:177,1,57.5000010967255,10|0,0:3|0:0,0:0:0:0:
154,355,115711,6,0,B|129:237|129:237|144:258|170:267,1,172.500003290176,10|0,0:0|0:0,0:0:0:0:
232,316,116064,102,0,B|291:302|278:347|346:328,1,115.000002193451,8|0,0:3|0:0,0:0:0:0:
508,241,116417,5,8,0:1:0:0:
434,359,116594,1,0,0:0:0:0:
434,359,116682,1,0,0:0:0:0:
434,359,116771,102,0,P|439:327|458:302,1,57.5000010967255,0|0,0:0|0:0,0:0:0:0:
368,234,116947,2,0,P|398:222|429:226,1,57.5000010967255,8|0,0:3|0:0,0:0:0:0:
512,245,117123,5,8,0:0:0:0:
512,245,117299,1,10,0:0:0:0:
465,132,117476,102,0,B|460:81|460:81|464:76|464:76|458:9,1,115.000002193451,10|0,0:3|0:0,0:0:0:0:
371,147,117829,5,8,0:1:0:0:
340,24,118005,1,0,0:0:0:0:
340,24,118093,1,0,0:0:0:0:
340,24,118182,102,0,P|335:56|316:81,1,57.5000010967255,8|8,0:1|0:1,0:0:0:0:
204,5,118358,2,0,P|209:37|228:62,1,57.5000010967255,10|8,0:1|0:1,0:0:0:0:
253,150,118535,5,10,0:0:0:0:
253,150,118888,38,0,L|204:160,1,50,8|0,0:0|0:0,0:0:0:0:
243,229,119064,2,0,L|194:239,1,50,8|0,0:0|0:0,0:0:0:0:
123,128,119241,6,0,L|69:117,1,55.0000016784668,8|0,0:0|0:0,0:0:0:0:
86,198,119417,2,0,L|32:187,1,55.0000016784668,8|0,0:0|0:0,0:0:0:0:
229,65,119594,102,0,L|288:55,1,59.9999981689454,8|0,0:0|0:0,0:0:0:0:
266,136,119770,2,0,L|325:126,1,59.9999981689454,8|0,0:0|0:0,0:0:0:0:
184,0,119947,6,0,P|161:22|151:52,1,64.9999970245363,8|0,0:0|0:0,0:0:0:0:
68,117,120123,2,0,P|75:148|97:172,1,64.9999970245363,8|0,0:0|0:0,0:0:0:0:
113,291,120299,101,8,0:0:0:0:
125,293,120387,1,8,0:0:0:0:
143,288,120475,1,8,0:0:0:0:
163,273,120563,1,8,0:0:0:0:
175,242,120652,1,8,0:0:0:0:
203,215,120741,1,8,0:0:0:0:
247,205,120829,1,8,0:0:0:0:
294,225,120917,1,8,0:0:0:0:
317,278,121005,6,0,P|306:318|275:342,3,75.0000028610231,8|8|8|8,0:0|0:0|0:0|0:0,0:0:0:0:
396,221,121358,2,0,P|425:250|430:289,3,75.0000028610231,8|8|8|8,0:0|0:0|0:0|0:0,0:0:0:0:
386,124,121711,102,0,P|425:113|461:128,1,75.0000028610231,12|8,0:0|0:3,0:0:0:0:
313,30,122241,1,8,0:1:0:0:
313,30,122329,1,8,0:1:0:0:
313,30,122417,2,0,B|241:-4|244:80|162:49,1,150,8|0,0:0|0:0,0:0:0:0:
172,52,122770,5,8,0:0:0:0:
66,123,122947,1,8,0:1:0:0:
49,32,123123,102,0,L|65:126,1,75.0000028610231,8|0,0:1|0:0,0:0:0:0:
1,186,123476,6,0,L|97:221,1,100,8|0,0:3|0:0,0:0:0:0:
100,345,123829,102,0,L|204:256,1,125,8|0,0:0|0:0,0:0:0:0:
187,121,124182,5,8,0:0:0:0:
185,131,124270,1,8,0:0:0:0:
188,146,124358,1,0,0:0:0:0:
278,273,124535,102,0,P|275:236|255:205,1,75,8|0,0:3|0:0,0:0:0:0:
199,267,124888,5,0,0:0:0:0:
199,267,125064,1,0,0:0:0:0:
290,353,125241,102,0,P|333:334|356:289,1,75.0000028610231,8|0,0:3|0:0,0:0:0:0:
430,342,125417,2,0,P|435:295|407:252,1,75.0000028610231,8|0,0:0|0:0,0:0:0:0:
354,186,125594,102,0,B|320:65|320:65|344:93|381:93,1,175,14|0,0:0|0:0,0:0:0:0:
383,16,126299,101,10,0:0:0:0:
383,16,126476,1,2,0:0:0:0:
439,136,126652,6,0,L|503:118,1,59.9999981689454,10|0,0:3|0:0,0:0:0:0:
396,227,126829,2,0,L|354:186,1,59.9999981689454,10|0,0:0|0:0,0:0:0:0:
269,106,127005,102,0,P|242:94|205:94,1,59.9999981689454,2|0,0:0|0:0,0:0:0:0:
307,297,127182,2,0,P|281:308|243:308,1,59.9999981689454,2|0,0:0|0:0,0:0:0:0:
180,200,127358,6,0,B|90:164|96:270|-3:226,1,175,10|0,0:0|0:0,0:0:0:0:
18,233,128064,101,10,0:3:0:0:
149,272,128241,2,0,P|145:305|128:333,1,59.9999981689454,10|0,0:0|0:0,0:0:0:0:
36,154,128417,6,0,B|-6:87|43:32|43:32|26:55|31:86,1,175,10|0,0:0|0:0,0:0:0:0:
108,77,129123,102,0,P|169:108|226:25,1,150,10|0,0:0|0:0,0:0:0:0:
225,61,129476,6,0,L|288:72,1,59.9999981689454,10|0,0:3|0:0,0:0:0:0:
402,30,129652,2,0,L|360:79,1,59.9999981689454,2|0,0:0|0:0,0:0:0:0:
340,198,129829,2,0,L|318:137,1,59.9999981689454,10|0,0:0|0:0,0:0:0:0:
225,61,130005,2,0,L|288:72,1,59.9999981689454,10|2,0:0|0:0,0:0:0:0:
451,102,130182,102,0,B|479:146|451:193|451:193|441:237|471:266,1,175,10|0,0:0|0:0,0:0:0:0:
470,265,130888,5,10,0:3:0:0:
381,361,131064,2,0,P|407:348|437:351,1,59.9999981689454,10|8,0:3|0:1,0:0:0:0:
337,244,131241,102,0,B|216:209|216:209|242:234|241:267,1,175,10|8,0:0|0:1,0:0:0:0:
161,271,131947,5,10,0:0:0:0:
161,271,132123,1,10,0:0:0:0:
65,361,132299,102,0,P|35:331|28:295,1,59.9999981689454,8|0,0:3|0:0,0:0:0:0:
200,343,132476,2,0,P|232:316|242:281,1,59.9999981689454,10|10,0:1|0:1,0:0:0:0:
56,232,132652,6,0,P|19:210|3:177,1,59.9999981689454,8|8,0:0|0:1,0:0:0:0:
184,178,132829,2,0,P|219:155|234:122,1,59.9999981689454,10|0,0:0|0:0,0:0:0:0:
77,26,133005,102,0,B|31:91|79:148|79:148|64:123|69:92,1,175,10|0,0:0|0:0,0:0:0:0:
155,103,133711,5,10,0:3:0:0:
241,31,133888,2,0,P|289:31|314:46,1,59.9999981689454,10|10,0:1|0:1,0:0:0:0:
331,115,134064,102,0,P|402:160|472:111,1,175,10|0,0:0|0:0,0:0:0:0:
470,115,134770,6,0,P|421:135|438:223,1,150,10|0,0:0|0:0,0:0:0:0:
431,218,135123,102,0,P|450:242|456:271,1,59.9999981689454,10|0,0:3|0:0,0:0:0:0:
374,314,135299,2,0,P|363:341|340:361,1,59.9999981689454,10|0,0:0|0:0,0:0:0:0:
196,244,135476,6,0,L|164:238,2,29.9999990844727,8|0|0,0:0|0:0|0:0,0:0:0:0:
295,292,135652,2,0,L|266:298,2,29.9999990844727,8|0|0,0:0|0:0|0:0,0:0:0:0:
166,343,135829,6,0,P|184:291|167:239,1,112.500004291535,14|8,0:0|0:1,0:0:0:0:
91,256,136182,6,0,L|37:248,1,37.5000014305115,0|0,0:0|0:0,0:0:0:0:
199,164,136358,2,0,L|252:156,1,37.5000014305115,0|0,0:0|0:0,0:0:0:0:
61,31,136535,102,0,P|31:83|46:144,1,112.500004291535,8|0,0:3|0:0,0:0:0:0:
115,173,136888,5,8,0:1:0:0:
115,173,136976,1,8,0:1:0:0:
115,173,137064,1,8,0:1:0:0:
246,35,137241,86,0,B|353:-5|344:145|461:91,1,225.000008583069,14|0,0:0|0:0,0:0:0:0:
456,108,137594,102,0,P|407:169|419:202,1,112.500004291535,10|0,0:0|0:0,0:0:0:0:
415,291,137947,6,0,L|461:351,1,75.0000028610231,10|0,0:0|0:0,0:0:0:0:
307,299,138123,1,10,0:0:0:0:
307,299,138211,1,10,0:0:0:0:
307,299,138299,2,0,P|308:354|338:386,1,75.0000028610231,10|0,0:0|0:0,0:0:0:0:
449,188,138476,2,0,P|485:195|512:222,1,75.0000028610231,10|0,0:0|0:0,0:0:0:0:
317,213,138652,102,0,B|204:192|239:338|114:305,1,225.000008583069,10|8,0:0|0:1,0:0:0:0:
51,318,139005,6,0,L|60:369,1,37.5000014305115,10|0,0:0|0:0,0:0:0:0:
151,194,139182,2,0,L|141:245,1,37.5000014305115,8|0,0:1|0:0,0:0:0:0:
41,182,139358,102,0,P|97:213|148:195,1,100,10|0,0:3|0:0,0:0:0:0:
171,47,139623,6,0,P|112:82|102:138,1,125,10|0,0:0|0:0,0:0:0:0:
182,52,139888,102,0,P|157:14|114:2,1,75.0000028610231,10|0,0:0|0:0,0:0:0:0:
204,133,140064,6,0,P|238:146|275:139,1,75.0000028610231,10|0,0:0|0:0,0:0:0:0:
317,213,140241,2,0,P|345:189|357:154,1,75.0000028610231,2|0,0:0|0:0,0:0:0:0:
442,155,140417,2,0,P|436:118|411:90,1,75.0000028610231,10|0,0:0|0:0,0:0:0:0:
453,17,140594,2,0,P|418:3|381:10,1,75.0000028610231,2|0,0:0|0:0,0:0:0:0:
326,74,140770,101,10,0:0:0:0:
450,163,140947,1,10,0:0:0:0:
450,163,141035,1,10,0:0:0:0:
450,163,141123,6,2,P|486:145|533:159,1,75.0000028610231,10|0,0:0|0:0,0:0:0:0:
275,138,141299,2,0,P|239:120|192:134,1,75.0000028610231,10|2,0:0|0:0,0:0:0:0:
316,319,141476,102,0,B|328:262|328:262|337:262|337:262|329:261|329:261|344:180|344:180|319:214|286:217,1,225.000008583069,10|8,0:0|0:1,0:0:0:0:
235,318,141829,6,0,L|184:327,1,37.5000014305115,10|0,0:0|0:0,0:0:0:0:
150,260,142005,2,0,L|99:251,1,37.5000014305115,2|0,0:0|0:0,0:0:0:0:
39,336,142182,102,0,P|84:319|108:276,1,100,10|0,0:0|0:0,0:0:0:0:
4,153,142447,6,0,P|-5:212|34:258,1,125,10|0,0:0|0:0,0:0:0:0:
70,112,142711,102,0,P|33:79|3:75,1,75.0000028610231,10|0,0:0|0:0,0:0:0:0:
69,191,142888,6,0,P|120:176|143:143,1,75.0000028610231,10|0,0:0|0:0,0:0:0:0:
154,13,143064,1,10,0:0:0:0:
154,13,143152,1,10,0:0:0:0:
154,13,143241,102,0,P|141:64|158:101,1,75.0000028610231,10|0,0:0|0:0,0:0:0:0:
268,177,143417,2,0,P|229:140|189:136,1,75.0000028610231,10|0,0:0|0:0,0:0:0:0:
416,82,143594,6,0,P|465:60|509:69,1,75.0000028610231,10|0,0:0|0:0,0:0:0:0:
347,227,143770,1,10,0:0:0:0:
347,227,143858,1,10,0:0:0:0:
347,227,143947,2,0,P|334:279|350:315,1,75.0000028610231,10|0,0:3|0:0,0:0:0:0:
473,147,144123,2,0,P|508:187|511:227,1,75.0000028610231,10|0,0:3|0:0,0:0:0:0:
491,333,144299,102,0,B|407:407|365:285|281:352,1,225.000008583069,12|0,0:0|0:0,0:0:0:0:
201,343,144652,6,0,P|125:364|96:237,1,225.000008583069,8|0,0:0|0:0,0:0:0:0:
159,217,145005,102,0,P|198:192|257:199,1,100,8|0,0:0|0:0,0:0:0:0:
112,134,145270,6,0,P|65:101|-19:110,1,125,8|0,0:0|0:0,0:0:0:0:
134,40,145535,102,0,P|110:79|112:121,1,75.0000028610231,8|0,0:0|0:0,0:0:0:0:
159,217,145711,21,8,0:3:0:0:
163,228,145799,1,8,0:1:0:0:
174,239,145888,1,8,0:1:0:0:
195,248,145975,1,8,0:1:0:0:
223,249,146064,5,8,0:3:0:0:
252,230,146152,1,8,0:1:0:0:
261,190,146240,1,8,0:1:0:0:
291,154,146328,1,8,0:1:0:0:
341,137,146417,101,8,0:3:0:0:
396,154,146505,1,8,0:1:0:0:
428,202,146594,1,8,0:1:0:0:
421,260,146682,1,8,0:1:0:0:
384,305,146770,6,0,L|389:336,2,32.4999985122681,8|0|0,0:3|0:0|0:0,0:0:0:0:
343,222,146947,2,0,L|348:190,2,32.4999985122681,8|0|0,0:3|0:0|0:0,0:0:0:0:
290,298,147123,38,0,B|268:326|268:326|224:347|179:327,1,119.999996337891,12|0,0:0|0:0,0:0:0:0:
54,253,147476,2,0,B|58:311|58:311|63:315|63:315|67:370,1,119.999996337891,8|0,0:3|0:0,0:0:0:0:
178,201,147829,5,8,0:0:0:0:
178,201,148005,1,0,0:0:0:0:
70,125,148182,2,0,P|81:68|134:47,1,119.999996337891,8|0,0:3|0:0,0:0:0:0:
247,75,148535,102,0,L|256:26,1,50,8|0,0:0|0:0,0:0:0:0:
318,103,148711,2,0,L|327:54,1,50,0|0,0:0|0:0,0:0:0:0:
439,27,148888,1,8,0:3:0:0:
439,27,149064,1,0,0:0:0:0:
387,145,149241,6,0,P|358:175|330:180,1,50,10|0,0:0|0:0,0:0:0:0:
475,112,149417,2,0,P|504:142|532:147,1,50,2|0,0:0|0:0,0:0:0:0:
339,258,149594,102,0,P|298:247|280:226,1,50,10|0,0:3|0:0,0:0:0:0:
466,221,149770,2,0,P|487:233|512:235,1,50,2|0,0:0|0:0,0:0:0:0:
410,334,149947,6,0,B|348:321|355:382|288:360,1,119.999996337891,10|0,0:0|0:0,0:0:0:0:
275,229,150299,2,0,P|217:221|180:265,1,119.999996337891,8|0,0:3|0:0,0:0:0:0:
131,356,150652,101,8,0:0:0:0:
131,356,150829,1,0,0:0:0:0:
13,226,151005,6,0,B|17:284|17:284|22:288|22:288|26:343,1,119.999996337891,8|0,0:3|0:0,0:0:0:0:
88,196,151358,102,0,P|67:163|50:155,1,50,8|0,0:0|0:0,0:0:0:0:
181,266,151535,2,0,P|202:233|219:225,1,50,0|0,0:0|0:0,0:0:0:0:
169,113,151711,5,8,0:3:0:0:
169,113,151888,1,0,0:0:0:0:
265,167,152064,102,0,P|304:168|319:179,1,50,10|0,0:0|0:0,0:0:0:0:
71,78,152241,2,0,P|31:79|16:90,1,50,2|0,0:0|0:0,0:0:0:0:
252,68,152417,6,0,P|286:49|305:51,1,50,2|0,0:0|0:0,0:0:0:0:
130,18,152594,2,0,P|96:-2|77:-2,1,50,2|0,0:0|0:0,0:0:0:0:
169,113,152770,102,0,B|197:178|134:177|180:242,1,119.999996337891,12|0,0:0|0:0,0:0:0:0:
299,258,153123,2,0,B|241:254|241:254|237:249|237:249|182:245,1,119.999996337891,8|0,0:3|0:0,0:0:0:0:
68,318,153476,5,8,0:0:0:0:
68,318,153652,1,0,0:0:0:0:
202,357,153829,2,0,B|260:353|260:353|264:348|264:348|319:344,1,119.999996337891,8|0,0:3|0:0,0:0:0:0:
485,280,154182,102,0,L|478:329,1,50,8|0,0:0|0:0,0:0:0:0:
402,340,154358,2,0,L|409:291,1,50,0|0,0:0|0:0,0:0:0:0:
364,200,154535,1,8,0:3:0:0:
364,200,154711,1,0,0:0:0:0:
471,167,154888,6,0,P|491:122|486:97,1,50,10|0,0:0|0:0,0:0:0:0:
298,246,155064,2,0,P|278:201|283:176,1,50,2|0,0:0|0:0,0:0:0:0:
429,63,155241,102,0,P|400:23|375:15,1,50,10|0,0:3|0:0,0:0:0:0:
232,134,155417,2,0,P|214:151|204:174,1,50,2|0,0:0|0:0,0:0:0:0:
321,49,155594,6,0,B|268:85|256:26|186:65,1,119.999996337891,8|0,0:0|0:0,0:0:0:0:
106,138,155947,2,0,P|95:81|42:60,1,119.999996337891,8|0,0:3|0:0,0:0:0:0:
27,188,156299,101,8,0:0:0:0:
27,188,156476,1,0,0:0:0:0:
82,347,156652,2,0,B|89:289|89:289|94:285|94:285|101:230,1,119.999996337891,8|0,0:3|0:0,0:0:0:0:
172,341,157005,6,0,P|200:334|216:321,1,50,10|0,0:0|0:0,0:0:0:0:
297,349,157182,2,0,P|304:321|301:300,1,50,10|0,0:0|0:0,0:0:0:0:
366,244,157358,2,0,P|345:223|326:215,1,50,10|0,0:0|0:0,0:0:0:0:
237,229,157535,1,2,0:0:0:0:
416,309,157711,38,0,P|442:277|443:235,1,59.9999981689454,8|0,0:1|0:0,0:0:0:0:
237,229,157888,2,0,P|211:197|210:155,1,59.9999981689454,8|0,0:1|0:0,0:0:0:0:
421,174,158064,6,0,P|406:135|370:113,1,59.9999981689454,8|0,0:0|0:0,0:0:0:0:
251,111,158241,2,0,P|265:72|301:50,1,59.9999981689454,8|0,0:0|0:0,0:0:0:0:
482,36,158417,86,0,B|432:78|425:9|345:51,1,129.999994049073,10|2,0:0|0:0,0:0:0:0:
278,59,158682,1,0,0:0:0:0:
278,59,158770,2,0,P|202:69|170:15,1,129.999994049073,8|2,0:3|0:0,0:0:0:0:
63,99,159123,102,0,P|139:109|171:55,1,129.999994049073,10|2,0:0|0:0,0:0:0:0:
9,40,159476,2,0,B|14:100|14:100|19:105|19:105|25:168,1,129.999994049073,8|2,0:3|0:0,0:0:0:0:
136,247,159829,6,0,P|111:224|85:214,1,59.9999981689454,10|0,0:0|0:0,0:0:0:0:
18,328,160005,2,0,P|37:305|66:296,1,59.9999981689454,2|0,0:0|0:0,0:0:0:0:
144,331,160182,101,10,0:3:0:0:
87,214,160358,1,2,0:0:0:0:
155,343,160535,6,0,P|201:335|221:318,1,59.9999981689454,10|0,0:0|0:0,0:0:0:0:
291,356,160711,2,0,P|307:312|302:286,1,59.9999981689454,2|0,0:0|0:0,0:0:0:0:
363,238,160888,102,0,P|329:205|303:199,1,59.9999981689454,10|0,0:3|0:0,0:0:0:0:
291,120,161064,2,0,P|246:132|227:151,1,59.9999981689454,2|0,0:0|0:0,0:0:0:0:
227,235,161241,6,0,P|237:286|307:299,1,129.999994049073,10|2,0:0|0:0,0:0:0:0:
367,241,161505,1,0,0:0:0:0:
367,241,161594,2,0,P|452:230|491:275,1,129.999994049073,8|2,0:3|0:0,0:0:0:0:
491,380,161947,102,0,P|429:363|432:280,1,129.999994049073,10|2,0:0|0:0,0:0:0:0:
478,141,162299,2,0,P|507:197|481:254,1,129.999994049073,8|2,0:3|0:0,0:0:0:0:
424,77,162652,6,0,P|459:59|487:58,1,59.9999981689454,10|0,0:0|0:0,0:0:0:0:
345,192,162829,2,0,P|379:209|408:211,1,59.9999981689454,2|0,0:0|0:0,0:0:0:0:
339,52,163005,102,0,P|356:18|379:1,1,59.9999981689454,10|0,0:3|0:0,0:0:0:0:
267,232,163182,2,0,P|290:262|316:276,1,59.9999981689454,2|0,0:0|0:0,0:0:0:0:
261,112,163358,5,10,0:0:0:0:
261,112,163535,1,2,0:0:0:0:
157,39,163711,101,10,0:0:0:0:
157,39,163888,1,2,0:0:0:0:
33,77,164064,6,0,B|11:144|78:137|45:217,1,129.999994049073,14|2,0:0|0:0,0:0:0:0:
18,274,164329,1,0,0:0:0:0:
18,274,164417,2,0,P|105:251|157:308,1,129.999994049073,10|0,0:3|0:0,0:0:0:0:
248,372,164770,102,0,B|253:312|253:312|258:307|258:307|264:244,1,129.999994049073,10|2,0:0|0:0,0:0:0:0:
173,339,165123,2,0,B|178:279|178:279|183:274|183:274|189:211,1,129.999994049073,8|2,0:3|0:0,0:0:0:0:
342,297,165476,6,0,P|384:296|406:280,1,59.9999981689454,10|0,0:0|0:0,0:0:0:0:
380,204,165652,2,0,P|400:167|397:140,1,59.9999981689454,2|0,0:0|0:0,0:0:0:0:
243,231,165829,102,0,P|201:222|182:203,1,59.9999981689454,10|0,0:3|0:0,0:0:0:0:
221,132,166005,2,0,P|207:92|215:66,1,59.9999981689454,2|0,0:0|0:0,0:0:0:0:
318,151,166182,5,10,0:0:0:0:
318,151,166358,1,2,0:0:0:0:
255,0,166535,101,10,0:3:0:0:
212,138,166711,1,2,0:0:0:0:
336,56,166888,6,0,B|403:34|396:101|476:68,1,129.999994049073,10|2,0:0|0:0,0:0:0:0:
512,147,167153,1,0,0:0:0:0:
512,147,167241,2,0,P|457:175|451:244,1,129.999994049073,8|2,0:3|0:0,0:0:0:0:
509,335,167594,102,0,P|500:272|447:236,1,129.999994049073,10|2,0:0|0:0,0:0:0:0:
300,323,167947,2,0,B|359:317|359:317|365:321|365:321|428:316,1,129.999994049073,8|2,0:3|0:0,0:0:0:0:
366,214,168299,5,10,0:0:0:0:
366,214,168475,1,2,0:0:0:0:
318,63,168652,101,2,0:0:0:0:
318,63,168828,1,2,0:0:0:0:
428,158,169005,22,0,P|449:200|441:242,1,75.0000028610231,10|0,0:0|0:0,0:0:0:0:
257,198,169182,2,0,P|236:240|244:282,1,75.0000028610231,10|0,0:0|0:0,0:0:0:0:
439,68,169358,6,0,P|482:86|502:123,1,75.0000028610231,10|0,0:1|0:0,0:0:0:0:
212,111,169535,2,0,P|168:129|148:166,1,75.0000028610231,10|0,0:1|0:0,0:0:0:0:
354,103,169711,6,0,B|272:70|282:149|204:108,1,150,12|0,0:0|0:0,0:0:0:0:
211,111,170064,2,0,P|186:80|172:74,1,50,8|0,0:0|0:0,0:0:0:0:
103,60,170241,1,0,0:0:0:0:
33,167,170417,2,0,B|28:120|28:120|24:117|24:117|20:69,2,100,8|0|8,0:0|0:0|0:0,0:0:0:0:
103,60,170947,1,0,0:0:0:0:
42,180,171123,6,0,B|36:255|36:255|32:259|32:259|24:350,1,150,8|0,0:0|0:0,0:0:0:0:
25,327,171476,2,0,P|55:296|81:296,1,50,8|0,0:0|0:0,0:0:0:0:
137,277,171652,1,0,0:0:0:0:
247,342,171829,2,0,P|198:346|157:319,2,100,8|0|8,0:0|0:0|0:0,0:0:0:0:
228,246,172358,1,0,0:0:0:0:
336,335,172535,102,0,B|418:368|408:289|486:330,1,150,8|0,0:0|0:0,0:0:0:0:
478,326,172888,2,0,P|464:277|468:256,1,50,8|0,0:0|0:0,0:0:0:0:
494,206,173064,1,0,0:0:0:0:
354,165,173241,2,0,B|358:213|358:213|362:216|362:216|367:263,2,100,8|0|8,0:0|0:0|0:0,0:0:0:0:
434,28,173770,1,0,0:0:0:0:
468,102,173947,6,0,B|386:134|396:56|318:96,1,150,8|0,0:0|0:0,0:0:0:0:
325,93,174299,2,0,P|314:71|294:56,1,50,8|0,0:0|0:0,0:0:0:0:
223,35,174476,1,0,0:0:0:0:
190,198,174652,2,0,P|231:172|248:126,1,100,8|0,0:0|0:0,0:0:0:0:
160,117,175005,1,0,0:0:0:0:
160,117,175182,1,0,0:0:0:0:
55,102,175358,102,0,B|22:184|101:174|60:252,1,150,8|0,0:0|0:0,0:0:0:0:
63,244,175711,2,0,P|47:273|52:312,1,50,8|0,0:0|0:0,0:0:0:0:
79,361,175888,1,0,0:0:0:0:
224,284,176064,2,0,B|176:288|176:288|173:292|173:292|126:297,2,100,8|0|8,0:0|0:0|0:0,0:0:0:0:
336,336,176594,1,0,0:0:0:0:
265,214,176770,6,0,B|259:289|259:289|255:293|255:293|247:384,1,150,8|0,0:0|0:0,0:0:0:0:
248,361,177123,2,0,P|296:340|316:343,1,50,8|0,0:0|0:0,0:0:0:0:
409,368,177299,1,0,0:0:0:0:
490,280,177476,2,0,P|442:292|414:332,2,100,8|0|8,0:0|0:0|0:0,0:0:0:0:
495,365,178005,1,0,0:0:0:0:
500,259,178182,102,0,B|418:291|428:213|350:253,1,150,8|0,0:0|0:0,0:0:0:0:
357,249,178535,2,0,P|387:215|384:177,1,50,8|0,0:0|0:0,0:0:0:0:
379,134,178711,1,0,0:0:0:0:
309,26,178888,2,0,B|357:30|357:30|360:34|360:34|407:39,2,100,8|0|8,0:0|0:0|0:0,0:0:0:0:
476,113,179417,1,0,0:0:0:0:
308,181,179594,6,0,B|302:106|302:106|298:102|298:102|290:11,1,150,8|0,0:0|0:0,0:0:0:0:
291,33,179947,2,0,P|270:74|238:84,1,50,8|0,0:0|0:0,0:0:0:0:
193,98,180123,1,0,0:0:0:0:
42,71,180299,2,0,P|82:43|130:48,1,100,8|0,0:0|0:0,0:0:0:0:
103,154,180652,1,8,0:1:0:0:
100,139,180740,1,8,0:1:0:0:
102,129,180828,1,8,0:0:0:0:
164,259,181005,6,0,P|135:189|93:252,1,165.000005035401,8|0,0:0|0:0,0:0:0:0:
106,319,181358,6,0,B|171:275|196:375|273:319,1,165.000005035401,8|0,0:0|0:0,0:0:0:0:
261,326,181711,1,8,0:0:0:0:
326,215,181888,1,0,0:0:0:0:
326,215,181976,1,8,0:0:0:0:
326,215,182064,102,0,P|337:248|337:279,1,55.0000016784668,8|0,0:0|0:0,0:0:0:0:
412,308,182241,2,0,P|401:341|400:372,1,55.0000016784668,8|0,0:0|0:0,0:0:0:0:
504,222,182417,6,0,B|546:161|494:109|494:109|492:141|473:162,1,165.000005035401,10|8,0:0|0:0,0:0:0:0:
481,222,182770,102,0,B|416:266|391:166|314:222,1,165.000005035401,8|0,0:0|0:0,0:0:0:0:
325,214,183123,1,8,0:0:0:0:
323,78,183299,1,0,0:0:0:0:
323,78,183387,1,8,0:0:0:0:
323,78,183476,6,0,P|312:111|312:142,1,55.0000016784668,8|0,0:0|0:0,0:0:0:0:
213,28,183652,2,0,P|224:61|224:92,1,55.0000016784668,8|0,0:0|0:0,0:0:0:0:
194,191,183829,102,0,P|203:115|136:149,1,165.000005035401,10|8,0:0|0:0,0:0:0:0:
78,62,184182,6,0,B|87:141|87:141|92:144|92:144|103:240,1,165.000005035401,8|0,0:0|0:0,0:0:0:0:
101,223,184535,1,8,0:0:0:0:
73,342,184711,1,0,0:0:0:0:
73,342,184799,1,8,0:0:0:0:
73,342,184888,102,0,P|40:331|9:331,1,55.0000016784668,8|0,0:0|0:0,0:0:0:0:
179,303,185064,2,0,P|206:300|232:290,1,55.0000016784668,8|0,0:0|0:0,0:0:0:0:
295,357,185241,6,0,B|253:296|305:244|305:244|307:276|326:297,1,165.000005035401,10|8,0:0|0:0,0:0:0:0:
383,333,185594,102,0,P|460:326|470:251,1,165.000005035401,8|0,0:0|0:0,0:0:0:0:
470,251,185947,1,8,0:0:0:0:
325,227,186123,6,0,L|313:290,1,55.0000016784668,0|8,0:0|0:0,0:0:0:0:
309,151,186299,2,0,L|259:109,1,55.0000016784668,8|0,0:0|0:0,0:0:0:0:
382,175,186476,2,0,L|442:153,1,55.0000016784668,8|0,0:0|0:0,0:0:0:0:
353,65,186652,37,8,0:0:0:0:
248,207,186829,1,8,0:0:0:0:
188,47,187005,5,8,0:0:0:0:
233,203,187182,1,8,0:0:0:0:
72,87,187358,101,8,0:0:0:0:
56,229,187535,1,8,0:0:0:0:
177,142,187711,6,0,B|200:120|229:120|229:120|229:116|229:116|229:120|229:120|265:120|286:146,1,110.000003356934,8|8,0:0|0:0,0:0:0:0:
294,303,188064,101,8,0:0:0:0:
369,131,188241,1,8,0:0:0:0:
305,319,188417,5,8,0:0:0:0:
233,203,188594,1,8,0:0:0:0:
405,351,188770,101,8,0:0:0:0:
461,205,188947,1,8,0:0:0:0:
305,319,189123,6,0,B|273:325|249:311|249:311|246:314|246:314|249:311|249:311|217:293|212:260,1,110.000003356934,8|8,0:0|0:0,0:0:0:0:
99,345,189476,101,8,0:0:0:0:
107,338,189564,1,8,0:0:0:0:
120,322,189652,1,8,0:0:0:0:
126,299,189740,1,8,0:0:0:0:
121,266,189829,1,8,0:0:0:0:
97,237,189917,1,8,0:0:0:0:
80,195,190005,1,8,0:0:0:0:
90,144,190093,1,8,0:0:0:0:
140,116,190182,6,0,L|203:110,3,59.9999981689454,8|8|8|8,0:0|0:0|0:0|0:0,0:0:0:0:
74,64,190535,2,0,L|10:58,3,59.9999981689454,8|8|8|8,0:0|0:0|0:0|0:0,0:0:0:0:
214,99,190888,102,0,B|315:57|311:189|422:124,1,220.000006713867,8|8,0:0|0:0,0:0:0:0:
250,169,191417,6,0,P|247:222|284:262,1,110.000003356934,8|8,0:1|0:0,0:0:0:0:
359,244,191770,1,0,0:0:0:0:
236,322,191947,2,0,P|286:339|335:318,1,110.000003356934,8|8,0:1|0:1,0:0:0:0:
359,244,192299,101,8,0:3:0:0:
