osu file format v14

[General]
AudioFilename: audio.mp3
AudioLeadIn: 0
PreviewTime: 45075
Countdown: 0
SampleSet: Soft
StackLeniency: 0.4
Mode: 0
LetterboxInBreaks: 0
WidescreenStoryboard: 1

[Editor]
Bookmarks: 5947,11594,17241,22888,28535,34182,39829,45476,56770,68064,79358,90652,101947,113241,118888,124535,137241,147123,158417,169711,181005,186652,192299
DistanceSpacing: 0.5
BeatDivisor: 8
GridSize: 32
TimelineZoom: 2.799999

[Metadata]
Title:POISON -KO3 Remix-
TitleUnicode:POISON -KO3 Remix-
Artist:YUC'e
ArtistUnicode:YUC'e
Creator:JrSzZ
Version:Have you ever felt like this?
Source:
Tags:Magical Mixer electronic future bass dance music female vocals Tokyo YUCE-0006 Instrumental English
BeatmapID:2023935
BeatmapSetID:967021

[Difficulty]
HPDrainRate:5.5
CircleSize:4.2
OverallDifficulty:8.8
ApproachRate:9.5
SliderMultiplier:2
SliderTickRate:1

[Events]
//Background and Video events
0,0,"bg.jpg",0,0
//Break Periods
//Storyboard Layer 0 (Background)
//Storyboard Layer 1 (Fail)
//Storyboard Layer 2 (Pass)
//Storyboard Layer 3 (Foreground)
//Storyboard Layer 4 (Overlay)
//Storyboard Sound Samples

[TimingPoints]
300,352.941176470588,4,2,1,60,1,0
300,-66.6666666666667,4,2,1,60,0,0
5594,-100,4,2,1,60,0,0
5770,-57.1428571428571,4,2,1,60,0,0
5947,-66.6666666666667,4,2,1,60,0,0
7358,-100,4,2,1,60,0,0
7535,-66.6666666666667,4,2,1,60,0,0
7711,-100,4,2,1,60,0,0
7888,-66.6666666666667,4,2,1,60,0,0
10358,-100,4,2,1,60,0,0
10535,-66.6666666666667,4,2,1,60,0,0
10711,-100,4,2,1,60,0,0
10888,-66.6666666666667,4,2,1,60,0,0
11594,-62.5,4,2,1,60,0,0
13005,-83.3333333333333,4,2,1,60,0,0
13182,-100,4,2,1,60,0,0
13358,-125,4,2,1,60,0,0
13535,-166.666666666667,4,2,1,60,0,0
13711,-62.5,4,2,1,60,0,0
15829,-83.3333333333333,4,2,1,60,0,0
16182,-125,4,2,1,60,0,0
16888,-166.666666666667,4,2,1,60,0,0
17064,-50,4,2,1,60,0,0
17241,-62.5,4,2,1,60,0,0
17417,-100,4,2,1,60,0,0
17594,-62.5,4,2,1,60,0,0
17770,-100,4,2,1,60,0,0
17947,-62.5,4,2,1,60,0,0
18123,-100,4,2,1,60,0,0
18299,-62.5,4,2,1,60,0,0
18476,-100,4,2,1,60,0,0
18652,-55.5555555555556,4,2,1,60,0,0
18829,-83.3333333333333,4,2,1,60,0,0
19005,-55.5555555555556,4,2,1,60,0,0
19182,-83.3333333333333,4,2,1,60,0,0
19358,-50,4,2,1,60,0,0
21476,-100,4,2,1,60,0,0
24652,-83.3333333333333,4,2,1,60,0,0
25005,-100,4,2,1,60,0,0
27476,-83.3333333333333,4,2,1,60,0,0
27829,-100,4,2,1,60,0,0
28094,-100,4,2,1,5,0,0
28182,-62.5,4,2,1,60,0,0
28535,-66.6666666666667,4,2,1,60,0,0
39123,-57.1428571428571,4,2,1,60,0,0
39476,-100,4,2,1,60,0,0
39829,-83.3333333333333,4,2,1,60,0,0
40005,-50,4,2,1,60,0,0
40182,-83.3333333333333,4,2,1,60,0,0
40358,-50,4,2,1,60,0,0
40535,-40,4,2,1,60,0,0
41241,-100,4,2,1,60,0,0
42652,-66.6666666666667,4,2,1,60,0,0
43711,-83.3333333333333,4,2,1,60,0,0
43888,-45.4545454545455,4,2,1,60,0,0
44064,-100,4,2,22,60,0,0
45123,-133.333333333333,4,2,1,60,0,0
45476,-45.4545454545455,4,2,2,70,0,1
45741,-45.4545454545455,4,2,2,5,0,1
45829,-50,4,2,2,70,0,1
47241,-41.6666666666667,4,2,2,70,0,1
47417,-55.5555555555556,4,2,2,70,0,1
47594,-45.4545454545455,4,2,2,70,0,1
47770,-62.5,4,2,2,70,0,1
47947,-50,4,2,2,70,0,1
48564,-50,4,2,2,5,0,1
48652,-50,4,2,2,70,0,1
50064,-57.1428571428571,4,2,2,70,0,1
50417,-66.6666666666667,4,2,2,70,0,1
51123,-50,4,2,2,70,0,1
51388,-50,4,2,2,5,0,1
51476,-50,4,2,2,70,0,1
52711,-100,4,2,2,70,0,1
52888,-57.1428571428571,4,2,2,70,0,1
53064,-133.333333333333,4,2,2,70,0,1
53241,-50,4,2,2,70,0,1
53947,-250,4,2,2,70,0,1
54211,-250,4,2,2,5,0,1
54299,-50,4,2,2,70,0,1
54829,-100,4,2,2,70,0,1
55005,-38.4615384615385,4,2,2,70,0,1
55358,-41.6666666666667,4,2,1,70,0,0
56064,-50,4,2,1,70,0,0
56417,-41.6666666666667,4,2,1,70,0,0
56770,-41.6666666666667,4,2,2,70,0,1
57035,-41.6666666666667,4,2,2,5,0,1
57123,-50,4,2,2,70,0,1
59594,-250,4,2,2,70,0,1
59858,-250,4,2,2,5,0,1
59947,-50,4,2,2,70,0,1
61358,-57.1428571428571,4,2,2,70,0,1
61711,-66.6666666666667,4,2,2,70,0,1
62417,-50,4,2,2,70,0,1
62682,-50,4,2,2,5,0,1
62770,-50,4,2,2,70,0,1
64005,-100,4,2,2,70,0,1
64182,-57.1428571428571,4,2,2,70,0,1
64358,-133.333333333333,4,2,2,70,0,1
64535,-50,4,2,2,70,0,1
65241,-100,4,2,1,70,0,1
65594,-66.6666666666667,4,2,1,70,0,1
65947,-57.1428571428571,4,2,1,70,0,1
66299,-50,4,2,1,70,0,1
68064,-50,4,2,2,70,0,0
68417,-57.1428571428571,4,2,2,70,0,0
70358,-66.6666666666667,4,2,2,70,0,0
70535,-80,4,2,2,70,0,0
70711,-100,4,2,2,70,0,0
70888,-57.1428571428571,4,2,2,70,0,0
73005,-66.6666666666667,4,2,2,70,0,0
73358,-100,4,2,2,70,0,0
73711,-57.1428571428571,4,2,2,70,0,0
77947,-66.6666666666667,4,2,2,70,0,0
78299,-100,4,2,2,70,0,0
78652,-57.1428571428571,4,2,1,70,0,0
79358,-50,4,2,2,70,0,1
84299,-57.1428571428571,4,2,2,70,0,1
84652,-80,4,2,2,70,0,1
85005,-50,4,2,2,70,0,1
89594,-66.6666666666667,4,2,2,70,0,1
89947,-50,4,2,1,70,0,1
90652,-50,4,2,1,70,0,0
90829,-250.000000000001,4,2,1,30,0,0
91182,-238.095238095238,4,2,1,40,0,0
91535,-227.272727272727,4,2,1,50,0,0
91888,-217.391304347826,4,2,1,60,0,0
92241,-208.333333333333,4,2,1,30,0,0
92594,-200,4,2,1,40,0,0
92947,-192.307692307692,4,2,1,50,0,0
93299,-185.185185185185,4,2,1,60,0,0
93652,-178.571428571429,4,2,1,30,0,0
94005,-172.413793103448,4,2,1,40,0,0
94358,-166.666666666667,4,2,1,50,0,0
94711,-161.290322580645,4,2,1,60,0,0
95064,-178.571428571429,4,2,1,50,0,0
95417,-166.666666666667,4,2,1,60,0,0
95770,-172.413793103448,4,2,1,70,0,0
96476,-200.000000000001,4,2,1,30,0,0
96829,-192.307692307692,4,2,1,40,0,0
97182,-185.185185185185,4,2,1,50,0,0
97535,-178.571428571429,4,2,1,60,0,0
97888,-172.413793103448,4,2,1,30,0,0
98241,-166.666666666667,4,2,1,40,0,0
98594,-161.290322580645,4,2,1,50,0,0
98946,-156.25,4,2,1,60,0,0
99299,-151.515151515152,4,2,1,30,0,0
99652,-147.058823529412,4,2,1,40,0,0
100005,-142.857142857143,4,2,1,50,0,0
100358,-138.888888888889,4,2,1,60,0,0
100711,-151.515151515152,4,2,1,50,0,0
101064,-142.857142857143,4,2,1,60,0,0
101417,-73.5294117647059,4,2,1,70,0,0
101594,-66.6666666666667,4,2,1,70,0,0
101947,-100,4,2,1,60,0,0
103711,-83.3333333333333,4,2,1,60,0,0
104064,-100,4,2,1,60,0,0
106535,-83.3333333333333,4,2,1,60,0,0
106888,-100,4,2,1,60,0,0
109358,-83.3333333333333,4,2,1,60,0,0
109711,-100,4,2,1,60,0,0
111829,-83.3333333333333,4,2,1,60,0,0
112005,-100,4,2,1,60,0,0
112182,-83.3333333333333,4,2,1,60,0,0
112358,-100,4,2,1,60,0,0
112535,-100,4,2,1,60,0,0
113241,-66.6666666666667,4,2,1,70,0,0
118535,-100,4,2,1,60,0,0
118888,-50,4,2,1,60,0,0
119594,-40,4,2,1,60,0,0
120300,-100,4,2,1,60,0,0
121711,-66.6666666666667,4,2,1,60,0,0
122417,-133.333333333333,4,2,1,60,0,0
122594,-66.6666666666667,4,2,1,60,0,0
122770,-66.6666666666667,4,2,1,60,0,0
123123,-200,4,2,22,60,0,0
123476,-133.333333333333,4,2,22,60,0,0
123829,-100,4,2,22,60,0,0
124182,-50,4,2,1,60,0,0
124535,-100,4,2,1,60,0,0
125241,-50,4,2,1,60,0,0
125594,-50,4,2,2,70,0,1
125947,-133.333333333333,4,2,2,70,0,1
126652,-45.4545454545455,4,2,2,70,0,1
127358,-333.333333333333,4,2,2,70,0,1
127623,-333.333333333333,4,2,2,5,0,1
127711,-333.333333333333,4,2,2,70,0,1
128064,-45.4545454545455,4,2,2,70,0,1
128417,-50,4,2,2,70,0,1
128770,-133.333333333333,4,2,2,70,0,1
129476,-45.4545454545455,4,2,2,70,0,1
129652,-62.5,4,2,2,70,0,1
129829,-100,4,2,2,70,0,1
130005,-125,4,2,2,70,0,1
130182,-333.333333333333,4,2,2,70,0,1
130447,-333.333333333333,4,2,2,5,0,1
130535,-333.333333333333,4,2,2,70,0,1
130888,-45.4545454545455,4,2,2,70,0,1
131241,-50,4,2,2,70,0,1
131594,-133.333333333333,4,2,2,70,0,1
132299,-45.4545454545455,4,2,2,70,0,1
133005,-333.333333333333,4,2,2,70,0,1
133711,-45.4545454545455,4,2,2,70,0,1
134064,-50,4,2,2,70,0,1
134417,-133.333333333333,4,2,2,70,0,1
135123,-45.4545454545455,4,2,2,70,0,1
135829,-333.333333333333,4,2,2,70,0,0
136535,-100,4,2,2,70,0,0
137241,-50,4,2,2,70,0,1
137594,-55.5555555555556,4,2,2,70,0,1
138299,-50,4,2,2,70,0,1
138652,-333.333333333333,4,2,2,70,0,1
139358,-45.4545454545455,4,2,2,70,0,1
140064,-50,4,2,2,70,0,1
141476,-333.333333333333,4,2,2,70,0,1
142182,-45.4545454545455,4,2,2,70,0,1
144299,-100,4,2,2,70,0,1
146770,-66.6666666666667,4,2,2,70,0,1
147123,-57.1428571428571,4,2,2,70,0,0
152064,-66.6666666666667,4,2,2,70,0,0
152417,-100,4,2,2,70,0,0
152770,-57.1428571428571,4,2,2,70,0,0
157005,-66.6666666666667,4,2,2,70,0,0
157357,-100,4,2,2,70,0,0
157710,-50,4,2,1,70,0,0
158417,-50,4,2,2,70,0,1
163358,-57.1428571428571,4,2,2,70,0,1
163711,-80,4,2,2,70,0,1
164064,-50,4,2,2,70,0,1
168652,-66.6666666666667,4,2,2,70,0,1
169005,-50,4,2,1,70,0,1
169711,-66.6666666666667,4,2,1,60,0,0
175005,-100,4,2,1,60,0,0
175181,-57.1428571428571,4,2,1,60,0,0
175358,-66.6666666666667,4,2,1,60,0,0
181005,-62.5,4,2,1,60,0,0
186652,-100,4,2,1,60,0,0
187358,-83.3333333333333,4,2,1,60,0,0
188064,-71.4285714285714,4,2,1,60,0,0
188770,-62.5,4,2,1,60,0,0
190888,-100,4,2,1,60,0,0
192299,-100,4,2,1,60,0,0

[Colours]
Combo1 : 138,138,255
Combo2 : 41,155,248
Combo3 : 17,17,255
Combo4 : 255,70,70
Combo5 : 255,143,32
Combo6 : 112,112,112
Combo7 : 192,192,192
Combo8 : 140,26,255

[HitObjects]
28,123,300,86,0,B|60:115|84:139|84:139|87:135|87:135|84:138|84:138|115:175|154:163,1,150.000005722046,12|0,0:0|0:0,0:0:0:0:
205,108,564,101,0,0:0:0:0:
205,108,652,2,0,P|232:82|268:81,1,75.0000028610231,8|0,0:0|0:0,0:0:0:0:
341,123,829,1,0,0:0:0:0:
321,25,1005,6,0,B|316:82|316:82|319:87|319:87|309:110|309:110|313:118|313:118|308:170,1,150.000005722046,8|0,0:0|0:0,0:0:0:0:
392,192,1358,2,0,B|397:135|397:135|394:130|394:130|404:107|404:107|400:99|400:99|405:47,1,150.000005722046,8|0,0:0|0:0,0:0:0:0:
495,221,1711,102,0,P|425:215|381:280,1,150.000005722046,8|0,0:0|0:0,0:0:0:0:
423,343,1976,5,0,0:0:0:0:
423,343,2064,2,0,P|463:351|487:385,1,75.0000028610231,8|0,0:0|0:0,0:0:0:0:
311,305,2241,1,0,0:0:0:0:
211,322,2417,102,0,B|241:308|268:328|268:328|271:323|271:323|268:327|268:327|305:358|340:339,1,150.000005722046,8|0,0:0|0:0,0:0:0:0:
103,354,2770,2,0,P|168:323|162:249,1,150.000005722046,8|0,0:0|0:0,0:0:0:0:
37,171,3123,6,0,B|53:202|88:202|88:202|101:208|101:208|124:177|164:175,1,150.000005722046,8|0,0:0|0:0,0:0:0:0:
241,165,3388,101,0,0:0:0:0:
241,165,3476,2,0,P|265:192|302:198,1,75.0000028610231,8|0,0:0|0:0,0:0:0:0:
347,101,3652,1,0,0:0:0:0:
253,7,3829,6,0,P|187:30|188:100,1,150.000005722046,8|0,0:0|0:0,0:0:0:0:
424,50,4182,2,0,B|392:42|368:66|368:66|365:62|365:62|368:65|368:65|337:102|298:90,1,150.000005722046,8|0,0:0|0:0,0:0:0:0:
497,90,4535,102,0,B|474:113|482:146|482:146|477:147|477:147|481:145|481:145|498:191|468:219,1,150.000005722046,8|0,0:0|0:0,0:0:0:0:
451,298,4799,5,0,0:0:0:0:
451,298,4888,2,0,P|456:332|489:355,1,75.0000028610231,8|0,0:0|0:0,0:0:0:0:
361,183,5064,1,0,0:0:0:0:
273,278,5241,102,0,P|321:226|392:238,1,150.000005722046,8|0,0:0|0:0,0:0:0:0:
171,346,5594,6,0,P|167:312|153:293,1,50
64,263,5770,102,0,P|107:261|144:283,1,87.500000834465
203,228,5947,6,0,B|217:198|197:171|197:171|202:168|202:168|198:171|198:171|167:134|186:99,1,150.000005722046,8|0,0:0|0:0,0:0:0:0:
113,72,6211,101,0,0:0:0:0:
113,72,6299,2,0,P|42:82|6:21,1,150.000005722046,8|0,0:0|0:0,0:0:0:0:
176,23,6652,6,0,B|210:18|232:36|232:36|235:33|235:33|232:36|232:36|268:69|306:52,1,150.000005722046,8|0,0:0|0:0,0:0:0:0:
505,16,7005,101,8,0:0:0:0:
481,190,7182,1,0,0:0:0:0:
496,8,7358,6,0,L|502:57,1,50,10|0,0:0|0:0,0:0:0:0:
427,99,7535,2,0,L|417:24,1,75.0000028610231,2|0,0:0|0:0,0:0:0:0:
316,148,7711,102,0,L|309:197,1,50,10|0,0:0|0:0,0:0:0:0:
385,239,7888,2,0,L|394:164,1,75.0000028610231,2|0,0:0|0:0,0:0:0:0:
473,196,8064,6,0,B|478:248|478:248|474:256|474:256|484:279|484:279|481:284|481:284|486:341,1,150.000005722046,10|0,0:0|0:0,0:0:0:0:
350,332,8417,102,0,B|380:318|407:338|407:338|410:333|410:333|407:337|407:337|444:368|479:349,1,150.000005722046,8|0,0:0|0:0,0:0:0:0:
256,378,8770,6,0,P|316:340|302:271,1,150.000005722046,8|0,0:0|0:0,0:0:0:0:
258,210,9035,101,0,0:0:0:0:
258,210,9123,2,0,B|263:153|263:153|260:148|260:148|270:125|270:125|266:117|266:117|271:65,1,150.000005722046,8|0,0:0|0:0,0:0:0:0:
128,61,9476,6,0,B|163:42|200:73|200:73|197:77|197:77|200:72|200:72|227:92|257:78,1,150.000005722046,8|0,0:0|0:0,0:0:0:0:
135,156,9829,101,8,0:0:0:0:
65,18,10005,1,0,0:0:0:0:
2,134,10182,6,0,L|-8:59,1,75.0000028610231,10|0,0:0|0:0,0:0:0:0:
65,18,10358,2,0,L|72:67,1,50,2|0,0:0|0:0,0:0:0:0:
135,156,10535,102,0,L|145:81,1,75.0000028610231,10|0,0:0|0:0,0:0:0:0:
228,91,10711,2,0,L|221:140,1,50,2|0,0:0|0:0,0:0:0:0:
68,207,10888,6,0,B|73:264|73:264|70:269|70:269|80:292|80:292|76:300|76:300|81:352,1,150.000005722046,10|0,0:0|0:0,0:0:0:0:
252,221,11241,1,8,0:1:0:0:
268,223,11329,1,8,0:1:0:0:
276,233,11417,1,8,0:0:0:0:
440,346,11594,6,0,B|400:329|364:349|364:349|356:337|356:337|306:335|288:286,1,160,12|0,0:0|0:0,0:0:0:0:
355,256,11858,5,0,0:0:0:0:
355,256,11947,2,0,B|389:267|415:241|415:241|430:235|430:235|424:195|452:164,1,160,8|0,0:0|0:0,0:0:0:0:
316,29,12299,102,0,P|307:103|375:133,1,160,8|0,0:0|0:0,0:0:0:0:
440,83,12564,5,8,0:0:0:0:
440,82,12652,2,0,P|479:83|512:105,1,80,8|0,0:0|0:0,0:0:0:0:
316,29,12829,2,0,P|279:13|240:19,1,80,8|0,0:0|0:0,0:0:0:0:
315,190,13005,102,0,L|339:135,1,59.9999981689454,10|0,0:0|0:0,0:0:0:0:
191,96,13182,6,0,L|215:141,1,50,2|0,0:0|0:0,0:0:0:0:
243,280,13358,102,0,L|231:215,1,40,10|0,0:0|0:0,0:0:0:0:
130,152,13535,6,0,L|135:181,1,29.9999990844727,2|0,0:0|0:0,0:0:0:0:
60,324,13711,102,0,B|91:309|120:330|120:330|123:325|123:325|120:329|120:329|160:362|197:342,1,160,10|0,0:0|0:0,0:0:0:0:
276,354,13976,1,8,0:0:0:0:
276,354,14064,5,8,0:0:0:0:
282,214,14241,2,0,P|246:258|246:305,1,80,8|0,0:0|0:0,0:0:0:0:
359,318,14417,2,0,P|379:371|419:394,1,80,8|0,0:0|0:0,0:0:0:0:
392,170,14594,102,0,B|348:168|324:135|324:135|312:142|312:142|265:123|228:160,1,160,0|8,0:0|0:0,0:0:0:0:
140,236,14947,1,0,0:0:0:0:
52,55,15123,6,0,B|57:115|57:115|54:121|54:121|64:145|64:145|60:154|60:154|65:209,1,160,8|0,0:0|0:0,0:0:0:0:
84,290,15388,101,8,0:0:0:0:
84,290,15476,2,0,P|60:321|23:336,1,80,8|0,0:0|0:0,0:0:0:0:
200,190,15652,2,0,P|215:226|209:265,1,80,8|0,0:0|0:0,0:0:0:0:
269,357,15829,6,0,L|210:343,1,59.9999981689454,10|0,0:0|0:0,0:0:0:0:
414,318,16005,2,0,L|472:304,1,59.9999981689454,2|0,0:0|0:0,0:0:0:0:
318,224,16182,102,0,L|288:196,1,40,10|0,0:0|0:0,0:0:0:0:
405,130,16358,2,0,L|423:94,1,40,2|0,0:0|0:0,0:0:0:0:
327,27,16535,5,10,0:0:0:0:
169,200,16711,1,8,0:0:0:0:
169,200,16799,1,8,0:0:0:0:
169,200,16888,102,0,L|163:168,1,29.9999990844727,8|0,0:0|0:0,0:0:0:0:
140,8,17064,2,0,L|117:134,1,100,8|0,0:0|0:0,0:0:0:0:
141,361,17241,54,0,P|129:323|141:283,1,80,8|0,0:0|0:0,0:0:0:0:
23,191,17417,2,0,P|60:190|100:219,1,50,8|0,0:0|0:0,0:0:0:0:
293,314,17594,6,0,P|254:305|225:274,1,80,8|0,0:0|0:0,0:0:0:0:
26,317,17770,2,0,P|44:284|89:264,1,50,8|0,0:0|0:0,0:0:0:0:
241,117,17947,102,0,L|224:211,1,80,8|0,0:0|0:0,0:0:0:0:
293,314,18123,2,0,L|276:219,1,50,8|0,0:0|0:0,0:0:0:0:
323,92,18299,6,0,L|306:186,1,80,8|0,0:0|0:0,0:0:0:0:
375,339,18476,2,0,L|358:244,1,50,8|0,0:0|0:0,0:0:0:0:
450,141,18652,102,0,P|488:118|504:77,1,89.9999972534181,10|0,0:0|0:0,0:0:0:0:
308,50,18829,2,0,P|283:33|253:32,1,59.9999981689454,10|0,0:0|0:0,0:0:0:0:
430,225,19005,6,0,P|468:246|512:240,1,89.9999972534181,10|0,0:0|0:0,0:0:0:0:
408,61,19182,2,0,P|410:31|396:5,1,59.9999981689454,10|0,0:0|0:0,0:0:0:0:
185,189,19358,102,0,P|204:242|289:266,1,100,10|0,0:0|0:0,0:0:0:0:
368,140,19535,2,0,P|322:159|274:148,1,100,8|0,0:0|0:0,0:0:0:0:
68,217,19711,6,0,P|74:168|107:132,1,100,8|0,0:0|0:0,0:0:0:0:
114,38,19888,2,0,P|66:26|20:45,1,100,8|0,0:0|0:0,0:0:0:0:
59,321,20064,101,8,0:0:0:0:
74,334,20152,1,8,0:0:0:0:
102,343,20241,1,8,0:0:0:0:
141,336,20329,1,8,0:0:0:0:
167,306,20417,5,8,0:0:0:0:
181,268,20505,1,8,0:0:0:0:
213,244,20594,1,8,0:0:0:0:
253,244,20682,1,8,0:0:0:0:
289,277,20770,101,8,0:0:0:0:
302,325,20858,1,8,0:0:0:0:
342,355,20947,1,8,0:0:0:0:
391,355,21035,1,8,0:0:0:0:
436,316,21123,5,8,0:0:0:0:
434,256,21211,1,8,0:0:0:0:
389,216,21299,1,8,0:0:0:0:
385,155,21388,1,8,0:0:0:0:
422,108,21476,102,0,P|450:99|490:103,3,50,10|8|10|8,0:0|0:1|0:1|0:1,0:0:0:0:
389,216,21829,2,0,P|382:244|359:277,3,50,10|8|10|8,0:0|0:1|0:1|0:1,0:0:0:0:
312,134,22182,2,0,P|290:114|273:77,3,50,10|8|8|8,0:0|0:1|0:1|0:1,0:0:0:0:
422,108,22535,5,8,0:0:0:0:
476,143,22623,1,8,0:1:0:0:
500,197,22711,1,8,0:1:0:0:
496,251,22799,1,8,0:1:0:0:
471,294,22888,6,0,B|424:281|392:313|392:313|388:308|388:308|392:312|392:312|352:362|300:339,1,200,12|0,0:3|0:0,0:0:0:0:
258,251,23417,1,0,0:0:0:0:
258,251,23594,2,0,L|277:140,2,100
123,350,24123,1,0,0:0:0:0:
123,262,24299,6,0,P|147:264|170:274,1,50,2|0,0:0|0:0,0:0:0:0:
47,306,24476,2,0,P|23:315|0:318,1,50,2|0,0:0|0:0,0:0:0:0:
167,177,24652,102,0,P|177:141|194:122,1,59.9999981689454,2|0,0:0|0:0,0:0:0:0:
22,141,24829,2,0,P|27:104|19:79,1,59.9999981689454,2|0,0:0|0:0,0:0:0:0:
169,46,25005,6,0,B|216:33|248:65|248:65|252:60|252:60|248:64|248:64|288:114|340:91,1,200,2|0,0:0|0:0,0:0:0:0:
441,103,25535,101,0,0:0:0:0:
441,103,25711,2,0,L|460:-8,2,100
465,227,26241,1,0,0:0:0:0:
465,227,26417,2,0,L|484:337,2,100
243,220,26947,1,0,0:0:0:0:
311,316,27123,6,0,P|333:326|358:330,1,50,2|0,0:0|0:0,0:0:0:0:
380,241,27299,2,0,P|358:231|333:229,1,50,2|0,0:0|0:0,0:0:0:0:
246,365,27476,102,0,P|231:338|230:303,1,59.9999981689454,2|0,0:0|0:0,0:0:0:0:
235,173,27652,2,0,P|219:199|189:217,1,59.9999981689454,2|0,0:0|0:0,0:0:0:0:
132,295,27829,6,0,B|101:274|65:284|65:284|67:277|67:277|65:284|65:284|26:297|16:343,1,150,2|0,0:0|0:0,0:0:0:0:
20,328,28182,102,0,P|111:274|44:192,1,240,8|0,0:1|0:0,0:0:0:0:
59,52,28535,38,0,B|57:88|29:108|29:108|36:120|36:120|22:154|41:188,1,150.000005722046,12|0,0:3|0:0,0:0:0:0:
123,3,28888,2,0,B|147:29|141:63|141:63|154:67|154:67|168:101|206:111,1,150.000005722046,8|0,0:1|0:0,0:0:0:0:
290,112,29152,101,0,0:0:0:0:
290,112,29241,2,0,P|324:85|377:89,1,75.0000028610231
367,2,29417,2,0,P|403:14|426:43,1,75.0000028610231,8|0,0:3|0:0,0:0:0:0:
350,163,29594,6,0,P|336:196|344:232,1,75.0000028610231,8|0,0:0|0:0,0:0:0:0:
479,248,29770,2,0,P|444:236|420:206,1,75.0000028610231,8|0,0:0|0:0,0:0:0:0:
492,102,29947,102,0,B|487:159|487:159|490:164|490:164|480:187|480:187|484:195|484:195|479:247,1,150.000005722046,10|2,0:3|0:0,0:0:0:0:
512,362,30299,2,0,P|487:296|417:301,1,150.000005722046,10|2,0:1|0:0,0:0:0:0:
358,351,30564,5,0,0:0:0:0:
358,351,30652,2,0,L|280:340,1,75.0000028610231,2|0,0:0|0:0,0:0:0:0:
265,262,30829,2,0,L|339:272,1,75.0000028610231,8|0,0:3|0:0,0:0:0:0:
151,364,31005,102,0,P|184:326|248:338,1,75.0000028610231,8|0,0:0|0:0,0:0:0:0:
183,237,31182,2,0,P|149:221|114:230,1,75.0000028610231,8|0,0:0|0:0,0:0:0:0:
63,356,31358,6,0,B|75:319|39:287|39:287|36:291|36:291|40:287|40:287|16:263|23:225,1,150.000005722046,8|0,0:3|0:0,0:0:0:0:
13,94,31711,2,0,B|17:129|51:142|51:142|63:153|63:153|97:130|138:143,1,150.000005722046,8|0,0:1|0:0,0:0:0:0:
196,95,31976,101,0,0:0:0:0:
196,95,32064,2,0,L|186:1,1,75.0000028610231
266,2,32241,2,0,L|273:76,1,75.0000028610231,8|0,0:3|0:0,0:0:0:0:
250,158,32417,6,0,L|242:232,1,75.0000028610231,8|0,0:0|0:0,0:0:0:0:
321,252,32594,2,0,L|328:177,1,75.0000028610231,8|0,0:0|0:0,0:0:0:0:
368,105,32770,102,0,B|400:97|424:121|424:121|427:117|427:117|424:120|424:120|455:157|494:145,1,150.000005722046,10|2,0:3|0:0,0:0:0:0:
507,0,33123,2,0,B|502:57|502:57|505:62|505:62|495:85|495:85|499:93|499:93|494:145,1,150.000005722046,10|2,0:1|0:0,0:0:0:0:
484,227,33388,5,0,0:0:0:0:
484,227,33476,2,0,P|475:265|495:309,1,75.0000028610231,2|0,0:0|0:0,0:0:0:0:
426,357,33652,2,0,P|391:344|370:314,1,75.0000028610231,8|0,0:3|0:0,0:0:0:0:
328,177,33829,101,8,0:1:0:0:
311,175,33917,1,8,0:1:0:0:
300,181,34005,1,8,0:0:0:0:
223,358,34182,6,0,B|171:395|113:367|113:367|112:347|112:347|73:324|78:270,1,225.000008583069,12|0,0:3|0:0,0:0:0:0:
135,214,34535,101,8,0:1:0:0:
52,61,34711,1,0,0:0:0:0:
52,61,34799,1,0,0:0:0:0:
52,61,34888,2,0,P|18:86|5:140,1,75.0000028610231
164,138,35064,2,0,P|122:131|74:161,1,75.0000028610231,8|0,0:3|0:0,0:0:0:0:
225,18,35241,6,0,L|233:113,1,75.0000028610231,8|0,0:0|0:0,0:0:0:0:
306,103,35417,2,0,L|299:28,1,75.0000028610231,10|0,0:0|0:0,0:0:0:0:
495,58,35594,102,0,B|442:39|406:75|406:75|400:70|400:70|406:75|406:75|366:127|305:102,1,225.000008583069,10|0,0:3|0:0,0:0:0:0:
257,162,35947,5,8,0:1:0:0:
469,138,36123,1,0,0:0:0:0:
469,138,36211,1,0,0:0:0:0:
469,138,36299,2,0,L|459:230,1,75.0000028610231
436,358,36476,102,0,P|424:319|435:265,1,75.0000028610231,10|0,0:3|0:0,0:0:0:0:
305,297,36652,2,0,P|322:264|351:240,1,75.0000028610231,10|0,0:0|0:0,0:0:0:0:
257,162,36829,2,0,P|295:150|350:161,1,75.0000028610231,8|0,0:0|0:0,0:0:0:0:
203,342,37005,5,8,0:3:0:0:
117,169,37182,1,0,0:0:0:0:
114,183,37270,1,0,0:0:0:0:
111,197,37358,101,8,0:1:0:0:
8,281,37535,1,0,0:0:0:0:
129,372,37711,6,0,L|119:278,1,75.0000028610231
196,268,37888,2,0,L|203:342,1,75.0000028610231,8|0,0:3|0:0,0:0:0:0:
118,122,38064,102,0,L|111:196,1,75.0000028610231,8|0,0:0|0:0,0:0:0:0:
34,177,38241,2,0,L|41:102,1,75.0000028610231,10|0,0:0|0:0,0:0:0:0:
137,35,38417,6,0,B|190:16|226:52|226:52|232:47|232:47|226:52|226:52|266:104|327:79,1,225.000008583069,10|0,0:3|0:0,0:0:0:0:
436,26,38770,102,0,P|354:72|400:194,1,225.000008583069,8|0,0:1|0:0,0:0:0:0:
431,245,39123,6,8,B|471:260|471:260|512:242,1,87.500000834465,8|8,0:1|0:1,0:1:0:0:
511,117,39299,2,8,B|470:98|470:98|430:113,1,87.500000834465,10|8,0:1|0:1,0:1:0:0:
313,309,39476,102,0,B|352:297|383:334|383:334|380:337|380:337|383:333|383:333|407:357|439:349,1,150.000005722046,10|0,0:0|0:0,0:0:0:0:
257,368,39829,54,0,P|238:345|230:316,1,59.9999981689454,8|0,0:0|0:0,0:0:0:0:
164,197,40005,2,0,P|132:234|131:283,1,100,8|0,0:0|0:0,0:0:0:0:
313,309,40182,6,0,P|329:285|335:255,1,59.9999981689454,8|0,0:0|0:0,0:0:0:0:
391,120,40358,2,0,P|422:157|424:206,1,100,8|0,0:0|0:0,0:0:0:0:
250,250,40535,102,0,B|244:201|244:201|247:193|247:193|243:187|243:187|235:127,1,125,8|0,0:0|0:0,0:0:0:0:
149,75,40711,2,0,B|157:135|157:135|154:142|154:142|159:148|159:148|164:197,1,125,8|0,0:0|0:0,0:0:0:0:
376,242,40888,6,0,B|382:193|382:193|379:185|379:185|383:179|383:179|391:119,1,125,8|0,0:0|0:0,0:0:0:0:
481,67,41064,2,0,B|473:127|473:127|476:134|476:134|471:140|471:140|466:189,1,125,8|0,0:0|0:0,0:0:0:0:
320,289,41241,101,8,0:0:0:0:
317,313,41329,1,8,0:0:0:0:
323,342,41417,1,8,0:0:0:0:
347,372,41505,1,8,0:0:0:0:
377,332,41594,5,8,0:0:0:0:
376,283,41682,1,8,0:0:0:0:
348,243,41770,1,8,0:0:0:0:
303,225,41858,1,8,0:0:0:0:
243,229,41947,101,8,0:0:0:0:
193,266,42035,1,8,0:0:0:0:
173,323,42123,1,8,0:0:0:0:
119,350,42211,1,8,0:0:0:0:
47,341,42299,5,8,0:0:0:0:
0,285,42388,1,8,0:0:0:0:
4,212,42476,1,8,0:0:0:0:
59,164,42564,1,8,0:0:0:0:
143,191,42652,102,0,B|176:117|95:113|144:26,1,150.000005722046,12|0,0:0|0:3,0:0:0:0:
59,164,43005,1,8,0:0:0:0:
283,58,43182,1,8,0:1:0:0:
283,58,43270,1,8,0:1:0:0:
283,58,43358,6,0,L|208:65,1,75.0000028610231,8|0,0:0|0:0,0:0:0:0:
143,191,43535,2,0,L|218:198,1,75.0000028610231,8|0,0:3|0:0,0:0:0:0:
343,5,43711,102,0,P|364:48|352:85,1,59.9999981689454,8|0,0:0|0:0,0:0:0:0:
284,283,43888,2,0,P|315:232|367:218,1,110.000003356934,8|0,0:0|0:0,0:0:0:0:
486,329,44064,6,0,P|400:350|368:280,1,150,8|0,0:1|0:0,0:0:0:0:
451,228,44417,102,0,P|510:288|467:352,1,150,8|0,0:3|0:0,0:0:0:0:
383,305,44770,6,0,P|405:220|481:226,1,150,8|0,0:2|0:0,0:0:0:0:
476,106,45123,70,8,L|536:94,2,37.5000014305115,8|8|8,0:0|0:0|0:3,0:0:0:0:
361,88,45388,1,0,0:0:0:0:
361,73,45476,6,0,B|382:27|445:31|483:83|436:143|398:138|351:108|351:108|348:113|348:113|351:108|351:108|307:86|267:110,1,330.000010070801,14|0,0:0|0:0,0:0:0:0:
160,37,45829,2,0,B|182:57|204:59|204:59|188:77|187:104,1,100,10|0,0:0|0:0,0:0:0:0:
4,115,46005,102,0,B|50:144|97:116|97:116|96:111|96:111|139:78|196:109,1,200,2|8,0:0|0:0,0:0:0:0:
104,353,46358,2,0,P|85:308|100:262,1,100,2|0,0:0|0:0,0:0:0:0:
223,179,46535,6,0,B|267:214|244:271|244:271|237:269|237:269|211:317|147:301,1,200,10|2,0:0|0:0,0:0:0:0:
100,261,46799,1,2,0:0:0:0:
93,252,46888,102,8,L|-11:264,1,100,10|0,0:0|0:0,0:0:0:0:
245,270,47064,2,0,L|345:283,1,100,2|0,0:0|0:0,0:0:0:0:
95,159,47241,6,0,P|56:114|65:55,1,119.999996337891,10|0,0:0|0:0,0:0:0:0:
340,41,47417,2,0,P|296:47|266:79,1,89.9999972534181,2|0,0:0|0:0,0:0:0:0:
163,90,47594,102,0,P|167:31|213:-1,1,110.000003356934,10|0,0:0|0:0,0:0:0:0:
421,150,47770,2,0,P|386:131|347:132,1,80,2|0,0:0|0:0,0:0:0:0:
201,248,47947,6,0,B|223:268|245:270|245:270|229:288|228:315,1,100,10|0,0:0|0:0,0:0:0:0:
389,356,48123,2,0,P|356:319|308:321,1,100,2|0,0:0|0:0,0:0:0:0:
116,331,48299,102,0,B|81:309|35:327|35:327|110:232|140:379|234:312,1,300,10|0,0:0|0:0,0:0:0:0:
339,207,48652,6,0,P|341:158|310:122,1,100,10|0,0:0|0:0,0:0:0:0:
309,320,48829,102,0,P|333:236|413:272,1,200,2|8,0:0|0:0,0:0:0:0:
180,166,49182,2,0,P|220:192|268:183,1,100,2|0,0:0|0:0,0:0:0:0:
285,44,49358,6,0,B|334:31|366:64|366:64|370:58|370:58|366:62|366:62|407:112|462:85,1,200,10|2,0:0|0:0,0:0:0:0:
451,78,49623,1,2,0:0:0:0:
442,69,49711,102,0,P|416:110|428:158,1,100,10|0,0:0|0:0,0:0:0:0:
439,319,49888,2,0,P|464:277|452:229,1,100,2|0,0:0|0:0,0:0:0:0:
312,246,50064,6,0,P|353:271|401:259,1,87.500000834465,10|0,0:0|0:0,0:0:0:0:
506,176,50241,2,0,P|463:151|415:165,1,87.500000834465,2|0,0:0|0:0,0:0:0:0:
312,246,50417,102,0,L|303:341,1,75.0000028610231,10|0,0:0|0:0,0:0:0:0:
384,341,50594,2,0,L|390:266,1,75.0000028610231,2|0,0:0|0:0,0:0:0:0:
275,120,50770,6,0,L|263:55,6,37.5000014305115,10|2|2|2|2|2|2,0:0|0:0|0:0|0:0|0:0|0:0|0:0,0:0:0:0:
305,238,51123,102,0,B|376:217|338:79|188:127|264:240|190:237|128:214,1,300,14|0,0:0|0:0,0:0:0:0:
107,342,51476,2,0,B|108:315|124:297|124:297|102:295|80:275,1,100,10|0,0:0|0:0,0:0:0:0:
72,89,51652,6,0,B|97:124|73:164|73:164|35:227|80:275,1,200,2|8,0:0|0:0,0:0:0:0:
139,25,52005,2,0,P|173:79|219:81,1,100,2|0,0:0|0:0,0:0:0:0:
344,81,52182,102,0,B|330:26|269:23|269:23|268:30|268:30|213:33|201:98,1,200,10|2,0:0|0:0,0:0:0:0:
229,155,52447,1,2,0:0:0:0:
235,162,52535,6,0,L|223:289,1,100,10|0,0:0|0:0,0:0:0:0:
284,368,52711,2,0,L|278:300,1,50,2|0,0:0|0:0,0:0:0:0:
316,155,52888,102,0,L|304:282,1,87.500000834465,10|0,0:0|0:0,0:0:0:0:
364,342,53064,2,0,L|358:274,1,37.5000014305115,2|0,0:0|0:0,0:0:0:0:
290,77,53241,6,0,P|339:76|379:106,1,100,10|0,0:0|0:0,0:0:0:0:
436,20,53417,2,0,P|471:55|478:104,1,100,2|0,0:0|0:0,0:0:0:0:
256,231,53594,102,0,P|300:253|349:243,1,100,10|0,0:0|0:0,0:0:0:0:
364,342,53770,2,0,P|410:325|437:285,1,100,2|0,0:0|0:0,0:0:0:0:
479,200,53947,6,0,L|404:185,1,60,10|0,0:0|0:0,0:0:0:0:
363,129,54299,2,0,B|385:109|407:107|407:107|391:89|390:62,1,100,10|0,0:0|0:0,0:0:0:0:
207,50,54476,102,0,B|253:21|300:49|300:49|299:54|299:54|342:87|399:56,1,200,2|8,0:0|0:0,0:0:0:0:
199,232,54829,2,0,P|177:244|151:247,1,50,2|0,0:0|0:0,0:0:0:0:
123,47,55005,6,0,B|118:80|140:105|140:105|133:113|133:113|158:140|151:165,1,129.999994049073,10|0,0:0|0:0,0:0:0:0:
46,288,55182,2,0,B|39:263|64:236|64:236|57:228|57:228|79:203|75:170,1,129.999994049073,2|0,0:0|0:0,0:0:0:0:
34,35,55358,5,14,0:0:0:0:
173,334,55535,1,8,0:1:0:0:
173,334,55623,1,8,0:1:0:0:
173,334,55711,6,0,P|222:302|235:244,1,119.999996337891,8|0,0:0|0:0,0:0:0:0:
159,47,55888,2,0,P|212:70|236:124,1,119.999996337891,8|0,0:0|0:0,0:0:0:0:
388,352,56064,102,8,P|343:327|314:267,1,100,8|8,0:1|0:1,0:1:0:0:
372,9,56241,2,8,P|332:41|313:105,1,100,8|8,0:1|0:1,0:1:0:0:
486,261,56417,6,0,L|493:198,6,59.9999981689454,2|2|2|2|2|2|2,0:0|0:0|0:0|0:0|0:0|0:0|0:0,0:0:0:0:
436,107,56770,86,0,B|446:74|475:69|496:73|510:87|510:87|516:82|516:82|510:87|510:87|541:116|542:185|428:228|444:103|339:165,1,359.999989013672,14|0,0:0|0:0,0:0:0:0:
291,219,57123,2,0,B|313:239|335:241|335:241|319:259|318:286,1,100,10|0,0:3|0:0,0:0:0:0:
122,174,57299,102,0,B|171:161|203:194|203:194|207:188|207:188|203:192|203:192|244:242|299:215,1,200,2|8,0:0|0:0,0:0:0:0:
442,17,57652,2,0,P|420:60|436:107,1,100,2|0,0:0|0:0,0:0:0:0:
455,224,57829,6,0,P|433:137|346:161,1,200,10|2,0:3|0:0,0:0:0:0:
291,219,58094,1,2,0:0:0:0:
298,229,58182,102,0,L|306:328,1,100,10|0,0:0|0:0,0:0:0:0:
230,350,58358,2,0,L|222:251,1,100,2|0,0:0|0:0,0:0:0:0:
193,69,58535,6,0,L|185:168,1,100,10|0,0:3|0:0,0:0:0:0:
109,146,58711,2,0,L|117:47,1,100,2|0,0:0|0:0,0:0:0:0:
357,15,58888,102,0,P|391:51|395:100,1,100,10|0,0:0|0:0,0:0:0:0:
193,69,59064,2,0,P|238:48|286:59,1,100,2|0,0:0|0:0,0:0:0:0:
358,293,59241,6,0,P|309:284|278:246,1,100,10|0,0:3|0:0,0:0:0:0:
213,150,59417,2,0,P|187:192|193:241,1,100,2|0,0:0|0:0,0:0:0:0:
448,205,59594,102,0,L|388:215,1,60,10|0,0:0|0:0,0:0:0:0:
319,264,59947,2,0,B|337:287|358:293|358:293|339:308|333:334,1,100,10|0,0:3|0:0,0:0:0:0:
150,330,60123,6,0,B|193:362|242:339|242:339|241:334|241:334|287:304|341:340,1,200,2|8,0:0|0:0,0:0:0:0:
100,143,60476,2,0,B|123:160|125:184|125:184|105:203|102:227,1,100,2|0,0:0|0:0,0:0:0:0:
13,308,60652,102,0,P|72:378|150:330,1,200,10|2,0:3|0:0,0:0:0:0:
178,243,60917,1,2,0:0:0:0:
187,238,61005,6,0,L|314:249,1,100,10|0,0:0|0:0,0:0:0:0:
0,152,61182,2,0,L|99:143,1,100,2|0,0:0|0:0,0:0:0:0:
230,151,61358,102,0,L|329:159,1,87.500000834465,10|0,0:3|0:0,0:0:0:0:
37,62,61535,2,0,L|124:55,1,87.500000834465,2|0,0:0|0:0,0:0:0:0:
317,27,61711,6,0,P|274:40|257:64,1,75.0000028610231,10|0,0:0|0:0,0:0:0:0:
318,227,61888,2,0,P|305:192|317:158,1,75.0000028610231,2|0,0:0|0:0,0:0:0:0:
480,61,62064,102,0,L|492:-2,6,37.5000014305115,2|2|2|2|2|2|2,0:0|0:0|0:0|0:0|0:0|0:0|0:0,0:0:0:0:
485,179,62417,6,0,B|556:158|518:20|368:68|444:181|370:178|308:155,1,300,14|0,0:0|0:0,0:0:0:0:
252,110,62770,2,0,B|270:87|291:81|291:81|272:66|265:38,1,100,10|0,0:3|0:0,0:0:0:0:
83,154,62947,102,0,B|132:167|164:134|164:134|168:140|168:140|164:136|164:136|205:86|260:113,1,200,2|8,0:0|0:0,0:0:0:0:
53,8,63299,2,0,P|63:57|107:78,1,100,2|0,0:0|0:0,0:0:0:0:
166,266,63476,6,0,B|203:223|170:171|170:171|164:174|164:174|130:132|69:159,1,200,10|2,0:3|0:0,0:0:0:0:
6,194,63741,1,2,0:0:0:0:
7,203,63829,102,0,L|15:302,1,100,10|0,0:0|0:0,0:0:0:0:
95,378,64005,2,0,L|98:328,1,50,2|0,0:0|0:0,0:0:0:0:
83,153,64182,6,0,L|91:252,1,87.500000834465,10|0,0:3|0:0,0:0:0:0:
176,343,64358,2,0,L|179:293,1,37.5000014305115,2|0,0:0|0:0,0:0:0:0:
184,87,64535,102,0,P|232:81|274:106,1,100,10|0,0:0|0:0,0:0:0:0:
321,18,64711,2,0,P|358:49|370:97,1,100,2|0,0:0|0:0,0:0:0:0:
160,216,64888,6,0,P|203:237|252:228,1,100,10|0,0:3|0:0,0:0:0:0:
266,326,65064,2,0,P|313:309|340:268,1,100,2|0,0:0|0:0,0:0:0:0:
415,193,65241,6,0,L|466:206,1,50,12|0,0:0|0:0,0:0:0:0:
253,228,65417,2,0,L|202:240,1,50,8|8,0:1|0:1,0:1:0:0:
437,286,65594,6,0,L|530:309,1,75.0000028610231,8|0,0:0|0:0,0:0:0:0:
197,147,65770,2,0,L|103:170,1,75.0000028610231,8|0,0:0|0:0,0:0:0:0:
383,70,65947,102,0,L|476:93,1,87.500000834465,8|0,0:0|0:0,0:0:0:0:
185,282,66123,2,0,L|91:305,1,87.500000834465,8|0,0:0|0:0,0:0:0:0:
415,193,66299,6,0,L|553:226,1,100,8|0,0:0|0:0,0:0:0:0:
141,43,66476,2,0,L|43:67,1,100,8|0,0:0|0:0,0:0:0:0:
411,108,66652,101,12,0:0:0:0:
403,89,66741,1,8,0:1:0:0:
383,70,66829,1,8,0:1:0:0:
343,53,66917,1,8,0:1:0:0:
294,67,67005,5,8,0:0:0:0:
264,109,67094,1,8,0:1:0:0:
267,159,67182,1,8,0:1:0:0:
299,197,67270,1,8,0:1:0:0:
356,182,67358,101,8,0:0:0:0:
410,209,67447,1,8,0:1:0:0:
434,264,67535,1,8,0:1:0:0:
413,321,67623,1,8,0:1:0:0:
350,351,67711,5,10,0:0:0:0:
285,324,67799,1,10,0:0:0:0:
222,355,67888,1,10,0:0:0:0:
157,329,67976,1,10,0:0:0:0:
84,352,68064,38,0,B|53:341|38:311|38:311|29:316|29:316|37:310|37:310|27:288|21:265|35:208|88:193|88:193|46:222|49:276,1,300,12|0,0:0|0:0,0:0:0:0:
75,116,68417,6,0,B|116:106|143:134|143:134|147:130|147:130|143:133|143:133|178:177|223:157,1,175.00000166893,8|0,0:3|0:0,0:0:0:0:
69,20,68770,101,8,0:0:0:0:
133,261,68947,1,0,0:0:0:0:
362,134,69123,6,0,B|366:84|325:56|325:56|311:64|311:64|275:50|246:73,1,175.00000166893,8|0,0:3|0:0,0:0:0:0:
355,262,69476,101,8,0:0:0:0:
438,59,69652,1,0,0:0:0:0:
498,319,69829,5,8,0:3:0:0:
448,144,70005,1,0,0:0:0:0:
398,330,70182,102,0,P|357:343|307:326,1,87.500000834465,10|0,0:0|0:0,0:0:0:0:
327,173,70358,6,0,P|294:162|254:176,1,75.0000028610231,2|0,0:0|0:0,0:0:0:0:
224,302,70535,102,0,P|195:311|161:299,1,62.5,10|0,0:3|0:0,0:0:0:0:
111,221,70711,6,0,P|87:215|54:226,1,50,2|0,0:0|0:0,0:0:0:0:
78,373,70888,102,0,B|105:332|68:290|68:290|64:293|64:293|69:290|69:290|46:258|63:220,1,175.00000166893,8|0,0:0|0:0,0:0:0:0:
18,56,71241,6,0,B|14:106|55:134|55:134|69:126|69:126|105:140|134:117,1,175.00000166893,8|0,0:3|0:0,0:0:0:0:
276,0,71594,101,8,0:0:0:0:
234,235,71770,1,0,0:0:0:0:
438,67,71947,6,0,B|413:35|373:42|373:42|357:37|357:37|338:77|293:87,1,175.00000166893,8|0,0:3|0:0,0:0:0:0:
266,355,72299,101,8,0:0:0:0:
206,119,72476,1,0,0:0:0:0:
83,263,72652,5,8,0:3:0:0:
292,87,72829,1,0,0:0:0:0:
226,269,73005,102,0,L|233:180,1,75.0000028610231,10|0,0:0|0:0,0:0:0:0:
298,291,73182,2,0,L|305:202,1,75.0000028610231,2|0,0:0|0:0,0:0:0:0:
386,163,73358,6,0,L|391:226,1,50,2|0,0:0|0:0,0:0:0:0:
458,141,73535,2,0,L|463:208,1,50,2|0,0:0|0:0,0:0:0:0:
468,279,73711,101,12,0:0:0:0:
301,126,73888,1,0,0:0:0:0:
376,384,74064,6,0,B|381:318|381:318|378:312|378:312|389:285|389:285|384:275|384:275|390:209,1,175.00000166893,8|0,0:3|0:0,0:0:0:0:
328,27,74417,101,8,0:0:0:0:
218,274,74594,1,0,0:0:0:0:
287,118,74770,6,0,B|292:179|292:179|287:189|287:189|298:216|298:216|295:222|295:222|300:288,1,175.00000166893,8|0,0:3|0:0,0:0:0:0:
139,369,75123,101,8,0:0:0:0:
47,133,75299,1,0,0:0:0:0:
60,296,75476,5,8,0:3:0:0:
173,36,75652,1,0,0:0:0:0:
143,284,75829,102,0,P|124:239|86:216,1,87.500000834465,10|0,0:0|0:0,0:0:0:0:
226,136,76005,2,0,P|177:129|138:151,1,87.500000834465,2|0,0:0|0:0,0:0:0:0:
15,58,76182,6,0,P|63:51|102:73,1,87.500000834465,10|0,0:3|0:0,0:0:0:0:
273,204,76358,2,0,P|301:171|305:128,1,87.500000834465,2|0,0:0|0:0,0:0:0:0:
257,61,76535,101,8,0:0:0:0:
350,269,76711,1,0,0:0:0:0:
452,87,76888,6,0,B|411:77|384:105|384:105|380:101|380:101|384:104|384:104|349:148|304:128,1,175.00000166893,8|0,0:3|0:0,0:0:0:0:
329,352,77241,101,8,0:0:0:0:
438,164,77417,1,0,0:0:0:0:
445,350,77594,6,0,B|440:284|440:284|443:278|443:278|432:251|432:251|437:241|437:241|432:180,1,175.00000166893,8|0,0:3|0:0,0:0:0:0:
329,352,77947,102,0,L|322:263,1,75.0000028610231,10|0,0:0|0:0,0:0:0:0:
257,374,78123,2,0,L|250:285,1,75.0000028610231,2|0,0:0|0:0,0:0:0:0:
175,233,78299,6,0,L|170:296,1,50,2|0,0:0|0:0,0:0:0:0:
103,211,78476,2,0,L|98:278,1,50,2|0,0:0|0:0,0:0:0:0:
38,368,78652,38,0,P|90:364|119:326,1,87.500000834465,8|0,0:1|0:0,0:0:0:0:
235,125,78829,2,0,P|183:129|154:167,1,87.500000834465,8|0,0:1|0:0,0:0:0:0:
273,353,79005,6,0,P|269:301|231:272,1,87.500000834465,8|0,0:0|0:0,0:0:0:0:
2,153,79182,2,0,P|6:205|44:234,1,87.500000834465,8|0,0:0|0:0,0:0:0:0:
282,201,79358,86,0,B|328:189|359:221|359:221|363:216|363:216|359:220|359:220|398:270|449:247,1,200,14|2,0:0|0:0,0:0:0:0:
453,235,79623,1,0,0:0:0:0:
446,224,79711,102,0,B|392:243|383:299|383:299|398:309|398:309|401:353|438:372,1,200,8|2,0:3|0:0,0:0:0:0:
442,109,80064,5,10,0:0:0:0:
507,320,80241,1,2,0:0:0:0:
463,34,80417,102,0,B|417:22|386:54|386:54|382:49|382:49|386:53|386:53|347:103|296:80,1,200,8|2,0:3|0:0,0:0:0:0:
81,9,80770,5,10,0:0:0:0:
203,237,80947,1,2,0:0:0:0:
161,72,81123,101,10,0:3:0:0:
17,303,81299,1,2,0:0:0:0:
266,184,81476,6,0,P|217:153|160:167,1,100,10|0,0:0|0:0,0:0:0:0:
161,72,81652,2,0,P|109:98|93:155,1,100,2|0,0:0|0:0,0:0:0:0:
193,317,81829,102,0,P|249:304|279:254,1,100,10|0,0:3|0:0,0:0:0:0:
346,321,82005,2,0,P|363:265|334:214,1,100,2|0,0:0|0:0,0:0:0:0:
248,100,82182,6,0,B|294:88|325:120|325:120|329:115|329:115|325:119|325:119|364:169|415:146,1,200,10|2,0:0|0:0,0:0:0:0:
509,0,82535,101,8,0:3:0:0:
266,184,82711,1,2,0:0:0:0:
453,67,82888,6,0,B|507:86|516:142|516:142|501:152|501:152|498:196|461:215,1,200,10|2,0:0|0:0,0:0:0:0:
493,384,83241,101,8,0:3:0:0:
416,145,83417,1,2,0:0:0:0:
322,314,83594,5,10,0:0:0:0:
369,76,83770,1,2,0:0:0:0:
221,354,83947,101,10,0:3:0:0:
167,114,84123,1,2,0:0:0:0:
47,320,84299,6,0,L|55:224,1,87.500000834465,10|0,0:0|0:0,0:0:0:0:
119,337,84476,2,0,L|127:241,1,87.500000834465,2|0,0:0|0:0,0:0:0:0:
167,114,84652,102,0,L|175:209,1,62.5,10|0,0:0|0:0,0:0:0:0:
239,97,84829,2,0,L|247:192,1,62.5,2|0,0:0|0:0,0:0:0:0:
324,285,85005,6,0,B|365:308|403:285|403:285|406:291|406:291|403:286|403:286|453:248|497:283,1,200,14|2,0:0|0:0,0:0:0:0:
496,296,85270,1,0,0:0:0:0:
486,305,85358,102,0,B|436:276|436:220|436:220|453:212|453:212|464:170|503:157,1,200,8|2,0:3|0:0,0:0:0:0:
430,376,85711,5,10,0:0:0:0:
361,132,85888,1,2,0:0:0:0:
224,306,86064,102,0,B|194:347|148:339|148:339|130:344|130:344|109:293|57:291,1,200,8|2,0:3|0:0,0:0:0:0:
119,107,86417,5,10,0:0:0:0:
50,381,86594,1,2,0:0:0:0:
196,164,86770,101,10,0:3:0:0:
274,384,86947,1,2,0:0:0:0:
206,86,87123,6,0,P|251:106|275:150,1,100,10|0,0:0|0:0,0:0:0:0:
356,138,87299,2,0,P|351:187|317:223,1,100,2|0,0:0|0:0,0:0:0:0:
202,339,87476,102,0,P|177:296|184:247,1,100,10|0,0:3|0:0,0:0:0:0:
352,295,87652,2,0,P|303:305|259:283,1,100,2|0,0:0|0:0,0:0:0:0:
196,164,87829,6,0,B|150:152|119:184|119:184|115:179|115:179|119:183|119:183|80:233|29:210,1,200,10|2,0:0|0:0,0:0:0:0:
109,19,88182,101,8,0:3:0:0:
184,248,88358,1,2,0:0:0:0:
306,65,88535,6,0,B|353:31|404:55|404:55|404:74|404:74|437:102|432:142,1,200,10|2,0:0|0:0,0:0:0:0:
289,362,88888,101,8,0:3:0:0:
356,135,89064,1,2,0:0:0:0:
468,332,89241,6,0,L|368:321,1,100,10|0,0:0|0:0,0:0:0:0:
487,259,89417,2,0,L|387:248,1,100,2|0,0:0|0:0,0:0:0:0:
224,203,89594,102,0,L|323:192,1,75.0000028610231,2|0,0:0|0:0,0:0:0:0:
205,130,89770,2,0,L|279:122,1,75.0000028610231,2|0,0:0|0:0,0:0:0:0:
443,37,89947,22,0,P|375:79|393:161,1,100,10|0,0:0|0:0,0:0:0:0:
291,31,90123,2,0,P|272:108|343:154,1,100,8|0,0:0|0:0,0:0:0:0:
481,295,90299,6,0,P|402:278|391:195,1,100,8|0,0:1|0:0,0:0:0:0:
340,352,90476,2,0,P|296:285|347:218,1,100,8|0,0:1|0:0,0:0:0:0:
224,203,90652,21,12,0:0:0:0:
223,203,90829,2,0,P|204:206|184:207,1,40,2|0,0:0|0:0,0:0:0:0:
154,292,91182,2,0,P|139:277|129:258,1,41.9999987182618,2|0,0:0|0:0,0:0:0:0:
41,274,91535,2,0,P|46:253|58:235,1,44.0000013427735,2|0,0:0|0:0,0:0:0:0:
0,169,91888,2,0,P|23:162|45:162,1,45.9999984558106,2|0,0:0|0:0,0:0:0:0:
141,40,92241,102,0,L|135:103,1,48.000001171875,2|0,0:0|0:0,0:0:0:0:
213,115,92594,2,0,L|217:65,1,50,2|0,0:0|0:0,0:0:0:0:
368,35,92947,2,0,L|373:97,1,51.9999996826172,2|0,0:0|0:0,0:0:0:0:
301,137,93299,2,0,L|296:83,1,54.0000013183594,2|0,0:0|0:0,0:0:0:0:
447,115,93652,6,0,P|434:138|401:160,1,56.0000006835938,2|0,0:0|0:0,0:0:0:0:
470,227,94005,2,0,P|445:235|406:226,1,58.0000017700196,2|0,0:0|0:0,0:0:0:0:
406,325,94358,2,0,P|382:312|360:279,1,59.9999981689454,2|0,0:0|0:0,0:0:0:0:
291,349,94711,2,0,P|283:324|291:285,1,61.9999975402833,2|0,0:0|0:0,0:0:0:0:
447,115,95064,102,0,P|434:138|401:160,1,56.0000006835938,2|0,0:0|0:0,0:0:0:0:
406,325,95417,2,0,P|382:312|360:279,1,59.9999981689454,2|0,0:0|0:0,0:0:0:0:
470,227,95770,2,0,P|445:235|406:226,1,58.0000017700196,2|0,0:0|0:0,0:0:0:0:
291,348,96476,6,0,P|306:329|313:304,1,50,2|0,0:0|0:0,0:0:0:0:
239,269,96829,2,0,P|234:244|221:220,1,51.9999996826172,2|0,0:0|0:0,0:0:0:0:
145,249,97182,2,0,P|123:234|95:225,1,54.0000013183594,2|0,0:0|0:0,0:0:0:0:
64,301,97535,2,0,P|39:304|11:320,1,56.0000006835938,2|0,0:0|0:0,0:0:0:0:
239,269,97888,102,0,P|266:265|292:251,1,58.0000017700196,2|0,0:0|0:0,0:0:0:0:
258,174,98241,2,0,P|273:150|282:121,1,59.9999981689454,2|0,0:0|0:0,0:0:0:0:
205,94,98594,2,0,P|199:65|184:37,1,61.9999975402833,2|0,0:0|0:0,0:0:0:0:
111,73,98947,2,0,P|89:55|55:47,1,64,2|0,0:0|0:0,0:0:0:0:
207,324,99299,6,0,P|229:296|239:253,1,65.999999798584,2|0,0:0|0:0,0:0:0:0:
345,309,99652,2,0,P|341:273|318:235,1,68.0000004150391,2|0,0:0|0:0,0:0:0:0:
431,200,100005,2,0,P|403:177|360:167,1,69.9999978637696,2|0,0:0|0:0,0:0:0:0:
414,62,100358,2,0,P|378:65|340:88,1,72.0000017578125,2|0,0:0|0:0,0:0:0:0:
207,324,100711,102,0,P|229:296|239:253,1,65.999999798584,2|0,0:0|0:0,0:0:0:0:
431,200,101064,2,0,P|403:177|360:167,1,69.9999978637696,2|0,0:0|0:0,0:0:0:0:
345,309,101417,86,0,P|341:273|318:235,1,68.0000004150391,2|0,0:0|0:0,0:0:0:0:
261,173,101594,6,0,P|230:223|121:213,1,150.000005722046,2|0,0:0|0:0,0:0:0:0:
70,130,101947,6,0,L|55:32,2,100,4|0|0,0:0|0:0|0:0,0:0:0:0:
276,74,102476,1,0,0:0:0:0:
276,74,102652,2,0,L|261:172,2,100
381,31,103182,1,0,0:0:0:0:
504,91,103358,6,0,L|454:95,1,50,2|0,0:0|0:0,0:0:0:0:
501,163,103535,2,0,L|451:167,1,50,2|0,0:0|0:0,0:0:0:0:
377,201,103711,102,0,L|317:195,1,59.9999981689454,2|0,0:0|0:0,0:0:0:0:
361,272,103888,2,0,L|301:266,1,59.9999981689454,2|0,0:0|0:0,0:0:0:0:
506,309,104064,6,0,B|460:296|428:328|428:328|424:323|424:323|428:327|428:327|388:377|331:356,1,200,2|0,0:0|0:0,0:0:0:0:
229,338,104594,101,0,0:0:0:0:
229,338,104770,2,0,P|220:290|241:245,2,100
108,318,105299,1,0,0:0:0:0:
108,318,105476,2,0,P|132:275|127:226,2,100
33,362,106005,1,0,0:0:0:0:
0,242,106182,6,0,P|24:244|46:255,1,50,2|0,0:0|0:0,0:0:0:0:
69,137,106358,2,0,P|91:127|116:125,1,50,2|0,0:0|0:0,0:0:0:0:
196,223,106535,102,0,L|190:163,1,59.9999981689454,2|0,0:0|0:0,0:0:0:0:
269,199,106711,2,0,L|263:139,1,59.9999981689454,2|0,0:0|0:0,0:0:0:0:
143,40,106888,6,0,B|189:27|221:59|221:59|225:54|225:54|221:58|221:58|261:108|313:85,1,200
225,106,107417,101,0,0:0:0:0:
390,22,107594,2,0,P|413:66|411:115,2,100
495,154,108123,2,0,P|460:198|417:212,1,100,0|0,0:1|0:0,0:0:0:0:
334,197,108476,1,0,0:0:0:0:
334,197,108564,1,8,0:1:0:0:
334,197,108652,2,0,P|340:251|400:293,1,100,8|0,0:1|0:0,0:0:0:0:
498,310,109005,6,0,P|459:289|428:285,1,50,2|0,0:0|0:0,0:0:0:0:
404,356,109182,2,0,P|365:377|334:381,1,50,10|8,0:1|0:1,0:0:0:0:
288,316,109358,102,0,P|256:307|226:310,1,59.9999981689454,2|0,0:0|0:0,0:0:0:0:
158,347,109535,2,0,P|126:356|96:353,1,59.9999981689454,2|0,0:0|0:0,0:0:0:0:
24,375,109711,6,0,B|11:329|43:297|43:297|38:293|38:293|42:297|42:297|92:257|69:205,1,200
40,52,110241,101,0,0:0:0:0:
85,130,110417,2,0,P|46:100|40:52,1,100,0|8,0:0|0:1,0:0:0:0:
118,64,110682,1,8,0:1:0:0:
118,64,110770,2,0,P|164:42|223:67,1,100,8|0,0:1|0:0,0:0:0:0:
250,135,111123,1,0,0:0:0:0:
338,111,111299,1,0,0:0:0:0:
338,111,111388,1,0,0:0:0:0:
338,111,111476,2,0,P|289:106|249:135,1,100,8|0,0:1|0:0,0:0:0:0:
322,298,111829,6,0,P|365:302|410:266,1,59.9999981689454,2|0,0:0|0:0,0:0:0:0:
345,219,112005,2,0,P|325:204|311:183,1,50,10|8,0:1|0:1,0:0:0:0:
426,368,112182,102,0,P|454:377|483:373,1,59.9999981689454,10|0,0:1|0:0,0:0:0:0:
466,292,112358,2,0,P|487:279|502:258,1,50,2|0,0:0|0:0,0:0:0:0:
310,310,112535,5,2,0:0:0:0:
236,254,112888,70,0,L|241:222,2,25
180,339,113064,6,0,L|185:370,2,25
98,287,113241,54,0,B|34:293|-1:239|-1:239|7:221|7:221|-14:182|16:138,1,225.000008583069,12|0,0:3|0:0,0:0:0:0:
35,60,113594,101,8,0:1:0:0:
111,208,113770,1,0,0:0:0:0:
111,208,113858,1,0,0:0:0:0:
111,208,113947,6,0,L|119:115,1,75.0000028610231
194,129,114123,2,0,L|187:203,1,75.0000028610231,8|0,0:3|0:0,0:0:0:0:
259,17,114299,102,0,L|265:91,1,75.0000028610231,8|0,0:0|0:0,0:0:0:0:
342,96,114476,2,0,L|335:21,1,75.0000028610231,10|0,0:0|0:0,0:0:0:0:
512,130,114652,6,0,B|459:111|423:147|423:147|417:142|417:142|423:147|423:147|383:199|322:174,1,225.000008583069,10|0,0:3|0:0,0:0:0:0:
271,105,115005,101,8,0:1:0:0:
452,266,115182,1,0,0:0:0:0:
452,266,115270,1,0,0:0:0:0:
452,266,115358,2,0,P|480:217|466:179,1,75.0000028610231
352,343,115535,6,0,L|358:268,1,75.0000028610231,10|0,0:3|0:0,0:0:0:0:
284,242,115711,2,0,L|277:316,1,75.0000028610231,10|0,0:0|0:0,0:0:0:0:
154,316,115888,1,8,0:0:0:0:
156,334,115976,1,0,0:0:0:0:
168,352,116064,101,8,0:3:0:0:
209,171,116241,1,0,0:0:0:0:
46,311,116417,5,8,0:1:0:0:
65,107,116594,1,0,0:0:0:0:
65,107,116682,1,0,0:0:0:0:
65,107,116770,102,0,P|89:52|131:34,1,75.0000028610231
224,90,116947,2,0,P|186:90|154:109,1,75.0000028610231,8|0,0:3|0:0,0:0:0:0:
110,253,117123,6,0,L|101:157,1,75.0000028610231,8|0,0:0|0:0,0:0:0:0:
178,187,117299,2,0,L|185:262,1,75.0000028610231,10|0,0:0|0:0,0:0:0:0:
374,217,117476,102,0,B|321:198|285:234|285:234|279:229|279:229|285:234|285:234|245:286|184:261,1,225.000008583069,10|0,0:3|0:0,0:0:0:0:
141,328,117829,5,8,0:1:0:0:
349,296,118005,1,0,0:0:0:0:
349,296,118094,1,0,0:0:0:0:
349,296,118182,102,0,P|361:334|362:369,1,75.0000028610231,8|8,0:1|0:1,0:0:0:0:
476,227,118358,2,0,P|464:262|460:299,1,75.0000028610231,10|8,0:1|0:1,0:0:0:0:
252,131,118535,6,0,B|284:123|308:147|308:147|311:143|311:143|308:146|308:146|339:183|378:171,1,150.000005722046,10|0,0:0|0:0,0:0:0:0:
378,171,118888,38,0,L|387:72,1,100,8|0,0:0|0:0,0:0:0:0:
469,24,119064,2,0,L|461:124,1,100,8|0,0:0|0:0,0:0:0:0:
261,231,119241,6,0,L|252:131,1,100,8|0,0:0|0:0,0:0:0:0:
169,84,119417,2,0,L|177:183,1,100,8|0,0:0|0:0,0:0:0:0:
259,318,119594,102,0,P|342:270|342:204,1,125,8|0,0:0|0:0,0:0:0:0:
423,296,119770,2,0,P|422:200|365:167,1,125,8|0,0:0|0:0,0:0:0:0:
380,10,119947,6,0,P|322:26|291:79,1,125,8|0,0:0|0:0,0:0:0:0:
215,34,120123,2,0,P|200:93|231:145,1,125,8|0,0:0|0:0,0:0:0:0:
348,248,120299,101,8,0:0:0:0:
332,228,120388,1,8,0:0:0:0:
304,215,120476,1,8,0:0:0:0:
269,217,120564,1,8,0:0:0:0:
240,236,120652,5,8,0:0:0:0:
225,273,120741,1,8,0:0:0:0:
239,315,120829,1,8,0:0:0:0:
280,342,120917,1,8,0:0:0:0:
330,321,121005,101,8,0:0:0:0:
281,294,121094,1,8,0:0:0:0:
223,290,121182,1,8,0:0:0:0:
172,311,121270,1,8,0:0:0:0:
134,351,121358,5,8,0:0:0:0:
153,279,121447,1,8,0:0:0:0:
136,208,121535,1,8,0:0:0:0:
89,152,121623,1,8,0:0:0:0:
16,125,121711,102,0,P|79:180|181:95,1,225.000008583069,12|8,0:0|0:1,0:0:0:0:
172,28,122064,1,0,0:0:0:0:
242,200,122241,1,8,0:1:0:0:
242,200,122329,1,8,0:1:0:0:
242,200,122417,6,0,L|253:136,1,37.5000014305115,8|0,0:0|0:0,0:0:0:0:
291,2,122594,2,0,L|307:96,1,75.0000028610231,8|0,0:1|0:0,0:0:0:0:
363,164,122770,102,0,P|406:151|428:126,1,75.0000028610231,8|0,0:0|0:0,0:0:0:0:
511,127,122947,2,0,P|511:82|494:53,1,75.0000028610231,8|0,0:1|0:0,0:0:0:0:
305,246,123123,6,0,P|306:282|330:316,1,75,8|0,0:1|0:0,0:0:0:0:
322,327,123476,102,0,P|370:350|412:317,1,112.500004291535,8|0,0:3|0:0,0:0:0:0:
512,275,123829,6,0,P|454:250|404:314,1,150,8|0,0:0|0:0,0:0:0:0:
322,327,124182,102,0,B|313:353|290:360|290:360|287:358|287:358|255:366|229:339,1,100,8|8,0:0|0:0,0:0:0:0:
237,263,124358,2,0,B|228:237|205:230|205:230|202:232|202:232|170:224|144:251,1,100,8|8,0:3|0:3,0:0:0:0:
69,365,124535,6,0,B|87:311|87:311|60:221,1,150
8,111,124888,102,0,L|3:160,1,50
77,142,125064,2,0,L|81:92,1,50
156,20,125241,6,0,L|166:120,1,100,8|0,0:3|0:0,0:0:0:0:
242,130,125417,2,0,L|234:31,1,100,8|0,0:0|0:0,0:0:0:0:
411,85,125594,86,0,B|362:72|330:105|330:105|326:99|326:99|330:103|330:103|289:153|234:126,1,200,14|2,0:0|0:0,0:0:0:0:
194,193,125858,1,2,0:0:0:0:
185,197,125947,102,0,P|161:207|151:213,1,37.5000014305115
365,328,126123,2,0,P|379:341|396:349,1,37.5000014305115,2|0,0:0|0:0,0:0:0:0:
236,316,126299,6,0,P|233:334|234:352,1,37.5000014305115,10|0,0:0|0:0,0:0:0:0:
440,223,126476,2,0,P|459:216|473:205,1,37.5000014305115,2|0,0:0|0:0,0:0:0:0:
358,32,126652,102,0,P|333:80|348:132,1,110.000003356934,10|0,0:3|0:0,0:0:0:0:
512,46,126829,2,0,P|457:48|420:87,1,110.000003356934,10|0,0:0|0:0,0:0:0:0:
308,314,127005,6,0,P|283:266|298:214,1,110.000003356934,2|0,0:0|0:0,0:0:0:0:
462,300,127182,2,0,P|407:297|370:258,1,110.000003356934,2|0,0:0|0:0,0:0:0:0:
211,141,127358,102,0,P|232:135|255:137,1,44.999998626709,10|0,0:0|0:0,0:0:0:0:
155,191,127711,5,2,0:0:0:0:
95,136,127888,1,2,0:0:0:0:
51,349,128064,102,0,L|38:207,1,110.000003356934,8|0,0:3|0:0,0:0:0:0:
105,26,128241,2,0,L|92:167,1,110.000003356934,8|0,0:0|0:0,0:0:0:0:
142,311,128417,6,0,B|191:298|223:331|223:331|227:325|227:325|223:329|223:329|264:379|319:352,1,200,10|2,0:0|0:0,0:0:0:0:
377,315,128682,1,2,0:0:0:0:
383,322,128770,102,0,P|400:341|409:348,1,37.5000014305115
454,87,128947,2,0,P|452:105|445:122,1,37.5000014305115,2|0,0:0|0:0,0:0:0:0:
446,273,129123,6,0,P|465:270|482:261,1,37.5000014305115,10|0,0:0|0:0,0:0:0:0:
351,50,129299,2,0,P|362:64|369:81,1,37.5000014305115,2|0,0:0|0:0,0:0:0:0:
295,281,129476,102,0,P|258:220|207:217,1,110.000003356934,10|0,0:3|0:0,0:0:0:0:
133,92,129652,6,0,P|107:121|105:160,1,80,2|0,0:0|0:0,0:0:0:0:
51,324,129829,102,0,P|75:324|97:311,1,50,10|0,0:0|0:0,0:0:0:0:
150,248,130005,6,0,L|136:225,2,20,2|2|2,0:0|0:0|0:0,0:0:0:0:
222,25,130182,102,0,P|244:21|267:25,1,44.999998626709,10|0,0:0|0:0,0:0:0:0:
322,78,130535,5,2,0:0:0:0:
374,23,130711,1,2,0:0:0:0:
347,299,130888,102,0,L|358:171,1,110.000003356934,10|0,0:3|0:0,0:0:0:0:
448,42,131064,2,0,L|459:169,1,110.000003356934,10|8,0:3|0:1,0:0:0:0:
458,353,131241,6,0,B|412:374|374:347|374:347|371:353|371:353|375:349|375:349|326:307|276:343,1,200,10|2,0:0|0:0,0:0:0:0:
215,293,131505,1,2,0:0:0:0:
211,300,131594,102,0,P|203:317|201:336,1,37.5000014305115,2|0,0:0|0:0,0:0:0:0:
75,319,131770,2,0,P|83:337|84:355,1,37.5000014305115,10|8,0:1|0:1,0:0:0:0:
286,171,131947,6,0,P|278:192|275:207,1,37.5000014305115,10|0,0:0|0:0,0:0:0:0:
14,187,132123,2,0,P|21:204|23:223,1,37.5000014305115,10|2,0:0|0:0,0:0:0:0:
319,87,132299,102,0,P|265:84|221:115,1,110.000003356934,8|0,0:3|0:0,0:0:0:0:
6,98,132476,1,10,0:1:0:0:
6,98,132564,1,10,0:1:0:0:
6,98,132652,6,0,P|58:109|94:150,1,110.000003356934,8|8,0:0|0:1,0:0:0:0:
135,284,132829,1,10,0:0:0:0:
154,14,133005,102,0,P|151:37|154:58,1,44.999998626709,10|8,0:0|0:1,0:0:0:0:
221,115,133358,5,2,0:3:0:0:
94,150,133535,1,2,0:0:0:0:
291,362,133711,102,0,L|281:227,1,110.000003356934,8|0,0:3|0:0,0:0:0:0:
395,99,133888,1,10,0:1:0:0:
395,99,133976,1,10,0:1:0:0:
395,99,134064,6,0,B|349:78|311:105|311:105|308:99|308:99|312:103|312:103|263:145|213:109,1,200,10|2,0:0|0:0,0:0:0:0:
121,51,134329,1,2,0:0:0:0:
125,58,134417,102,0,P|131:75|135:93,1,37.5000014305115,2|0,0:0|0:0,0:0:0:0:
116,287,134594,2,0,P|122:269|126:251,1,37.5000014305115,2|0,0:0|0:0,0:0:0:0:
246,36,134770,6,0,P|228:29|210:25,1,37.5000014305115,10|0,0:0|0:0,0:0:0:0:
3,150,134947,2,0,P|20:143|38:139,1,37.5000014305115,2|0,0:0|0:0,0:0:0:0:
205,236,135123,102,0,P|157:175|106:175,1,110.000003356934,10|0,0:3|0:0,0:0:0:0:
40,352,135299,2,0,P|90:334|116:287,1,110.000003356934,8|0,0:0|0:0,0:0:0:0:
125,58,135476,6,0,L|113:-5,2,55.0000016784668,8|0|0,0:0|0:0|0:0,0:0:0:0:
47,218,135652,2,0,L|35:281,2,55.0000016784668,8|0|0,0:0|0:0|0:0,0:0:0:0:
310,50,135829,6,0,P|287:47|266:50,1,44.999998626709,14|8,0:0|0:1,0:0:0:0:
353,148,136182,5,0,0:0:0:0:
364,155,136270,1,0,0:0:0:0:
377,155,136358,1,0,0:0:0:0:
390,152,136447,1,0,0:0:0:0:
400,142,136535,102,0,P|407:113|400:78,1,50,8|0,0:3|0:0,0:0:0:0:
512,64,136711,2,0,P|496:38|466:18,1,50
259,174,136888,5,8,0:1:0:0:
238,237,136976,1,8,0:1:0:0:
261,307,137064,1,8,0:1:0:0:
327,348,137152,1,8,0:1:0:0:
409,331,137241,86,0,P|450:311|507:313,1,100,14|0,0:0|0:0,0:0:0:0:
197,303,137417,2,0,P|246:299|289:322,1,100,2|0,0:0|0:0,0:0:0:0:
443,213,137594,102,0,P|477:175|540:160,1,89.9999972534181,10|0,0:0|0:0,0:0:0:0:
213,175,137770,2,0,P|255:189|283:223,1,89.9999972534181,2|0,0:0|0:0,0:0:0:0:
352,262,137947,5,10,0:0:0:0:
411,12,138123,1,2,0:0:0:0:
411,12,138211,1,10,0:0:0:0:
411,12,138299,102,0,L|400:127,1,100,2|0,0:0|0:0,0:0:0:0:
361,275,138476,2,0,L|350:159,1,100,10|0,0:0|0:0,0:0:0:0:
125,37,138652,6,0,P|103:33|81:38,1,44.999998626709,10|8,0:0|0:1,0:0:0:0:
179,95,139005,101,10,0:0:0:0:
254,28,139182,1,8,0:1:0:0:
150,302,139358,6,0,L|140:192,1,110.000003356934,10|0,0:3|0:0,0:0:0:0:
62,48,139535,2,0,L|52:157,1,110.000003356934,10|8,0:0|0:0,0:0:0:0:
11,340,139711,102,0,B|54:369|98:349|98:349|100:355|100:355|97:350|97:350|155:316|200:362,1,220.000006713867,10|2,0:0|0:0,0:0:0:0:
261,311,139976,1,2,0:0:0:0:
271,317,140064,6,0,P|319:326|362:304,1,100,10|0,0:0|0:0,0:0:0:0:
383,60,140241,2,0,P|337:79|315:123,1,100,2|0,0:0|0:0,0:0:0:0:
442,331,140417,102,0,P|466:288|460:239,1,100,10|0,0:0|0:0,0:0:0:0:
233,148,140594,2,0,P|237:196|272:231,1,100,2|0,0:0|0:0,0:0:0:0:
510,173,140770,6,0,P|477:136|429:127,1,100,10|0,0:0|0:0,0:0:0:0:
271,317,140947,2,0,P|319:326|362:304,1,100,2|8,0:0|0:0,0:0:0:0:
383,60,141123,102,0,L|392:8,6,50,2|2|2|2|10|2|2,0:0|0:0|0:0|0:0|0:0|0:0|0:0,0:0:0:0:
198,274,141476,6,0,P|176:278|154:274,1,44.999998626709,10|8,0:0|0:1,0:0:0:0:
99,219,141829,101,10,0:0:0:0:
34,332,142005,1,2,0:0:0:0:
203,57,142182,6,0,L|189:216,1,110.000003356934,10|0,0:0|0:1,0:0:0:0:
164,384,142358,2,0,L|150:224,1,110.000003356934,10|8,0:0|0:0,0:0:0:0:
41,49,142535,102,0,B|61:108|123:118|123:118|134:101|134:101|182:98|203:57,1,220.000006713867,10|10,0:0|0:0,0:0:0:0:
448,87,142799,1,2,0:0:0:0:
433,81,142888,6,0,P|368:89|334:136,1,110.000003356934,10|0,0:0|0:0,0:0:0:0:
349,352,143064,2,0,P|373:291|349:239,1,110.000003356934,2|0,0:0|0:0,0:0:0:0:
155,143,143241,102,0,P|194:194|252:200,1,110.000003356934,10|0,0:0|0:0,0:0:0:0:
469,240,143417,2,0,P|439:195|387:180,1,110.000003356934,2|0,0:0|0:0,0:0:0:0:
191,302,143594,6,0,P|245:299|284:262,1,110.000003356934,10|0,0:0|0:0,0:0:0:0:
276,33,143770,1,2,0:0:0:0:
276,33,143858,1,10,0:0:0:0:
276,33,143947,102,0,P|252:81|265:134,1,110.000003356934,10|0,0:3|0:0,0:0:0:0:
349,352,144123,2,0,P|373:291|349:239,1,110.000003356934,10|0,0:3|0:0,0:0:0:0:
86,86,144299,21,12,0:0:0:0:
64,86,144388,1,8,0:1:0:0:
40,98,144476,1,8,0:1:0:0:
11,130,144564,1,8,0:1:0:0:
7,181,144652,5,8,0:0:0:0:
36,223,144741,1,8,0:1:0:0:
84,238,144829,1,8,0:1:0:0:
131,220,144917,1,8,0:1:0:0:
150,168,145005,101,8,0:0:0:0:
196,138,145094,1,8,0:1:0:0:
250,134,145182,1,8,0:1:0:0:
300,154,145270,1,8,0:0:0:0:
340,198,145358,5,8,0:0:0:0:
351,257,145447,1,8,0:1:0:0:
334,314,145535,1,8,0:1:0:0:
289,354,145623,1,8,0:1:0:0:
221,370,145711,101,8,0:3:0:0:
156,342,145799,1,8,0:1:0:0:
118,282,145888,1,8,0:1:0:0:
122,212,145976,1,8,0:1:0:0:
195,226,146064,5,8,0:3:0:0:
262,193,146152,1,8,0:1:0:0:
293,124,146241,1,8,0:1:0:0:
275,51,146329,1,8,0:1:0:0:
211,11,146417,101,8,0:3:0:0:
208,85,146505,1,8,0:1:0:0:
254,144,146594,1,8,0:1:0:0:
327,163,146682,1,8,0:1:0:0:
395,130,146770,6,0,L|406:66,2,37.5000014305115,8|0|0,0:3|0:0|0:0,0:0:0:0:
483,310,146947,102,0,L|494:373,2,37.5000014305115,8|0|0,0:3|0:0|0:0,0:0:0:0:
336,269,147123,54,0,B|377:259|404:287|404:287|408:283|408:283|404:286|404:286|439:330|484:310,1,175.00000166893,12|0,0:0|0:0,0:0:0:0:
512,71,147476,6,0,B|483:48|447:62|447:62|433:54|433:54|392:82|396:132,1,175.00000166893,8|0,0:3|0:0,0:0:0:0:
352,344,147829,101,8,0:0:0:0:
258,142,148005,1,0,0:0:0:0:
187,308,148182,6,0,B|162:340|122:333|122:333|106:338|106:338|87:298|42:288,1,175.00000166893,8|0,0:3|0:0,0:0:0:0:
114,90,148535,101,8,0:0:0:0:
26,374,148711,1,0,0:0:0:0:
175,147,148888,5,8,0:3:0:0:
241,373,149064,1,0,0:0:0:0:
193,65,149241,102,0,P|150:67|113:91,1,87.500000834465,10|0,0:0|0:0,0:0:0:0:
167,245,149417,2,0,P|186:206|184:163,1,87.500000834465,2|0,0:0|0:0,0:0:0:0:
24,132,149594,6,0,P|47:168|86:187,1,87.500000834465,10|0,0:3|0:0,0:0:0:0:
288,45,149770,2,0,P|290:88|270:126,1,87.500000834465,2|0,0:0|0:0,3:3:0:0:
181,322,149947,102,0,B|140:332|113:304|113:304|109:308|109:308|113:305|113:305|78:261|33:281,1,175.00000166893,10|0,0:0|0:0,0:0:0:0:
270,126,150299,6,0,B|235:114|206:140|206:140|191:137|191:137|162:177|182:223,1,175.00000166893,8|0,0:3|0:0,0:0:0:0:
319,370,150652,101,8,0:0:0:0:
395,153,150829,1,0,0:0:0:0:
479,303,151005,6,0,B|454:335|414:328|414:328|398:333|398:333|379:293|334:283,1,175.00000166893,8|0,0:3|0:0,0:0:0:0:
466,31,151358,101,8,0:0:0:0:
407,240,151535,1,0,0:0:0:0:
289,44,151711,5,8,0:3:0:0:
334,283,151888,1,0,0:0:0:0:
237,98,152064,102,0,L|230:187,1,75.0000028610231,10|0,0:0|0:0,0:0:0:0:
165,76,152241,2,0,L|158:165,1,75.0000028610231,2|0,0:0|0:0,0:0:0:0:
77,204,152417,6,0,L|72:141,1,50,2|0,0:0|0:0,0:0:0:0:
5,226,152594,2,0,L|0:159,1,50,2|0,0:0|0:0,0:0:0:0:
16,94,152770,101,12,0:0:0:0:
196,246,152947,1,0,0:0:0:0:
6,312,153123,6,0,B|47:302|74:330|74:330|78:326|78:326|74:329|74:329|109:373|154:353,1,175.00000166893,8|0,0:3|0:0,0:0:0:0:
386,195,153476,101,8,0:0:0:0:
272,358,153652,1,0,0:0:0:0:
271,175,153829,6,0,B|276:241|276:241|273:247|273:247|284:274|284:274|279:284|279:284|285:350,1,175.00000166893,8|0,0:3|0:0,0:0:0:0:
468,208,154182,101,8,0:0:0:0:
194,305,154358,1,0,0:0:0:0:
420,272,154535,5,8,0:3:0:0:
203,132,154711,1,0,0:0:0:0:
476,126,154888,102,0,P|412:147|392:190,1,87.500000834465,10|0,0:0|0:0,0:0:0:0:
203,132,155064,2,0,P|246:134|281:161,1,87.500000834465,2|0,0:0|0:0,0:0:0:0:
358,8,155241,6,0,P|331:43|329:86,1,87.500000834465,10|0,0:3|0:0,0:0:0:0:
128,257,155417,2,0,P|159:227|202:223,1,87.500000834465,2|0,0:0|0:0,0:0:0:0:
381,287,155594,102,0,B|340:277|313:305|313:305|309:301|309:301|313:304|313:304|278:348|233:328,1,175.00000166893,8|0,0:0|0:0,0:0:0:0:
114,126,155947,6,0,B|149:114|178:140|178:140|193:137|193:137|222:177|202:223,1,175.00000166893,8|0,0:3|0:0,0:0:0:0:
0,292,156299,101,8,0:0:0:0:
53,77,156476,1,0,0:0:0:0:
53,361,156652,6,0,B|48:295|48:295|51:289|51:289|40:262|40:262|45:252|45:252|39:186,1,175.00000166893,8|0,0:3|0:0,0:0:0:0:
178,88,157005,102,0,L|185:177,1,75.0000028610231,10|0,0:0|0:0,0:0:0:0:
250,66,157182,2,0,L|257:155,1,75.0000028610231,2|0,0:0|0:0,0:0:0:0:
332,207,157358,6,0,L|337:144,1,50,2|0,0:0|0:0,0:0:0:0:
404,229,157535,2,0,L|409:162,1,50,2|0,0:0|0:0,0:0:0:0:
512,14,157711,38,0,P|453:37|445:99,1,100,8|0,0:1|0:0,0:0:0:0:
352,0,157888,2,0,P|342:62|392:100,1,100,8|0,0:1|0:0,0:0:0:0:
489,255,158064,6,0,P|425:253|396:198,1,100,8|0,0:0|0:0,0:0:0:0:
343,323,158241,2,0,P|312:268|346:215,1,100,8|0,0:0|0:0,0:0:0:0:
258,131,158417,86,0,B|212:119|181:151|181:151|177:146|177:146|181:150|181:150|142:200|91:177,1,200,10|2,0:0|0:0,0:0:0:0:
87,165,158682,1,0,0:0:0:0:
94,154,158770,102,0,B|148:173|157:229|157:229|142:239|142:239|139:283|102:302,1,200,8|2,0:3|0:0,0:0:0:0:
88,28,159123,5,10,0:0:0:0:
18,255,159299,1,2,0:0:0:0:
258,131,159476,102,0,B|304:119|335:151|335:151|339:146|339:146|335:150|335:150|374:200|425:177,1,200,8|2,0:3|0:0,0:0:0:0:
441,0,159829,5,10,0:0:0:0:
279,204,160005,1,2,0:0:0:0:
512,110,160182,101,10,0:3:0:0:
220,23,160358,1,2,0:0:0:0:
341,250,160535,6,0,P|292:281|235:267,1,100,10|0,0:0|0:0,0:0:0:0:
236,362,160711,2,0,P|184:336|168:279,1,100,2|0,0:0|0:0,0:0:0:0:
306,130,160888,102,0,P|248:130|207:173,1,100,10|0,0:3|0:0,0:0:0:0:
155,91,161064,2,0,P|125:141|143:197,1,100,2|0,0:0|0:0,0:0:0:0:
168,299,161241,6,0,B|138:340|92:332|92:332|74:337|74:337|53:286|1:284,1,200,10|2,0:0|0:0,0:0:0:0:
155,91,161594,101,8,0:3:0:0:
0,361,161770,1,2,0:0:0:0:
76,42,161947,6,0,B|35:82|50:136|50:136|68:139|68:139|89:177|131:179,1,200,10|2,0:0|0:0,0:0:0:0:
359,90,162299,101,8,0:3:0:0:
276,316,162476,1,2,0:0:0:0:
512,135,162652,5,10,0:0:0:0:
236,55,162829,1,2,0:0:0:0:
478,15,163005,101,10,0:3:0:0:
356,267,163182,1,2,0:0:0:0:
236,55,163358,6,0,L|244:151,1,87.500000834465,10|0,0:0|0:0,0:0:0:0:
308,38,163535,2,0,L|316:134,1,87.500000834465,2|0,0:0|0:0,0:0:0:0:
356,267,163711,102,0,L|364:172,1,62.5,10|0,0:0|0:0,0:0:0:0:
428,284,163888,2,0,L|436:189,1,62.5,2|0,0:0|0:0,0:0:0:0:
484,80,164064,6,0,B|438:68|407:100|407:100|403:95|403:95|407:99|407:99|368:149|317:126,1,200,14|2,0:0|0:0,0:0:0:0:
246,84,164329,1,0,0:0:0:0:
236,91,164417,102,0,B|230:164|230:164|233:171|233:171|221:201|221:201|227:212|227:212|220:286,1,200,10|0,0:3|0:0,0:0:0:0:
128,86,164770,5,10,0:0:0:0:
329,276,164947,1,2,0:0:0:0:
124,349,165123,102,0,B|68:364|29:324|29:324|35:307|35:307|13:270|32:232,1,200,8|2,0:3|0:0,0:0:0:0:
231,81,165476,5,10,0:0:0:0:
116,263,165652,1,2,0:0:0:0:
181,4,165829,101,10,0:3:0:0:
293,252,166005,1,2,0:0:0:0:
315,39,166182,6,0,P|372:41|411:85,1,100,10|0,0:0|0:0,0:0:0:0:
465,7,166358,2,0,P|492:58|473:113,1,100,2|0,0:0|0:0,0:0:0:0:
471,219,166535,102,0,P|419:245|363:226,1,100,10|0,0:3|0:0,0:0:0:0:
356,320,166711,2,0,P|312:297|293:251,1,100,2|0,0:0|0:0,0:0:0:0:
202,111,166888,6,0,B|248:99|279:131|279:131|283:126|283:126|279:130|279:130|318:180|369:157,1,200,10|2,0:0|0:0,0:0:0:0:
465,7,167241,101,8,0:3:0:0:
380,237,167417,1,2,0:0:0:0:
215,27,167594,6,0,B|159:12|120:52|120:52|126:69|126:69|104:106|123:144,1,200,10|2,0:0|0:0,0:0:0:0:
274,336,167947,101,8,0:3:0:0:
202,111,168123,1,2,0:0:0:0:
61,351,168299,6,0,L|161:340,1,100,10|0,0:0|0:0,0:0:0:0:
42,278,168476,2,0,L|142:267,1,100,2|0,0:0|0:0,0:0:0:0:
308,252,168652,102,0,L|208:241,1,75.0000028610231,2|0,0:0|0:0,0:0:0:0:
327,179,168829,2,0,L|227:168,1,75.0000028610231,2|0,0:0|0:0,0:0:0:0:
196,31,169005,22,0,P|143:52|121:107,1,100,10|0,0:0|0:0,0:0:0:0:
45,52,169182,2,0,P|37:109|73:154,1,100,10|0,0:0|0:0,0:0:0:0:
196,353,169358,6,0,P|143:331|121:276,1,100,10|0,0:1|0:0,0:0:0:0:
45,332,169535,2,0,P|37:274|73:229,1,100,10|0,0:1|0:0,0:0:0:0:
192,192,169711,22,0,B|224:184|248:208|248:208|251:204|251:204|248:207|248:207|279:244|318:232,1,150.000005722046,12|0,0:0|0:0,0:0:0:0:
363,172,169976,101,0,0:0:0:0:
363,172,170064,2,0,P|399:181|431:163,1,75.0000028610231,8|0,0:0|0:0,0:0:0:0:
471,89,170241,1,0,0:0:0:0:
485,235,170417,6,0,B|480:183|480:183|484:175|484:175|474:152|474:152|477:147|477:147|472:90,1,150.000005722046,8|0,0:0|0:0,0:0:0:0:
388,326,170770,2,0,B|393:269|393:269|390:264|390:264|400:241|400:241|396:233|396:233|401:181,1,150.000005722046,8|0,0:0|0:0,0:0:0:0:
484,10,171123,102,0,P|442:68|370:63,1,150.000005722046,8|0,0:0|0:0,0:0:0:0:
305,21,171388,5,0,0:0:0:0:
305,21,171476,2,0,P|265:29|241:63,1,75.0000028610231,8|0,0:0|0:0,0:0:0:0:
239,130,171652,1,0,0:0:0:0:
45,73,171829,102,0,B|80:54|117:85|117:85|114:89|114:89|117:84|117:84|144:104|174:90,1,150.000005722046,8|0,0:0|0:0,0:0:0:0:
224,263,172182,2,0,P|261:200|240:131,1,150.000005722046,8|0,0:0|0:0,0:0:0:0:
66,271,172535,6,0,B|95:252|125:269|125:269|139:270|139:270|144:309|177:331,1,150.000005722046,8|0,0:0|0:0,0:0:0:0:
260,338,172799,101,0,0:0:0:0:
260,338,172888,2,0,P|292:354|329:348,1,75.0000028610231,8|0,0:0|0:0,0:0:0:0:
413,278,173064,1,0,0:0:0:0:
336,198,173241,6,0,P|263:203|224:264,1,150.000005722046,8|0,0:0|0:0,0:0:0:0:
434,374,173594,2,0,B|442:342|418:318|418:318|422:315|422:315|419:318|419:318|382:287|394:248,1,150.000005722046,8|0,0:0|0:0,0:0:0:0:
484,251,173947,102,0,B|507:228|499:195|499:195|504:194|504:194|500:196|500:196|483:150|513:122,1,150.000005722046,8|0,0:0|0:0,0:0:0:0:
493,49,174211,5,0,0:0:0:0:
493,49,174299,2,0,P|465:29|422:27,1,75.0000028610231,8|0,0:0|0:0,0:0:0:0:
412,147,174476,1,0,0:0:0:0:
310,83,174652,102,0,P|368:126|436:103,1,150.000005722046,8|0,0:0|0:0,0:0:0:0:
189,24,175005,6,0,P|173:54|153:67,1,50
60,65,175182,102,0,P|99:81|142:73,1,87.500000834465
210,147,175358,6,0,B|224:177|204:204|204:204|209:207|209:207|205:204|205:204|174:241|193:276,1,150.000005722046,8|0,0:0|0:0,0:0:0:0:
131,323,175623,101,0,0:0:0:0:
131,323,175711,2,0,P|60:313|24:374,1,150.000005722046,8|0,0:0|0:0,0:0:0:0:
204,354,176064,6,0,P|275:364|311:303,1,150.000005722046,8|0,0:0|0:0,0:0:0:0:
309,184,176417,101,8,0:0:0:0:
423,346,176594,1,0,0:0:0:0:
489,228,176770,6,0,B|459:214|432:234|432:234|429:229|429:229|432:233|432:233|395:264|360:245,1,150.000005722046,8|0,0:0|0:0,0:0:0:0:
309,184,177035,1,0,0:0:0:0:
309,184,177123,102,0,B|304:127|304:127|307:122|307:122|297:99|297:99|301:91|301:91|296:39,1,150.000005722046,8|0,0:0|0:0,0:0:0:0:
225,200,177476,2,0,B|220:148|220:148|224:140|224:140|214:117|214:117|217:112|217:112|212:55,1,150.000005722046,8|0,0:0|0:0,0:0:0:0:
140,161,177829,5,8,0:0:0:0:
19,68,178005,1,0,0:0:0:0:
38,276,178182,102,0,B|45:242|78:232|78:232|88:223|88:223|120:247|158:239,1,150.000005722046,8|0,0:0|0:0,0:0:0:0:
231,278,178447,5,0,0:0:0:0:
231,278,178535,2,0,P|271:345|338:329,1,150.000005722046,8|0,0:0|0:0,0:0:0:0:
396,220,178888,102,0,B|377:255|408:292|408:292|412:288|412:288|407:292|407:292|427:319|413:349,1,150.000005722046,8|0,0:0|0:0,0:0:0:0:
491,235,179241,5,8,0:0:0:0:
317,188,179417,1,0,0:0:0:0:
512,118,179594,102,0,B|482:103|455:123|455:123|452:118|452:118|455:122|455:122|418:153|383:134,1,150.000005722046,8|0,0:0|0:0,0:0:0:0:
302,105,179858,5,0,0:0:0:0:
302,105,179947,2,0,B|294:71|261:61|261:61|251:52|251:52|219:76|181:68,1,150.000005722046,8|0,0:0|0:0,0:0:0:0:
93,168,180299,102,0,B|88:116|88:116|92:108|92:108|82:85|82:85|85:80|85:80|80:23,1,150.000005722046,8|0,0:0|0:0,0:0:0:0:
193,171,180652,5,8,0:1:0:0:
207,163,180741,1,8,0:1:0:0:
211,151,180829,1,8,0:0:0:0:
52,279,181005,6,0,P|95:345|177:322,1,160,8|0,0:0|0:0,0:0:0:0:
227,280,181270,5,0,0:0:0:0:
227,280,181358,2,0,B|250:253|286:262|286:262|302:260|302:260|317:298|357:311,1,160,8|0,0:0|0:0,0:0:0:0:
385,224,181711,102,0,B|380:284|380:284|383:290|383:290|373:314|373:314|377:323|377:323|372:378,1,160,8|0,0:0|0:0,0:0:0:0:
372,380,181976,1,8,0:0:0:0:
372,380,182064,5,8,0:0:0:0:
469,260,182241,2,0,L|464:339,1,80,8|0,0:0|0:0,0:0:0:0:
453,159,182417,102,0,B|422:144|393:165|393:165|390:160|390:160|393:164|393:164|353:197|316:177,1,160,10|0,0:0|0:0,0:0:0:0:
226,176,182682,5,8,0:0:0:0:
226,176,182770,2,0,B|228:132|261:108|261:108|254:96|254:96|273:49|236:12,1,160,8|0,0:0|0:0,0:0:0:0:
57,12,183123,102,0,P|100:78|182:55,1,160,8|0,0:0|0:0,0:0:0:0:
171,66,183388,1,8,0:0:0:0:
171,66,183476,5,8,0:0:0:0:
26,124,183652,2,0,P|21:169|50:202,1,80,8|0,0:0|0:0,0:0:0:0:
21,271,183829,102,0,B|53:285|82:264|82:264|85:269|85:269|82:265|82:265|122:232|161:253,1,160,10|0,0:0|0:0,0:0:0:0:
178,332,184094,1,8,0:0:0:0:
178,332,184182,6,0,B|183:275|183:275|179:266|179:266|189:242|189:242|186:236|186:236|191:176,1,160,8|0,0:0|0:0,0:0:0:0:
259,353,184535,102,0,B|264:296|264:296|260:287|260:287|270:263|270:263|267:257|267:257|272:197,1,160,8|0,0:0|0:0,0:0:0:0:
272,196,184799,1,8,0:0:0:0:
272,196,184888,5,8,0:0:0:0:
487,244,185064,2,0,P|465:206|470:167,1,80,8|0,0:0|0:0,0:0:0:0:
507,92,185241,102,0,B|484:65|448:74|448:74|432:72|432:72|417:110|377:123,1,160,10|0,0:0|0:0,0:0:0:0:
348,50,185505,5,8,0:0:0:0:
348,50,185594,2,0,B|316:36|287:57|287:57|284:52|284:52|287:56|287:56|247:89|208:68,1,160,8|0,0:0|0:0,0:0:0:0:
32,16,185947,102,0,P|118:51|78:133,1,160,8|0,0:0|0:0,0:0:0:0:
113,104,186211,1,8,0:0:0:0:
113,104,186299,5,8,0:0:0:0:
25,301,186476,1,8,0:0:0:0:
32,150,186652,38,0,P|27:125|16:102,1,50,8|0,0:0|0:0,0:0:0:0:
120,111,186829,2,0,P|124:86|135:63,1,50,8|0,0:0|0:0,0:0:0:0:
40,253,187005,6,0,P|35:277|24:300,1,50,8|0,0:0|0:0,0:0:0:0:
128,292,187182,2,0,P|132:316|143:339,1,50,8|0,0:0|0:0,0:0:0:0:
229,95,187358,102,0,P|224:124|207:149,1,59.9999981689454,8|0,0:0|0:0,0:0:0:0:
318,92,187535,2,0,P|312:62|296:38,1,59.9999981689454,8|0,0:0|0:0,0:0:0:0:
238,306,187711,6,0,P|232:277|215:253,1,59.9999981689454,8|0,0:0|0:0,0:0:0:0:
326,310,187888,2,0,P|320:339|304:365,1,59.9999981689454,8|0,0:0|0:0,0:0:0:0:
397,127,188064,102,0,P|426:107|461:105,1,69.9999978637696,8|0,0:0|0:0,0:0:0:0:
404,272,188241,2,0,P|433:290|468:294,1,69.9999978637696,8|0,0:0|0:0,0:0:0:0:
318,92,188417,6,0,P|316:57|331:26,1,69.9999978637696,8|0,0:0|0:0,0:0:0:0:
326,309,188594,2,0,P|324:344|339:375,1,69.9999978637696,8|0,0:0|0:0,0:0:0:0:
224,68,188770,102,0,P|207:104|176:128,1,80,8|0,0:0|0:0,0:0:0:0:
224,316,188947,2,0,P|207:280|176:256,1,80,8|0,0:0|0:0,0:0:0:0:
50,39,189123,6,0,P|55:78|78:110,1,80,8|0,0:0|0:0,0:0:0:0:
50,345,189299,2,0,P|55:306|78:274,1,80,8|0,0:0|0:0,0:0:0:0:
299,212,189476,101,8,0:0:0:0:
285,240,189564,1,8,0:0:0:0:
253,264,189652,1,8,0:0:0:0:
206,265,189741,1,8,0:0:0:0:
166,238,189829,5,8,0:0:0:0:
149,192,189917,1,8,0:0:0:0:
163,146,190005,1,8,0:0:0:0:
204,118,190094,1,8,0:0:0:0:
251,119,190182,101,8,0:0:0:0:
299,136,190270,1,8,0:0:0:0:
350,120,190358,1,8,0:0:0:0:
384,79,190447,1,8,0:0:0:0:
388,18,190535,5,8,0:0:0:0:
348,65,190623,1,8,0:0:0:0:
332,134,190711,1,8,0:0:0:0:
362,206,190799,1,8,0:0:0:0:
433,251,190888,102,0,P|474:253|504:244,3,50,8|8|8|8,0:0|0:1|0:1|0:1,0:0:0:0:
358,289,191241,2,0,P|335:323|328:353,3,50,8|8|8|8,0:0|0:1|0:1|0:1,0:0:0:0:
362,206,191594,2,0,P|343:169|320:148,3,50,8|8|8|8,0:0|0:1|0:1|0:1,0:0:0:0:
254,178,191947,5,8,0:1:0:0:
248,179,192035,1,8,0:1:0:0:
242,180,192123,1,8,0:1:0:0:
236,181,192211,1,8,0:1:0:0:
210,186,192299,101,8,0:3:0:0:
