osu file format v14

[General]
AudioFilename: hehe.mp3
AudioLeadIn: 0
PreviewTime: 55476
Countdown: 0
SampleSet: Normal
StackLeniency: 0.7
Mode: 1
LetterboxInBreaks: 0
WidescreenStoryboard: 1

[Editor]
Bookmarks: 132776
DistanceSpacing: 0.8
BeatDivisor: 4
GridSize: 32
TimelineZoom: 2.6

[Metadata]
Title:POISON
TitleUnicode:POISON
Artist:YUC'e
ArtistUnicode:YUC'e
Creator:Capu
Version:Muzukashii
Source:
Tags:cychloryn yuce english electronic pop trap future cake cαke candy 未来茶レコード miraicha records
BeatmapID:2312516
BeatmapSetID:1102382

[Difficulty]
HPDrainRate:6
CircleSize:2
OverallDifficulty:5
ApproachRate:10
SliderMultiplier:1.4
SliderTickRate:1

[Events]
//Background and Video events
0,0,"678698.jpg",0,90
//Break Periods
//Storyboard Layer 0 (Background)
//Storyboard Layer 1 (Fail)
//Storyboard Layer 2 (Pass)
//Storyboard Layer 3 (Foreground)
//Storyboard Layer 4 (Overlay)
//Storyboard Sound Samples

[TimingPoints]
1638,400,4,1,0,90,1,0
43238,-90.9090909090909,4,1,0,90,0,0
53238,-100,4,1,0,90,0,0
56038,-100,4,1,0,90,0,1
81638,-100,4,1,0,90,0,0
142838,-100,4,1,0,90,0,0
145638,-100,4,1,0,90,0,1
169638,-100,4,1,0,90,0,0
171238,-100,4,1,0,90,0,1
183838,-100,4,1,0,90,0,0

[HitObjects]
256,192,4838,5,4,0:0:0:0:
256,192,5238,1,8,0:0:0:0:
256,192,5638,1,8,0:0:0:0:
256,192,5838,1,8,0:0:0:0:
256,192,6038,1,8,0:0:0:0:
256,192,6438,1,8,0:0:0:0:
256,192,6638,1,0,0:0:0:0:
256,192,6838,1,8,0:0:0:0:
256,192,7238,1,8,0:0:0:0:
256,192,7438,1,8,0:0:0:0:
256,192,7638,1,0,0:0:0:0:
256,192,8038,1,8,0:0:0:0:
256,192,8438,1,8,0:0:0:0:
256,192,8838,1,8,0:0:0:0:
256,192,9038,1,8,0:0:0:0:
256,192,9238,1,8,0:0:0:0:
256,192,9638,1,8,0:0:0:0:
256,192,9838,1,8,0:0:0:0:
256,192,10038,1,8,0:0:0:0:
256,192,10438,1,8,0:0:0:0:
256,192,10638,1,0,0:0:0:0:
256,192,10838,1,0,0:0:0:0:
256,192,11038,1,0,0:0:0:0:
256,192,11238,1,8,0:0:0:0:
256,192,11638,1,8,0:0:0:0:
256,192,12038,1,8,0:0:0:0:
256,192,12238,1,8,0:0:0:0:
256,192,12438,1,8,0:0:0:0:
256,192,12838,1,8,0:0:0:0:
256,192,13038,1,0,0:0:0:0:
256,192,13238,1,8,0:0:0:0:
256,192,13638,1,8,0:0:0:0:
256,192,13838,1,8,0:0:0:0:
256,192,14038,1,0,0:0:0:0:
256,192,14438,1,8,0:0:0:0:
256,192,14838,1,8,0:0:0:0:
256,192,15238,1,8,0:0:0:0:
256,192,15438,1,8,0:0:0:0:
256,192,15638,1,8,0:0:0:0:
256,192,16038,1,8,0:0:0:0:
256,192,16238,1,0,0:0:0:0:
256,192,16438,1,8,0:0:0:0:
256,192,16538,1,8,0:0:0:0:
256,192,16638,1,8,0:0:0:0:
256,192,16838,1,0,0:0:0:0:
256,192,16938,1,0,0:0:0:0:
256,192,17038,1,0,0:0:0:0:
256,192,17238,1,8,0:0:0:0:
256,192,17438,1,8,0:0:0:0:
256,192,17638,1,4,0:0:0:0:
256,192,18438,1,8,0:0:0:0:
256,192,18638,1,8,0:0:0:0:
256,192,18838,1,8,0:0:0:0:
256,192,19238,1,8,0:0:0:0:
256,192,19438,1,0,0:0:0:0:
256,192,19638,1,8,0:0:0:0:
256,192,20038,1,8,0:0:0:0:
256,192,20238,1,8,0:0:0:0:
256,192,20438,1,0,0:0:0:0:
256,192,20838,1,8,0:0:0:0:
256,192,21238,1,8,0:0:0:0:
256,192,21638,1,8,0:0:0:0:
256,192,21838,1,8,0:0:0:0:
256,192,22038,1,8,0:0:0:0:
256,192,22438,1,8,0:0:0:0:
256,192,22638,1,0,0:0:0:0:
256,192,22838,1,8,0:0:0:0:
256,192,23238,1,8,0:0:0:0:
256,192,24038,1,8,0:0:0:0:
256,192,24438,1,8,0:0:0:0:
256,192,24638,1,0,0:0:0:0:
256,192,24838,1,8,0:0:0:0:
256,192,24938,1,8,0:0:0:0:
256,192,25038,1,8,0:0:0:0:
256,192,25238,1,0,0:0:0:0:
256,192,25638,1,0,0:0:0:0:
256,192,25838,1,8,0:0:0:0:
256,192,26038,1,0,0:0:0:0:
256,192,26138,1,0,0:0:0:0:
256,192,26238,1,0,0:0:0:0:
256,192,26438,1,8,0:0:0:0:
256,192,26638,1,0,0:0:0:0:
256,192,26838,1,8,0:0:0:0:
256,192,27038,1,8,0:0:0:0:
256,192,27238,1,0,0:0:0:0:
256,192,27638,1,8,0:0:0:0:
256,192,28038,1,8,0:0:0:0:
256,192,28238,1,8,0:0:0:0:
256,192,28438,1,8,0:0:0:0:
256,192,28838,1,8,0:0:0:0:
256,192,28938,1,8,0:0:0:0:
256,192,29038,1,8,0:0:0:0:
256,192,29238,1,0,0:0:0:0:
256,192,29438,1,8,0:0:0:0:
256,192,29638,1,0,0:0:0:0:
256,192,29738,1,0,0:0:0:0:
256,192,29838,1,0,0:0:0:0:
256,192,30038,1,8,0:0:0:0:
256,192,30238,1,8,0:0:0:0:
256,192,30438,1,4,0:0:0:0:
256,192,31038,1,8,0:0:0:0:
256,192,31238,1,8,0:0:0:0:
256,192,31438,1,0,0:0:0:0:
256,192,31838,1,0,0:0:0:0:
256,192,32038,1,8,0:0:0:0:
256,192,32238,1,0,0:0:0:0:
256,192,32438,1,8,0:0:0:0:
256,192,32638,1,0,0:0:0:0:
256,192,32838,1,8,0:0:0:0:
256,192,33438,1,0,0:0:0:0:
256,192,33638,1,0,0:0:0:0:
256,192,33838,1,8,0:0:0:0:
256,192,34238,1,0,0:0:0:0:
256,192,34438,1,8,0:0:0:0:
256,192,34638,1,0,0:0:0:0:
256,192,35038,1,0,0:0:0:0:
256,192,35238,1,8,0:0:0:0:
256,192,35438,1,8,0:0:0:0:
256,192,35638,1,0,0:0:0:0:
256,192,35838,1,0,0:0:0:0:
256,192,36038,1,8,0:0:0:0:
256,192,36438,1,8,0:0:0:0:
256,192,36838,1,4,0:0:0:0:
256,192,37038,1,8,0:0:0:0:
256,192,37438,1,0,0:0:0:0:
256,192,37638,1,8,0:0:0:0:
256,192,37838,1,8,0:0:0:0:
256,192,38238,1,8,0:0:0:0:
256,192,38438,1,0,0:0:0:0:
256,192,38638,1,8,0:0:0:0:
256,192,38838,1,0,0:0:0:0:
256,192,39038,1,8,0:0:0:0:
256,192,39238,1,0,0:0:0:0:
256,192,39838,1,8,0:0:0:0:
256,192,40038,1,8,0:0:0:0:
256,192,40238,1,0,0:0:0:0:
256,192,40638,1,0,0:0:0:0:
256,192,40838,1,8,0:0:0:0:
256,192,41038,1,0,0:0:0:0:
256,192,41438,1,0,0:0:0:0:
256,192,41638,1,8,0:0:0:0:
256,192,41838,1,8,0:0:0:0:
256,192,42038,1,0,0:0:0:0:
256,192,42238,1,0,0:0:0:0:
256,192,42438,1,8,0:0:0:0:
256,192,42538,1,8,0:0:0:0:
256,192,42638,1,8,0:0:0:0:
256,192,43238,1,4,0:0:0:0:
256,192,43438,1,8,0:0:0:0:
256,192,43538,1,8,0:0:0:0:
256,192,43838,1,0,0:0:0:0:
256,192,44038,1,8,0:0:0:0:
256,192,44138,1,8,0:0:0:0:
256,192,44438,1,0,0:0:0:0:
256,192,44538,1,8,0:0:0:0:
256,192,44838,1,0,0:0:0:0:
256,192,45238,1,8,0:0:0:0:
256,192,45338,1,8,0:0:0:0:
256,192,45638,1,8,0:0:0:0:
256,192,45738,1,8,0:0:0:0:
256,192,46038,1,8,0:0:0:0:
256,192,46138,1,8,0:0:0:0:
256,192,46238,1,8,0:0:0:0:
256,192,46438,1,0,0:0:0:0:
256,192,46638,1,8,0:0:0:0:
256,192,46738,1,8,0:0:0:0:
256,192,47038,1,0,0:0:0:0:
256,192,47238,1,8,0:0:0:0:
256,192,47338,1,8,0:0:0:0:
256,192,47638,1,0,0:0:0:0:
256,192,47738,1,8,0:0:0:0:
256,192,48038,1,0,0:0:0:0:
256,192,48238,1,0,0:0:0:0:
256,192,48438,1,8,0:0:0:0:
256,192,48538,1,8,0:0:0:0:
256,192,48838,1,8,0:0:0:0:
256,192,48938,1,8,0:0:0:0:
256,192,49238,1,8,0:0:0:0:
256,192,49338,1,8,0:0:0:0:
256,192,49438,1,8,0:0:0:0:
256,192,49638,1,4,0:0:0:0:
256,192,50038,1,8,0:0:0:0:
256,192,50438,1,8,0:0:0:0:
256,192,50638,1,0,0:0:0:0:
256,192,51038,1,8,0:0:0:0:
256,192,51238,1,0,0:0:0:0:
256,192,51438,1,8,0:0:0:0:
256,192,51638,1,0,0:0:0:0:
256,192,51838,1,8,0:0:0:0:
256,192,51938,1,8,0:0:0:0:
256,192,52038,1,8,0:0:0:0:
256,192,52238,1,0,0:0:0:0:
256,192,52438,1,8,0:0:0:0:
256,192,52638,1,8,0:0:0:0:
256,192,52838,1,0,0:0:0:0:
256,192,53438,1,8,0:0:0:0:
256,192,53538,1,8,0:0:0:0:
256,192,53638,1,8,0:0:0:0:
256,192,54038,1,0,0:0:0:0:
256,192,54438,1,12,0:0:0:0:
256,192,56038,1,12,0:0:0:0:
256,192,56438,1,8,0:0:0:0:
256,192,56638,1,0,0:0:0:0:
256,192,56838,1,8,0:0:0:0:
256,192,57038,1,0,0:0:0:0:
256,192,57238,1,0,0:0:0:0:
256,192,57638,1,8,0:0:0:0:
256,192,57838,1,0,0:0:0:0:
256,192,57938,1,0,0:0:0:0:
256,192,58038,1,0,0:0:0:0:
256,192,58238,1,0,0:0:0:0:
256,192,58438,1,8,0:0:0:0:
256,192,58638,1,8,0:0:0:0:
256,192,58838,1,0,0:0:0:0:
256,192,59038,1,0,0:0:0:0:
256,192,59238,1,8,0:0:0:0:
256,192,59638,1,8,0:0:0:0:
256,192,59838,1,0,0:0:0:0:
256,192,60038,1,8,0:0:0:0:
256,192,60238,1,0,0:0:0:0:
256,192,60438,1,0,0:0:0:0:
256,192,60838,1,8,0:0:0:0:
256,192,61038,1,0,0:0:0:0:
256,192,61138,1,0,0:0:0:0:
256,192,61238,1,0,0:0:0:0:
256,192,61438,1,8,0:0:0:0:
256,192,61638,1,8,0:0:0:0:
256,192,61738,1,8,0:0:0:0:
256,192,61838,1,8,0:0:0:0:
256,192,62438,1,12,0:0:0:0:
256,192,62838,1,8,0:0:0:0:
256,192,63038,1,0,0:0:0:0:
256,192,63238,1,8,0:0:0:0:
256,192,63438,1,0,0:0:0:0:
256,192,63638,1,0,0:0:0:0:
256,192,64038,1,8,0:0:0:0:
256,192,64238,1,0,0:0:0:0:
256,192,64338,1,0,0:0:0:0:
256,192,64438,1,0,0:0:0:0:
256,192,64638,1,0,0:0:0:0:
256,192,64838,1,8,0:0:0:0:
256,192,65038,1,8,0:0:0:0:
256,192,65238,1,0,0:0:0:0:
256,192,65438,1,0,0:0:0:0:
256,192,65638,1,8,0:0:0:0:
256,192,66038,1,8,0:0:0:0:
256,192,66238,1,0,0:0:0:0:
256,192,66438,1,8,0:0:0:0:
256,192,66638,1,0,0:0:0:0:
256,192,66838,1,0,0:0:0:0:
256,192,67238,1,8,0:0:0:0:
256,192,67438,1,0,0:0:0:0:
256,192,67538,1,0,0:0:0:0:
256,192,67638,1,0,0:0:0:0:
256,192,67838,1,8,0:0:0:0:
256,192,68038,1,8,0:0:0:0:
256,192,68138,1,8,0:0:0:0:
256,192,68238,1,8,0:0:0:0:
256,192,68438,1,0,0:0:0:0:
256,192,68538,1,0,0:0:0:0:
256,192,68638,1,0,0:0:0:0:
256,192,69238,5,12,0:0:0:0:
256,192,69638,1,8,0:0:0:0:
256,192,69838,1,0,0:0:0:0:
256,192,70038,1,0,0:0:0:0:
256,192,70438,1,8,0:0:0:0:
256,192,70738,1,8,0:0:0:0:
256,192,70938,1,0,0:0:0:0:
256,192,71038,1,8,0:0:0:0:
256,192,71238,1,8,0:0:0:0:
256,192,71438,1,0,0:0:0:0:
256,192,71638,1,8,0:0:0:0:
256,192,71838,1,8,0:0:0:0:
256,192,72038,1,0,0:0:0:0:
256,192,72438,1,8,0:0:0:0:
256,192,72838,1,8,0:0:0:0:
256,192,73038,1,0,0:0:0:0:
256,192,73238,1,0,0:0:0:0:
256,192,73638,1,8,0:0:0:0:
256,192,73938,1,8,0:0:0:0:
256,192,74138,1,0,0:0:0:0:
256,192,74238,1,8,0:0:0:0:
256,192,74438,1,8,0:0:0:0:
256,192,74638,1,0,0:0:0:0:
256,192,75238,1,12,0:0:0:0:
256,192,75638,1,8,0:0:0:0:
256,192,75838,1,0,0:0:0:0:
256,192,76038,1,8,0:0:0:0:
256,192,76238,1,0,0:0:0:0:
256,192,76438,1,0,0:0:0:0:
256,192,76838,1,8,0:0:0:0:
256,192,77138,1,8,0:0:0:0:
256,192,77338,1,0,0:0:0:0:
256,192,77438,1,8,0:0:0:0:
256,192,77638,1,8,0:0:0:0:
256,192,77838,1,0,0:0:0:0:
256,192,78038,1,8,0:0:0:0:
256,192,78238,1,8,0:0:0:0:
256,192,78438,1,0,0:0:0:0:
256,192,78638,1,8,0:0:0:0:
256,192,79038,1,8,0:0:0:0:
256,192,79238,1,0,0:0:0:0:
256,192,79438,1,8,0:0:0:0:
256,192,79538,1,8,0:0:0:0:
256,192,79838,1,8,0:0:0:0:
256,192,79938,1,8,0:0:0:0:
256,192,80038,1,8,0:0:0:0:
256,192,80238,1,0,0:0:0:0:
256,192,80438,1,8,0:0:0:0:
256,192,80638,1,8,0:0:0:0:
256,192,80838,1,0,0:0:0:0:
256,192,81038,1,8,0:0:0:0:
256,192,81238,1,8,0:0:0:0:
256,192,81438,1,8,0:0:0:0:
256,192,81638,1,4,0:0:0:0:
256,192,82038,1,8,0:0:0:0:
256,192,82638,1,0,0:0:0:0:
256,192,82838,1,8,0:0:0:0:
256,192,83238,1,0,0:0:0:0:
256,192,83438,1,0,0:0:0:0:
256,192,83638,1,8,0:0:0:0:
256,192,84038,1,8,0:0:0:0:
256,192,84238,1,0,0:0:0:0:
256,192,84438,1,8,0:0:0:0:
256,192,84838,1,0,0:0:0:0:
256,192,85238,1,8,0:0:0:0:
256,192,85838,1,0,0:0:0:0:
256,192,86038,1,8,0:0:0:0:
256,192,86438,1,8,0:0:0:0:
256,192,86638,1,8,0:0:0:0:
256,192,86838,1,0,0:0:0:0:
256,192,87038,1,0,0:0:0:0:
256,192,87238,1,8,0:0:0:0:
256,192,87838,1,8,0:0:0:0:
256,192,88038,1,4,0:0:0:0:
256,192,88438,1,8,0:0:0:0:
256,192,88838,1,8,0:0:0:0:
256,192,89038,1,0,0:0:0:0:
256,192,89238,1,8,0:0:0:0:
256,192,89638,1,8,0:0:0:0:
256,192,89838,1,0,0:0:0:0:
256,192,90038,1,8,0:0:0:0:
256,192,90238,1,8,0:0:0:0:
256,192,90438,1,0,0:0:0:0:
256,192,90638,1,0,0:0:0:0:
256,192,90838,1,8,0:0:0:0:
256,192,91238,1,8,0:0:0:0:
256,192,91438,1,0,0:0:0:0:
256,192,91538,1,0,0:0:0:0:
256,192,91638,1,0,0:0:0:0:
256,192,91838,1,8,0:0:0:0:
256,192,92038,1,0,0:0:0:0:
256,192,92238,1,8,0:0:0:0:
256,192,92338,1,8,0:0:0:0:
256,192,92438,1,8,0:0:0:0:
256,192,92838,1,8,0:0:0:0:
256,192,93238,1,8,0:0:0:0:
256,192,93438,1,0,0:0:0:0:
256,192,93638,1,8,0:0:0:0:
256,192,94038,1,8,0:0:0:0:
256,192,94438,5,4,0:0:0:0:
256,192,94638,1,8,0:0:0:0:
256,192,95038,1,0,0:0:0:0:
256,192,95238,1,8,0:0:0:0:
256,192,95438,1,8,0:0:0:0:
256,192,95838,1,0,0:0:0:0:
256,192,96038,1,8,0:0:0:0:
256,192,96238,1,8,0:0:0:0:
256,192,96438,1,0,0:0:0:0:
256,192,96638,1,0,0:0:0:0:
256,192,96838,1,8,0:0:0:0:
256,192,97438,1,0,0:0:0:0:
256,192,97638,1,8,0:0:0:0:
256,192,97838,1,8,0:0:0:0:
256,192,98238,1,0,0:0:0:0:
256,192,98438,1,0,0:0:0:0:
256,192,98638,1,8,0:0:0:0:
256,192,99038,1,8,0:0:0:0:
256,192,99238,1,8,0:0:0:0:
256,192,99438,1,0,0:0:0:0:
256,192,99638,1,8,0:0:0:0:
256,192,99838,1,0,0:0:0:0:
256,192,100038,1,8,0:0:0:0:
256,192,100438,1,8,0:0:0:0:
256,192,100838,1,12,0:0:0:0:
256,192,101038,1,8,0:0:0:0:
256,192,101238,1,0,0:0:0:0:
256,192,101438,1,0,0:0:0:0:
256,192,101638,1,8,0:0:0:0:
256,192,101838,1,8,0:0:0:0:
256,192,102238,1,8,0:0:0:0:
256,192,102438,1,0,0:0:0:0:
256,192,102638,1,8,0:0:0:0:
256,192,102838,1,0,0:0:0:0:
256,192,103038,1,8,0:0:0:0:
256,192,103238,1,0,0:0:0:0:
256,192,103838,1,8,0:0:0:0:
256,192,104038,1,8,0:0:0:0:
256,192,104238,1,0,0:0:0:0:
256,192,104438,1,8,0:0:0:0:
256,192,104638,1,0,0:0:0:0:
256,192,104838,1,8,0:0:0:0:
256,192,105038,1,8,0:0:0:0:
256,192,105438,1,0,0:0:0:0:
256,192,105638,1,8,0:0:0:0:
256,192,105838,1,8,0:0:0:0:
256,192,106038,1,0,0:0:0:0:
256,192,106238,1,0,0:0:0:0:
256,192,106438,1,8,0:0:0:0:
256,192,106538,1,8,0:0:0:0:
256,192,106638,1,8,0:0:0:0:
256,192,107238,1,4,0:0:0:0:
256,192,107638,1,8,0:0:0:0:
256,192,107838,1,0,0:0:0:0:
256,192,108238,1,8,0:0:0:0:
256,192,108438,1,8,0:0:0:0:
256,192,108838,1,8,0:0:0:0:
256,192,109238,1,8,0:0:0:0:
256,192,109438,1,0,0:0:0:0:
256,192,109638,1,8,0:0:0:0:
256,192,110038,1,0,0:0:0:0:
256,192,110238,1,0,0:0:0:0:
256,192,110438,1,8,0:0:0:0:
256,192,110838,1,8,0:0:0:0:
256,192,111038,1,0,0:0:0:0:
256,192,111438,1,8,0:0:0:0:
256,192,111638,1,8,0:0:0:0:
256,192,112038,1,8,0:0:0:0:
256,192,112238,1,8,0:0:0:0:
256,192,112438,1,8,0:0:0:0:
256,192,112838,1,0,0:0:0:0:
256,192,113038,1,0,0:0:0:0:
256,192,113238,1,0,0:0:0:0:
256,192,113638,1,12,0:0:0:0:
256,192,114238,1,0,0:0:0:0:
256,192,114638,1,8,0:0:0:0:
256,192,114838,1,8,0:0:0:0:
256,192,115238,1,0,0:0:0:0:
256,192,115438,1,0,0:0:0:0:
256,192,115638,1,8,0:0:0:0:
256,192,116038,1,8,0:0:0:0:
256,192,116238,1,8,0:0:0:0:
256,192,116438,1,8,0:0:0:0:
256,192,116838,1,0,0:0:0:0:
256,192,117238,1,8,0:0:0:0:
256,192,117438,1,0,0:0:0:0:
256,192,117838,1,8,0:0:0:0:
256,192,118038,1,8,0:0:0:0:
256,192,118438,1,8,0:0:0:0:
256,192,118638,1,8,0:0:0:0:
256,192,118838,1,8,0:0:0:0:
256,192,119238,1,8,0:0:0:0:
256,192,119438,1,8,0:0:0:0:
256,192,119638,1,0,0:0:0:0:
256,192,119838,1,0,0:0:0:0:
256,192,120038,1,12,0:0:0:0:
256,192,120438,1,8,0:0:0:0:
256,192,120838,1,8,0:0:0:0:
256,192,121038,1,8,0:0:0:0:
256,192,121238,1,8,0:0:0:0:
256,192,121638,1,8,0:0:0:0:
256,192,121838,1,0,0:0:0:0:
256,192,122038,1,8,0:0:0:0:
256,192,122238,1,0,0:0:0:0:
256,192,122438,1,8,0:0:0:0:
256,192,122838,1,8,0:0:0:0:
256,192,123238,1,0,0:0:0:0:
256,192,123638,1,8,0:0:0:0:
256,192,124038,1,8,0:0:0:0:
256,192,124238,1,8,0:0:0:0:
256,192,124438,1,8,0:0:0:0:
256,192,124838,1,8,0:0:0:0:
256,192,125038,1,0,0:0:0:0:
256,192,125238,1,8,0:0:0:0:
256,192,125438,1,0,0:0:0:0:
256,192,125638,1,8,0:0:0:0:
256,192,125738,1,8,0:0:0:0:
256,192,125838,1,8,0:0:0:0:
256,192,126438,1,12,0:0:0:0:
256,192,126838,1,8,0:0:0:0:
256,192,127238,1,8,0:0:0:0:
256,192,127438,1,8,0:0:0:0:
256,192,127638,1,8,0:0:0:0:
256,192,128038,1,8,0:0:0:0:
256,192,128238,1,8,0:0:0:0:
256,192,128438,1,0,0:0:0:0:
256,192,128638,1,0,0:0:0:0:
256,192,128838,1,8,0:0:0:0:
256,192,129238,1,0,0:0:0:0:
256,192,129638,1,8,0:0:0:0:
256,192,130038,1,8,0:0:0:0:
256,192,130438,1,8,0:0:0:0:
256,192,130638,1,8,0:0:0:0:
256,192,130838,1,8,0:0:0:0:
256,192,131038,1,0,0:0:0:0:
256,192,131138,1,0,0:0:0:0:
256,192,131238,1,0,0:0:0:0:
256,192,131438,1,0,0:0:0:0:
256,192,131638,1,8,0:0:0:0:
256,192,131738,1,8,0:0:0:0:
256,192,131838,1,8,0:0:0:0:
256,192,132038,1,8,0:0:0:0:
256,192,132238,1,0,0:0:0:0:
256,192,132838,1,4,0:0:0:0:
256,192,133038,1,8,0:0:0:0:
256,192,133138,1,8,0:0:0:0:
256,192,133438,1,0,0:0:0:0:
256,192,133638,1,8,0:0:0:0:
256,192,133738,1,8,0:0:0:0:
256,192,134038,1,0,0:0:0:0:
256,192,134138,1,8,0:0:0:0:
256,192,134438,1,0,0:0:0:0:
256,192,134638,1,0,0:0:0:0:
256,192,134838,1,8,0:0:0:0:
256,192,134938,1,8,0:0:0:0:
256,192,135238,1,8,0:0:0:0:
256,192,135338,1,8,0:0:0:0:
256,192,135638,1,8,0:0:0:0:
256,192,135738,1,8,0:0:0:0:
256,192,135838,1,8,0:0:0:0:
256,192,136038,1,8,0:0:0:0:
256,192,136238,1,8,0:0:0:0:
256,192,136338,1,8,0:0:0:0:
256,192,136638,1,0,0:0:0:0:
256,192,136838,1,8,0:0:0:0:
256,192,136938,1,8,0:0:0:0:
256,192,137238,1,0,0:0:0:0:
256,192,137338,1,8,0:0:0:0:
256,192,137638,1,0,0:0:0:0:
256,192,137838,1,0,0:0:0:0:
256,192,138038,1,8,0:0:0:0:
256,192,138138,1,8,0:0:0:0:
256,192,138438,1,8,0:0:0:0:
256,192,138538,1,8,0:0:0:0:
256,192,138838,1,8,0:0:0:0:
256,192,138938,1,8,0:0:0:0:
256,192,139038,1,8,0:0:0:0:
256,192,139238,1,4,0:0:0:0:
256,192,140038,1,8,0:0:0:0:
256,192,140238,1,0,0:0:0:0:
256,192,140638,1,8,0:0:0:0:
256,192,140838,1,0,0:0:0:0:
256,192,141038,1,8,0:0:0:0:
256,192,141238,1,0,0:0:0:0:
256,192,141438,1,8,0:0:0:0:
256,192,141538,1,8,0:0:0:0:
256,192,141638,1,8,0:0:0:0:
256,192,141838,1,0,0:0:0:0:
256,192,142038,1,8,0:0:0:0:
256,192,142238,1,8,0:0:0:0:
256,192,142438,1,0,0:0:0:0:
256,192,143038,1,8,0:0:0:0:
256,192,143138,1,8,0:0:0:0:
256,192,143238,1,8,0:0:0:0:
256,192,143638,1,0,0:0:0:0:
256,192,144038,1,12,0:0:0:0:
256,192,145638,1,12,0:0:0:0:
256,192,146038,1,8,0:0:0:0:
256,192,146238,1,0,0:0:0:0:
256,192,146438,1,8,0:0:0:0:
256,192,146638,1,0,0:0:0:0:
256,192,146838,1,0,0:0:0:0:
256,192,147238,1,8,0:0:0:0:
256,192,147438,1,0,0:0:0:0:
256,192,147538,1,0,0:0:0:0:
256,192,147638,1,0,0:0:0:0:
256,192,147838,1,0,0:0:0:0:
256,192,148038,1,8,0:0:0:0:
256,192,148238,1,8,0:0:0:0:
256,192,148438,1,0,0:0:0:0:
256,192,148638,1,0,0:0:0:0:
256,192,148838,1,8,0:0:0:0:
256,192,149238,1,8,0:0:0:0:
256,192,149438,1,0,0:0:0:0:
256,192,149638,1,8,0:0:0:0:
256,192,149838,1,0,0:0:0:0:
256,192,150038,1,0,0:0:0:0:
256,192,150438,1,8,0:0:0:0:
256,192,150638,1,0,0:0:0:0:
256,192,150738,1,0,0:0:0:0:
256,192,150838,1,0,0:0:0:0:
256,192,151038,1,8,0:0:0:0:
256,192,151238,1,8,0:0:0:0:
256,192,151338,1,8,0:0:0:0:
256,192,151438,1,8,0:0:0:0:
256,192,152038,1,12,0:0:0:0:
256,192,152438,1,8,0:0:0:0:
256,192,152638,1,0,0:0:0:0:
256,192,152838,1,8,0:0:0:0:
256,192,153038,1,0,0:0:0:0:
256,192,153238,1,0,0:0:0:0:
256,192,153638,1,8,0:0:0:0:
256,192,153838,1,0,0:0:0:0:
256,192,153938,1,0,0:0:0:0:
256,192,154038,1,0,0:0:0:0:
256,192,154238,1,0,0:0:0:0:
256,192,154438,1,8,0:0:0:0:
256,192,154638,1,8,0:0:0:0:
256,192,154838,1,0,0:0:0:0:
256,192,155038,1,0,0:0:0:0:
256,192,155238,1,8,0:0:0:0:
256,192,155638,1,8,0:0:0:0:
256,192,155838,1,0,0:0:0:0:
256,192,156038,1,8,0:0:0:0:
256,192,156238,1,0,0:0:0:0:
256,192,156438,1,0,0:0:0:0:
256,192,156838,1,8,0:0:0:0:
256,192,157038,1,0,0:0:0:0:
256,192,157138,1,0,0:0:0:0:
256,192,157238,1,0,0:0:0:0:
256,192,157438,1,8,0:0:0:0:
256,192,157638,1,8,0:0:0:0:
256,192,157738,1,8,0:0:0:0:
256,192,157838,1,8,0:0:0:0:
256,192,158038,1,0,0:0:0:0:
256,192,158138,1,0,0:0:0:0:
256,192,158238,1,0,0:0:0:0:
256,192,158838,5,4,0:0:0:0:
256,192,159238,1,8,0:0:0:0:
256,192,159438,1,0,0:0:0:0:
256,192,159638,1,0,0:0:0:0:
256,192,160038,1,8,0:0:0:0:
256,192,160338,1,8,0:0:0:0:
256,192,160538,1,0,0:0:0:0:
256,192,160638,1,8,0:0:0:0:
256,192,160838,1,8,0:0:0:0:
256,192,161038,1,0,0:0:0:0:
256,192,161238,1,8,0:0:0:0:
256,192,161438,1,8,0:0:0:0:
256,192,161638,1,0,0:0:0:0:
256,192,162038,1,8,0:0:0:0:
256,192,162438,1,8,0:0:0:0:
256,192,162638,1,0,0:0:0:0:
256,192,162838,1,0,0:0:0:0:
256,192,163238,1,8,0:0:0:0:
256,192,163538,1,8,0:0:0:0:
256,192,163738,1,0,0:0:0:0:
256,192,163838,1,8,0:0:0:0:
256,192,164038,1,8,0:0:0:0:
256,192,164238,1,0,0:0:0:0:
256,192,164838,1,12,0:0:0:0:
256,192,165238,1,8,0:0:0:0:
256,192,165438,1,0,0:0:0:0:
256,192,165638,1,8,0:0:0:0:
256,192,165838,1,0,0:0:0:0:
256,192,166038,1,0,0:0:0:0:
256,192,166438,1,8,0:0:0:0:
256,192,166738,1,8,0:0:0:0:
256,192,166938,1,0,0:0:0:0:
256,192,167038,1,8,0:0:0:0:
256,192,167238,1,8,0:0:0:0:
256,192,167438,1,0,0:0:0:0:
256,192,167638,1,8,0:0:0:0:
256,192,167838,1,8,0:0:0:0:
256,192,168038,1,0,0:0:0:0:
256,192,168238,1,8,0:0:0:0:
256,192,168638,1,8,0:0:0:0:
256,192,168838,1,0,0:0:0:0:
256,192,169038,1,8,0:0:0:0:
256,192,169138,1,8,0:0:0:0:
256,192,169438,1,8,0:0:0:0:
256,192,169538,1,8,0:0:0:0:
256,192,169638,1,8,0:0:0:0:
256,192,169838,1,0,0:0:0:0:
256,192,170038,5,8,0:0:0:0:
256,192,170238,1,8,0:0:0:0:
256,192,170438,1,0,0:0:0:0:
256,192,171238,1,4,0:0:0:0:
256,192,171638,1,8,0:0:0:0:
256,192,172038,1,8,0:0:0:0:
256,192,172238,1,8,0:0:0:0:
256,192,172438,1,8,0:0:0:0:
256,192,172838,1,8,0:0:0:0:
256,192,173038,1,0,0:0:0:0:
256,192,173238,1,8,0:0:0:0:
256,192,173438,1,8,0:0:0:0:
256,192,173538,1,8,0:0:0:0:
256,192,173638,1,8,0:0:0:0:
256,192,173838,1,8,0:0:0:0:
256,192,174038,1,0,0:0:0:0:
256,192,174238,1,0,0:0:0:0:
256,192,174438,1,8,0:0:0:0:
256,192,174838,1,8,0:0:0:0:
256,192,175238,1,8,0:0:0:0:
256,192,175438,1,8,0:0:0:0:
256,192,175638,1,8,0:0:0:0:
256,192,176038,1,8,0:0:0:0:
256,192,176238,1,0,0:0:0:0:
256,192,176438,1,8,0:0:0:0:
256,192,176638,1,0,0:0:0:0:
256,192,176738,1,0,0:0:0:0:
256,192,176838,1,0,0:0:0:0:
256,192,177238,1,0,0:0:0:0:
256,192,177638,1,8,0:0:0:0:
256,192,178038,1,8,0:0:0:0:
256,192,178238,1,0,0:0:0:0:
256,192,178438,1,8,0:0:0:0:
256,192,178538,1,8,0:0:0:0:
256,192,178638,1,8,0:0:0:0:
256,192,178838,1,0,0:0:0:0:
256,192,179238,1,0,0:0:0:0:
256,192,179438,1,8,0:0:0:0:
256,192,179638,1,0,0:0:0:0:
256,192,179738,1,0,0:0:0:0:
256,192,179838,1,0,0:0:0:0:
256,192,180038,1,8,0:0:0:0:
256,192,180238,1,0,0:0:0:0:
256,192,180438,1,8,0:0:0:0:
256,192,180538,1,8,0:0:0:0:
256,192,180638,1,8,0:0:0:0:
256,192,180838,1,0,0:0:0:0:
256,192,181238,1,8,0:0:0:0:
256,192,181638,1,8,0:0:0:0:
256,192,181838,1,8,0:0:0:0:
256,192,182038,1,8,0:0:0:0:
256,192,182438,1,8,0:0:0:0:
256,192,182538,1,8,0:0:0:0:
256,192,182638,1,8,0:0:0:0:
256,192,182838,1,0,0:0:0:0:
256,192,183038,1,8,0:0:0:0:
256,192,183238,1,0,0:0:0:0:
256,192,183338,1,0,0:0:0:0:
256,192,183438,1,0,0:0:0:0:
256,192,183638,1,8,0:0:0:0:
256,192,183838,1,0,0:0:0:0:
