osu file format v14

[General]
AudioFilename: hehe.mp3
AudioLeadIn: 0
PreviewTime: 55476
Countdown: 0
SampleSet: Normal
StackLeniency: 0.7
Mode: 1
LetterboxInBreaks: 0
WidescreenStoryboard: 1

[Editor]
Bookmarks: 132776,132788
DistanceSpacing: 0.8
BeatDivisor: 4
GridSize: 32
TimelineZoom: 2.3

[Metadata]
Title:POISON
TitleUnicode:POISON
Artist:YUC'e
ArtistUnicode:YUC'e
Creator:Capu
Version:Kantan
Source:
Tags:cychloryn yuce english electronic pop trap future cake cαke candy 未来茶レコード miraicha records
BeatmapID:2312515
BeatmapSetID:1102382

[Difficulty]
HPDrainRate:7
CircleSize:2
OverallDifficulty:3
ApproachRate:10
SliderMultiplier:1.4
SliderTickRate:1

[Events]
//Background and Video events
0,0,"678698.jpg",0,90
//Break Periods
//Storyboard Layer 0 (Background)
//Storyboard Layer 1 (Fail)
//Storyboard Layer 2 (Pass)
//Storyboard Layer 3 (Foreground)
//Storyboard Layer 4 (Overlay)
//Storyboard Sound Samples

[TimingPoints]
1638,400,4,1,0,90,1,0
56038,-100,4,1,0,90,0,1
81638,-100,4,1,0,90,0,0
145638,-100,4,1,0,90,0,1
169638,-100,4,1,0,90,0,0
171238,-100,4,1,0,90,0,1
183838,-100,4,1,0,90,0,0

[HitObjects]
256,192,4838,5,4,0:0:0:0:
256,192,5238,1,0,0:0:0:0:
256,192,5638,1,8,0:0:0:0:
256,192,6438,1,8,0:0:0:0:
256,192,7238,1,0,0:0:0:0:
256,192,8038,1,8,0:0:0:0:
256,192,8438,1,8,0:0:0:0:
256,192,8838,1,0,0:0:0:0:
256,192,9638,1,8,0:0:0:0:
256,192,11238,1,0,0:0:0:0:
256,192,11638,1,0,0:0:0:0:
256,192,12038,1,8,0:0:0:0:
256,192,12838,1,8,0:0:0:0:
256,192,13638,1,0,0:0:0:0:
256,192,14438,1,8,0:0:0:0:
256,192,14838,1,0,0:0:0:0:
256,192,15238,1,8,0:0:0:0:
256,192,16038,1,8,0:0:0:0:
256,192,17238,1,0,0:0:0:0:
256,192,17638,1,12,0:0:0:0:
256,192,18038,1,0,0:0:0:0:
256,192,18438,1,8,0:0:0:0:
256,192,19238,1,8,0:0:0:0:
256,192,19638,1,8,0:0:0:0:
256,192,20038,1,8,0:0:0:0:
256,192,20838,1,0,0:0:0:0:
256,192,21638,1,8,0:0:0:0:
256,192,22438,1,0,0:0:0:0:
256,192,22838,1,0,0:0:0:0:
256,192,23238,1,0,0:0:0:0:
256,192,24038,1,8,0:0:0:0:
256,192,25238,1,0,0:0:0:0:
256,192,25638,1,8,0:0:0:0:
256,192,26438,1,8,0:0:0:0:
256,192,27238,1,0,0:0:0:0:
256,192,28438,1,0,0:0:0:0:
256,192,28838,1,8,0:0:0:0:
256,192,29638,1,8,0:0:0:0:
256,192,30038,1,8,0:0:0:0:
256,192,30438,1,4,0:0:0:0:
256,192,31238,1,8,0:0:0:0:
256,192,32038,1,0,0:0:0:0:
224,192,32838,1,0,0:0:0:0:
256,192,33638,1,8,0:0:0:0:
256,192,34438,1,0,0:0:0:0:
256,192,35238,1,8,0:0:0:0:
256,192,36438,1,8,0:0:0:0:
256,192,36838,1,4,0:0:0:0:
256,192,37638,1,8,0:0:0:0:
256,192,38438,1,0,0:0:0:0:
256,192,39238,1,8,0:0:0:0:
256,192,40038,1,8,0:0:0:0:
256,192,40838,1,0,0:0:0:0:
256,192,41638,1,0,0:0:0:0:
256,192,43238,1,12,0:0:0:0:
256,192,43638,1,0,0:0:0:0:
256,192,44038,1,8,0:0:0:0:
256,192,44838,1,8,0:0:0:0:
256,192,45238,1,0,0:0:0:0:
256,192,46038,1,0,0:0:0:0:
256,192,46438,1,8,0:0:0:0:
256,192,46838,1,8,0:0:0:0:
256,192,47238,1,0,0:0:0:0:
256,192,48038,1,8,0:0:0:0:
256,192,48838,1,8,0:0:0:0:
256,192,49638,12,0,52438,0:0:0:0:
256,192,52838,5,0,0:0:0:0:
256,192,53638,1,8,0:0:0:0:
256,192,54438,1,12,0:0:0:0:
256,192,56038,1,12,0:0:0:0:
256,192,56838,1,8,0:0:0:0:
256,192,57238,1,0,0:0:0:0:
256,192,58038,1,0,0:0:0:0:
256,192,58438,1,8,0:0:0:0:
256,192,58838,1,0,0:0:0:0:
256,192,59238,1,0,0:0:0:0:
256,192,60038,1,8,0:0:0:0:
256,192,60438,1,0,0:0:0:0:
256,192,61238,1,0,0:0:0:0:
256,192,61638,1,8,0:0:0:0:
256,192,62038,1,8,0:0:0:0:
256,192,62438,1,4,0:0:0:0:
256,192,63638,1,0,0:0:0:0:
256,192,64438,1,0,0:0:0:0:
256,192,64838,1,8,0:0:0:0:
256,192,65238,1,0,0:0:0:0:
256,192,65638,1,0,0:0:0:0:
256,192,66438,1,8,0:0:0:0:
256,192,66838,1,0,0:0:0:0:
256,192,67238,1,0,0:0:0:0:
256,192,67638,1,0,0:0:0:0:
256,192,68038,1,0,0:0:0:0:
256,192,69238,1,12,0:0:0:0:
256,192,69638,1,8,0:0:0:0:
256,192,70438,1,0,0:0:0:0:
256,192,71238,1,8,0:0:0:0:
256,192,71638,1,0,0:0:0:0:
256,192,72038,1,0,0:0:0:0:
256,192,72838,1,8,0:0:0:0:
256,192,73638,1,0,0:0:0:0:
256,192,74438,1,8,0:0:0:0:
256,192,75238,1,12,0:0:0:0:
256,192,76438,1,0,0:0:0:0:
256,192,76838,1,8,0:0:0:0:
256,192,77238,1,0,0:0:0:0:
256,192,77638,1,8,0:0:0:0:
256,192,78638,1,8,0:0:0:0:
256,192,79038,1,8,0:0:0:0:
256,192,79438,1,8,0:0:0:0:
256,192,79838,1,8,0:0:0:0:
256,192,80038,12,0,81238,0:0:0:0:
256,192,81638,5,4,0:0:0:0:
256,192,82038,1,8,0:0:0:0:
256,192,82838,1,8,0:0:0:0:
256,192,83638,1,8,0:0:0:0:
256,192,85238,1,8,0:0:0:0:
256,192,86038,1,8,0:0:0:0:
256,192,86838,1,8,0:0:0:0:
256,192,88038,1,12,0:0:0:0:
256,192,88438,1,0,0:0:0:0:
256,192,89238,1,8,0:0:0:0:
256,192,90038,1,0,0:0:0:0:
256,192,90438,1,8,0:0:0:0:
256,192,91238,1,8,0:0:0:0:
256,192,91638,1,0,0:0:0:0:
256,192,92038,1,0,0:0:0:0:
256,192,92838,1,8,0:0:0:0:
256,192,93238,1,8,0:0:0:0:
256,192,93638,1,8,0:0:0:0:
256,192,94438,1,4,0:0:0:0:
256,192,95238,1,8,0:0:0:0:
256,192,96038,1,0,0:0:0:0:
256,192,97638,1,8,0:0:0:0:
256,192,98438,1,0,0:0:0:0:
256,192,99238,1,0,0:0:0:0:
256,192,100038,1,8,0:0:0:0:
256,192,100438,1,8,0:0:0:0:
256,192,100838,1,4,0:0:0:0:
256,192,101638,1,8,0:0:0:0:
256,192,102438,1,0,0:0:0:0:
256,192,103238,1,8,0:0:0:0:
256,192,104038,1,8,0:0:0:0:
256,192,104838,1,0,0:0:0:0:
256,192,105638,1,0,0:0:0:0:
256,192,107238,1,12,0:0:0:0:
256,192,108038,1,8,0:0:0:0:
256,192,109638,1,8,0:0:0:0:
256,192,111238,1,8,0:0:0:0:
256,192,112838,1,8,0:0:0:0:
256,192,113638,1,4,0:0:0:0:
256,192,114438,1,8,0:0:0:0:
256,192,114838,1,0,0:0:0:0:
256,192,116038,1,8,0:0:0:0:
256,192,116438,1,0,0:0:0:0:
256,192,116838,1,0,0:0:0:0:
256,192,117638,1,8,0:0:0:0:
256,192,118038,1,0,0:0:0:0:
256,192,119238,1,8,0:0:0:0:
256,192,120038,1,4,0:0:0:0:
256,192,120838,1,8,0:0:0:0:
256,192,122438,1,8,0:0:0:0:
256,192,124038,1,8,0:0:0:0:
256,192,124838,1,8,0:0:0:0:
256,192,125238,1,8,0:0:0:0:
256,192,125638,1,0,0:0:0:0:
256,192,126038,1,8,0:0:0:0:
256,192,126438,1,4,0:0:0:0:
256,192,126838,1,8,0:0:0:0:
256,192,127638,1,8,0:0:0:0:
256,192,128438,1,8,0:0:0:0:
256,192,129238,1,8,0:0:0:0:
256,192,130038,1,8,0:0:0:0:
256,192,130838,1,8,0:0:0:0:
256,192,131238,12,8,132438,0:0:0:0:
256,192,132838,5,12,0:0:0:0:
256,192,133238,1,0,0:0:0:0:
256,192,133638,1,8,0:0:0:0:
256,192,134438,1,8,0:0:0:0:
256,192,134838,1,0,0:0:0:0:
256,192,135638,1,0,0:0:0:0:
256,192,136038,1,8,0:0:0:0:
256,192,136438,1,8,0:0:0:0:
256,192,136838,1,0,0:0:0:0:
256,192,137638,1,8,0:0:0:0:
256,192,138438,1,8,0:0:0:0:
256,192,139238,12,0,142038,0:0:0:0:
256,192,142438,5,0,0:0:0:0:
256,192,143238,1,8,0:0:0:0:
256,192,144038,1,12,0:0:0:0:
256,192,145638,1,12,0:0:0:0:
256,192,146438,1,8,0:0:0:0:
256,192,146838,1,0,0:0:0:0:
256,192,147638,1,0,0:0:0:0:
256,192,148038,1,8,0:0:0:0:
256,192,148438,1,0,0:0:0:0:
256,192,148838,1,0,0:0:0:0:
256,192,149638,1,8,0:0:0:0:
256,192,150038,1,0,0:0:0:0:
256,192,150838,1,0,0:0:0:0:
256,192,152038,1,4,0:0:0:0:
256,192,152838,1,8,0:0:0:0:
256,192,153238,1,0,0:0:0:0:
256,192,154038,1,0,0:0:0:0:
256,192,154438,1,8,0:0:0:0:
256,192,154838,1,0,0:0:0:0:
256,192,155238,1,0,0:0:0:0:
256,192,156038,1,8,0:0:0:0:
256,192,156438,1,0,0:0:0:0:
256,192,156838,1,0,0:0:0:0:
256,192,157238,1,0,0:0:0:0:
256,192,157638,1,0,0:0:0:0:
256,192,158838,1,12,0:0:0:0:
256,192,159238,1,8,0:0:0:0:
256,192,160038,1,0,0:0:0:0:
256,192,160838,1,8,0:0:0:0:
256,192,161238,1,0,0:0:0:0:
256,192,161638,1,0,0:0:0:0:
256,192,162438,1,8,0:0:0:0:
256,192,162838,1,0,0:0:0:0:
256,192,163238,1,0,0:0:0:0:
256,192,164038,1,8,0:0:0:0:
256,192,164838,1,12,0:0:0:0:
256,192,166038,1,0,0:0:0:0:
256,192,166438,1,0,0:0:0:0:
256,192,167238,1,8,0:0:0:0:
256,192,167638,1,0,0:0:0:0:
256,192,168238,1,8,0:0:0:0:
256,192,168638,1,8,0:0:0:0:
256,192,169038,1,8,0:0:0:0:
256,192,169438,1,8,0:0:0:0:
256,192,169638,12,0,170838,0:0:0:0:
256,192,171238,5,4,0:0:0:0:
256,192,171638,1,8,0:0:0:0:
256,192,172038,1,0,0:0:0:0:
256,192,172838,1,8,0:0:0:0:
256,192,173638,1,8,0:0:0:0:
256,192,174838,1,8,0:0:0:0:
256,192,175238,1,0,0:0:0:0:
256,160,176038,1,8,0:0:0:0:
256,160,176838,1,0,0:0:0:0:
256,160,177638,1,8,0:0:0:0:
256,160,178038,1,8,0:0:0:0:
256,160,178438,1,0,0:0:0:0:
256,160,179238,1,8,0:0:0:0:
256,160,179638,1,0,0:0:0:0:
256,160,180038,1,8,0:0:0:0:
256,160,180838,1,8,0:0:0:0:
256,160,181238,1,8,0:0:0:0:
256,160,181638,1,0,0:0:0:0:
256,160,182438,1,8,0:0:0:0:
256,160,182838,1,8,0:0:0:0:
256,160,183238,1,8,0:0:0:0:
256,160,183638,1,0,0:0:0:0:
