osu file format v14

[General]
AudioFilename: hehe.mp3
AudioLeadIn: 0
PreviewTime: 55476
Countdown: 0
SampleSet: Normal
StackLeniency: 0.7
Mode: 1
LetterboxInBreaks: 0
WidescreenStoryboard: 1

[Editor]
Bookmarks: 132776
DistanceSpacing: 0.8
BeatDivisor: 4
GridSize: 32
TimelineZoom: 1.7

[Metadata]
Title:POISON
TitleUnicode:POISON
Artist:YUC'e
ArtistUnicode:YUC'e
Creator:Capu
Version:Cychlo's Futsuu
Source:
Tags:cychloryn yuce english electronic pop trap future cake cαke candy 未来茶レコード miraicha records
BeatmapID:2316769
BeatmapSetID:1102382

[Difficulty]
HPDrainRate:6.5
CircleSize:2
OverallDifficulty:4
ApproachRate:10
SliderMultiplier:1.4
SliderTickRate:1

[Events]
//Background and Video events
0,0,"678698.jpg",0,90
//Break Periods
//Storyboard Layer 0 (Background)
//Storyboard Layer 1 (Fail)
//Storyboard Layer 2 (Pass)
//Storyboard Layer 3 (Foreground)
//Storyboard Layer 4 (Overlay)
//Storyboard Sound Samples

[TimingPoints]
1638,400,4,1,0,70,1,0
43238,-90.9090909090909,4,1,0,80,0,0
53238,-100,4,1,0,70,0,0
56038,-100,4,1,0,100,0,1
68438,-100,4,1,0,100,0,0
69238,-100,4,1,0,100,0,1
81638,-100,4,1,0,70,0,0
126438,-95.2380952380952,4,1,0,75,0,0
132838,-90.9090909090909,4,1,0,80,0,0
142838,-100,4,1,0,70,0,0
145638,-100,4,1,0,100,0,1
158038,-100,4,1,0,100,0,0
158838,-100,4,1,0,100,0,1
169638,-100,4,1,0,100,0,0
171238,-100,4,1,0,70,0,0

[HitObjects]
256,192,4838,5,4,0:0:0:0:
256,192,5238,1,8,0:0:0:0:
256,192,5638,1,0,0:0:0:0:
256,192,5838,1,0,0:0:0:0:
256,192,6038,1,0,0:0:0:0:
256,192,6438,1,0,0:0:0:0:
256,192,6838,1,0,0:0:0:0:
256,192,7238,1,8,0:0:0:0:
256,192,8038,1,0,0:0:0:0:
256,192,8438,1,8,0:0:0:0:
256,192,8838,1,0,0:0:0:0:
256,192,9038,1,0,0:0:0:0:
256,192,9238,1,0,0:0:0:0:
256,192,9638,1,0,0:0:0:0:
256,192,10038,1,8,0:0:0:0:
256,192,10438,1,8,0:0:0:0:
256,192,11238,1,0,0:0:0:0:
256,192,11638,1,8,0:0:0:0:
256,192,12038,1,0,0:0:0:0:
256,192,12238,1,0,0:0:0:0:
256,192,12438,1,0,0:0:0:0:
256,192,12838,1,0,0:0:0:0:
256,192,13238,1,0,0:0:0:0:
256,192,13638,1,8,0:0:0:0:
256,192,14438,1,0,0:0:0:0:
256,192,14838,1,8,0:0:0:0:
256,192,15238,1,0,0:0:0:0:
256,192,15438,1,0,0:0:0:0:
256,192,15638,1,0,0:0:0:0:
256,192,16038,1,8,0:0:0:0:
256,192,16438,1,8,0:0:0:0:
256,192,16838,1,8,0:0:0:0:
256,192,17038,1,0,0:0:0:0:
256,192,17238,1,8,0:0:0:0:
256,192,17438,1,8,0:0:0:0:
256,192,17638,1,4,0:0:0:0:
256,192,18038,1,8,0:0:0:0:
256,192,18438,1,0,0:0:0:0:
256,192,18638,1,0,0:0:0:0:
256,192,18838,1,8,0:0:0:0:
256,192,19238,1,0,0:0:0:0:
256,192,19638,1,0,0:0:0:0:
256,192,20038,1,8,0:0:0:0:
256,192,20838,1,0,0:0:0:0:
256,192,21238,1,8,0:0:0:0:
256,192,21638,1,0,0:0:0:0:
256,192,21838,1,0,0:0:0:0:
256,192,22038,1,8,0:0:0:0:
256,192,22438,1,0,0:0:0:0:
256,192,22838,1,8,0:0:0:0:
256,192,23238,1,8,0:0:0:0:
256,192,24038,1,0,0:0:0:0:
256,192,24438,1,8,0:0:0:0:
256,192,24838,1,0,0:0:0:0:
256,192,25038,1,8,0:0:0:0:
256,192,25238,1,0,0:0:0:0:
256,192,25638,1,0,0:0:0:0:
256,192,26038,1,0,0:0:0:0:
256,192,26238,1,0,0:0:0:0:
256,192,26438,1,8,0:0:0:0:
256,192,26838,1,8,0:0:0:0:
256,192,27238,1,0,0:0:0:0:
256,192,27638,1,8,0:0:0:0:
256,192,28038,1,0,0:0:0:0:
256,192,28238,1,0,0:0:0:0:
256,192,28438,1,8,0:0:0:0:
256,192,28838,1,8,0:0:0:0:
256,192,29038,1,0,0:0:0:0:
256,192,29238,1,8,0:0:0:0:
256,192,29438,1,0,0:0:0:0:
256,192,29638,1,8,0:0:0:0:
256,192,30038,1,8,0:0:0:0:
256,192,30438,1,4,0:0:0:0:
256,192,31238,1,0,0:0:0:0:
256,192,31438,1,8,0:0:0:0:
245,189,32038,1,0,0:0:0:0:
245,189,32438,1,0,0:0:0:0:
245,189,32838,1,8,0:0:0:0:
245,189,33638,1,0,0:0:0:0:
245,189,33838,1,0,0:0:0:0:
245,189,34438,1,8,0:0:0:0:
245,189,34638,1,8,0:0:0:0:
245,189,35238,1,0,0:0:0:0:
245,189,35638,1,0,0:0:0:0:
245,189,35838,1,8,0:0:0:0:
245,189,36038,1,0,0:0:0:0:
245,189,36438,1,12,0:0:0:0:
256,192,36838,1,4,0:0:0:0:
256,192,37638,1,0,0:0:0:0:
256,192,37838,1,8,0:0:0:0:
256,192,38438,1,0,0:0:0:0:
256,192,38838,1,0,0:0:0:0:
256,192,39238,1,8,0:0:0:0:
256,192,40038,1,0,0:0:0:0:
256,192,40238,1,0,0:0:0:0:
256,192,40838,1,8,0:0:0:0:
256,192,41038,1,8,0:0:0:0:
256,192,41638,1,0,0:0:0:0:
256,192,42038,1,8,0:0:0:0:
256,192,42238,1,0,0:0:0:0:
256,192,42438,1,8,0:0:0:0:
256,192,43238,1,4,0:0:0:0:
256,192,43638,1,8,0:0:0:0:
256,192,44038,1,0,0:0:0:0:
256,192,44238,1,8,0:0:0:0:
256,192,44438,1,8,0:0:0:0:
256,192,44638,1,0,0:0:0:0:
256,192,45038,1,8,0:0:0:0:
256,192,45438,1,0,0:0:0:0:
256,192,45838,1,0,0:0:0:0:
256,192,46038,1,8,0:0:0:0:
256,192,46438,1,0,0:0:0:0:
256,192,46838,1,0,0:0:0:0:
256,192,47238,1,8,0:0:0:0:
256,192,47438,1,0,0:0:0:0:
256,192,47638,1,8,0:0:0:0:
256,192,47838,1,0,0:0:0:0:
256,192,48238,1,0,0:0:0:0:
256,192,48638,1,8,0:0:0:0:
256,192,49038,1,8,0:0:0:0:
256,192,49238,1,8,0:0:0:0:
256,192,49638,1,4,0:0:0:0:
256,192,50438,1,8,0:0:0:0:
256,192,50838,1,0,0:0:0:0:
256,192,51038,1,8,0:0:0:0:
256,192,51438,1,8,0:0:0:0:
256,192,51838,1,8,0:0:0:0:
256,192,52238,1,0,0:0:0:0:
256,192,52438,1,8,0:0:0:0:
256,192,52638,1,8,0:0:0:0:
256,192,52838,1,0,0:0:0:0:
256,192,53438,1,0,0:0:0:0:
256,192,53638,1,8,0:0:0:0:
256,192,54038,1,0,0:0:0:0:
256,192,54438,1,12,0:0:0:0:
256,192,56038,5,4,0:0:0:0:
256,192,56438,1,8,0:0:0:0:
256,192,56638,1,0,0:0:0:0:
256,192,57038,1,0,0:0:0:0:
256,192,57238,1,0,0:0:0:0:
256,192,57638,1,8,0:0:0:0:
256,192,58038,1,0,0:0:0:0:
256,192,58438,1,8,0:0:0:0:
256,192,58638,1,8,0:0:0:0:
256,192,58838,1,0,0:0:0:0:
256,192,59238,1,0,0:0:0:0:
256,192,59638,1,8,0:0:0:0:
256,192,59838,1,0,0:0:0:0:
256,192,60238,1,0,0:0:0:0:
256,192,60438,1,8,0:0:0:0:
256,192,60838,1,0,0:0:0:0:
256,192,61238,1,0,0:0:0:0:
256,192,61638,1,8,0:0:0:0:
256,192,62438,1,4,0:0:0:0:
256,192,62838,1,8,0:0:0:0:
256,192,63038,1,8,0:0:0:0:
256,192,63438,1,0,0:0:0:0:
256,192,63638,1,8,0:0:0:0:
256,192,64038,1,0,0:0:0:0:
256,192,64438,1,0,0:0:0:0:
256,192,64838,1,8,0:0:0:0:
256,192,65038,1,8,0:0:0:0:
256,192,65238,1,8,0:0:0:0:
256,192,65638,1,0,0:0:0:0:
256,192,66038,1,8,0:0:0:0:
256,192,66238,1,0,0:0:0:0:
256,192,66638,1,0,0:0:0:0:
256,192,66838,1,0,0:0:0:0:
256,192,67238,1,8,0:0:0:0:
256,192,67638,1,8,0:0:0:0:
256,192,67838,1,0,0:0:0:0:
256,192,68038,1,8,0:0:0:0:
256,192,68238,1,8,0:0:0:0:
256,192,68438,1,0,0:0:0:0:
256,192,69238,1,12,0:0:0:0:
256,192,69638,1,0,0:0:0:0:
256,192,69838,1,8,0:0:0:0:
256,192,70038,1,8,0:0:0:0:
256,192,70438,1,0,0:0:0:0:
256,192,70738,1,0,0:0:0:0:
256,192,71038,1,0,0:0:0:0:
256,192,71238,1,8,0:0:0:0:
256,192,71638,1,8,0:0:0:0:
256,192,72038,1,0,0:0:0:0:
256,192,72438,1,8,0:0:0:0:
256,192,72638,1,0,0:0:0:0:
256,192,73038,1,0,0:0:0:0:
256,192,73238,1,8,0:0:0:0:
256,192,73638,1,0,0:0:0:0:
256,192,73938,1,0,0:0:0:0:
256,192,74238,1,0,0:0:0:0:
256,192,74438,1,8,0:0:0:0:
256,192,75238,1,4,0:0:0:0:
256,192,75638,1,8,0:0:0:0:
256,192,75838,1,8,0:0:0:0:
256,192,76238,1,0,0:0:0:0:
256,192,76438,1,8,0:0:0:0:
256,192,76838,1,0,0:0:0:0:
256,192,77138,1,0,0:0:0:0:
256,192,77438,1,0,0:0:0:0:
256,192,77638,1,8,0:0:0:0:
256,192,78038,1,8,0:0:0:0:
256,192,78438,1,0,0:0:0:0:
256,192,78838,1,0,0:0:0:0:
256,192,79238,1,0,0:0:0:0:
256,192,79438,1,8,0:0:0:0:
256,192,79638,1,0,0:0:0:0:
256,192,79838,1,0,0:0:0:0:
256,192,80038,1,8,0:0:0:0:
256,192,80238,12,0,81438,0:0:0:0:
256,192,81638,5,4,0:0:0:0:
256,192,82038,1,8,0:0:0:0:
256,192,82838,1,8,0:0:0:0:
256,192,83238,1,0,0:0:0:0:
256,192,83638,1,8,0:0:0:0:
256,192,83838,1,8,0:0:0:0:
256,192,84038,1,0,0:0:0:0:
256,192,84438,1,8,0:0:0:0:
256,192,84838,1,0,0:0:0:0:
256,192,85238,1,8,0:0:0:0:
256,192,86038,1,8,0:0:0:0:
256,192,86438,1,0,0:0:0:0:
256,192,86838,1,8,0:0:0:0:
256,192,87038,1,0,0:0:0:0:
256,192,87238,1,8,0:0:0:0:
256,192,87638,1,12,0:0:0:0:
256,192,88038,1,4,0:0:0:0:
256,192,88438,1,0,0:0:0:0:
256,192,88838,1,0,0:0:0:0:
256,192,89038,1,8,0:0:0:0:
256,192,89238,1,0,0:0:0:0:
256,192,89638,1,0,0:0:0:0:
256,192,90038,1,0,0:0:0:0:
256,192,90238,1,0,0:0:0:0:
256,192,90438,1,8,0:0:0:0:
256,192,91238,1,8,0:0:0:0:
256,192,91638,1,8,0:0:0:0:
256,192,92038,1,0,0:0:0:0:
256,192,92438,1,8,0:0:0:0:
256,192,92838,1,8,0:0:0:0:
256,192,93038,1,0,0:0:0:0:
256,192,93238,1,8,0:0:0:0:
256,192,93438,1,8,0:0:0:0:
256,192,93638,1,0,0:0:0:0:
256,192,94038,1,12,0:0:0:0:
256,192,94438,1,4,0:0:0:0:
256,192,95238,1,0,0:0:0:0:
256,192,95438,1,8,0:0:0:0:
256,192,95838,1,8,0:0:0:0:
256,192,96038,1,0,0:0:0:0:
256,192,96438,1,0,0:0:0:0:
256,192,96838,1,8,0:0:0:0:
256,192,97638,1,0,0:0:0:0:
256,192,98038,1,8,0:0:0:0:
256,192,98438,1,0,0:0:0:0:
256,192,98638,1,8,0:0:0:0:
256,192,99038,1,0,0:0:0:0:
256,192,99238,1,0,0:0:0:0:
256,192,99638,1,8,0:0:0:0:
256,192,100038,1,0,0:0:0:0:
256,192,100438,1,12,0:0:0:0:
256,192,100838,1,4,0:0:0:0:
256,192,101638,1,0,0:0:0:0:
256,192,101838,1,8,0:0:0:0:
256,192,102238,1,8,0:0:0:0:
256,192,102438,1,0,0:0:0:0:
256,192,102838,1,8,0:0:0:0:
256,192,103238,1,8,0:0:0:0:
256,192,103638,1,0,0:0:0:0:
256,192,104038,1,0,0:0:0:0:
256,192,104238,1,8,0:0:0:0:
256,192,104638,1,8,0:0:0:0:
256,192,104838,1,0,0:0:0:0:
256,192,105038,1,8,0:0:0:0:
256,192,105638,1,0,0:0:0:0:
256,192,106038,1,0,0:0:0:0:
256,192,106438,1,0,0:0:0:0:
256,192,106638,1,0,0:0:0:0:
256,192,106838,1,8,0:0:0:0:
256,192,107238,1,4,0:0:0:0:
256,192,108038,1,8,0:0:0:0:
256,192,109238,1,0,0:0:0:0:
256,192,109638,1,8,0:0:0:0:
256,192,110438,1,0,0:0:0:0:
244,188,111238,1,8,0:0:0:0:
256,192,112438,1,0,0:0:0:0:
256,192,112838,1,8,0:0:0:0:
256,192,113238,1,8,0:0:0:0:
256,192,113638,1,4,0:0:0:0:
256,192,114438,1,8,0:0:0:0:
256,192,114838,1,0,0:0:0:0:
256,192,116038,1,8,0:0:0:0:
256,192,116438,1,0,0:0:0:0:
256,192,116838,1,0,0:0:0:0:
256,192,117638,1,8,0:0:0:0:
256,192,118038,1,0,0:0:0:0:
256,192,119238,1,0,0:0:0:0:
256,192,119638,1,8,0:0:0:0:
256,192,120038,1,4,0:0:0:0:
256,192,120438,1,0,0:0:0:0:
256,192,120838,1,8,0:0:0:0:
256,192,121238,1,0,0:0:0:0:
256,192,121638,1,0,0:0:0:0:
256,192,122038,1,0,0:0:0:0:
256,192,122438,1,8,0:0:0:0:
256,192,123238,1,0,0:0:0:0:
256,192,123638,1,0,0:0:0:0:
256,192,124038,1,8,0:0:0:0:
256,192,124438,1,0,0:0:0:0:
256,192,124838,1,8,0:0:0:0:
256,192,125238,1,8,0:0:0:0:
256,192,125638,1,0,0:0:0:0:
256,192,125838,1,0,0:0:0:0:
256,192,126038,1,8,0:0:0:0:
256,192,126438,1,4,0:0:0:0:
256,192,126838,1,8,0:0:0:0:
256,192,127238,1,0,0:0:0:0:
256,192,127638,1,8,0:0:0:0:
256,192,128038,1,0,0:0:0:0:
256,192,128438,1,8,0:0:0:0:
256,192,128638,1,0,0:0:0:0:
256,192,128838,1,8,0:0:0:0:
256,192,129238,1,8,0:0:0:0:
256,192,129638,1,0,0:0:0:0:
256,192,130038,1,8,0:0:0:0:
256,192,130438,1,0,0:0:0:0:
256,192,130838,1,8,0:0:0:0:
256,192,131238,1,8,0:0:0:0:
256,192,131438,1,8,0:0:0:0:
256,192,131638,1,0,0:0:0:0:
256,192,131838,1,0,0:0:0:0:
256,192,132038,1,8,0:0:0:0:
256,192,132838,1,4,0:0:0:0:
256,192,133238,1,8,0:0:0:0:
256,192,133638,1,8,0:0:0:0:
256,192,133838,1,0,0:0:0:0:
256,192,134038,1,0,0:0:0:0:
256,192,134238,1,8,0:0:0:0:
256,192,134638,1,8,0:0:0:0:
256,192,135038,1,0,0:0:0:0:
256,192,135438,1,0,0:0:0:0:
256,192,135638,1,8,0:0:0:0:
256,192,136038,1,0,0:0:0:0:
256,192,136438,1,0,0:0:0:0:
256,192,136838,1,8,0:0:0:0:
256,192,137038,1,0,0:0:0:0:
256,192,137238,1,8,0:0:0:0:
256,192,137438,1,0,0:0:0:0:
256,192,137838,1,0,0:0:0:0:
256,192,138238,1,8,0:0:0:0:
256,192,138638,1,8,0:0:0:0:
256,192,138838,1,8,0:0:0:0:
256,192,139238,1,4,0:0:0:0:
256,192,140038,1,8,0:0:0:0:
256,192,140438,1,0,0:0:0:0:
256,192,140638,1,8,0:0:0:0:
256,192,141038,1,8,0:0:0:0:
256,192,141438,1,0,0:0:0:0:
256,192,141838,1,8,0:0:0:0:
256,192,142038,1,0,0:0:0:0:
256,192,142238,1,0,0:0:0:0:
256,192,142438,1,8,0:0:0:0:
256,192,143038,1,0,0:0:0:0:
256,192,143238,1,8,0:0:0:0:
256,192,143638,1,0,0:0:0:0:
256,192,144038,1,12,0:0:0:0:
256,192,145638,5,4,0:0:0:0:
256,192,146038,1,8,0:0:0:0:
256,192,146238,1,0,0:0:0:0:
256,192,146638,1,0,0:0:0:0:
256,192,146838,1,8,0:0:0:0:
256,192,147238,1,0,0:0:0:0:
256,192,147638,1,0,0:0:0:0:
256,192,148038,1,8,0:0:0:0:
256,192,148238,1,8,0:0:0:0:
256,192,148438,1,0,0:0:0:0:
256,192,148838,1,0,0:0:0:0:
256,192,149238,1,8,0:0:0:0:
256,192,149438,1,0,0:0:0:0:
256,192,149838,1,0,0:0:0:0:
256,192,150038,1,0,0:0:0:0:
256,192,150438,1,8,0:0:0:0:
256,192,150838,1,0,0:0:0:0:
256,192,151238,1,8,0:0:0:0:
256,192,152038,1,4,0:0:0:0:
256,192,152438,1,8,0:0:0:0:
256,192,152638,1,0,0:0:0:0:
256,192,153038,1,0,0:0:0:0:
256,192,153238,1,0,0:0:0:0:
256,192,153638,1,8,0:0:0:0:
256,192,154038,1,0,0:0:0:0:
256,192,154438,1,8,0:0:0:0:
256,192,154638,1,8,0:0:0:0:
256,192,154838,1,8,0:0:0:0:
256,192,155238,1,0,0:0:0:0:
256,192,155638,1,8,0:0:0:0:
256,192,155838,1,8,0:0:0:0:
256,192,156238,1,0,0:0:0:0:
256,192,156438,1,8,0:0:0:0:
256,192,156838,1,0,0:0:0:0:
256,192,157238,1,8,0:0:0:0:
256,192,157438,1,0,0:0:0:0:
256,192,157638,1,8,0:0:0:0:
256,192,157838,1,0,0:0:0:0:
256,192,158038,1,8,0:0:0:0:
256,192,158838,1,4,0:0:0:0:
256,192,159238,1,0,0:0:0:0:
256,192,159438,1,8,0:0:0:0:
256,192,159638,1,8,0:0:0:0:
256,192,160038,1,0,0:0:0:0:
256,192,160338,1,0,0:0:0:0:
256,192,160638,1,0,0:0:0:0:
256,192,160838,1,8,0:0:0:0:
256,192,161238,1,8,0:0:0:0:
256,192,161638,1,0,0:0:0:0:
256,192,162038,1,8,0:0:0:0:
256,192,162238,1,0,0:0:0:0:
256,192,162638,1,8,0:0:0:0:
256,192,162838,1,8,0:0:0:0:
256,192,163238,1,0,0:0:0:0:
256,192,163538,1,0,0:0:0:0:
256,192,163838,1,0,0:0:0:0:
256,192,164038,1,8,0:0:0:0:
256,192,164838,1,4,0:0:0:0:
256,192,165238,1,8,0:0:0:0:
256,192,165438,1,0,0:0:0:0:
256,192,165838,1,0,0:0:0:0:
256,192,166038,1,8,0:0:0:0:
256,192,166438,1,0,0:0:0:0:
256,192,166738,1,0,0:0:0:0:
256,192,167038,1,0,0:0:0:0:
256,192,167238,1,8,0:0:0:0:
256,192,167638,1,8,0:0:0:0:
256,192,168038,1,0,0:0:0:0:
256,192,168438,1,0,0:0:0:0:
256,192,168838,1,0,0:0:0:0:
256,192,169038,1,8,0:0:0:0:
256,192,169238,1,0,0:0:0:0:
256,192,169438,1,8,0:0:0:0:
256,192,169638,1,8,0:0:0:0:
256,192,169838,12,0,170838,0:0:0:0:
256,192,171238,5,4,0:0:0:0:
256,192,172038,1,0,0:0:0:0:
256,192,172238,1,0,0:0:0:0:
256,192,172438,1,8,0:0:0:0:
256,192,172838,1,0,0:0:0:0:
256,192,173238,1,0,0:0:0:0:
256,192,173638,1,8,0:0:0:0:
256,192,174438,1,0,0:0:0:0:
256,192,174838,1,8,0:0:0:0:
256,192,175238,1,0,0:0:0:0:
256,192,175438,1,0,0:0:0:0:
256,192,175638,1,8,0:0:0:0:
256,192,176038,1,0,0:0:0:0:
256,192,176438,1,8,0:0:0:0:
256,192,176838,1,8,0:0:0:0:
256,192,177638,1,0,0:0:0:0:
256,192,178038,1,8,0:0:0:0:
256,192,178438,1,0,0:0:0:0:
256,192,178638,1,8,0:0:0:0:
256,192,178838,1,0,0:0:0:0:
256,192,179238,1,0,0:0:0:0:
256,192,179638,1,0,0:0:0:0:
256,192,179838,1,0,0:0:0:0:
256,192,180038,1,8,0:0:0:0:
256,192,180438,1,8,0:0:0:0:
256,192,180838,1,0,0:0:0:0:
256,192,181238,1,8,0:0:0:0:
256,192,181638,1,0,0:0:0:0:
256,192,181838,1,0,0:0:0:0:
256,192,182038,1,8,0:0:0:0:
256,192,182438,1,8,0:0:0:0:
256,192,182638,1,0,0:0:0:0:
256,192,182838,1,8,0:0:0:0:
256,192,183038,1,0,0:0:0:0:
256,192,183238,1,8,0:0:0:0:
256,192,183638,1,8,0:0:0:0:
256,192,183838,1,0,0:0:0:0:
