osu file format v14

[General]
AudioFilename: audio.mp3
AudioLeadIn: 0
PreviewTime: 49395
Countdown: 0
SampleSet: Soft
StackLeniency: 0.7
Mode: 0
LetterboxInBreaks: 0
WidescreenStoryboard: 1

[Editor]
DistanceSpacing: 1
BeatDivisor: 4
GridSize: 32
TimelineZoom: 2.4

[Metadata]
Title:Magical Mixer
TitleUnicode:Magical Mixer
Artist:YUC'e
ArtistUnicode:YUC'e
Creator:Anishina Kodoku
Version:Reform's Normal
Source:
Tags:future bass yuc EijiKuinbii kjlfaklf loreley reform Kujinn yaspo
BeatmapID:1685780
BeatmapSetID:680338

[Difficulty]
HPDrainRate:4
CircleSize:3
OverallDifficulty:4
ApproachRate:5
SliderMultiplier:1.05
SliderTickRate:1

[Events]
//Background and Video events
0,0,"mixer.jpg",0,0
//Break Periods
//Storyboard Layer 0 (Background)
//Storyboard Layer 1 (Fail)
//Storyboard Layer 2 (Pass)
//Storyboard Layer 3 (Foreground)
//Storyboard Sound Samples

[TimingPoints]
1395,342.857142857143,4,2,4,50,1,0
2766,-100,4,2,4,58,0,0
4137,-100,4,2,4,66,0,0
5509,-100,4,2,4,74,0,0
6880,-100,4,2,4,82,0,0
8252,-100,4,2,4,91,0,0
9623,-100,4,2,4,100,0,0
12366,-100,4,2,4,80,0,0
12709,-100,4,2,4,5,0,0
12795,-100,4,2,4,80,0,0
13223,-100,4,2,4,5,0,0
13395,-100,4,2,4,80,0,0
13737,-100,4,2,4,5,0,0
13823,-100,4,2,4,80,0,0
14252,-100,4,2,4,5,0,0
14423,-100,4,2,4,80,0,0
14680,-100,4,2,4,5,0,0
14766,-100,4,2,4,80,0,0
15023,-100,4,2,4,5,0,0
15109,-100,4,2,4,80,0,0
38423,-100,4,2,4,70,0,0
38766,-100,4,2,4,62,0,0
39109,-100,4,2,4,54,0,0
39795,-100,4,2,4,90,0,0
48023,-100,4,2,4,95,0,0
48709,-100,4,2,4,100,0,0
49737,-100,4,2,4,80,0,0
50595,-100,4,2,4,90,0,0
50766,-100,4,2,4,100,0,1
71337,-100,4,2,4,92,0,0
71509,-100,4,2,4,5,0,0
71680,-100,4,2,4,84,0,0
71852,-100,4,2,4,5,0,0
72023,-100,4,2,4,76,0,0
72280,-100,4,2,4,5,0,0
72366,-100,4,2,4,80,0,0
72966,-100,4,2,4,20,0,0
73052,-100,4,2,4,90,0,0
73737,-100,4,2,4,90,0,0
78195,-100,4,2,4,30,0,0
78537,-100,4,2,4,90,0,0
82566,-100,4,2,4,5,0,0
82652,-100,4,2,4,80,0,0
83680,-100,4,2,4,90,0,0
86366,-100,4,2,4,15,0,0
86423,-100,4,2,4,90,0,0
89166,-100,4,2,4,85,0,0
90537,-100,4,2,4,92,0,0
91223,-100,4,2,4,100,0,0
91909,-100,4,2,4,92,0,0
94652,-100,4,2,4,84,0,0
96023,-100,4,2,4,77,0,0
97395,-100,4,2,5,70,0,0
106995,-100,4,2,5,60,0,0
108366,-100,4,2,4,80,0,0
118995,-100,4,2,4,70,0,0
119337,-100,4,2,4,90,0,0
127566,-100,4,2,4,95,0,0
128252,-100,4,2,4,100,0,0
128937,-100,4,2,4,80,0,0
130309,-100,4,2,4,100,0,1
150880,-100,4,2,4,92,0,0
151052,-100,4,2,4,5,0,0
151223,-100,4,2,4,64,0,0
151395,-100,4,2,4,5,0,0
151566,-100,4,2,4,56,0,0
151823,-100,4,2,4,5,0,0
151909,-100,4,2,4,80,0,0
152509,-100,4,2,4,20,0,0
152595,-100,4,2,4,90,0,0
156537,-100,4,2,4,5,0,0
156623,-100,4,2,4,90,0,0
157223,-100,4,2,4,5,0,0
157309,-100,4,2,4,90,0,0
162109,-100,4,2,4,5,0,0
162195,-100,4,2,4,90,0,0
165909,-100,4,2,4,20,0,0
165966,-100,4,2,4,90,0,0
168709,-100,4,2,4,85,0,0
170080,-100,4,2,4,92,0,0
170766,-100,4,2,4,100,0,0
171452,-100,4,2,4,92,0,0
174537,-100,4,2,4,84,0,0
175566,-100,4,2,4,76,0,0
176595,-100,4,2,4,68,0,0
177623,-100,4,2,4,60,0,0
180966,-100,4,2,4,5,0,0

[Colours]
Combo1 : 156,184,226
Combo2 : 247,164,192
Combo3 : 112,220,185
Combo4 : 250,131,131

[HitObjects]
46,284,1395,6,0,L|156:270,1,105,12|2,3:2|0:3,0:0:0:0:
192,301,1909,2,0,L|317:318,1,105,2|2,0:3|0:3,0:0:0:0:
439,250,2766,6,0,P|453:195|432:134,1,105,2|2,3:3|0:3,0:0:0:0:
392,130,3280,2,0,P|378:75|399:14,1,105,2|2,0:3|0:3,0:0:0:0:
244,91,4137,6,0,L|139:80,1,105,2|2,3:3|0:3,0:0:0:0:
89,95,4652,2,0,P|71:152|88:205,1,105,2|2,3:3|0:3,0:0:0:0:
225,260,5509,6,0,L|330:249,1,105,2|2,3:3|0:3,0:0:0:0:
380,264,6024,2,0,P|398:321|381:374,1,105,2|2,0:3|0:3,0:0:0:0:
256,192,6880,12,2,10995,3:3:0:0:
15,50,12023,5,2,0:0:0:0:
91,121,12366,6,0,P|148:123|169:30,1,157.5,4|4,3:2|3:2,0:0:0:0:
333,42,13395,2,0,P|345:115|418:124,1,157.5,4|4,3:2|3:2,0:0:0:0:
304,233,14423,2,0,L|176:233,1,105,4|4,3:2|3:2,0:0:0:0:
256,192,15109,12,8,16480,0:0:0:0:
207,128,17852,5,4,3:2:0:0:
300,80,18195,2,0,P|396:92|422:95,1,105,2|8,0:1|0:0,0:0:0:0:
449,119,18709,2,0,L|526:113,1,52.5,0|2,3:0|0:1,0:0:0:0:
496,219,19223,1,0,3:0:0:0:
393,241,19566,2,0,P|349:231|292:259,1,105,2|8,0:1|0:0,0:0:0:0:
262,294,20080,2,0,P|226:286|203:267,1,52.5,0|2,3:0|0:1,0:0:0:0:
154,190,20595,6,0,P|133:154|144:80,1,105,0|2,3:0|0:1,0:0:0:0:
178,59,21109,2,0,P|219:58|278:105,1,105,8|0,0:0|3:0,0:0:0:0:
307,130,21623,2,0,L|380:124,1,52.5,2|0,0:1|0:0,0:0:0:0:
411,131,21966,2,0,P|434:193|424:235,1,105,0|2,3:0|0:1,0:0:0:0:
356,308,22652,2,0,L|285:295,1,52.5,10|2,2:2|3:2,0:0:0:0:
251,301,22995,2,0,L|176:316,1,52.5,10|2,2:2|2:2,0:0:0:0:
148,322,23337,5,4,3:2:0:0:
54,274,23680,2,0,P|39:233|50:167,1,105,2|8,0:1|0:0,0:0:0:0:
80,132,24195,2,0,P|84:106|82:80,1,52.5,0|2,3:0|0:1,0:0:0:0:
168,20,24709,1,4,3:2:0:0:
236,99,25052,2,0,P|288:110|344:88,1,105,2|8,0:1|0:0,0:0:0:0:
379,64,25566,2,0,P|415:55|448:60,1,52.5,0|2,3:0|0:1,0:0:0:0:
502,131,26080,6,0,P|523:180|504:241,1,105,4|2,3:2|0:1,0:0:0:0:
422,284,26766,2,0,P|382:282|330:230,1,105,8|2,3:2|0:1,0:0:0:0:
246,182,27452,2,0,L|173:193,1,52.5,4|0,3:2|0:0,0:0:0:0:
141,192,27795,2,0,L|68:181,1,52.5,2|2,3:1|0:3,0:0:0:0:
37,177,28137,1,2,0:3:0:0:
218,70,28823,5,4,3:2:0:0:
301,134,29166,2,0,L|291:244,1,105,8|0,0:1|0:3,0:0:0:0:
269,286,29680,2,0,L|273:356,1,52.5,0|8,3:0|0:1,0:0:0:0:
175,381,30195,5,8,3:2:0:0:
87,322,30537,2,0,P|71:270|91:214,1,105,8|0,0:1|0:0,0:0:0:0:
114,178,31052,2,0,P|119:146|107:106,1,52.5,0|8,3:0|0:1,0:0:0:0:
15,95,31566,5,8,3:2:0:0:
93,25,31909,2,0,P|147:20|205:57,1,105,8|8,0:1|0:0,0:0:0:0:
217,87,32423,2,0,P|255:101|275:100,1,52.5,0|8,3:0|0:1,0:0:0:0:
362,59,32937,2,0,P|416:49|477:76,1,105,8|8,3:2|0:1,0:0:0:0:
490,109,33452,2,0,P|471:160|417:200,1,105,8|2,3:2|3:2,0:0:0:0:
383,209,33966,2,0,P|350:203|314:181,1,52.5,8|10,2:1|0:2,0:0:0:0:
289,164,34309,5,4,3:2:0:0:
203,103,34652,2,0,P|141:96|91:126,1,105,8|0,0:1|0:0,0:0:0:0:
72,156,35166,2,0,P|41:159|15:151,1,52.5,0|8,3:0|0:1,0:0:0:0:
5,257,35680,1,8,3:2:0:0:
100,301,36023,2,0,L|204:291,1,105,8|0,0:1|0:0,0:0:0:0:
256,296,36537,2,0,L|327:307,1,52.5,0|8,3:3|0:1,0:0:0:0:
412,311,37052,6,0,P|458:301|497:240,1,105,8|8,0:1|0:1,0:0:0:0:
493,152,37737,2,0,P|461:117|389:113,1,105,8|8,0:1|0:1,0:0:0:0:
319,168,38423,6,0,L|329:277,1,105,2|2,0:3|0:3,0:0:0:0:
241,331,39109,2,0,P|181:340|127:312,1,105,2|2,0:3|0:3,0:0:0:0:
59,258,39795,6,0,P|42:309|54:370,2,105,8|8|8,2:1|0:1|0:1,0:0:0:0:
143,196,40823,1,8,0:1:0:0:
247,181,41166,2,0,P|295:200|329:240,2,105,8|8|8,0:1|0:1|0:1,0:0:0:0:
143,196,42195,1,8,0:1:0:0:
70,120,42537,6,0,P|53:69|65:8,2,105,8|8|8,0:1|0:1|0:1,0:0:0:0:
143,196,43566,1,8,0:1:0:0:
247,181,43909,2,0,P|295:161|329:121,2,105,8|8|8,0:1|0:1|0:0,0:0:0:0:
143,196,44937,1,4,3:2:0:0:
59,132,45280,6,0,P|48:89|64:36,2,78.75,10|2|2,0:1|0:3|0:3,0:0:0:0:
71,183,45966,2,0,P|82:226|66:279,2,78.75,10|2|2,0:1|0:3|0:3,0:0:0:0:
95,136,46652,2,0,P|132:125|202:149,1,105,10|8,0:1|0:1,0:0:0:0:
239,169,47166,1,2,0:3:0:0:
239,169,47337,2,0,P|276:180|334:164,2,78.75,10|2|0,0:1|0:3|0:0,0:0:0:0:
256,192,48023,12,10,49395,0:3:0:0:
235,361,50766,6,0,P|292:378|346:352,1,105,4|0,3:2|3:0,0:0:0:0:
389,274,51452,2,0,P|375:216|325:182,1,105,4|0,0:3|3:0,0:0:0:0:
246,143,52137,1,2,3:2:0:0:
149,185,52480,2,0,P|137:135|165:68,2,105,2|4|0,2:3|0:3|3:0,0:0:0:0:
202,275,53509,6,0,L|191:362,2,78.75,2|0|0,3:2|3:0|3:0,0:0:0:0:
234,233,54195,2,0,L|226:148,2,78.75,8|0|0,3:1|3:0|3:0,0:0:0:0:
265,274,54880,2,0,P|313:291|364:281,1,105,2|0,3:2|0:0,0:0:0:0:
386,233,55395,1,0,3:0:0:0:
386,233,55566,2,0,P|372:191|398:127,1,105,8|10,3:1|0:0,0:0:0:0:
474,71,56252,5,0,3:0:0:0:
390,135,56595,2,0,P|342:118|318:73,1,105,4|4,3:2|0:3,0:0:0:0:
214,52,57280,2,0,P|166:69|142:114,1,105,0|0,3:0|3:0,0:0:0:0:
177,213,57966,2,0,P|224:239|280:232,2,105,2|4|0,0:3|0:3|3:0,0:0:0:0:
238,127,58995,6,0,L|229:33,2,78.75,2|0|0,3:2|3:0|3:0,0:0:0:0:
281,156,59680,2,0,L|272:250,2,78.75,8|0|0,3:1|3:0|3:0,0:0:0:0:
328,133,60366,2,0,P|366:125|432:149,1,105,2|2,3:2|3:0,0:0:0:0:
471,240,61052,2,0,P|433:248|367:224,1,105,2|2,3:0|3:0,0:0:0:0:
274,188,61737,5,4,3:2:0:0:
265,292,62080,1,4,3:3:0:0:
345,359,62423,2,0,P|395:362|445:334,1,105,8|4,3:2|0:3,0:0:0:0:
452,285,62937,1,0,3:0:0:0:
452,285,63109,2,0,P|429:240|380:210,1,105,0|4,3:0|3:3,0:0:0:0:
284,178,63795,2,0,L|174:192,1,105,8|4,3:2|0:3,0:0:0:0:
129,206,64309,1,0,3:0:0:0:
129,206,64480,6,0,P|113:260|134:311,1,105,0|4,3:0|3:3,0:0:0:0:
209,371,65166,1,0,3:0:0:0:
295,311,65509,2,0,P|344:308|363:317,1,52.5,4|0,0:3|3:0,0:0:0:0:
391,335,65852,2,0,P|436:358|507:335,1,105,0|4,3:0|3:3,0:0:0:0:
446,252,66537,2,0,L|432:139,1,105,0|2,3:0|2:3,0:0:0:0:
344,90,67223,6,0,P|289:105|225:77,1,105,4|4,3:2|3:3,0:0:0:0:
151,41,67909,2,0,P|96:26|32:54,1,105,8|4,3:2|0:3,0:0:0:0:
20,81,68423,1,0,3:0:0:0:
20,81,68595,2,0,L|28:188,1,105,0|4,3:0|3:3,0:0:0:0:
116,242,69280,2,0,P|156:254|218:229,1,105,8|4,3:2|0:3,0:0:0:0:
261,209,69795,1,0,3:0:0:0:
261,209,69966,2,0,P|301:197|363:222,1,105,0|4,3:0|3:3,0:0:0:0:
435,290,70652,2,0,P|426:335|443:374,2,78.75,0|0|0,3:0|0:0|3:0,0:0:0:0:
466,247,71337,6,0,P|477:203|454:128,1,105,4|4,3:3|3:3,0:0:0:0:
395,66,72023,1,4,3:3:0:0:
290,52,72366,2,0,L|218:44,2,52.5,10|10|0,0:0|0:0|2:0,0:0:0:0:
308,158,73052,6,0,P|247:166|202:146,1,105,8|8,3:1|3:1,0:0:0:0:
123,87,73737,2,0,P|73:69|22:79,1,105,8|8,3:1|3:1,0:0:0:0:
67,174,74423,2,0,P|76:225|110:264,1,105,8|8,3:1|3:1,0:0:0:0:
215,268,75109,2,0,P|248:228|258:177,1,105,8|8,3:1|3:1,0:0:0:0:
340,111,75795,6,0,L|455:102,1,105,8|8,3:1|3:1,0:0:0:0:
444,207,76480,2,0,L|329:198,1,105,8|8,3:1|3:1,0:0:0:0:
248,251,77166,2,0,P|239:291|255:358,1,105,8|8,3:1|3:1,0:0:0:0:
343,300,77852,2,0,P|352:260|336:193,1,105,8|0,3:1|0:0,0:0:0:0:
236,219,78537,6,0,P|195:223|141:180,1,105,8|8,3:1|0:1,0:0:0:0:
131,136,79052,1,8,3:2:0:0:
279,83,79566,2,0,P|297:135|281:190,1,105,8|8,3:1|0:1,0:0:0:0:
269,231,80080,2,0,P|250:283|266:338,1,105,8|8,3:2|0:1,0:0:0:0:
289,375,80595,1,8,3:2:0:0:
382,327,80937,6,0,L|398:207,1,105,8|8,3:1|0:1,0:0:0:0:
396,169,81452,2,0,P|348:148|287:159,1,105,8|8,3:2|0:2,0:0:0:0:
250,178,81966,1,2,0:3:0:0:
155,131,82309,1,0,0:1:0:0:
215,45,82652,2,0,P|255:43|284:56,1,52.5,2|0,0:1|0:0,0:0:0:0:
312,71,82995,2,0,P|338:68|363:75,1,52.5,2|0,0:1|0:3,0:0:0:0:
404,105,83337,2,0,P|409:139|377:212,1,105,0|2,3:0|3:2,0:0:0:0:
303,270,84023,6,0,P|258:280|196:255,1,105,4|8,3:3|3:0,0:0:0:0:
141,176,84709,2,0,P|186:166|248:191,1,105,4|8,3:3|3:0,0:0:0:0:
339,148,85395,2,0,P|379:115|396:66,1,105,4|8,3:3|3:0,0:0:0:0:
313,1,86080,1,4,3:3:0:0:
222,54,86423,6,0,L|106:40,1,105,8|4,3:0|3:3,0:0:0:0:
38,110,87109,2,0,P|19:163|31:226,1,105,8|4,3:0|3:3,0:0:0:0:
106,276,87795,2,0,P|161:265|209:224,1,105,8|4,3:0|3:3,0:0:0:0:
231,136,88480,2,0,P|194:93|134:71,1,105,8|0,3:0|1:3,0:0:0:0:
256,192,89166,12,10,90537,2:1:0:0:
93,237,91909,6,0,P|138:240|172:346,1,157.5,4|8,3:2|3:2,0:0:0:0:
336,334,92937,2,0,P|350:260|421:238,1,157.5,8|8,3:2|3:2,0:0:0:0:
309,127,93966,2,0,P|256:142|199:111,1,105,8|0,3:2|3:0,0:0:0:0:
256,192,94652,12,2,96023,3:2:0:0:
222,318,97395,6,0,P|154:305|108:331,1,105,2|0,3:2|0:0,0:0:0:0:
25,279,98080,2,0,P|8:232|21:175,1,105,10|0,0:0|0:0,0:0:0:0:
45,133,98595,1,0,0:0:0:0:
45,133,98766,2,0,L|112:138,1,52.5,2|0,0:0|0:0,0:0:0:0:
188,189,99280,2,0,L|308:178,1,105,0|0,0:0|0:0,0:0:0:0:
362,100,99966,1,0,0:0:0:0:
362,100,100137,6,0,P|312:84|261:94,1,105,2|2,0:0|0:0,0:0:0:0:
210,108,100652,2,0,P|167:123|98:103,1,105,0|0,0:0|0:0,0:0:0:0:
64,85,101166,2,0,L|60:158,1,52.5,0|0,0:0|0:0,0:0:0:0:
60,190,101509,6,0,L|73:312,1,105,2|0,0:0|0:0,0:0:0:0:
159,351,102195,2,0,P|213:370|264:347,1,105,10|2,2:2|2:0,0:0:0:0:
334,284,102880,6,0,L|460:298,1,105,2|2,0:0|0:0,0:0:0:0:
487,202,103566,2,0,P|497:158|471:100,1,105,8|0,0:0|0:0,0:0:0:0:
434,70,104080,1,0,0:0:0:0:
434,70,104252,2,0,L|358:70,1,52.5,2|0,0:0|0:0,0:0:0:0:
297,132,104766,2,0,L|177:131,1,105,0|0,0:0|0:0,0:0:0:0:
120,208,105452,1,0,0:0:0:0:
120,208,105623,6,0,P|106:261|136:320,1,105,2|2,0:0|0:0,0:0:0:0:
169,331,106137,2,0,P|222:315|257:261,1,105,0|0,0:0|0:0,0:0:0:0:
277,230,106652,2,0,L|344:237,1,52.5,0|0,0:0|0:0,0:0:0:0:
381,236,106995,6,0,P|399:178|375:118,1,105,2|2,0:0|0:0,0:0:0:0:
304,72,107680,2,0,L|296:10,2,52.5,2|2|2,2:2|2:2|2:2,0:0:0:0:
310,177,108366,5,4,3:2:0:0:
229,110,108709,2,0,P|186:96|121:114,1,105,8|0,0:1|0:0,0:0:0:0:
84,136,109223,2,0,P|48:140|16:130,1,52.5,0|8,3:0|0:1,0:0:0:0:
3,237,109737,1,8,3:2:0:0:
92,292,110080,2,0,B|147:308|147:308|212:284,1,105,8|0,0:1|0:0,0:0:0:0:
234,260,110595,2,0,L|295:267,1,52.5,0|8,3:0|0:1,0:0:0:0:
367,332,111109,5,8,3:2:0:0:
441,257,111452,2,0,L|448:146,1,105,8|8,0:1|0:2,0:0:0:0:
432,101,111966,2,0,L|427:35,1,52.5,0|8,3:0|0:1,0:0:0:0:
322,49,112480,2,0,P|275:64|214:40,1,105,8|8,3:2|0:1,0:0:0:0:
175,26,112995,2,0,P|128:11|67:35,1,105,8|2,3:2|3:2,0:0:0:0:
36,61,113509,1,8,2:1:0:0:
3,160,113852,5,12,3:2:0:0:
87,218,114195,2,0,L|199:209,1,105,8|0,0:1|0:0,0:0:0:0:
242,196,114709,2,0,L|308:203,1,52.5,0|8,3:0|0:1,0:0:0:0:
367,277,115223,1,8,3:2:0:0:
445,206,115566,2,0,P|458:158|440:98,1,105,8|0,0:1|0:0,0:0:0:0:
411,64,116080,2,0,P|369:60|338:73,1,52.5,0|8,3:0|0:1,0:0:0:0:
263,104,116595,6,0,L|149:93,1,105,8|8,0:1|0:1,0:0:0:0:
92,175,117280,2,0,L|139:279,1,105,8|8,0:1|0:1,0:0:0:0:
240,280,117966,2,0,L|306:186,2,105,2|2|2,0:3|0:3|0:3,0:0:0:0:
173,361,118995,1,8,0:2:0:0:
82,308,119337,6,0,P|59:271|53:192,1,105,8|8,0:1|0:1,0:0:0:0:
109,124,120023,2,0,P|152:122|223:156,1,105,8|8,0:1|0:1,0:0:0:0:
297,201,120709,2,0,P|344:221|397:221,1,105,8|8,0:1|0:1,0:0:0:0:
472,146,121395,2,0,P|465:94|439:49,1,105,8|8,0:1|0:1,0:0:0:0:
336,28,122080,6,0,L|209:43,1,105,8|8,0:1|0:1,0:0:0:0:
126,43,122766,2,0,L|21:30,1,105,8|8,0:1|0:1,0:0:0:0:
45,132,123452,2,0,L|172:147,1,105,8|8,0:1|0:1,0:0:0:0:
254,146,124138,2,0,L|358:133,1,105,8|4,0:0|3:2,0:0:0:0:
462,121,124823,6,0,P|454:76|466:30,2,78.75,10|2|2,0:1|0:3|0:3,0:0:0:0:
473,172,125509,2,0,P|481:217|469:263,2,78.75,10|2|2,0:1|0:3|0:3,0:0:0:0:
423,153,126195,2,0,P|377:140|315:156,1,105,10|8,0:1|0:1,0:0:0:0:
271,167,126709,1,2,0:3:0:0:
271,167,126880,2,0,P|232:170|194:157,2,78.75,10|2|2,0:1|0:3|0:3,0:0:0:0:
256,192,127566,12,8,128937,0:3:0:0:
263,321,130309,6,0,P|224:330|161:304,1,105,4|0,3:2|3:0,0:0:0:0:
128,208,130995,2,0,P|139:169|193:128,1,105,4|0,0:3|3:0,0:0:0:0:
293,121,131680,1,0,3:0:0:0:
388,165,132023,2,0,P|400:118|376:54,2,105,2|4|0,0:3|0:3|3:0,0:0:0:0:
317,243,133052,2,0,L|329:346,2,78.75,0|0|0,3:0|3:0|3:0,0:0:0:0:
289,198,133737,2,0,L|301:95,2,78.75,8|0|0,3:1|3:0|3:0,0:0:0:0:
255,238,134423,2,0,P|205:255|148:234,1,105,0|0,3:0|0:0,0:0:0:0:
115,207,134937,1,0,3:0:0:0:
115,207,135109,2,0,P|130:158|105:86,1,105,8|10,3:1|0:0,0:0:0:0:
31,47,135795,5,0,3:0:0:0:
118,106,136137,2,0,P|163:111|218:69,1,105,4|4,3:2|0:3,0:0:0:0:
303,28,136823,2,0,L|416:38,1,105,0|0,3:0|3:0,0:0:0:0:
484,113,137509,2,0,P|496:159|474:225,2,105,2|4|0,0:3|0:3|3:0,0:0:0:0:
391,163,138537,6,0,L|377:71,2,78.75,0|0|0,3:0|3:0|3:0,0:0:0:0:
397,215,139223,2,0,L|385:292,2,78.75,8|0|0,3:1|3:0|3:0,0:0:0:0:
365,172,139909,2,0,P|329:157|263:174,1,105,0|2,3:0|3:3,0:0:0:0:
190,243,140595,2,0,P|154:258|88:241,1,105,2|2,3:3|3:3,0:0:0:0:
25,161,141280,6,0,L|35:33,1,105,4|4,3:2|3:3,0:0:0:0:
134,86,141966,2,0,B|192:102|192:102|252:83,1,105,8|4,3:2|0:3,0:0:0:0:
284,69,142480,1,0,3:0:0:0:
284,69,142652,2,0,B|339:54|339:54|400:73,1,105,0|4,3:0|3:3,0:0:0:0:
462,139,143337,2,0,P|475:194|450:252,1,105,8|4,3:2|0:3,0:0:0:0:
428,281,143852,1,0,3:0:0:0:
428,281,144023,6,0,L|304:271,1,105,0|4,3:0|3:3,0:0:0:0:
218,278,144709,2,0,P|210:325|226:371,2,78.75,0|0|0,3:0|3:0|3:0,0:0:0:0:
239,229,145395,2,0,P|250:173|224:115,1,105,0|4,3:0|3:3,0:0:0:0:
129,127,146080,2,0,P|118:183|144:241,1,105,0|2,3:0|0:3,0:0:0:0:
239,229,146766,6,0,L|362:219,1,105,4|4,3:2|3:3,0:0:0:0:
405,135,147452,2,0,L|282:125,1,105,8|4,3:2|0:3,0:0:0:0:
251,106,147966,1,0,3:0:0:0:
251,106,148137,2,0,P|201:116|144:97,1,105,0|4,3:0|3:3,0:0:0:0:
66,36,148823,2,0,P|47:83|62:144,1,105,8|4,3:2|0:3,0:0:0:0:
80,181,149337,1,0,3:0:0:0:
80,181,149509,6,0,L|74:288,1,105,0|4,3:0|3:3,0:0:0:0:
153,355,150195,2,0,P|202:367|250:351,2,78.75,0|0|0,3:0|0:0|3:0,0:0:0:0:
108,327,150880,6,0,P|72:313|-1:327,2,105,4|4|0,3:3|3:3|3:3,0:0:0:0:
193,265,151909,2,0,L|188:202,2,52.5,10|10|0,0:0|0:0|0:0,0:0:0:0:
425,348,153623,6,0,P|440:302|415:231,1,105,4|8,3:2|3:1,0:0:0:0:
368,160,154309,2,0,P|355:109|370:60,1,105,8|8,3:1|3:1,0:0:0:0:
273,17,154995,2,0,L|156:7,1,105,8|8,3:1|3:1,0:0:0:0:
74,55,155680,2,0,B|59:108|59:108|84:161,1,105,8|8,3:1|3:1,0:0:0:0:
149,232,156366,6,0,L|260:241,1,105,8|8,3:1|3:1,0:0:0:0:
299,266,156880,1,8,0:1:0:0:
299,266,157052,2,0,L|413:263,1,105,8|8,3:1|3:1,0:0:0:0:
477,188,157737,1,0,0:0:0:0:
408,108,158080,6,0,P|354:90|293:114,1,105,4|8,3:2|0:1,0:0:0:0:
264,131,158595,1,8,3:2:0:0:
129,212,159109,2,0,P|78:223|30:206,1,105,8|8,3:1|0:1,0:0:0:0:
10,157,159623,2,0,P|24:107|64:74,1,105,8|8,3:2|0:1,0:0:0:0:
115,59,160137,1,8,3:2:0:0:
193,128,160480,6,0,L|182:256,1,105,8|8,3:1|0:1,0:0:0:0:
210,278,160995,2,0,P|254:297|320:274,1,105,8|8,3:2|0:2,0:0:0:0:
354,260,161509,1,2,0:3:0:0:
325,158,161852,2,0,P|281:139|215:162,1,105,2|2,3:1|0:1,0:0:0:0:
182,179,162366,1,2,0:1:0:0:
182,179,162537,2,0,L|111:173,2,52.5,2|2|2,0:1|0:3|3:0,0:0:0:0:
268,238,163223,5,2,0:0:0:0:
355,295,163566,2,0,P|409:295|460:246,1,105,4|8,3:3|3:0,0:0:0:0:
470,162,164252,2,0,P|443:115|375:95,1,105,4|8,3:3|3:0,0:0:0:0:
298,128,164937,2,0,P|271:174|287:243,1,105,4|8,3:3|3:0,0:0:0:0:
207,304,165623,1,4,3:3:0:0:
105,278,165966,6,0,L|96:158,1,105,8|4,3:0|3:3,0:0:0:0:
154,84,166652,2,0,P|207:69|266:89,1,105,8|4,3:0|3:3,0:0:0:0:
336,146,167337,2,0,P|389:161|448:141,2,105,8|4|8,3:0|3:3|3:0,0:0:0:0:
254,81,168366,1,0,1:0:0:0:
256,192,168709,12,10,170080,0:1:0:0:
76,276,171452,6,0,P|106:306|181:311,1,105,4|8,3:2|0:0,0:0:0:0:
214,294,171966,2,0,P|265:299|303:333,1,105,8|8,3:2|0:0,0:0:0:0:
356,339,172480,2,0,L|345:223,1,105,8|8,3:2|0:0,0:0:0:0:
348,181,172995,2,0,L|359:65,1,105,8|8,3:2|0:0,0:0:0:0:
309,55,173509,6,0,P|265:70|197:39,1,105,8|8,3:2|2:0,0:0:0:0:
160,36,174023,2,0,P|121:23|57:48,1,105,8|8,3:2|0:0,0:0:0:0:
40,90,174537,2,0,P|44:123|100:171,1,105,8|8,3:2|0:0,0:0:0:0:
147,162,175052,2,0,P|173:142|187:69,1,105,8|8,3:2|0:0,0:0:0:0:
233,47,175566,6,0,B|309:20|316:85|401:44,2,157.5,8|8|8,3:2|3:2|3:2,0:0:0:0:
150,181,177109,2,0,P|171:234|281:258,1,157.5,8|2,3:2|0:0,0:0:0:0:
260,264,178309,5,0,3:0:0:0:
256,192,178395,12,0,183537,0:0:0:0:
