osu file format v14

[General]
AudioFilename: audio.mp3
AudioLeadIn: 0
PreviewTime: 49395
Countdown: 0
SampleSet: Soft
StackLeniency: 0.2
Mode: 0
LetterboxInBreaks: 0
WidescreenStoryboard: 1

[Editor]
DistanceSpacing: 0.7
BeatDivisor: 4
GridSize: 8
TimelineZoom: 3.899998

[Metadata]
Title:Magical Mixer
TitleUnicode:Magical Mixer
Artist:YUC'e
ArtistUnicode:YUC'e
Creator:Anishina Kodoku
Version:Eiji's Extra
Source:
Tags:future bass yuc EijiKuinbii kjlfaklf loreley reform Kujinn yaspo
BeatmapID:1468581
BeatmapSetID:680338

[Difficulty]
HPDrainRate:6
CircleSize:4
OverallDifficulty:8
ApproachRate:9.4
SliderMultiplier:2.19
SliderTickRate:1

[Events]
//Background and Video events
0,0,"mixer.jpg",0,0
//Break Periods
//Storyboard Layer 0 (Background)
//Storyboard Layer 1 (Fail)
//Storyboard Layer 2 (Pass)
//Storyboard Layer 3 (Foreground)
//Storyboard Sound Samples

[TimingPoints]
1395,342.857142857143,4,2,4,50,1,0
2766,-100,4,2,4,58,0,0
4137,-100,4,2,4,66,0,0
5509,-100,4,2,4,74,0,0
6880,-100,4,2,4,82,0,0
8252,-100,4,2,4,91,0,0
9623,-100,4,2,4,100,0,0
10995,-100,4,2,4,100,0,0
12023,-66.6666666666667,4,2,4,100,0,0
12280,-66.6666666666667,4,2,4,5,0,0
12366,-100,4,2,4,80,0,0
12795,-100,4,2,4,5,0,0
12880,-100,4,2,4,80,0,0
13309,-100,4,2,4,5,0,0
13395,-100,4,2,4,80,0,0
13823,-100,4,2,4,5,0,0
13909,-100,4,2,4,80,0,0
14337,-100,4,2,4,5,0,0
14423,-100,4,2,4,80,0,0
14680,-100,4,2,4,5,0,0
14766,-100,4,2,4,80,0,0
15023,-100,4,2,4,5,0,0
15109,-100,4,2,4,60,0,0
28823,-90.9090909090909,4,2,4,80,0,0
34309,-66.6666666666667,4,2,4,80,0,0
34652,-90.9090909090909,4,2,4,80,0,0
38423,-90.9090909090909,4,2,4,70,0,0
38766,-90.9090909090909,4,2,4,62,0,0
39109,-90.9090909090909,4,2,4,54,0,0
39795,-66.6666666666667,4,2,4,90,0,0
44595,-200,4,2,4,90,0,0
45280,-66.6666666666667,4,2,4,90,0,0
45623,-200,4,2,4,90,0,0
45966,-66.6666666666667,4,2,4,90,0,0
46480,-200,4,2,4,90,0,0
46652,-66.6666666666667,4,2,4,90,0,0
47166,-200,4,2,4,90,0,0
47337,-66.6666666666667,4,2,4,90,0,0
47852,-200,4,2,4,90,0,0
48023,-100,4,2,4,95,0,0
48709,-100,4,2,4,100,0,0
49737,-100,4,2,4,80,0,0
50423,-200,4,2,4,80,0,0
50680,-200,4,2,4,5,0,0
50766,-66.6666666666667,4,2,4,100,0,0
51023,-66.6666666666667,4,2,4,20,0,0
51109,-50,4,2,4,100,0,0
51366,-50,4,2,4,20,0,0
51452,-50,4,2,4,100,0,0
51795,-83.3333333333333,4,2,4,100,0,0
52052,-83.3333333333333,4,2,4,20,0,0
52137,-66.6666666666667,4,2,4,100,0,0
52395,-66.6666666666667,4,2,4,20,0,0
52480,-66.6666666666667,4,2,4,100,0,0
53166,-133.333333333333,4,2,4,100,0,0
53423,-133.333333333333,4,2,4,20,0,0
53509,-66.6666666666667,4,2,4,100,0,0
53680,-66.6666666666667,4,2,4,5,0,0
53766,-66.6666666666667,4,2,4,100,0,0
53937,-66.6666666666667,4,2,4,5,0,0
54023,-133.333333333333,4,2,4,100,0,0
54109,-133.333333333333,4,2,4,5,0,0
54195,-66.6666666666667,4,2,4,100,0,0
54709,-133.333333333333,4,2,4,100,0,0
54880,-66.6666666666667,4,2,4,100,0,0
55052,-66.6666666666667,4,2,4,5,0,0
55137,-66.6666666666667,4,2,4,100,0,0
55309,-66.6666666666667,4,2,4,5,0,0
55395,-133.333333333333,4,2,4,100,0,0
55480,-133.333333333333,4,2,4,5,0,0
55566,-133.333333333333,4,2,4,100,0,0
55823,-133.333333333333,4,2,4,20,0,0
55909,-133.333333333333,4,2,4,100,0,0
56252,-200,4,2,4,100,0,0
56509,-200,4,2,4,20,0,0
56595,-66.6666666666667,4,2,4,100,0,0
56852,-66.6666666666667,4,2,4,20,0,0
56937,-66.6666666666667,4,2,4,100,0,0
57537,-66.6666666666667,4,2,4,20,0,0
57623,-50,4,2,4,100,0,0
57880,-50,4,2,4,20,0,0
57966,-50,4,2,4,100,0,0
58652,-133.333333333333,4,2,4,100,0,0
58909,-133.333333333333,4,2,4,20,0,0
58995,-66.6666666666667,4,2,4,100,0,0
59166,-66.6666666666667,4,2,4,5,0,0
59252,-66.6666666666667,4,2,4,100,0,0
59423,-66.6666666666667,4,2,4,5,0,0
59509,-200,4,2,4,100,0,0
59595,-200,4,2,4,5,0,0
59680,-66.6666666666667,4,2,4,100,0,0
59852,-66.6666666666667,4,2,4,5,0,0
59937,-66.6666666666667,4,2,4,100,0,0
60109,-66.6666666666667,4,2,4,5,0,0
60195,-200,4,2,4,100,0,0
60280,-200,4,2,4,5,0,0
60366,-66.6666666666667,4,2,4,100,0,0
61395,-133.333333333333,4,2,4,100,0,0
61652,-133.333333333333,4,2,4,20,0,0
61737,-66.6666666666667,4,2,4,100,0,0
61995,-66.6666666666667,4,2,4,20,0,0
62080,-50,4,2,4,100,0,0
62337,-50,4,2,4,20,0,0
62423,-66.6666666666667,4,2,4,100,0,0
63366,-66.6666666666667,4,2,4,20,0,0
63452,-50,4,2,4,100,0,0
63709,-50,4,2,4,20,0,0
63795,-66.6666666666667,4,2,4,100,0,0
64737,-66.6666666666667,4,2,4,20,0,0
64823,-50,4,2,4,100,0,0
65080,-50,4,2,4,20,0,0
65166,-66.6666666666667,4,2,4,100,0,0
65852,-71.4285714285714,4,2,4,100,0,0
66109,-71.4285714285714,4,2,4,20,0,0
66195,-83.3333333333333,4,2,4,100,0,0
66452,-83.3333333333333,4,2,4,20,0,0
66537,-100,4,2,4,100,0,0
66795,-100,4,2,4,20,0,0
66880,-100,4,2,4,100,0,0
67223,-66.6666666666667,4,2,4,100,0,0
67480,-66.6666666666667,4,2,4,20,0,0
67566,-50,4,2,4,100,0,0
67823,-50,4,2,4,20,0,0
67909,-50,4,2,4,100,0,0
68252,-66.6666666666667,4,2,4,100,0,0
68852,-66.6666666666667,4,2,4,20,0,0
68937,-50,4,2,4,100,0,0
69623,-66.6666666666667,4,2,4,100,0,0
70223,-66.6666666666667,4,2,4,20,0,0
70309,-50,4,2,4,100,0,0
70566,-50,4,2,4,20,0,0
70652,-66.6666666666667,4,2,4,100,0,0
70995,-66.6666666666667,4,2,4,100,0,0
71337,-66.6666666666667,4,2,4,92,0,0
71509,-66.6666666666667,4,2,4,5,0,0
71680,-66.6666666666667,4,2,4,84,0,0
71852,-66.6666666666667,4,2,4,5,0,0
72023,-200,4,2,4,76,0,0
72280,-200,4,2,4,5,0,0
72366,-200,4,2,4,80,0,0
72709,-66.6666666666667,4,2,4,80,0,0
72966,-66.6666666666667,4,2,4,20,0,0
73052,-66.6666666666667,4,2,4,100,0,0
73737,-66.6666666666667,4,2,4,100,0,0
78195,-66.6666666666667,4,2,4,30,0,0
78537,-66.6666666666667,4,2,4,100,0,0
82309,-66.6666666666667,4,2,4,80,0,0
82566,-66.6666666666667,4,2,4,5,0,0
82652,-76.9230769230769,4,2,4,80,0,0
82823,-90.9090909090909,4,2,4,80,0,0
82995,-111.111111111111,4,2,4,80,0,0
83337,-200,4,2,4,80,0,0
83680,-200,4,2,4,60,0,0
84023,-83.3333333333333,4,2,4,90,0,0
84080,-83.3333333333333,4,2,4,90,0,0
84137,-83.3333333333333,4,2,4,90,0,0
84423,-83.3333333333333,4,2,4,90,0,0
84480,-83.3333333333333,4,2,4,90,0,0
84766,-83.3333333333333,4,2,4,90,0,0
84823,-83.3333333333333,4,2,4,90,0,0
85109,-83.3333333333333,4,2,4,90,0,0
85166,-83.3333333333333,4,2,4,90,0,0
85452,-83.3333333333333,4,2,4,90,0,0
85509,-83.3333333333333,4,2,4,90,0,0
85795,-83.3333333333333,4,2,4,90,0,0
85852,-83.3333333333333,4,2,4,90,0,0
86080,-133.333333333333,4,2,4,90,0,0
86366,-133.333333333333,4,2,4,15,0,0
86423,-83.3333333333333,4,2,4,90,0,0
86480,-83.3333333333333,4,2,4,90,0,0
86537,-83.3333333333333,4,2,4,90,0,0
86823,-83.3333333333333,4,2,4,90,0,0
86880,-83.3333333333333,4,2,4,90,0,0
87166,-83.3333333333333,4,2,4,90,0,0
87223,-83.3333333333333,4,2,4,90,0,0
87509,-83.3333333333333,4,2,4,90,0,0
87566,-83.3333333333333,4,2,4,90,0,0
87852,-83.3333333333333,4,2,4,90,0,0
87909,-83.3333333333333,4,2,4,90,0,0
88195,-83.3333333333333,4,2,4,90,0,0
88252,-83.3333333333333,4,2,4,90,0,0
88537,-83.3333333333333,4,2,4,90,0,0
88595,-83.3333333333333,4,2,4,90,0,0
89166,-83.3333333333333,4,2,4,85,0,0
89852,-76.9230769230769,4,2,4,85,0,0
90537,-71.4285714285714,4,2,4,92,0,0
91223,-66.6666666666667,4,2,4,100,0,0
91909,-66.6666666666667,4,2,4,92,0,0
92423,-71.4285714285714,4,2,4,92,0,0
92937,-76.9230769230769,4,2,4,92,0,0
93280,-83.3333333333333,4,2,4,92,0,0
94652,-83.3333333333333,4,2,4,84,0,0
96023,-83.3333333333333,4,2,4,77,0,0
97395,-83.3333333333333,4,2,5,70,0,0
106995,-133.333333333333,4,2,5,80,0,0
108366,-90.9090909090909,4,2,4,80,0,0
113852,-66.6666666666667,4,2,4,80,0,0
114195,-90.9090909090909,4,2,4,80,0,0
118995,-90.9090909090909,4,2,4,70,0,0
119337,-66.6666666666667,4,2,4,90,0,0
124137,-200,4,2,4,90,0,0
124823,-66.6666666666667,4,2,4,90,0,0
125337,-200,4,2,4,90,0,0
125509,-66.6666666666667,4,2,4,90,0,0
126023,-200,4,2,4,90,0,0
126195,-66.6666666666667,4,2,4,90,0,0
126709,-200,4,2,4,90,0,0
126880,-66.6666666666667,4,2,4,90,0,0
127395,-200,4,2,4,90,0,0
127566,-100,4,2,4,95,0,0
128252,-100,4,2,4,100,0,0
128937,-100,4,2,4,80,0,0
130309,-50,4,2,4,100,0,0
130566,-50,4,2,4,20,0,0
130652,-50,4,2,4,100,0,0
130909,-50,4,2,4,20,0,0
130995,-66.6666666666667,4,2,4,100,0,0
131337,-133.333333333333,4,2,4,100,0,0
131595,-133.333333333333,4,2,4,20,0,0
131680,-66.6666666666667,4,2,4,100,0,0
131937,-66.6666666666667,4,2,4,20,0,0
132023,-66.6666666666667,4,2,4,100,0,0
132709,-133.333333333333,4,2,4,100,0,0
132966,-133.333333333333,4,2,4,20,0,0
133052,-66.6666666666667,4,2,4,100,0,0
133223,-66.6666666666667,4,2,4,5,0,0
133309,-66.6666666666667,4,2,4,100,0,0
133480,-66.6666666666667,4,2,4,5,0,0
133566,-133.333333333333,4,2,4,100,0,0
133737,-66.6666666666667,4,2,4,100,0,0
133909,-66.6666666666667,4,2,4,5,0,0
133995,-66.6666666666667,4,2,4,100,0,0
134166,-66.6666666666667,4,2,4,5,0,0
134252,-133.333333333333,4,2,4,100,0,0
134337,-133.333333333333,4,2,4,5,0,0
134423,-66.6666666666667,4,2,4,100,0,0
134595,-66.6666666666667,4,2,4,5,0,0
134680,-66.6666666666667,4,2,4,100,0,0
134852,-66.6666666666667,4,2,4,5,0,0
134937,-133.333333333333,4,2,4,100,0,0
135023,-133.333333333333,4,2,4,5,0,0
135109,-133.333333333333,4,2,4,100,0,0
135366,-133.333333333333,4,2,4,20,0,0
135452,-133.333333333333,4,2,4,100,0,0
135795,-200,4,2,4,100,0,0
136052,-200,4,2,4,20,0,0
136137,-66.6666666666667,4,2,4,100,0,0
136395,-66.6666666666667,4,2,4,20,0,0
136480,-66.6666666666667,4,2,4,100,0,0
136823,-133.333333333333,4,2,4,100,0,0
137080,-133.333333333333,4,2,4,20,0,0
137166,-66.6666666666667,4,2,4,100,0,0
137423,-66.6666666666667,4,2,4,20,0,0
137509,-66.6666666666667,4,2,4,100,0,0
138195,-133.333333333333,4,2,4,100,0,0
138452,-133.333333333333,4,2,4,20,0,0
138537,-66.6666666666667,4,2,4,100,0,0
138709,-66.6666666666667,4,2,4,5,0,0
138795,-66.6666666666667,4,2,4,100,0,0
138966,-66.6666666666667,4,2,4,5,0,0
139052,-200,4,2,4,100,0,0
139137,-200,4,2,4,5,0,0
139223,-66.6666666666667,4,2,4,100,0,0
139395,-66.6666666666667,4,2,4,5,0,0
139481,-66.6666666666667,4,2,4,100,0,0
139652,-66.6666666666667,4,2,4,5,0,0
139737,-200,4,2,4,5,0,0
139738,-200,4,2,4,100,0,0
139823,-200,4,2,4,5,0,0
139909,-66.6666666666667,4,2,4,100,0,0
140937,-200,4,2,4,100,0,0
141195,-200,4,2,4,20,0,0
141280,-66.6666666666667,4,2,4,100,0,0
141537,-66.6666666666667,4,2,4,20,0,0
141623,-50,4,2,4,100,0,0
141880,-50,4,2,4,20,0,0
141966,-66.6666666666667,4,2,4,100,0,0
142909,-66.6666666666667,4,2,4,20,0,0
142995,-50,4,2,4,100,0,0
143252,-50,4,2,4,20,0,0
143337,-66.6666666666667,4,2,4,100,0,0
144280,-66.6666666666667,4,2,4,20,0,0
144366,-50,4,2,4,100,0,0
144623,-50,4,2,4,20,0,0
144709,-66.6666666666667,4,2,4,100,0,0
145652,-66.6666666666667,4,2,4,20,0,0
145737,-71.4285714285714,4,2,4,100,0,0
145995,-71.4285714285714,4,2,4,20,0,0
146080,-76.9230769230769,4,2,4,100,0,0
146337,-76.9230769230769,4,2,4,20,0,0
146423,-76.9230769230769,4,2,4,100,0,0
146766,-66.6666666666667,4,2,4,100,0,0
147023,-66.6666666666667,4,2,4,20,0,0
147109,-50,4,2,4,100,0,0
147366,-50,4,2,4,20,0,0
147452,-66.6666666666667,4,2,4,100,0,0
148395,-66.6666666666667,4,2,4,20,0,0
148480,-50,4,2,4,100,0,0
148737,-50,4,2,4,20,0,0
148823,-66.6666666666667,4,2,4,100,0,0
148909,-66.6666666666667,4,2,4,100,0,0
149766,-66.6666666666667,4,2,4,20,0,0
149852,-50,4,2,4,100,0,0
150109,-50,4,2,4,20,0,0
150195,-66.6666666666667,4,2,4,100,0,0
150452,-66.6666666666667,4,2,4,20,0,0
150537,-66.6666666666667,4,2,4,100,0,0
150880,-66.6666666666667,4,2,4,92,0,0
151052,-66.6666666666667,4,2,4,5,0,0
151223,-66.6666666666667,4,2,4,84,0,0
151395,-66.6666666666667,4,2,4,5,0,0
151566,-200,4,2,4,76,0,0
151823,-200,4,2,4,5,0,0
151909,-200,4,2,4,80,0,0
152252,-66.6666666666667,4,2,4,80,0,0
152509,-66.6666666666667,4,2,4,20,0,0
152595,-66.6666666666667,4,2,4,80,0,0
153623,-66.6666666666667,4,2,4,100,0,0
156366,-133.333333333333,4,2,4,100,0,0
158080,-66.6666666666667,4,2,4,100,0,0
162109,-66.6666666666667,4,2,4,5,0,0
162195,-66.6666666666667,4,2,4,80,0,0
162366,-71.4285714285714,4,2,4,80,0,0
162537,-76.9230769230769,4,2,4,80,0,0
162709,-83.3333333333333,4,2,4,80,0,0
162880,-200,4,2,4,80,0,0
163566,-66.6666666666667,4,2,4,90,0,0
163623,-66.6666666666667,4,2,4,90,0,0
163680,-66.6666666666667,4,2,4,90,0,0
163966,-66.6666666666667,4,2,4,90,0,0
164023,-66.6666666666667,4,2,4,90,0,0
164309,-66.6666666666667,4,2,4,90,0,0
164366,-66.6666666666667,4,2,4,90,0,0
164652,-66.6666666666667,4,2,4,90,0,0
164709,-66.6666666666667,4,2,4,90,0,0
164995,-66.6666666666667,4,2,4,90,0,0
165052,-66.6666666666667,4,2,4,90,0,0
165337,-66.6666666666667,4,2,4,90,0,0
165395,-66.6666666666667,4,2,4,90,0,0
165623,-200,4,2,4,90,0,0
165909,-200,4,2,4,20,0,0
165966,-66.6666666666667,4,2,4,90,0,0
166023,-66.6666666666667,4,2,4,90,0,0
166080,-66.6666666666667,4,2,4,90,0,0
166366,-66.6666666666667,4,2,4,90,0,0
166423,-66.6666666666667,4,2,4,90,0,0
166709,-66.6666666666667,4,2,4,90,0,0
166766,-66.6666666666667,4,2,4,90,0,0
167052,-66.6666666666667,4,2,4,90,0,0
167109,-66.6666666666667,4,2,4,90,0,0
167395,-66.6666666666667,4,2,4,90,0,0
167452,-66.6666666666667,4,2,4,90,0,0
167737,-66.6666666666667,4,2,4,90,0,0
167795,-66.6666666666667,4,2,4,90,0,0
168080,-66.6666666666667,4,2,4,90,0,0
168137,-66.6666666666667,4,2,4,90,0,0
168709,-83.3333333333333,4,2,4,85,0,0
169395,-76.9230769230769,4,2,4,85,0,0
169737,-76.9230769230769,4,2,4,85,0,0
170080,-71.4285714285714,4,2,4,92,0,0
170766,-66.6666666666667,4,2,4,100,0,0
171452,-66.6666666666667,4,2,4,92,0,0
172995,-71.4285714285714,4,2,4,92,0,0
174537,-76.9230769230769,4,2,4,84,0,0
175566,-76.9230769230769,4,2,4,76,0,0
176080,-83.3333333333333,4,2,4,76,0,0
176595,-83.3333333333333,4,2,4,68,0,0
177623,-285.714285714284,4,2,4,60,0,0
177966,-285.714285714284,4,2,4,20,0,0
178052,-285.714285714284,4,2,4,60,0,0
180966,-285.714285714284,4,2,4,5,0,0

[Colours]
Combo1 : 156,184,226
Combo2 : 247,164,192
Combo3 : 112,220,185
Combo4 : 250,131,131

[HitObjects]
163,244,1395,6,0,L|102:252,3,54.75,12|2|2|2,3:2|0:3|0:3|0:3,0:0:0:0:
262,226,1737,2,0,L|316:218,5,54.75,2|2|2|2|2|2,0:3|0:3|3:3|0:3|0:3|0:3,0:0:0:0:
199,170,2252,2,0,L|126:159,1,54.75,2|2,0:3|0:3,0:0:0:0:
221,306,2423,2,0,L|154:340,1,54.75,2|2,0:3|0:3,0:0:0:0:
108,251,2595,5,2,0:3:0:0:
108,251,2680,1,2,0:3:0:0:
108,251,2766,2,0,L|96:323,3,54.75,2|2|2|2,3:3|0:3|0:3|0:3,0:0:0:0:
141,99,3109,2,0,L|150:44,5,54.75,2|2|2|2|2|2,0:3|0:3|0:3|0:3|0:3|0:3,0:0:0:0:
52,187,3623,2,0,P|51:159|62:134,1,54.75,2|2,0:3|0:3,0:0:0:0:
195,167,3795,2,0,P|195:194|184:219,1,54.75,2|2,0:3|0:3,0:0:0:0:
108,251,3966,5,2,0:3:0:0:
108,251,4052,1,2,0:3:0:0:
108,251,4137,2,0,P|49:270|32:267,1,54.75,2|2,3:3|0:3,0:0:0:0:
175,301,4309,2,0,P|146:356|132:366,1,54.75,2|2,0:3|0:3,0:0:0:0:
257,288,4480,2,0,P|276:347|273:364,3,54.75,2|2|2|2,0:3|0:3|3:3|0:3,0:0:0:0:
108,251,4823,2,0,P|65:295|60:312,1,54.75,2|2,0:3|0:3,0:0:0:0:
185,218,4995,2,0,P|167:158|155:146,1,54.75,2|2,0:3|0:3,0:0:0:0:
175,301,5166,2,0,P|235:315|251:311,1,54.75,2|2,0:3|0:3,0:0:0:0:
328,234,5337,5,2,0:3:0:0:
328,234,5423,1,2,0:3:0:0:
328,234,5509,2,0,L|320:159,3,54.75,2|2|2|2,3:3|0:3|0:3|0:3,0:0:0:0:
315,100,5852,2,0,L|307:25,3,54.75,2|2|2|2,0:3|0:3|0:3|0:3,0:0:0:0:
248,150,6195,2,0,P|202:174|194:174,1,54.75,2|2,0:3|0:3,0:0:0:0:
388,137,6366,2,0,P|437:153|445:152,1,54.75,2|2,0:3|0:3,0:0:0:0:
192,94,6537,2,0,L|132:89,1,54.75,2|2,0:3|0:3,0:0:0:0:
434,73,6709,2,0,L|494:55,1,54.75,2|2,0:3|0:3,0:0:0:0:
377,149,6880,5,2,3:3:0:0:
368,163,6966,1,2,0:3:0:0:
361,178,7052,1,2,0:3:0:0:
357,194,7137,1,2,0:3:0:0:
354,210,7223,2,0,P|365:247|381:265,1,54.75,2|2,0:3|0:3,0:0:0:0:
221,278,7395,1,2,3:3:0:0:
221,278,7480,1,2,0:3:0:0:
221,278,7566,2,0,P|184:264|168:247,1,54.75,2|2,0:3|0:3,0:0:0:0:
312,321,7737,2,0,P|345:339|369:340,1,54.75,2|2,0:3|0:3,0:0:0:0:
278,175,7909,2,0,P|242:190|218:190,3,54.75,2|2|2|2,0:3|0:3|0:3|0:3,0:0:0:0:
136,105,8252,5,2,3:3:0:0:
138,132,8337,1,2,0:3:0:0:
141,159,8423,1,2,0:3:0:0:
144,186,8509,1,2,0:3:0:0:
147,213,8595,2,0,P|143:236|112:285,1,54.75,2|2,0:3|0:3,0:0:0:0:
71,322,8766,2,0,P|51:336|-4:348,1,54.75,2|2,0:3|0:3,0:0:0:0:
168,221,8937,2,0,P|163:247|129:301,1,54.75,2|2,0:3|0:3,0:0:0:0:
83,342,9109,2,0,P|61:357|-2:371,1,54.75,2|2,0:3|0:3,0:0:0:0:
44,226,9280,5,2,0:3:0:0:
32,203,9365,1,2,0:3:0:0:
7,207,9451,1,2,0:3:0:0:
2,231,9537,1,2,0:3:0:0:
24,247,9623,2,0,L|101:232,3,54.75,2|2|2|2,3:3|0:3|0:3|0:3,0:0:0:0:
217,202,9966,2,0,L|163:212,3,54.75,2|2|2|2,3:3|0:3|0:3|0:3,0:0:0:0:
15,165,10309,2,0,L|90:215,3,54.75,2|2|2|2,3:3|0:3|0:3|0:3,0:0:0:0:
210,285,10652,2,0,L|157:249,3,54.75,2|2|2|2,3:3|0:3|0:3|0:3,0:0:0:0:
88,335,10995,5,2,3:3:0:0:
66,297,11080,1,2,0:3:0:0:
63,254,11166,1,2,3:3:0:0:
73,211,11252,1,2,0:3:0:0:
100,176,11337,1,2,3:3:0:0:
108,134,11423,1,2,0:3:0:0:
92,92,11509,1,2,3:3:0:0:
58,63,11595,1,2,0:3:0:0:
12,57,11680,5,2,3:3:0:0:
50,107,11765,1,2,3:3:0:0:
108,134,11851,1,2,3:3:0:0:
170,131,11937,1,2,3:3:0:0:
225,100,12023,6,0,B|282:53|209:-14|117:55|140:177|261:204,1,246.375009398461,2|0,0:0|0:0,0:0:0:0:
276,161,12366,6,0,B|323:137|319:57|319:57|328:158|370:199,1,273.75,4|0,3:2|0:0,0:0:0:0:
384,300,12880,2,0,B|339:270|272:314|272:314|355:256|370:198,1,273.75,4|0,3:2|0:0,0:0:0:0:
450,137,13395,2,0,B|446:189|518:226|518:226|426:183|368:199,1,273.75,4|0,3:2|0:0,0:0:0:0:
289,261,13909,2,0,B|292:208|220:171|220:171|312:214|370:198,1,273.75,4|0,3:2|0:0,0:0:0:0:
326,326,14423,6,0,P|248:326|212:257,1,164.25,4|0,3:2|0:0,0:0:0:0:
249,193,14766,2,0,P|327:193|363:262,1,164.25,4|0,3:2|0:0,0:0:0:0:
285,266,15109,5,8,0:0:0:0:
291,255,15195,1,8,0:0:0:0:
283,265,15280,1,8,0:0:0:0:
292,255,15366,1,8,0:0:0:0:
281,264,15452,1,8,0:0:0:0:
294,256,15538,1,8,0:0:0:0:
280,262,15623,1,8,0:0:0:0:
295,258,15709,1,8,0:0:0:0:
278,260,15795,1,8,0:0:0:0:
297,260,15881,1,8,0:0:0:0:
278,258,15966,1,8,0:0:0:0:
297,262,16052,1,8,0:0:0:0:
278,255,16137,1,8,0:0:0:0:
297,265,16223,1,8,0:0:0:0:
279,252,16309,1,8,0:0:0:0:
296,268,16395,1,8,0:0:0:0:
281,249,16480,5,2,2:3:0:0:
257,234,16565,1,2,2:3:0:0:
231,227,16651,1,2,2:3:0:0:
204,228,16737,1,2,2:3:0:0:
133,299,16823,5,2,2:3:0:0:
106,314,16908,1,2,2:3:0:0:
78,322,16994,1,2,2:3:0:0:
48,321,17080,1,2,2:3:0:0:
19,220,17166,5,2,2:3:0:0:
48,203,17251,1,2,2:3:0:0:
79,194,17337,1,2,2:3:0:0:
112,195,17423,1,2,2:3:0:0:
180,233,17509,5,2,2:3:0:0:
211,251,17594,1,2,2:3:0:0:
246,261,17680,1,2,2:3:0:0:
282,260,17766,1,2,2:3:0:0:
348,217,17852,6,0,L|351:103,1,109.5,4|0,3:2|0:0,0:0:0:0:
195,107,18195,1,2,0:1:0:0:
327,179,18366,1,8,0:0:0:0:
327,179,18452,1,8,0:0:0:0:
327,179,18537,1,8,0:0:0:0:
293,82,18709,1,0,3:0:0:0:
232,197,18880,1,2,0:1:0:0:
217,23,19052,1,0,0:0:0:0:
321,268,19223,6,0,P|267:318|195:303,1,109.5,0|0,3:0|0:0,0:0:0:0:
149,219,19566,1,2,0:1:0:0:
124,354,19737,1,8,0:0:0:0:
124,354,19823,1,8,0:0:0:0:
124,354,19909,1,8,0:0:0:0:
61,229,20080,1,0,3:0:0:0:
160,130,20252,1,2,0:1:0:0:
284,193,20423,1,0,0:0:0:0:
61,229,20595,6,0,L|52:116,1,109.5,0|0,3:0|0:0,0:0:0:0:
143,278,20937,1,2,0:1:0:0:
247,119,21109,2,0,L|253:8,1,109.5,8|0,0:0|0:0,0:0:0:0:
377,189,21452,1,8,2:0:0:0:
377,189,21537,1,8,2:0:0:0:
377,189,21623,1,2,0:1:0:0:
233,280,21795,1,0,0:0:0:0:
341,106,21966,6,0,P|395:105|438:138,1,109.5,0|0,3:0|0:0,0:0:0:0:
329,278,22309,1,2,0:1:0:0:
233,119,22480,1,8,0:0:0:0:
271,114,22565,1,8,0:0:0:0:
309,110,22651,1,10,2:2:0:0:
208,41,22823,1,2,3:2:0:0:
376,57,22995,1,10,2:2:0:0:
198,19,23166,1,2,2:2:0:0:
452,109,23337,6,0,L|438:218,1,109.5,4|0,3:2|0:0,0:0:0:0:
273,201,23680,1,2,0:1:0:0:
309,110,23852,1,8,0:0:0:0:
309,110,23937,1,8,0:0:0:0:
309,110,24023,1,8,0:0:0:0:
333,269,24195,1,0,3:0:0:0:
221,111,24366,1,2,0:1:0:0:
243,281,24537,1,0,0:0:0:0:
490,68,24709,6,0,L|365:57,1,109.5,4|0,3:2|0:0,0:0:0:0:
160,150,25052,1,2,0:1:0:0:
270,194,25223,1,8,0:0:0:0:
270,194,25309,1,8,0:0:0:0:
270,194,25395,1,8,0:0:0:0:
334,96,25566,1,0,3:0:0:0:
260,4,25737,1,2,0:1:0:0:
150,45,25909,1,0,0:0:0:0:
361,188,26080,6,0,L|486:180,1,109.5,4|0,3:2|0:0,0:0:0:0:
205,258,26423,1,2,0:1:0:0:
402,290,26595,2,0,L|514:297,1,109.5,8|8,0:0|3:2,0:0:0:0:
274,167,26937,1,0,0:2:0:0:
266,328,27109,1,2,0:1:0:0:
386,158,27280,1,0,0:0:0:0:
205,258,27452,6,0,P|151:273|71:204,1,164.25,4|0,3:2|0:0,0:0:0:0:
108,57,27795,2,0,P|139:100|133:153,1,109.5,2|2,3:1|0:3,0:0:0:0:
50,125,28052,1,2,0:3:0:0:
50,125,28137,1,2,0:3:0:0:
55,128,28823,6,0,B|144:103|119:188|222:166,1,180.675005513764,4|0,3:2|0:0,0:0:0:0:
302,95,29166,2,0,P|279:130|291:215,1,120.450003675842,8|0,0:1|0:0,0:0:0:0:
398,238,29509,1,0,0:3:0:0:
233,268,29680,1,0,3:0:0:0:
365,162,29852,1,8,0:1:0:0:
219,253,30023,1,8,0:2:0:0:
464,308,30195,6,0,B|474:337|474:337|301:317,1,180.675005513764,8|0,3:2|0:0,0:0:0:0:
206,240,30537,2,0,B|220:215|246:203|246:203|295:212|336:247,1,120.450003675842,8|0,0:1|0:0,0:0:0:0:
224,338,30880,1,0,0:0:0:0:
133,180,31052,1,0,3:0:0:0:
326,233,31223,2,0,L|334:112,1,120.450003675842,8|0,0:1|0:0,0:0:0:0:
350,319,31566,5,8,3:2:0:0:
350,319,31652,1,8,0:0:0:0:
350,319,31737,1,8,0:0:0:0:
247,168,31909,2,0,B|193:156|193:156|118:185,1,120.450003675842,8|8,0:1|0:0,0:0:0:0:
211,79,32252,1,8,0:0:0:0:
95,263,32423,1,0,3:0:0:0:
321,207,32595,2,0,P|329:149|293:102,1,120.450003675842,8|8,0:1|0:0,0:0:0:0:
183,258,32937,5,8,3:2:0:0:
237,326,33109,1,0,0:0:0:0:
247,168,33280,1,8,0:1:0:0:
159,334,33452,1,8,3:2:0:0:
129,337,33537,1,8,0:2:0:0:
99,340,33623,1,10,0:2:0:0:
265,250,33795,1,2,3:2:0:0:
55,263,33966,1,8,2:1:0:0:
119,212,34137,1,10,0:2:0:0:
299,333,34309,6,0,B|321:357|359:355|359:355|428:261|318:184,1,246.375009398461,4|0,3:2|0:0,0:0:0:0:
198,183,34652,2,0,L|77:191,1,120.450003675842,8|0,0:1|0:0,0:0:0:0:
349,118,34995,2,0,L|469:126,1,120.450003675842,0|0,0:0|3:0,0:0:0:0:
328,26,35337,1,8,0:1:0:0:
369,199,35509,1,8,0:2:0:0:
268,90,35680,6,0,B|274:176|274:176|268:189|268:189|276:285,1,180.675005513764,8|0,3:2|0:0,0:0:0:0:
213,368,36023,2,0,B|196:338|196:338|294:353,1,120.450003675842,8|0,0:1|0:0,0:0:0:0:
120,357,36366,1,0,0:0:0:0:
361,331,36537,1,0,3:0:0:0:
154,160,36709,2,0,L|142:290,1,120.450003675842,8|8,0:1|0:0,0:0:0:0:
178,74,37052,5,8,0:1:0:0:
332,160,37223,1,8,0:0:0:0:
163,81,37395,1,8,0:1:0:0:
360,70,37566,1,8,0:0:0:0:
301,234,37737,5,8,0:1:0:0:
279,36,37909,1,8,0:0:0:0:
334,242,38080,1,8,0:1:0:0:
239,110,38252,1,8,0:0:0:0:
382,138,38423,6,0,L|388:176,4,30.1125009189606,2|2|2|2|2,0:3|0:3|0:3|0:3|0:3,0:0:0:0:
374,252,38680,1,0,0:0:0:0:
374,252,38766,2,0,L|368:290,4,30.1125009189606,2|2|2|2|2,0:3|0:3|0:3|0:3|0:3,0:0:0:0:
313,193,39023,5,0,0:0:0:0:
313,193,39109,2,0,L|275:199,4,30.1125009189606,2|2|2|2|2,0:3|0:3|0:3|0:3|0:3,0:0:0:0:
456,231,39366,5,0,0:0:0:0:
456,231,39452,2,0,L|387:246,1,60.2250018379212,2|2,0:3|0:3,0:0:0:0:
412,351,39623,2,0,L|352:359,1,60.2250018379212,2|2,0:3|0:3,0:0:0:0:
249,303,39795,6,0,B|202:311|183:280|183:280|163:208|260:155,1,164.250006265641,8|0,2:1|0:0,0:0:0:0:
273,151,40052,1,8,0:0:0:0:
273,151,40137,1,8,0:1:0:0:
36,185,40309,1,0,0:0:0:0:
77,188,40394,1,8,0:0:0:0:
118,191,40480,1,8,0:1:0:0:
324,66,40652,1,0,0:0:0:0:
283,69,40737,1,8,0:0:0:0:
242,72,40823,1,8,0:1:0:0:
160,83,40995,1,0,0:0:0:0:
410,83,41166,6,0,B|463:101|467:168|432:201|432:201|379:216,1,164.250006265641,8|0,0:1|0:0,0:0:0:0:
332,220,41423,1,8,0:0:0:0:
332,220,41509,1,8,0:1:0:0:
327,26,41680,1,0,0:0:0:0:
324,66,41765,1,8,0:0:0:0:
322,107,41851,1,8,0:1:0:0:
255,291,42023,1,0,0:0:0:0:
253,250,42109,1,8,0:0:0:0:
250,210,42194,1,8,0:1:0:0:
244,130,42366,1,0,0:0:0:0:
194,350,42537,6,0,B|162:374|162:374|77:351|77:351|64:318,1,164.250006265641,8|0,0:1|0:0,0:0:0:0:
99,240,42795,1,8,0:0:0:0:
99,240,42880,1,8,0:1:0:0:
255,291,43052,1,0,0:0:0:0:
296,289,43137,1,8,0:0:0:0:
337,287,43223,1,8,0:1:0:0:
221,172,43395,1,0,0:0:0:0:
180,170,43480,1,8,0:0:0:0:
139,168,43566,1,8,0:1:0:0:
58,163,43737,1,0,0:0:0:0:
305,197,43909,6,0,P|341:117|296:57,1,164.250006265641,8|0,0:1|0:0,0:0:0:0:
214,79,44166,1,8,0:0:0:0:
214,79,44252,1,8,0:1:0:0:
333,276,44423,1,0,0:0:0:0:
413,292,44509,1,0,0:0:0:0:
478,246,44595,6,0,B|476:206|476:206|472:201|472:201|479:200|479:200|475:197|475:197|471:140,1,109.5,8|4,0:0|3:2,0:0:0:0:
304,84,45280,6,0,P|263:114|266:229,1,164.250006265641,10|0,0:1|0:0,0:0:0:0:
335,254,45537,1,2,0:3:0:0:
335,254,45623,1,8,0:1:0:0:
163,197,45795,6,0,L|115:195,1,27.375,2|0,0:3|0:0,0:0:0:0:
52,290,45966,6,0,B|22:298|22:298|46:145,1,164.250006265641,10|0,0:1|0:0,0:0:0:0:
16,86,46223,1,2,0:3:0:0:
16,86,46309,1,8,0:1:0:0:
137,277,46480,6,0,L|164:278,1,27.375,2|0,0:3|0:0,0:0:0:0:
320,327,46652,6,0,B|351:290|351:290|325:230|245:254,1,164.250006265641,10|0,0:1|0:0,0:0:0:0:
230,336,46909,1,2,0:3:0:0:
230,336,46995,1,8,0:1:0:0:
388,201,47166,6,0,L|384:169,1,27.375,2|0,0:3|0:0,0:0:0:0:
320,15,47337,6,0,P|374:93|445:86,1,164.250006265641,10|0,0:1|0:0,0:0:0:0:
480,24,47595,1,2,0:3:0:0:
480,24,47680,1,8,0:1:0:0:
269,113,47852,6,0,L|265:140,1,27.375,2|0,0:3|0:0,0:0:0:0:
149,222,48023,6,0,L|212:214,1,54.75,10|2,0:3|0:3,0:0:0:0:
363,222,48195,2,0,L|300:214,1,54.75,2|2,0:3|0:3,0:0:0:0:
128,203,48366,6,0,L|182:209,1,54.75,10|2,0:3|0:3,0:0:0:0:
384,203,48538,2,0,L|330:209,1,54.75,2|2,0:3|0:3,0:0:0:0:
107,222,48709,6,0,L|161:215,1,54.75,10|2,0:3|0:3,0:0:0:0:
405,222,48881,2,0,L|351:215,1,54.75,10|2,0:3|0:3,0:0:0:0:
86,203,49052,6,0,L|140:209,1,54.75,10|2,0:3|0:3,0:0:0:0:
426,203,49224,2,0,L|372:209,1,54.75,10|0,0:3|0:0,0:0:0:0:
205,299,49395,5,10,0:0:0:0:
263,353,49566,5,8,0:0:0:0:
283,303,49651,1,8,0:0:0:0:
267,252,49737,1,10,0:0:0:0:
129,179,49909,5,8,0:0:0:0:
153,211,49994,1,8,0:0:0:0:
192,219,50080,1,10,0:0:0:0:
309,144,50252,5,8,0:0:0:0:
278,147,50337,1,8,0:0:0:0:
258,170,50423,2,0,B|281:166|299:180|299:180|300:156|312:138,1,82.125,10|0,0:0|0:0,0:0:0:0:
142,215,50766,6,0,P|49:180|135:130,1,246.375009398461,4|0,3:2|0:0,0:0:0:0:
158,221,51109,6,0,B|73:275|18:182|18:182|59:75|167:124,1,328.5,0|0,3:0|0:0,0:0:0:0:
184,306,51452,5,4,0:3:0:0:
265,336,51537,1,8,0:0:0:0:
319,337,51623,1,8,0:0:0:0:
345,317,51709,1,8,0:0:0:0:
357,298,51795,6,0,B|339:160|339:160|349:201|418:229,1,197.099993984986,0|0,3:0|0:0,0:0:0:0:
417,138,52137,6,0,B|298:97|313:226|187:176,1,246.375009398461,2|0,3:2|0:0,0:0:0:0:
44,145,52480,1,2,2:3:0:0:
45,95,52566,1,2,2:3:0:0:
68,52,52652,1,2,2:3:0:0:
110,27,52737,1,2,2:3:0:0:
159,29,52823,1,4,0:3:0:0:
246,121,52995,1,2,0:3:0:0:
246,121,53080,1,2,0:3:0:0:
246,121,53166,6,0,B|220:169|250:216|250:216|293:199,1,123.18750469923,0|0,3:0|0:0,0:0:0:0:
142,172,53509,6,0,B|117:152|54:173|54:173|61:222|95:248,1,164.250006265641,2|0,3:2|0:2,0:0:0:0:
78,326,53766,2,0,B|46:322|16:263|16:263|56:233|98:239,1,164.250006265641,0|0,3:0|0:0,0:0:0:0:
165,266,54023,6,0,L|226:286,1,41.0625015664101,0|0,3:0|0:0,0:0:0:0:
332,384,54195,6,0,P|368:327|316:246,1,164.250006265641,8|0,3:1|0:0,0:0:0:0:
317,115,54452,2,0,P|281:172|333:253,1,164.250006265641,0|0,3:0|0:0,0:0:0:0:
419,232,54709,6,0,L|472:224,1,41.0625015664101,0|0,3:0|0:0,0:0:0:0:
449,91,54880,6,0,B|433:72|393:58|393:58|333:74|316:116,1,164.250006265641,2|0,3:2|0:0,0:0:0:0:
215,27,55137,2,0,B|237:18|278:26|278:26|322:70|316:115,1,164.250006265641,0|0,3:0|0:0,0:0:0:0:
289,193,55395,6,0,L|265:264,1,41.0625015664101,0|0,3:0|0:0,0:0:0:0:
208,309,55566,6,0,B|275:294|259:341|326:325,1,123.18750469923,8|0,3:1|0:0,0:0:0:0:
402,289,55909,5,10,0:0:0:0:
410,298,55995,1,10,0:0:0:0:
406,275,56080,5,10,0:0:0:0:
405,311,56166,1,10,0:0:0:0:
408,255,56252,6,0,B|423:210|400:220|414:168,1,82.125,0|0,3:0|0:0,0:0:0:0:
477,29,56595,6,0,B|492:120|414:166|337:142|337:142|306:71,1,246.375009398461,4|0,3:2|0:0,0:0:0:0:
294,46,56937,5,4,0:3:0:0:
282,27,57023,1,8,0:0:0:0:
256,7,57109,1,8,0:0:0:0:
202,8,57195,1,8,0:0:0:0:
160,83,57280,6,0,P|73:130|90:33,1,246.375009398461,0|0,3:0|0:0,0:0:0:0:
176,82,57623,6,0,B|161:174|55:156|55:156|2:62|92:16,1,328.5,0|0,3:0|0:0,0:0:0:0:
153,167,57966,1,2,0:3:0:0:
189,191,58052,1,2,0:3:0:0:
231,198,58137,1,2,0:3:0:0:
271,180,58223,1,2,0:3:0:0:
302,149,58309,1,4,0:3:0:0:
433,229,58480,1,2,0:3:0:0:
433,229,58566,1,2,0:3:0:0:
433,229,58652,6,0,B|423:314|423:314|419:292|406:273,1,123.18750469923,0|0,3:0|0:0,0:0:0:0:
350,222,58995,6,0,P|285:209|203:268,1,164.250006265641,2|0,3:2|0:0,0:0:0:0:
63,222,59252,2,0,P|126:270|206:260,1,164.250006265641,2|0,3:2|0:0,0:0:0:0:
186,174,59509,6,0,L|179:134,1,27.375,0|0,3:0|0:0,0:0:0:0:
26,54,59680,6,0,B|4:75|4:75|6:142|93:159|150:83,1,164.250006265641,8|0,3:1|0:0,0:0:0:0:
260,39,59937,2,0,B|252:10|252:10|193:-22|135:44|172:131,1,164.250006265641,0|0,3:0|0:0,0:0:0:0:
181,147,60195,6,0,L|186:174,1,27.375,0|0,3:0|0:0,0:0:0:0:
255,302,60366,6,0,L|269:221,1,82.1250031328203,2|0,0:0|0:0,0:0:0:0:
287,143,60537,1,2,0:3:0:0:
287,143,60623,1,2,0:3:0:0:
287,143,60709,1,2,3:0:0:0:
343,325,60880,5,2,0:3:0:0:
343,325,60966,1,2,0:3:0:0:
343,325,61052,1,2,3:0:0:0:
174,287,61223,5,2,0:3:0:0:
174,287,61309,1,2,0:3:0:0:
174,287,61395,2,0,B|89:269|89:269|123:303,1,123.18750469923,2|0,3:0|0:0,0:0:0:0:
247,231,61737,6,0,P|340:266|254:316,1,246.375009398461,4|0,3:2|0:0,0:0:0:0:
231,225,62080,6,0,B|316:171|371:264|371:264|330:371|222:322,1,328.5,4|0,3:3|0:0,0:0:0:0:
87,266,62423,5,8,3:2:0:0:
74,218,62509,1,8,0:2:0:0:
64,169,62595,1,8,0:2:0:0:
270,142,62766,6,0,P|374:167|416:115,1,164.250006265641,4|0,0:3|3:0,0:0:0:0:
412,43,63023,5,0,0:0:0:0:
412,43,63109,2,0,P|447:136|497:50,1,246.375009398461,0|0,3:0|0:0,0:0:0:0:
406,27,63452,6,0,B|352:112|445:167|445:167|552:126|503:18,1,328.5,4|0,3:3|0:0,0:0:0:0:
304,21,63795,5,8,3:2:0:0:
253,16,63881,1,8,0:0:0:0:
203,13,63967,1,8,0:0:0:0:
267,133,64137,6,0,B|310:191|255:258|255:258|250:227|229:215,1,164.250006265641,4|0,0:3|3:0,0:0:0:0:
169,189,64395,5,0,0:0:0:0:
169,189,64480,2,0,P|87:245|182:273,1,246.375009398461,0|0,3:0|0:0,0:0:0:0:
183,179,64823,6,0,B|87:147|56:250|56:250|122:344|215:270,1,328.5,4|0,3:3|0:0,0:0:0:0:
254,129,65166,6,0,B|275:113|317:136|317:136|354:175|324:254,1,164.250006265641,0|0,3:0|0:0,0:0:0:0:
290,377,65423,2,0,B|265:365|264:318|264:318|279:266|363:252,1,164.250006265641,0|0,3:0|0:0,0:0:0:0:
463,338,65680,2,0,P|414:338|388:312,1,82.1250031328203,0|0,3:0|0:0,0:0:0:0:
413,240,65852,6,0,L|432:10,1,229.949992982483,0|0,3:0|0:0,0:0:0:0:
454,31,66195,6,0,L|437:227,1,197.099993984986,4|0,3:3|0:0,0:0:0:0:
460,214,66537,6,0,L|475:51,1,164.25,0|0,3:0|0:0,0:0:0:0:
390,153,66880,5,2,2:3:0:0:
373,160,66966,1,2,2:3:0:0:
332,164,67052,1,2,2:3:0:0:
274,141,67137,1,2,2:3:0:0:
254,66,67223,6,0,B|272:113|272:113|217:159|217:159|150:136|150:136|148:80,1,246.375009398461,4|0,3:2|0:0,0:0:0:0:
271,56,67566,6,0,B|295:118|295:118|223:179|223:179|134:148|134:148|131:75,1,328.5,4|0,3:3|0:0,0:0:0:0:
143,185,67909,5,8,3:2:0:0:
119,221,67995,1,8,0:2:0:0:
119,264,68080,1,8,0:2:0:0:
252,319,68252,6,0,L|433:302,1,164.250006265641,4|0,0:3|3:0,0:0:0:0:
481,249,68509,5,0,0:0:0:0:
481,249,68595,2,0,P|475:149|402:216,1,246.375009398461,0|0,3:0|0:0,0:0:0:0:
482,266,68937,6,0,B|558:200|486:120|486:120|371:128|387:246,1,328.5,4|0,3:3|0:0,0:0:0:0:
431,333,69280,5,8,3:2:0:0:
393,356,69366,1,8,0:2:0:0:
349,357,69452,1,8,0:2:0:0:
150,279,69623,6,0,B|154:209|154:209|161:191|161:191|165:117,1,164.250006265641,4|0,0:3|3:0,0:0:0:0:
122,43,69880,5,0,0:0:0:0:
122,43,69966,2,0,P|22:41|84:119,1,246.375009398461,0|0,3:0|0:0,0:0:0:0:
139,43,70309,6,0,B|78:-38|-6:28|-6:28|-6:143|113:135,1,328.5,4|0,3:3|0:0,0:0:0:0:
215,82,70652,6,0,B|272:65|272:65|397:88,1,164.250006265641,0|0,3:0|0:0,0:0:0:0:
444,25,70909,1,0,0:0:0:0:
443,25,70995,2,0,P|448:65|471:98,1,82.1250031328203,0|0,3:0|0:0,0:0:0:0:
349,164,71166,2,0,P|389:156|428:168,1,82.1250031328203,0|0,3:0|0:0,0:0:0:0:
512,177,71337,5,4,3:3:0:0:
440,251,71680,5,4,3:3:0:0:
461,265,72023,6,0,B|472:328|472:328|452:305,1,82.125,4|0,3:3|0:0,0:0:0:0:
442,298,72366,5,10,0:0:0:0:
415,291,72452,1,10,0:0:0:0:
371,296,72537,1,10,0:0:0:0:
326,332,72623,1,10,0:0:0:0:
252,345,72709,2,0,B|180:323|182:228|244:179|244:179|292:253,1,246.375009398461,0|0,2:0|2:0,0:0:0:0:
174,319,73052,6,0,P|123:339|39:258,1,164.250006265641,8|8,3:1|2:2,0:0:0:0:
55,198,73309,1,8,2:2:0:0:
55,198,73395,2,0,L|66:115,1,82.1250031328203,8|0,3:1|0:0,0:0:0:0:
18,60,73566,1,8,0:0:0:0:
18,60,73652,1,8,0:0:0:0:
18,60,73737,2,0,P|68:82|126:78,1,82.1250031328203,8|0,3:1|0:0,0:0:0:0:
162,132,73909,2,0,P|212:110|270:114,1,82.1250031328203,8|0,0:1|0:0,0:0:0:0:
312,67,74080,6,0,B|346:47|346:47|388:89|355:182,1,164.250006265641,8|8,3:1|0:0,0:0:0:0:
293,215,74337,1,8,0:0:0:0:
293,215,74423,2,0,P|254:262|255:309,1,82.1250031328203,8|0,3:1|0:0,0:0:0:0:
290,353,74595,1,8,0:0:0:0:
290,353,74680,1,8,0:0:0:0:
290,353,74766,2,0,P|350:363|390:338,1,82.1250031328203,8|0,3:1|0:0,0:0:0:0:
412,287,74937,2,0,P|390:229|349:207,1,82.1250031328203,8|0,0:1|0:0,0:0:0:0:
293,215,75109,1,8,3:2:0:0:
293,215,75195,1,8,0:0:0:0:
293,215,75280,2,0,L|186:221,1,82.1250031328203,8|0,0:1|0:0,0:0:0:0:
144,174,75452,6,0,P|170:251|126:319,1,164.250006265641,8|8,3:1|0:0,0:0:0:0:
60,338,75709,1,8,0:0:0:0:
60,338,75795,2,0,L|177:352,1,82.1250031328203,8|0,3:1|0:0,0:0:0:0:
233,338,75966,1,8,0:0:0:0:
233,338,76052,1,8,0:0:0:0:
233,338,76137,2,0,L|314:328,1,82.1250031328203,8|0,3:1|0:0,0:0:0:0:
405,348,76309,1,8,0:0:0:0:
405,348,76395,1,8,0:0:0:0:
405,348,76480,2,0,P|416:293|378:216,1,82.1250031328203,8|0,3:1|0:0,0:0:0:0:
332,243,76652,2,0,P|321:188|359:111,1,82.1250031328203,8|0,0:1|0:0,0:0:0:0:
337,84,76823,6,0,B|353:47|384:40|384:40|447:39|489:108,1,164.250006265641,8|8,3:1|0:1,0:0:0:0:
493,164,77080,1,8,0:1:0:0:
493,164,77166,2,0,L|397:177,1,82.1250031328203,8|0,3:1|0:0,0:0:0:0:
325,163,77337,2,0,P|270:174|193:136,1,82.1250031328203,8|0,3:1|0:0,0:0:0:0:
99,112,77509,2,0,P|139:107|178:118,1,82.1250031328203,8|0,3:1|0:0,0:0:0:0:
186,225,77680,1,8,0:1:0:0:
186,225,77766,1,8,0:1:0:0:
186,225,77852,2,0,L|179:315,1,82.1250031328203,8|0,3:1|0:0,0:0:0:0:
256,91,78023,2,0,L|249:9,1,82.1250031328203,0|0,3:1|0:0,0:0:0:0:
249,9,78452,5,2,0:3:0:0:
249,9,78537,2,0,L|256:91,1,82.1250031328203,8|0,3:1|0:0,0:0:0:0:
328,149,78709,1,8,0:0:0:0:
328,149,78795,1,8,0:0:0:0:
328,149,78880,2,0,P|272:119|239:124,1,82.1250031328203,8|0,0:1|0:0,0:0:0:0:
205,189,79052,1,8,3:2:0:0:
205,189,79138,1,8,0:2:0:0:
205,189,79223,2,0,P|149:219|116:214,1,82.1250031328203,8|0,0:1|0:0,0:0:0:0:
99,135,79395,2,0,P|155:105|188:110,1,82.1250031328203,8|0,0:1|0:0,0:0:0:0:
205,189,79566,6,0,L|192:354,1,164.250006265641,8|8,3:1|0:0,0:0:0:0:
281,303,79823,1,8,0:0:0:0:
281,303,79909,2,0,P|327:289|370:299,1,82.1250031328203,8|0,0:1|0:0,0:0:0:0:
419,369,80080,1,8,3:2:0:0:
419,369,80166,1,8,0:2:0:0:
419,369,80252,2,0,P|383:336|371:293,1,82.1250031328203,8|0,0:1|0:0,0:0:0:0:
281,303,80423,2,0,P|291:256|322:223,1,82.1250031328203,8|0,0:1|0:0,0:0:0:0:
269,150,80595,1,8,3:2:0:0:
269,150,80680,1,8,0:2:0:0:
269,150,80766,2,0,P|315:135|358:146,1,82.1250031328203,8|0,0:1|0:0,0:0:0:0:
392,208,80937,6,0,L|379:44,1,164.250006265641,8|8,3:1|0:2,0:0:0:0:
303,61,81195,1,8,0:2:0:0:
303,61,81280,2,0,L|203:46,1,82.1250031328203,8|0,0:1|0:0,0:0:0:0:
140,84,81452,1,8,3:2:0:0:
140,84,81537,1,8,0:2:0:0:
140,84,81623,2,0,L|58:96,1,82.1250031328203,8|0,0:1|0:0,0:0:0:0:
19,175,81795,1,8,0:2:0:0:
19,175,81880,1,8,0:2:0:0:
12,187,81966,5,2,0:3:0:0:
10,210,82052,1,2,0:3:0:0:
27,253,82137,1,2,0:3:0:0:
75,284,82223,1,2,0:3:0:0:
150,269,82309,2,0,B|210:242|210:142|119:145|119:145|96:186|136:251,1,246.375009398461,2|0,0:1|0:0,0:0:0:0:
220,309,82652,6,0,P|232:265|205:213,1,71.1749967418672,2|0,0:1|0:1,0:0:0:0:
296,219,82823,6,0,P|284:193|260:174,1,60.2250018379212,2|0,0:1|0:0,0:0:0:0:
295,110,82995,6,0,P|273:101|249:99,1,49.2749984962464,2|0,0:1|0:0,0:0:0:0:
181,56,83166,5,2,0:3:0:0:
181,56,83252,1,2,0:3:0:0:
181,56,83337,2,0,B|152:51|152:51|168:111,1,82.125,0|0,3:0|0:0,0:0:0:0:
124,188,84023,6,0,L|223:177,1,87.5999973266602,4|8,3:3|0:0,0:0:0:0:
286,223,84252,1,0,0:0:0:0:
286,223,84366,2,0,L|373:232,1,87.5999973266602,8|8,3:0|0:0,0:0:0:0:
457,195,84595,1,0,0:0:0:0:
457,195,84709,2,0,L|463:300,1,87.5999973266602,4|8,3:3|0:0,0:0:0:0:
382,153,84937,1,0,0:0:0:0:
382,153,85052,6,0,L|386:65,1,87.5999973266602,8|8,3:0|0:0,0:0:0:0:
294,106,85280,1,0,0:0:0:0:
294,106,85395,2,0,P|244:140|201:132,1,87.5999973266602,4|8,3:3|0:0,0:0:0:0:
146,86,85623,1,0,0:0:0:0:
146,86,85737,2,0,P|96:52|53:60,1,87.5999973266602,8|8,3:0|0:0,0:0:0:0:
10,106,85966,1,0,0:0:0:0:
10,106,86080,6,0,B|22:134|16:161|16:161|33:137|67:132,1,109.500004177094,4|0,3:3|0:0,0:0:0:0:
133,174,86423,6,0,P|145:230|181:278,1,87.5999973266602,8|8,3:0|0:0,0:0:0:0:
237,309,86652,1,0,0:0:0:0:
237,309,86766,2,0,P|249:253|285:205,1,87.5999973266602,4|8,3:3|0:0,0:0:0:0:
350,210,86995,1,0,0:0:0:0:
350,210,87109,2,0,P|318:161|310:102,1,87.5999973266602,8|8,3:0|0:0,0:0:0:0:
382,93,87337,1,0,0:0:0:0:
382,93,87452,2,0,L|485:78,1,87.5999973266602,4|8,3:3|0:0,0:0:0:0:
301,54,87680,1,0,0:0:0:0:
301,54,87795,6,0,L|198:39,1,87.5999973266602,8|8,3:0|0:0,0:0:0:0:
311,133,88022,1,0,0:0:0:0:
311,133,88137,2,0,P|351:217|342:234,1,87.5999973266602,4|8,3:3|0:0,0:0:0:0:
432,202,88365,1,0,0:0:0:0:
432,202,88480,2,0,P|379:278|360:279,2,87.5999973266602,8|8|0,3:0|0:0|0:0,0:0:0:0:
312,275,88823,5,0,1:3:0:0:
312,275,88937,1,0,1:3:0:0:
312,275,89052,1,0,1:3:0:0:
258,341,89166,6,0,L|155:356,2,87.5999973266602,10|8|8,2:1|2:1|2:1,0:0:0:0:
312,275,89509,2,0,L|415:290,2,87.5999973266602,10|8|8,2:1|2:1|2:1,0:0:0:0:
233,266,89852,6,0,L|130:281,2,94.899995655823,10|8|8,2:1|2:1|2:1,0:0:0:0:
337,200,90195,2,0,L|440:215,2,94.899995655823,10|8|8,2:1|2:1|2:1,0:0:0:0:
225,186,90537,6,0,L|122:201,2,102.199996881104,10|8|8,2:1|2:1|2:1,0:0:0:0:
345,120,90880,2,0,L|448:135,2,102.199996881104,10|8|8,2:1|2:1|2:1,0:0:0:0:
222,106,91223,6,0,L|108:122,2,109.500004177094,10|8|8,2:1|2:1|2:1,0:0:0:0:
348,40,91566,2,0,L|461:56,2,109.500004177094,10|8|8,2:1|2:1|2:1,0:0:0:0:
153,18,91909,6,0,B|75:14|75:14|123:193,1,246.375009398461,4|0,3:2|0:0,0:0:0:0:
220,161,92252,5,8,0:0:0:0:
220,161,92337,1,8,0:0:0:0:
220,161,92423,2,0,P|211:85|296:146,1,229.949992982483,8|0,3:2|0:0,0:0:0:0:
293,222,92766,5,8,0:0:0:0:
293,222,92852,1,8,0:0:0:0:
293,222,92937,2,0,P|373:269|358:188,1,213.524990225602,8|0,3:2|0:0,0:0:0:0:
382,75,93280,5,8,0:0:0:0:
382,75,93366,1,8,0:0:0:0:
382,75,93452,2,0,B|412:44|448:49|448:49|493:133|423:196,1,197.099993984986,8|0,3:2|0:0,0:0:0:0:
310,124,93795,5,8,0:0:0:0:
310,124,93880,1,8,0:0:0:0:
310,124,93966,2,0,P|272:132|204:109,1,65.6999979949952,8|0,3:2|0:0,0:0:0:0:
144,38,94137,1,8,0:0:0:0:
144,38,94222,1,8,0:0:0:0:
144,38,94309,2,0,P|156:74|209:122,1,65.6999979949952,0|0,3:0|0:0,0:0:0:0:
181,176,94480,2,0,L|152:242,1,65.6999979949952,0|0,0:0|0:0,0:0:0:0:
108,316,94652,5,2,3:2:0:0:
54,150,94823,1,0,0:0:0:0:
102,299,94995,5,2,0:0:0:0:
59,166,95166,1,0,0:0:0:0:
186,367,95337,5,2,0:0:0:0:
223,250,95508,1,0,0:0:0:0:
190,355,95680,5,2,0:0:0:0:
220,262,95851,1,0,0:0:0:0:
320,287,96023,5,2,0:0:0:0:
294,205,96194,1,0,0:0:0:0:
317,278,96366,5,2,0:0:0:0:
296,213,96537,1,0,0:0:0:0:
409,287,96709,5,2,0:0:0:0:
422,246,96880,1,0,0:0:0:0:
410,282,97052,5,2,0:0:0:0:
421,250,97223,1,0,0:0:0:0:
375,164,97395,5,2,3:2:0:0:
375,164,98080,5,10,0:0:0:0:
294,188,98252,1,0,0:0:0:0:
214,163,98423,1,0,0:0:0:0:
162,96,98595,1,0,0:0:0:0:
429,100,98766,5,2,0:0:0:0:
429,100,99452,5,8,0:0:0:0:
474,143,99624,1,0,0:0:0:0:
488,204,99795,1,0,0:0:0:0:
464,263,99967,1,0,0:0:0:0:
214,163,100137,5,2,0:0:0:0:
214,163,100823,5,8,0:0:0:0:
239,243,100995,1,0,0:0:0:0:
306,294,101166,1,0,0:0:0:0:
390,297,101338,1,0,0:0:0:0:
156,225,101509,5,2,0:0:0:0:
156,225,101852,1,0,0:0:0:0:
68,233,102023,1,0,0:0:0:0:
68,233,102109,1,0,0:0:0:0:
68,233,102195,1,10,2:2:0:0:
198,146,102366,1,2,2:0:0:0:
10,161,102537,1,2,2:0:0:0:
117,307,102709,1,2,2:0:0:0:
101,105,102880,5,2,0:0:0:0:
101,105,103566,5,8,0:0:0:0:
184,98,103737,1,0,0:0:0:0:
259,137,103909,1,0,0:0:0:0:
301,210,104080,1,0,0:0:0:0:
35,158,104252,5,2,0:0:0:0:
35,158,104937,5,8,0:0:0:0:
77,110,105109,1,0,0:0:0:0:
69,47,105280,1,0,0:0:0:0:
16,13,105452,1,0,0:0:0:0:
259,137,105623,5,2,0:0:0:0:
259,137,106309,5,8,0:0:0:0:
196,189,106481,1,0,0:0:0:0:
203,269,106652,1,0,0:0:0:0:
265,321,106824,1,0,0:0:0:0:
337,154,106995,6,0,P|329:100|252:60,1,123.18750469923,2|0,0:0|0:0,0:0:0:0:
258,58,107337,2,0,B|198:49|211:104|144:90,1,123.18750469923,2|0,0:0|0:0,0:0:0:0:
55,34,107680,6,0,L|61:88,1,41.0625015664101,2|0,2:2|0:0,0:0:0:0:
75,193,107852,2,0,L|70:152,1,41.0625015664101,2|0,2:2|0:0,0:0:0:0:
53,15,108023,5,2,2:2:0:0:
78,212,108195,1,2,2:2:0:0:
258,58,108366,6,0,L|441:73,1,180.675005513764,4|0,3:2|0:0,0:0:0:0:
436,205,108709,2,0,B|419:240|419:240|387:149,1,120.450003675842,8|0,0:1|0:0,0:0:0:0:
311,167,109052,1,0,0:0:0:0:
466,127,109223,1,0,3:0:0:0:
341,258,109395,1,8,0:1:0:0:
475,121,109566,1,8,0:2:0:0:
262,234,109737,6,0,B|164:239|218:300|102:301,1,180.675005513764,8|0,3:2|0:0,0:0:0:0:
21,347,110080,2,0,B|32:367|59:362|59:362|87:333|81:293,1,120.450003675842,8|0,0:1|0:0,0:0:0:0:
67,124,110423,1,0,0:0:0:0:
118,220,110595,1,0,3:0:0:0:
40,114,110766,1,8,0:1:0:0:
251,222,110937,5,8,0:2:0:0:
251,222,111023,1,8,0:2:0:0:
251,222,111109,2,0,P|291:159|216:91,1,180.675005513764,8|0,3:2|0:0,0:0:0:0:
147,22,111452,2,0,L|163:154,1,120.450003675842,8|8,0:1|0:2,0:0:0:0:
231,311,111795,1,8,0:2:0:0:
120,374,111966,1,0,3:0:0:0:
25,287,112137,1,8,0:1:0:0:
78,169,112309,1,8,0:2:0:0:
231,311,112480,6,0,L|416:318,1,180.675005513764,8|0,3:2|0:0,0:0:0:0:
470,377,112823,2,0,P|434:331|445:270,1,120.450003675842,8|8,0:1|3:2,0:0:0:0:
512,315,113080,1,8,0:2:0:0:
512,315,113166,1,10,0:2:0:0:
485,162,113337,1,2,3:2:0:0:
371,240,113509,1,8,2:1:0:0:
469,149,113680,1,8,0:2:0:0:
330,314,113852,6,0,B|314:352|269:358|269:358|234:306|237:236|322:196,1,246.375009398461,12|0,3:2|0:0,0:0:0:0:
371,240,114195,2,0,L|497:249,1,120.450003675842,8|0,0:1|0:0,0:0:0:0:
232,153,114537,2,0,L|106:162,1,120.450003675842,0|0,0:0|3:0,0:0:0:0:
238,74,114880,1,8,0:1:0:0:
294,212,115052,1,8,0:2:0:0:
160,72,115223,6,0,P|204:2|297:17,1,180.675005513764,8|0,3:2|0:0,0:0:0:0:
232,153,115566,2,0,P|182:132|161:68,1,120.450003675842,8|0,0:1|0:0,0:0:0:0:
316,116,115909,1,0,0:0:0:0:
253,243,116080,1,0,3:0:0:0:
146,84,116252,2,0,L|19:90,1,120.450003675842,8|8,0:1|0:0,0:0:0:0:
147,244,116595,5,8,0:1:0:0:
198,158,116766,1,8,0:0:0:0:
159,258,116937,1,8,0:1:0:0:
152,67,117109,1,8,0:0:0:0:
251,233,117280,5,8,0:1:0:0:
65,272,117452,1,8,0:0:0:0:
269,246,117623,1,8,0:1:0:0:
24,188,117795,1,8,0:0:0:0:
275,287,117966,5,2,0:3:0:0:
308,311,118051,1,2,0:3:0:0:
350,316,118137,1,2,0:3:0:0:
389,301,118223,1,2,0:3:0:0:
415,269,118309,5,2,0:3:0:0:
421,239,118394,1,2,0:3:0:0:
418,210,118480,1,2,0:3:0:0:
404,183,118566,1,2,0:3:0:0:
382,163,118652,5,2,0:3:0:0:
365,145,118737,1,2,0:3:0:0:
354,124,118823,1,2,0:3:0:0:
351,100,118909,1,2,0:3:0:0:
355,76,118995,5,8,0:2:0:0:
362,59,119080,1,8,0:2:0:0:
374,46,119166,1,8,0:2:0:0:
389,35,119252,1,8,0:2:0:0:
426,101,119337,6,0,B|363:146|363:146|266:136,1,164.250006265641,8|0,0:1|0:0,0:0:0:0:
225,80,119595,1,8,0:0:0:0:
225,80,119680,1,8,0:1:0:0:
279,215,119852,1,0,0:0:0:0:
282,255,119937,1,8,0:0:0:0:
286,296,120023,2,0,L|294:386,1,82.1250031328203,8|0,0:1|0:0,0:0:0:0:
205,287,120195,1,0,0:0:0:0:
205,287,120280,1,8,0:0:0:0:
205,287,120366,1,8,0:1:0:0:
365,267,120537,1,0,0:0:0:0:
162,351,120709,6,0,P|127:312|176:207,1,164.250006265641,8|0,0:1|0:0,0:0:0:0:
239,211,120966,1,8,0:0:0:0:
239,211,121052,1,8,0:1:0:0:
171,81,121223,1,0,0:0:0:0:
130,85,121308,1,8,0:0:0:0:
89,89,121395,2,0,L|-2:98,1,82.1250031328203,8|0,0:1|0:0,0:0:0:0:
122,171,121566,1,0,0:0:0:0:
122,171,121652,1,8,0:0:0:0:
122,171,121737,1,8,0:1:0:0:
105,9,121909,1,0,0:0:0:0:
246,118,122080,6,0,P|348:132|403:98,1,164.250006265641,8|0,0:1|0:0,0:0:0:0:
436,33,122337,1,8,0:0:0:0:
436,33,122423,1,8,0:1:0:0:
399,202,122595,1,0,0:0:0:0:
403,242,122680,1,8,0:0:0:0:
406,283,122766,2,0,L|413:374,1,82.1250031328203,8|0,0:1|0:0,0:0:0:0:
491,260,122937,1,0,0:0:0:0:
491,260,123023,1,8,0:0:0:0:
491,260,123109,1,8,0:1:0:0:
325,269,123280,1,0,0:0:0:0:
461,139,123452,6,0,B|481:106|481:106|346:122,1,164.250006265641,8|0,0:1|0:0,0:0:0:0:
279,136,123709,1,8,0:0:0:0:
279,136,123795,1,8,0:1:0:0:
405,292,123966,1,0,0:0:0:0:
345,348,124052,1,0,0:0:0:0:
268,334,124137,6,0,B|271:292|271:292|274:289|274:289|267:289|267:289|271:284|271:284|275:228,1,109.5,8|4,0:0|3:2,0:0:0:0:
87,200,124823,6,0,B|99:234|131:244|131:244|196:233|212:151,1,164.250006265641,10|0,0:1|0:0,0:0:0:0:
173,111,125080,1,2,0:3:0:0:
173,111,125166,1,8,0:1:0:0:
77,309,125337,6,0,L|81:355,1,27.375,2|0,0:3|0:0,0:0:0:0:
264,247,125509,6,0,L|434:258,1,164.250006265641,10|0,0:1|0:0,0:0:0:0:
512,265,125766,1,2,0:3:0:0:
512,265,125852,1,8,0:1:0:0:
332,175,126023,6,0,L|329:147,1,27.375,2|0,0:3|0:0,0:0:0:0:
402,26,126195,6,0,P|351:93|254:73,1,164.250006265641,10|0,0:1|0:0,0:0:0:0:
226,25,126452,1,2,0:3:0:0:
226,25,126537,1,8,0:1:0:0:
457,106,126709,6,0,L|497:110,1,27.375,2|0,0:3|0:0,0:0:0:0:
332,175,126880,6,0,B|302:271|364:248|340:333,1,164.250006265641,10|0,0:1|0:0,0:0:0:0:
263,370,127137,1,2,0:3:0:0:
263,370,127223,1,8,0:1:0:0:
406,220,127395,6,0,L|433:217,1,27.375,2|0,0:3|0:0,0:0:0:0:
417,354,127566,6,0,L|423:294,1,54.75,10|2,0:3|0:3,0:0:0:0:
410,86,127737,2,0,L|416:146,1,54.75,2|2,0:3|0:3,0:0:0:0:
340,362,127909,6,0,L|346:302,1,54.75,10|2,0:3|0:3,0:0:0:0:
333,78,128080,2,0,L|339:138,1,54.75,2|2,0:3|0:3,0:0:0:0:
263,370,128252,6,0,L|269:310,1,54.75,10|2,0:3|0:3,0:0:0:0:
256,70,128423,2,0,L|262:130,1,54.75,10|2,0:3|0:3,0:0:0:0:
186,378,128595,6,0,L|192:318,1,54.75,10|2,0:3|0:3,0:0:0:0:
179,62,128766,2,0,L|185:122,1,54.75,10|2,0:3|0:3,0:0:0:0:
182,138,130309,6,0,B|120:165|145:228|37:260|37:260|105:238|219:264,1,328.5,4|0,3:2|0:0,0:0:0:0:
290,267,130652,2,0,B|351:239|326:176|434:144|434:144|366:166|252:140,1,328.5,0|0,3:0|0:0,0:0:0:0:
236,202,130995,5,4,0:3:0:0:
207,250,131080,1,8,0:0:0:0:
215,306,131166,1,8,0:0:0:0:
257,344,131252,1,8,0:0:0:0:
313,348,131337,2,0,B|372:337|380:287|380:287|366:307|350:312,1,123.18750469923,0|0,3:0|0:0,0:0:0:0:
215,306,131680,6,0,B|178:328|178:328|111:298|103:206|184:169,1,246.375009398461,0|0,3:0|0:0,0:0:0:0:
310,215,132023,5,2,0:3:0:0:
366,209,132108,1,2,0:3:0:0:
411,175,132194,1,2,0:3:0:0:
432,122,132280,1,2,0:3:0:0:
383,57,132366,5,4,0:3:0:0:
326,62,132451,1,2,0:0:0:0:
281,96,132537,1,2,0:3:0:0:
260,149,132623,1,2,0:3:0:0:
310,215,132709,6,0,B|343:253|327:305|327:305|316:284|284:272,1,123.18750469923,0|0,3:0|0:0,0:0:0:0:
261,345,133052,6,0,B|215:354|215:354|156:337|136:266,1,164.250006265641,0|0,3:0|0:0,0:0:0:0:
0,236,133309,2,0,B|26:274|26:274|79:304|144:268,1,164.250006265641,0|0,3:0|0:0,0:0:0:0:
175,203,133566,6,0,L|198:157,1,41.0625015664101,0|0,3:0|0:0,0:0:0:0:
252,33,133737,6,0,B|233:4|203:0|203:0|154:33|170:90,1,164.250006265641,8|0,3:1|0:0,0:0:0:0:
263,214,133995,2,0,B|297:212|316:188|316:188|312:129|254:114,1,164.250006265641,0|0,3:0|0:0,0:0:0:0:
113,146,134252,6,0,L|63:156,1,41.0625015664101,0|0,3:0|0:0,0:0:0:0:
87,296,134423,6,0,B|83:325|108:368|108:368|174:332|179:256,1,164.250006265641,0|0,3:0|0:0,0:0:0:0:
247,317,134680,2,0,B|243:346|208:381|208:381|153:329|168:254,1,164.250006265641,0|0,3:0|0:0,0:0:0:0:
181,229,134937,6,0,L|188:184,1,41.0625015664101,0|0,3:0|0:0,0:0:0:0:
188,109,135109,6,0,B|217:120|243:111|243:111|252:118|252:118|279:112|308:120,1,123.18750469923,8|0,3:1|0:0,0:0:0:0:
391,98,135452,5,10,0:0:0:0:
398,88,135538,1,10,0:0:0:0:
396,111,135623,5,10,0:0:0:0:
392,75,135709,1,10,0:0:0:0:
399,131,135795,6,0,B|410:177|387:165|397:218,1,82.125,0|0,3:0|0:0,0:0:0:0:
395,344,136137,6,0,B|458:304|458:304|256:281,1,246.375009398461,4|0,3:2|0:0,0:0:0:0:
182,361,136480,5,4,0:3:0:0:
155,310,136565,1,8,0:0:0:0:
154,253,136651,1,8,0:0:0:0:
180,202,136737,1,8,0:0:0:0:
225,168,136823,2,0,B|253:193|282:195|282:195|252:194|223:219,1,123.18750469923,0|0,3:0|0:0,0:0:0:0:
94,189,137166,6,0,B|55:186|45:154|45:154|54:68|150:62|202:117,1,246.375009398461,0|0,3:0|0:0,0:0:0:0:
249,258,137509,5,2,0:3:0:0:
247,307,137595,1,2,0:3:0:0:
218,346,137680,1,2,0:3:0:0:
173,366,137766,1,2,0:3:0:0:
89,383,137852,5,4,0:3:0:0:
91,334,137938,1,2,0:3:0:0:
120,295,138023,1,2,0:3:0:0:
165,275,138109,1,2,0:3:0:0:
226,214,138195,6,0,B|215:146|264:171|254:99,1,123.18750469923,0|0,3:0|0:0,0:0:0:0:
318,198,138537,6,0,B|335:234|374:238|374:238|418:233|418:167,1,164.250006265641,0|0,3:0|0:0,0:0:0:0:
511,120,138795,2,0,B|525:156|500:187|500:187|465:214|418:168,1,164.250006265641,0|0,3:0|0:0,0:0:0:0:
388,96,139052,6,0,L|373:57,1,27.375,0|0,3:0|0:0,0:0:0:0:
236,21,139223,6,0,P|177:49|163:145,1,164.250006265641,8|0,3:1|0:0,0:0:0:0:
301,296,139480,2,0,P|306:230|230:170,1,164.250006265641,0|0,3:0|0:0,0:0:0:0:
121,211,139737,6,0,L|75:228,1,27.375,0|0,3:0|0:0,0:0:0:0:
13,182,139909,6,0,B|55:143|55:143|41:285,1,164.250006265641,0|2,3:0|0:3,0:0:0:0:
35,327,140166,1,2,0:3:0:0:
35,327,140252,1,2,3:3:0:0:
208,319,140423,5,2,0:3:0:0:
208,319,140509,1,2,0:3:0:0:
208,319,140595,1,2,3:3:0:0:
121,362,140766,5,2,0:3:0:0:
121,362,140852,1,2,0:3:0:0:
121,362,140937,2,0,B|117:319|117:319|121:315|121:315|117:272,1,82.125,2|2,3:3|0:0,0:0:0:0:
167,207,141280,6,0,P|132:114|82:200,1,246.375009398461,4|0,3:2|0:0,0:0:0:0:
173,223,141623,6,0,B|227:138|134:83|134:83|27:124|76:232,1,328.5,4|0,3:3|0:0,0:0:0:0:
267,113,141966,1,8,3:2:0:0:
307,108,142051,1,8,0:2:0:0:
348,103,142137,1,8,0:2:0:0:
388,316,142309,6,0,L|206:294,1,164.250006265641,4|0,0:3|3:0,0:0:0:0:
137,355,142566,5,0,0:0:0:0:
137,355,142652,2,0,P|44:320|130:270,1,246.375009398461,0|0,3:0|0:0,0:0:0:0:
153,361,142995,6,0,B|68:415|13:322|13:322|54:215|162:264,1,328.5,4|0,3:3|2:0,0:0:0:0:
243,259,143337,1,8,3:2:0:0:
237,299,143422,1,8,0:2:0:0:
232,340,143508,1,8,0:2:0:0:
212,175,143680,6,0,B|306:157|275:218|368:198,1,164.250006265641,4|0,0:3|3:0,0:0:0:0:
429,117,143937,5,0,0:0:0:0:
429,117,144023,2,0,P|377:33|343:125,1,246.375009398461,0|0,3:0|0:0,0:0:0:0:
443,126,144366,6,0,B|482:42|375:1|375:1|282:55|336:140,1,328.5,4|0,3:3|0:0,0:0:0:0:
478,203,144709,2,0,P|419:258|340:250,1,164.250006265641,0|0,3:0|0:0,0:0:0:0:
262,286,144966,1,0,3:0:0:0:
262,286,145052,2,0,P|190:228|113:248,1,164.250006265641,4|0,0:3|3:0,0:0:0:0:
67,302,145309,5,0,0:0:0:0:
67,302,145395,2,0,L|89:50,1,246.375009398461,0|0,3:0|0:0,0:0:0:0:
74,62,145737,6,0,L|54:291,1,229.949992982483,4|0,3:3|0:0,0:0:0:0:
40,279,146080,6,0,L|59:67,1,213.524990225602,0|0,3:0|2:0,0:0:0:0:
121,210,146423,5,2,0:3:0:0:
135,229,146509,1,2,0:3:0:0:
173,251,146595,1,2,0:3:0:0:
225,250,146680,1,2,0:3:0:0:
289,206,146766,6,0,B|320:166|320:166|388:191|388:191|401:261|401:261|354:290,1,246.375009398461,4|0,3:2|0:0,0:0:0:0:
270,196,147109,6,0,B|311:144|311:144|400:176|400:176|418:268|418:268|356:307,1,328.5,4|0,3:3|0:0,0:0:0:0:
197,172,147452,5,8,3:2:0:0:
202,114,147537,1,8,0:2:0:0:
207,57,147623,1,8,0:2:0:0:
439,65,147795,2,0,B|472:107|472:107|345:82,1,164.250006265641,4|0,0:3|3:0,0:0:0:0:
286,70,148052,5,0,0:0:0:0:
286,70,148137,2,0,P|218:142|317:150,1,246.375009398461,0|0,3:0|0:0,0:0:0:0:
291,56,148480,6,0,B|195:46|188:154|188:154|273:231|330:157,1,328.5,4|0,3:3|0:0,0:0:0:0:
119,94,148823,5,8,3:2:0:0:
61,99,148909,1,8,0:2:0:0:
4,104,148995,1,8,0:2:0:0:
57,278,149166,2,0,B|47:299|62:326|62:326|88:357|141:353|171:324,1,164.250006265641,4|0,0:3|3:0,0:0:0:0:
190,252,149423,5,0,0:0:0:0:
190,252,149509,2,0,P|262:319|270:220,1,246.375009398461,0|0,3:0|0:0,0:0:0:0:
176,247,149852,6,0,B|166:342|274:349|274:349|351:264|277:207,1,328.5,4|0,3:3|0:0,0:0:0:0:
147,84,150195,6,0,B|283:51|256:152|382:117,1,246.375009398461,0|0,3:0|0:0,0:0:0:0:
415,21,150537,2,0,P|377:36|336:35,1,82.1250031328203,4|0,3:3|0:0,0:0:0:0:
196,164,150709,2,0,P|245:197|258:218,1,82.1250031328203,0|0,3:0|0:0,0:0:0:0:
274,349,150880,5,4,3:3:0:0:
206,276,151223,5,4,3:3:0:0:
256,215,151566,6,0,B|266:168|238:184|248:135,1,82.125,4|0,3:3|0:0,0:0:0:0:
249,123,151909,5,10,0:0:0:0:
268,133,151995,1,10,0:0:0:0:
298,121,152080,1,10,0:0:0:0:
302,75,152166,1,10,0:0:0:0:
230,45,152252,2,0,B|173:36|120:79|129:171|129:171|146:135|205:114,1,246.375009398461,0|0,0:0|0:0,0:0:0:0:
201,206,152595,5,8,0:1:0:0:
114,275,152766,1,8,0:0:0:0:
115,262,152852,1,8,0:0:0:0:
117,249,152937,1,8,0:1:0:0:
195,258,153109,5,8,0:0:0:0:
194,271,153195,1,8,0:0:0:0:
192,284,153280,5,2,0:3:0:0:
234,322,153365,1,2,0:3:0:0:
289,337,153451,1,2,0:3:0:0:
345,325,153537,1,2,0:3:0:0:
389,289,153623,6,0,L|401:192,1,82.1250031328203,4|0,3:2|0:0,0:0:0:0:
462,151,153795,1,0,0:0:0:0:
462,151,153880,1,8,0:0:0:0:
462,151,153966,2,0,L|450:54,1,82.1250031328203,8|0,3:1|0:0,0:0:0:0:
367,109,154137,1,8,0:0:0:0:
367,109,154223,1,8,0:0:0:0:
367,109,154309,2,0,P|302:132|268:124,1,82.1250031328203,8|0,3:1|0:0,0:0:0:0:
220,78,154480,2,0,P|155:55|121:63,1,82.1250031328203,0|8,0:0|0:0,0:0:0:0:
70,104,154652,1,8,3:1:0:0:
70,104,154737,1,0,0:0:0:0:
70,104,154823,2,0,L|82:191,1,82.1250031328203,8|0,0:1|0:0,0:0:0:0:
165,195,154995,6,0,L|142:357,1,164.250006265641,8|0,3:1|0:0,0:0:0:0:
73,284,155252,1,8,0:0:0:0:
72,283,155337,2,0,P|42:257|2:249,1,82.1250031328203,8|0,3:1|0:0,0:0:0:0:
160,284,155509,1,8,0:0:0:0:
160,284,155595,1,8,0:0:0:0:
160,284,155680,2,0,P|199:276|230:249,1,82.1250031328203,8|0,3:1|0:0,0:0:0:0:
300,154,155852,1,0,0:0:0:0:
300,154,155937,1,8,0:0:0:0:
300,154,156023,2,0,L|308:243,1,82.1250031328203,8|0,3:1|0:0,0:0:0:0:
384,262,156195,2,0,L|376:351,1,82.1250031328203,8|0,0:1|0:0,0:0:0:0:
296,317,156366,6,0,P|268:307|225:309,1,41.0625015664101,8|0,3:1|0:0,0:0:0:0:
78,367,156537,1,0,0:1:0:0:
78,367,156623,1,8,0:1:0:0:
78,367,156709,2,0,P|98:363|117:355,1,41.0625015664101,8|0,3:1|0:0,0:0:0:0:
177,290,156880,2,0,L|173:240,1,41.0625015664101,8|0,0:1|0:0,0:0:0:0:
164,121,157052,2,0,L|167:161,1,41.0625015664101,8|0,3:1|0:0,0:0:0:0:
271,170,157223,1,0,0:1:0:0:
271,170,157309,1,8,0:1:0:0:
271,170,157395,2,0,P|256:187|237:199,1,41.0625015664101,8|0,3:1|0:0,0:0:0:0:
64,188,157566,2,0,P|83:201|104:207,1,41.0625015664101,0|0,3:0|0:0,0:0:0:0:
247,78,157995,5,2,0:3:0:0:
247,78,158080,2,0,L|359:89,1,82.1250031328203,4|0,3:2|0:0,0:0:0:0:
408,55,158252,1,8,0:0:0:0:
408,55,158337,1,8,0:0:0:0:
408,55,158423,2,0,L|489:46,1,82.1250031328203,8|0,0:1|0:0,0:0:0:0:
365,169,158595,1,8,3:2:0:0:
365,169,158680,1,8,0:0:0:0:
365,169,158766,2,0,P|339:204|331:260,1,82.1250031328203,8|0,0:1|0:0,0:0:0:0:
436,360,158937,2,0,P|425:320|401:288,1,82.1250031328203,8|0,0:1|0:0,0:0:0:0:
248,278,159109,6,0,L|69:299,1,164.250006265641,8|8,3:1|0:2,0:0:0:0:
16,236,159366,1,8,0:2:0:0:
16,236,159452,2,0,P|22:198|56:160,1,82.1250031328203,8|0,0:1|0:0,0:0:0:0:
53,75,159623,1,8,3:2:0:0:
53,75,159709,1,8,0:2:0:0:
53,75,159795,2,0,P|88:61|138:71,1,82.1250031328203,8|0,0:1|0:0,0:0:0:0:
168,153,159966,2,0,P|208:159|246:145,1,82.1250031328203,8|0,0:1|0:0,0:0:0:0:
322,57,160137,1,8,3:2:0:0:
322,57,160223,1,8,0:2:0:0:
322,57,160309,2,0,L|328:149,1,82.1250031328203,8|0,0:1|0:0,0:0:0:0:
406,164,160480,6,0,L|394:348,1,164.250006265641,8|8,3:1|0:2,0:0:0:0:
316,270,160737,1,8,0:2:0:0:
316,270,160823,2,0,P|278:251|225:257,1,82.1250031328203,8|0,0:1|0:0,0:0:0:0:
124,345,160995,1,8,3:2:0:0:
124,345,161080,1,8,0:2:0:0:
124,345,161166,2,0,P|164:345|200:326,1,82.1250031328203,8|0,0:1|0:1,0:0:0:0:
208,174,161337,1,8,0:2:0:0:
208,174,161423,1,8,0:2:0:0:
208,174,161509,5,2,0:3:0:0:
197,156,161595,1,2,0:3:0:0:
178,133,161680,1,2,0:3:0:0:
130,119,161766,1,2,0:3:0:0:
65,155,161852,2,0,B|12:206|20:286|48:331|48:331|54:288|122:249,1,246.375009398461,2|0,3:1|0:0,0:0:0:0:
160,242,162195,6,0,L|175:338,1,82.1250031328203,2|0,0:1|0:0,0:0:0:0:
248,367,162366,6,0,L|259:291,1,76.6499976608277,2|0,0:1|0:0,0:0:0:0:
339,245,162537,6,0,L|349:315,1,71.1749967418672,2|0,0:1|0:0,0:0:0:0:
428,350,162709,6,0,L|438:285,1,65.6999979949952,2|2,0:3|0:3,0:0:0:0:
482,217,162880,6,0,B|464:196|465:165|465:165|456:194|429:202,1,109.5,2|2,3:0|0:0,0:0:0:0:
339,245,163566,6,0,L|188:260,1,109.500004177094,4|8,3:3|0:0,0:0:0:0:
171,319,163795,1,0,0:0:0:0:
171,319,163909,2,0,P|211:245|200:190,1,109.500004177094,8|8,3:0|0:0,0:0:0:0:
133,185,164137,1,0,0:0:0:0:
133,185,164251,2,0,P|93:111|104:56,1,109.500004177094,4|8,3:3|0:0,0:0:0:0:
161,34,164480,5,0,0:0:0:0:
161,34,164595,2,0,L|280:41,1,109.500004177094,8|8,3:0|0:0,0:0:0:0:
336,122,164823,1,0,0:0:0:0:
336,122,164937,2,0,L|325:6,2,109.500004177094,4|8|0,3:3|0:0|0:0,0:0:0:0:
400,181,165280,2,0,L|389:297,2,109.500004177094,8|8|0,3:0|0:0|0:0,0:0:0:0:
311,213,165623,6,0,P|246:238|228:222,1,73,4|0,3:3|0:0,0:0:0:0:
159,188,165966,6,0,L|179:309,1,109.500004177094,8|8,3:0|0:0,0:0:0:0:
106,333,166195,1,0,0:0:0:0:
106,333,166309,2,0,L|258:347,1,109.500004177094,4|8,3:3|0:0,0:0:0:0:
295,325,166537,1,0,0:0:0:0:
295,325,166651,2,0,L|447:311,1,109.500004177094,8|8,3:0|0:0,0:0:0:0:
472,362,166880,1,0,0:0:0:0:
472,362,166995,6,0,P|419:260|430:229,1,109.500004177094,4|8,3:3|0:0,0:0:0:0:
362,199,167223,1,0,0:0:0:0:
362,199,167338,2,0,P|415:97|404:66,1,109.500004177094,8|8,3:0|0:0,0:0:0:0:
337,37,167566,1,0,0:0:0:0:
337,37,167680,2,0,L|465:26,2,109.500004177094,4|8|0,3:3|0:0|0:0,0:0:0:0:
267,84,168023,2,0,L|157:74,2,109.500004177094,8|8|0,3:0|0:0|0:0,0:0:0:0:
342,120,168366,5,0,1:0:0:0:
342,120,168480,1,0,1:0:0:0:
342,120,168595,1,0,1:0:0:0:
428,139,168709,6,0,L|415:251,2,87.5999973266602,10|8|8,0:1|0:1|0:1,0:0:0:0:
342,120,169052,2,0,L|329:11,2,87.5999973266602,10|8|8,0:1|0:1|0:1,0:0:0:0:
331,205,169395,6,0,L|318:317,2,94.899995655823,10|8|8,0:1|0:1|0:1,0:0:0:0:
254,130,169737,2,0,L|241:21,2,94.899995655823,10|8|8,0:1|0:1|0:1,0:0:0:0:
236,232,170080,6,0,L|223:344,2,102.199996881104,10|8|8,0:1|0:1|0:1,0:0:0:0:
163,126,170423,2,0,L|150:17,2,102.199996881104,10|8|8,0:1|0:1|0:1,0:0:0:0:
141,252,170766,6,0,L|128:364,2,109.500004177094,10|8|8,0:1|0:1|0:1,0:0:0:0:
72,117,171109,2,0,L|59:8,2,109.500004177094,10|8|8,0:1|0:1|0:1,0:0:0:0:
160,161,171452,6,0,P|285:168|415:128,1,246.375009398461,4|0,3:2|0:0,0:0:0:0:
331,259,171795,5,8,0:0:0:0:
331,259,171880,1,8,0:0:0:0:
331,259,171966,2,0,B|340:307|340:307|273:336|192:315|182:234,1,246.375009398461,8|0,3:2|0:0,0:0:0:0:
156,126,172309,5,8,0:0:0:0:
156,126,172394,1,8,0:0:0:0:
156,126,172480,2,0,B|115:147|115:147|339:168,1,246.375009398461,8|0,3:2|0:0,0:0:0:0:
363,108,172823,5,8,0:0:0:0:
363,108,172909,1,8,0:0:0:0:
363,108,172995,2,0,P|324:192|421:261,1,229.949992982483,8|0,3:2|0:0,0:0:0:0:
508,194,173337,5,8,0:0:0:0:
508,194,173423,1,8,0:0:0:0:
508,194,173509,2,0,B|514:99|514:99|387:194,1,229.949992982483,8|0,3:2|0:0,0:0:0:0:
320,280,173851,5,8,2:0:0:0:
320,280,173937,1,8,2:0:0:0:
320,280,174023,2,0,B|398:332|398:332|379:175,1,229.949992982483,8|0,3:2|0:0,0:0:0:0:
310,120,174366,5,8,0:0:0:0:
310,120,174452,1,8,0:0:0:0:
310,120,174537,2,0,P|291:185|158:155,1,213.524990225602,8|0,3:2|0:0,0:0:0:0:
34,148,174880,5,8,0:0:0:0:
34,148,174966,1,8,0:0:0:0:
34,148,175051,2,0,P|99:131|140:262,1,213.524990225602,8|0,3:2|0:0,0:0:0:0:
197,374,175394,5,8,0:0:0:0:
197,374,175480,1,8,0:0:0:0:
197,374,175565,2,0,P|150:325|242:224,1,213.524990225602,8|0,3:2|0:0,0:0:0:0:
324,279,175909,5,8,0:0:0:0:
324,279,175995,1,8,0:0:0:0:
324,279,176080,2,0,B|289:318|289:318|299:156,1,197.099993984986,8|0,3:2|0:0,0:0:0:0:
212,104,176423,5,8,0:0:0:0:
212,104,176509,1,8,0:0:0:0:
212,104,176595,2,0,P|276:166|378:102,1,197.099993984986,8|0,3:2|0:0,0:0:0:0:
389,44,176937,5,8,0:0:0:0:
389,44,177023,1,8,0:0:0:0:
389,44,177109,2,0,B|401:145|401:145|387:203|387:203|397:303,1,262.799991979981,8|0,3:2|0:0,0:0:0:0:
294,87,177623,6,0,L|209:79,1,76.6499976608277,2|0,0:0|0:0,0:0:0:0:
217,79,178309,5,0,3:0:0:0:
256,192,178395,12,0,183537,0:0:0:0:
