osu file format v14

[General]
AudioFilename: audio.mp3
AudioLeadIn: 0
PreviewTime: 49395
Countdown: 1
SampleSet: Normal
StackLeniency: 0.7
Mode: 2
LetterboxInBreaks: 0
WidescreenStoryboard: 0

[Editor]
Bookmarks: 84023
DistanceSpacing: 0.1
BeatDivisor: 4
GridSize: 8
TimelineZoom: 2.3

[Metadata]
Title:Magical Mixer
TitleUnicode:Magical Mixer
Artist:YUC'e
ArtistUnicode:YUC'e
Creator:[_-Kukkai-_]
Version:Magic
Source:
Tags:
BeatmapID:1779073
BeatmapSetID:851005

[Difficulty]
HPDrainRate:6
CircleSize:4.2
OverallDifficulty:9.5
ApproachRate:9.5
SliderMultiplier:2
SliderTickRate:2

[Events]
//Background and Video events
0,0,"blazblue_blonde_hair_bow_candy_collar_green_eyes_gurasion__gurasion__halloween_headband_long_hair_platinum_the_trinity_thighhighs_twintails_1600x900.jpg",0,0
//Break Periods
//Storyboard Layer 0 (Background)
//Storyboard Layer 1 (Fail)
//Storyboard Layer 2 (Pass)
//Storyboard Layer 3 (Foreground)
//Storyboard Sound Samples

[TimingPoints]
1052,342.857142857143,4,2,0,60,1,0
1395,342.857142857143,4,2,2,40,1,0
12366,-80,4,2,2,60,0,0
12452,-80,4,2,2,30,0,0
12880,-80,4,2,2,60,0,0
12966,-80,4,2,2,30,0,0
13395,-80,4,2,2,60,0,0
13480,-80,4,2,2,30,0,0
13909,-80,4,2,2,60,0,0
13995,-80,4,2,2,30,0,0
14423,-80,4,2,2,60,0,0
14509,-80,4,2,2,30,0,0
14766,-80,4,2,2,60,0,0
14852,-80,4,2,2,30,0,0
15109,-100,4,2,2,60,0,0
15195,-100,4,2,2,40,0,0
17852,-100,4,2,1,40,0,0
28823,-100,4,2,3,40,0,0
39795,-95.2380952380952,4,2,1,60,0,0
45280,-90.9090909090909,4,2,1,60,0,0
48023,-86.9565217391304,4,2,1,60,0,0
48709,-83.3333333333333,4,2,1,60,0,0
49395,-90.9090909090909,4,2,1,60,0,0
50766,-80,4,1,2,60,0,1
51023,-80,4,1,2,5,0,1
51109,-80,4,1,2,60,0,1
51152,-80,4,1,2,20,0,1
51452,-80,4,1,2,60,0,1
51795,-80,4,1,2,60,0,1
52395,-80,4,1,2,5,0,1
52480,-80,4,1,2,60,0,1
53423,-80,4,1,2,5,0,1
53509,-80,4,1,2,60,0,1
53680,-80,4,1,2,5,0,1
53766,-80,4,1,2,60,0,1
53937,-80,4,1,2,5,0,1
54023,-80,4,1,2,60,0,1
54109,-80,4,1,2,5,0,1
54195,-80,4,1,2,60,0,1
54366,-80,4,1,2,5,0,1
54452,-80,4,1,2,60,0,1
54623,-80,4,1,2,5,0,1
54709,-80,4,1,2,60,0,1
54795,-80,4,1,2,5,0,1
54880,-80,4,1,2,60,0,1
55052,-80,4,1,2,5,0,1
55137,-80,4,1,2,60,0,1
55309,-80,4,1,2,5,0,1
55395,-80,4,1,2,60,0,1
55480,-80,4,1,2,5,0,1
55566,-80,4,1,2,60,0,1
55823,-80,4,1,2,5,0,1
55909,-80,4,1,2,60,0,1
56252,-80,4,1,2,60,0,0
56509,-80,4,1,2,5,0,0
56595,-80,4,1,2,60,0,1
56637,-80,4,1,2,20,0,1
56937,-80,4,1,2,60,0,1
57537,-80,4,1,2,5,0,1
57623,-80,4,1,2,60,0,1
57880,-80,4,1,2,5,0,1
57966,-80,4,1,2,60,0,1
58909,-80,4,1,2,5,0,1
58995,-80,4,1,2,60,0,1
59166,-80,4,1,2,5,0,1
59252,-80,4,1,2,60,0,1
59423,-80,4,1,2,5,0,1
59509,-80,4,1,2,60,0,1
59595,-80,4,1,2,5,0,1
59680,-80,4,1,2,60,0,1
59852,-80,4,1,2,5,0,1
59937,-80,4,1,2,60,0,1
60109,-80,4,1,2,5,0,1
60195,-80,4,1,2,60,0,1
60280,-80,4,1,2,5,0,1
60366,-80,4,1,2,60,0,1
61395,-80,4,1,2,60,0,0
61652,-80,4,1,2,5,0,0
61737,-80,4,1,2,60,0,1
61995,-80,4,1,2,5,0,1
62080,-80,4,1,2,60,0,1
62852,-80,4,1,2,5,0,1
62937,-80,4,1,2,60,0,1
63023,-80,4,1,2,5,0,1
63109,-80,4,1,2,60,0,1
63366,-80,4,1,2,5,0,1
63452,-80,4,1,2,60,0,1
63709,-80,4,1,2,5,0,1
63795,-80,4,1,2,60,0,1
64223,-80,4,1,2,5,0,1
64309,-80,4,1,2,60,0,1
64395,-80,4,1,2,5,0,1
64480,-80,4,1,2,60,0,1
64737,-80,4,1,2,5,0,1
64823,-80,4,1,2,60,0,1
65080,-80,4,1,2,5,0,1
65166,-80,4,1,2,60,0,1
65337,-80,4,1,2,5,0,1
65423,-80,4,1,2,60,0,1
65595,-80,4,1,2,5,0,1
65680,-80,4,1,2,60,0,1
65766,-80,4,1,2,5,0,1
65852,-80,4,1,2,60,0,1
66109,-80,4,1,2,5,0,1
66195,-80,4,1,2,60,0,1
66452,-80,4,1,2,5,0,1
66537,-80,4,1,2,60,0,1
71337,-80,4,1,1,60,0,0
72709,-100,4,1,1,60,0,0
73052,-66.6666666666667,4,1,1,60,0,1
76823,-62.5,4,1,1,60,0,1
77509,-58.8235294117647,4,1,1,60,0,1
78195,-100,4,1,1,60,0,0
78537,-66.6666666666667,4,1,1,60,0,1
82309,-80,4,1,1,60,0,0
83680,-100,4,1,1,60,0,0
84023,-80,4,1,1,60,0,1
88823,-80,4,1,1,60,0,0
89166,-80,4,1,1,60,0,0
91909,-80,4,1,1,60,0,0
94652,-100,4,1,1,60,0,0
97395,-100,4,2,1,40,0,0
108366,-100,4,2,1,40,0,0
119337,-95.2380952380952,4,2,1,60,0,0
124823,-90.9090909090909,4,2,1,60,0,0
127566,-86.9565217391304,4,2,1,60,0,0
128252,-83.3333333333333,4,2,1,60,0,0
128937,-100,4,2,1,60,0,0
130309,-80,4,1,1,60,0,1
135795,-80,4,1,1,60,0,0
136137,-80,4,1,1,60,0,1
140937,-80,4,1,1,60,0,0
141280,-80,4,1,1,60,0,1
150880,-80,4,1,1,60,0,0
152252,-100,4,1,1,60,0,0
152595,-80,4,1,1,60,0,0
153623,-66.6666666666667,4,1,1,60,0,1
156366,-62.5,4,1,1,60,0,1
157052,-58.8235294117647,4,1,1,60,0,1
157737,-100,4,1,1,60,0,0
158080,-66.6666666666667,4,1,1,60,0,1
161852,-80,4,1,1,60,0,0
163223,-100,4,1,1,60,0,0
163566,-80,4,1,1,60,0,1
168366,-80,4,1,1,60,0,0
168709,-80,4,1,1,60,0,0
171452,-80,4,1,1,60,0,0
172995,-83.3333333333333,4,1,1,60,0,0
174537,-86.9565217391304,4,1,1,60,0,0
176080,-90.9090909090909,4,1,1,60,0,0
177623,-100,4,1,1,60,0,0
178309,-100,4,1,1,60,0,0

[HitObjects]
192,352,1052,6,0,L|80:344,1,100
344,344,1395,5,0,0:0:0:0:
390,336,1480,1,0,0:0:0:0:
396,290,1566,1,0,0:0:0:0:
355,269,1652,1,0,0:0:0:0:
200,264,1737,2,0,L|136:232,1,50
312,200,1909,2,0,L|312:136,1,50
248,144,2080,6,0,L|248:80,1,50
432,352,2252,2,0,L|496:352,1,50
400,296,2423,1,0,0:0:0:0:
354,294,2508,1,0,0:0:0:0:
347,249,2594,1,0,0:0:0:0:
391,235,2680,1,0,0:0:0:0:
192,360,2766,6,0,L|136:328,1,50
208,280,2937,2,0,L|288:280,1,50
64,272,3109,2,0,L|64:200,1,50
128,200,3280,2,0,L|128:112,1,50
64,144,3452,6,0,L|0:144,1,50
64,72,3623,2,0,L|128:72,1,50
184,72,3795,2,0,L|184:144,1,50
112,136,3966,2,0,L|48:136,1,50
288,360,4137,6,0,L|288:280,1,50
216,296,4309,2,0,L|192:232,1,50
368,216,4480,2,0,L|432:200,1,50
248,176,4652,2,0,L|248:112,1,50
312,104,4823,6,0,L|320:32,1,50
120,360,4995,2,0,L|48:336,1,50
144,288,5166,2,0,L|208:288,3,50
384,288,5509,6,0,L|440:288,1,50
384,216,5680,2,0,L|320:216,1,50
176,216,5852,2,0,L|168:144,1,50
240,136,6023,2,0,L|248:80,1,50
176,80,6195,6,0,L|112:80,1,50
336,360,6366,2,0,L|360:280,1,50
288,288,6537,1,0,0:0:0:0:
238,283,6622,1,0,0:0:0:0:
193,262,6708,1,0,0:0:0:0:
158,227,6794,1,0,0:0:0:0:
336,208,6880,6,0,L|360:136,1,50
296,136,7052,2,0,L|208:136,1,50
424,128,7223,2,0,L|480:128,1,50
240,360,7395,2,0,L|208:304,1,50
272,280,7566,6,0,L|344:280,1,50
136,280,7737,2,0,L|64:240,1,50
272,200,7909,2,0,L|200:176,1,50
40,152,8080,2,0,L|112:152,1,50
320,360,8252,6,0,L|344:304,1,50
264,280,8423,2,0,L|216:248,1,50
400,224,8595,2,0,L|456:200,3,50
272,216,8937,6,0,L|208:192,1,50
368,144,9109,2,0,L|424:128,1,50
480,80,9280,2,0,L|480:16,1,50
400,16,9452,2,0,L|320:24,1,50
176,360,9623,6,0,L|152:312,1,50
232,280,9795,2,0,L|248:224,1,50
80,232,9966,2,0,L|8:232,1,50
80,176,10137,2,0,L|160:176,1,50
304,352,10309,6,0,L|376:320,1,50
272,280,10480,2,0,L|240:232,1,50
440,224,10652,2,0,L|496:224,1,50
440,160,10823,2,0,L|368:160,1,50
192,312,10995,6,0,L|128:288,1,50
288,232,11166,2,0,L|352:216,1,50
160,184,11337,2,0,L|248:160,1,50
384,128,11509,2,0,L|448:104,1,50
232,360,11680,6,0,L|168:360,1,50
360,304,11852,2,0,L|432:304,1,50
112,304,12023,2,0,P|48:272|112:224,1,150
280,256,12366,5,0,0:0:0:0:
317,207,12451,1,0,0:0:0:0:
319,145,12537,1,0,0:0:0:0:
285,94,12623,1,0,0:0:0:0:
227,73,12708,1,0,0:0:0:0:
168,90,12794,1,0,0:0:0:0:
368,360,12880,5,0,0:0:0:0:
428,351,12965,1,0,0:0:0:0:
466,303,13051,1,0,0:0:0:0:
460,243,13137,1,0,0:0:0:0:
414,202,13222,1,0,0:0:0:0:
353,205,13308,1,0,0:0:0:0:
160,208,13395,5,0,0:0:0:0:
99,201,13480,1,0,0:0:0:0:
62,153,13566,1,0,0:0:0:0:
71,93,13652,1,0,0:0:0:0:
121,58,13737,1,0,0:0:0:0:
180,70,13823,1,0,0:0:0:0:
384,360,13909,5,0,0:0:0:0:
321,358,13994,1,0,0:0:0:0:
260,344,14080,1,0,0:0:0:0:
203,318,14166,1,0,0:0:0:0:
153,282,14251,1,0,0:0:0:0:
110,236,14337,1,0,0:0:0:0:
304,216,14423,5,0,0:0:0:0:
364,203,14508,1,0,0:0:0:0:
412,164,14594,1,0,0:0:0:0:
438,107,14680,1,0,0:0:0:0:
240,216,14766,5,0,0:0:0:0:
179,204,14851,1,0,0:0:0:0:
133,162,14937,1,0,0:0:0:0:
116,103,15023,1,0,0:0:0:0:
408,352,15109,6,0,L|488:352,1,50
408,288,15280,1,0,0:0:0:0:
358,281,15365,1,0,0:0:0:0:
310,268,15451,1,0,0:0:0:0:
264,248,15537,1,0,0:0:0:0:
328,208,15623,1,0,0:0:0:0:
377,214,15708,1,0,0:0:0:0:
423,197,15794,5,0,0:0:0:0:
458,162,15880,1,0,0:0:0:0:
473,115,15965,1,0,0:0:0:0:
465,66,16051,1,0,0:0:0:0:
437,25,16137,1,0,0:0:0:0:
393,2,16223,1,0,0:0:0:0:
343,1,16308,1,0,0:0:0:0:
299,22,16394,1,0,0:0:0:0:
88,360,16480,5,0,0:0:0:0:
24,360,16566,1,0,0:0:0:0:
88,296,16652,1,0,0:0:0:0:
24,296,16737,1,0,0:0:0:0:
256,288,16823,1,0,0:0:0:0:
304,277,16908,1,0,0:0:0:0:
343,247,16994,1,0,0:0:0:0:
365,202,17080,1,0,0:0:0:0:
168,288,17166,5,0,0:0:0:0:
119,280,17251,1,0,0:0:0:0:
80,249,17337,1,0,0:0:0:0:
63,203,17423,1,0,0:0:0:0:
320,168,17509,1,0,0:0:0:0:
384,168,17595,1,0,0:0:0:0:
320,104,17681,1,0,0:0:0:0:
384,104,17766,1,0,0:0:0:0:
152,368,17852,5,0,0:0:0:0:
122,328,17937,1,0,0:0:0:0:
123,279,18023,1,0,0:0:0:0:
155,242,18109,1,0,0:0:0:0:
360,352,18195,2,0,L|232:352,1,100
384,280,18537,2,0,L|488:280,1,100
208,280,18880,2,0,L|104:280,1,100
264,272,19223,6,0,L|320:256,1,50
248,200,19395,2,0,L|240:144,1,50
400,336,19566,1,0,0:0:0:0:
296,288,19737,1,0,0:0:0:0:
280,241,19822,1,0,0:0:0:0:
291,193,19908,1,0,0:0:0:0:
392,184,20080,1,0,0:0:0:0:
152,360,20252,1,0,0:0:0:0:
256,296,20423,1,0,0:0:0:0:
96,296,20595,5,0,0:0:0:0:
66,257,20680,1,0,0:0:0:0:
71,208,20766,1,0,0:0:0:0:
108,177,20852,1,0,0:0:0:0:
320,168,20937,1,0,0:0:0:0:
216,128,21109,1,0,0:0:0:0:
198,83,21194,1,0,0:0:0:0:
222,41,21280,1,0,0:0:0:0:
352,48,21452,1,0,0:0:0:0:
112,360,21623,2,0,L|16:280,1,100
304,352,21966,5,0,0:0:0:0:
348,333,22051,1,0,0:0:0:0:
352,286,22137,1,0,0:0:0:0:
313,260,22223,1,0,0:0:0:0:
136,256,22309,1,0,0:0:0:0:
99,223,22394,1,0,0:0:0:0:
95,175,22480,1,0,0:0:0:0:
126,137,22566,1,0,0:0:0:0:
175,132,22651,5,0,0:0:0:0:
312,136,22823,1,0,0:0:0:0:
64,360,22995,2,0,L|8:240,1,100
264,240,23337,6,0,L|328:240,1,50
264,176,23509,2,0,L|192:176,1,50
400,352,23680,2,0,P|456:336|480:288,1,100
368,280,24023,2,0,L|264:232,1,100
440,208,24366,2,0,P|456:144|416:112,1,100
192,360,24709,6,0,L|96:360,1,50
192,296,24880,2,0,L|272:296,1,50
416,296,25052,2,0,P|432:240|400:192,1,100
360,208,25309,1,0,0:0:0:0:
304,208,25395,1,0,0:0:0:0:
416,144,25566,1,0,0:0:0:0:
176,128,25737,2,0,L|288:128,1,100
40,368,26080,6,0,L|32:312,1,50
96,288,26252,2,0,L|160:288,1,50
352,288,26423,1,0,0:0:0:0:
248,224,26595,1,0,0:0:0:0:
295,209,26680,1,0,0:0:0:0:
343,194,26766,1,0,0:0:0:0:
240,112,26937,1,0,0:0:0:0:
480,104,27109,2,0,L|336:104,1,100
152,368,27452,6,0,L|80:368,1,50
32,328,27623,2,0,L|24:272,1,50
192,256,27795,2,0,L|256:248,1,50
96,192,27966,2,0,L|48:160,1,50
296,352,28137,2,0,L|400:336,1,100
128,304,28480,2,0,L|8:272,1,100
352,288,28823,6,0,P|384:240|336:216,1,100
104,208,29166,2,0,P|48:184|32:136,1,100
96,136,29423,1,0,0:0:0:0:
160,80,29509,1,0,0:0:0:0:
110,70,29594,1,0,0:0:0:0:
61,60,29680,1,0,0:0:0:0:
320,360,29852,1,0,0:0:0:0:
369,354,29937,1,0,0:0:0:0:
411,328,30023,1,0,0:0:0:0:
436,285,30109,1,0,0:0:0:0:
224,272,30195,6,0,L|208:208,1,50
280,192,30366,2,0,L|288:112,1,50
72,352,30537,2,0,L|184:344,1,100
328,344,30880,1,0,0:0:0:0:
200,272,31052,1,0,0:0:0:0:
464,272,31223,6,0,L|480:224,1,50
416,184,31395,2,0,L|344:184,1,50
280,184,31566,2,0,L|272:112,1,50
336,72,31737,2,0,L|416:72,1,50
112,360,31909,5,0,0:0:0:0:
69,339,31994,1,0,0:0:0:0:
70,292,32080,1,0,0:0:0:0:
113,274,32166,1,0,0:0:0:0:
176,272,32252,2,0,L|48:272,1,100
320,360,32595,1,0,0:0:0:0:
369,355,32680,1,0,0:0:0:0:
417,339,32766,1,0,0:0:0:0:
459,314,32852,1,0,0:0:0:0:
224,304,32937,5,0,0:0:0:0:
176,300,33022,1,0,0:0:0:0:
160,255,33108,1,0,0:0:0:0:
194,223,33194,1,0,0:0:0:0:
360,216,33280,1,0,0:0:0:0:
96,352,33452,2,0,L|216:352,2,100
352,352,33966,1,0,0:0:0:0:
401,347,34051,1,0,0:0:0:0:
441,319,34137,1,0,0:0:0:0:
462,274,34223,1,0,0:0:0:0:
240,288,34309,6,0,L|216:240,1,50
288,216,34480,2,0,L|304:152,1,50
120,256,34652,2,0,L|40:256,1,50
16,200,34823,2,0,L|80:200,1,50
264,192,34995,5,0,0:0:0:0:
214,192,35080,1,0,0:0:0:0:
164,192,35166,1,0,0:0:0:0:
400,360,35337,2,0,L|472:360,1,50
400,288,35509,2,0,L|304:280,1,50
176,288,35680,5,0,0:0:0:0:
130,274,35765,1,0,0:0:0:0:
121,228,35851,1,0,0:0:0:0:
158,198,35937,1,0,0:0:0:0:
336,192,36023,2,0,L|416:192,1,50
328,136,36195,2,0,L|304:72,1,50
376,64,36366,6,0,L|392:8,1,50
216,352,36537,2,0,L|128:328,1,50
360,296,36709,1,0,0:0:0:0:
407,282,36794,1,0,0:0:0:0:
444,249,36880,1,0,0:0:0:0:
462,203,36966,1,0,0:0:0:0:
208,256,37052,6,0,L|96:256,1,100
160,200,37309,1,0,0:0:0:0:
392,192,37395,2,0,L|288:192,1,100
344,128,37652,1,0,0:0:0:0:
152,368,37737,6,0,L|32:368,1,100
104,304,37995,1,0,0:0:0:0:
304,304,38080,2,0,L|424:304,1,100
352,232,38337,1,0,0:0:0:0:
104,224,38423,5,0,0:0:0:0:
79,224,38465,1,0,0:0:0:0:
64,205,38508,1,0,0:0:0:0:
70,182,38551,1,0,0:0:0:0:
92,173,38594,1,0,0:0:0:0:
168,176,38680,1,0,0:0:0:0:
400,176,38766,5,0,0:0:0:0:
423,170,38808,1,0,0:0:0:0:
434,148,38851,1,0,0:0:0:0:
426,126,38894,1,0,0:0:0:0:
404,117,38937,1,0,0:0:0:0:
328,112,39023,1,0,0:0:0:0:
144,368,39109,5,0,0:0:0:0:
123,353,39151,1,0,0:0:0:0:
103,338,39194,1,0,0:0:0:0:
83,323,39237,1,0,0:0:0:0:
63,309,39280,1,0,0:0:0:0:
128,304,39366,1,0,0:0:0:0:
192,304,39452,1,0,0:0:0:0:
256,304,39537,1,0,0:0:0:0:
192,248,39623,1,0,0:0:0:0:
128,248,39709,1,0,0:0:0:0:
376,304,39795,6,0,L|480:304,1,104.999996795654
424,240,40052,1,0,0:0:0:0:
136,360,40137,2,0,L|112:248,1,104.999996795654
176,240,40395,1,0,0:0:0:0:
376,240,40480,2,0,L|400:112,1,104.999996795654
328,136,40737,1,0,0:0:0:0:
272,136,40823,2,0,L|400:136,1,104.999996795654
328,72,41080,1,0,0:0:0:0:
160,360,41166,6,0,L|32:360,1,104.999996795654
112,288,41423,1,0,0:0:0:0:
304,280,41509,2,0,L|416:280,1,104.999996795654
360,216,41766,1,0,0:0:0:0:
136,216,41852,2,0,P|112:160|176:128,1,104.999996795654
208,128,42109,1,0,0:0:0:0:
280,128,42195,2,0,P|312:72|248:48,1,104.999996795654
224,40,42452,1,0,0:0:0:0:
32,368,42537,6,0,L|168:368,1,104.999996795654
80,296,42795,1,0,0:0:0:0:
280,296,42880,2,0,L|408:296,1,104.999996795654
328,224,43137,1,0,0:0:0:0:
112,184,43223,2,0,L|216:184,1,104.999996795654
280,184,43480,1,0,0:0:0:0:
344,184,43566,2,0,L|216:184,1,104.999996795654
184,184,43823,1,0,0:0:0:0:
360,360,43909,6,0,L|488:360,1,104.999996795654
408,296,44166,1,0,0:0:0:0:
208,296,44252,2,0,L|344:296,1,104.999996795654
264,232,44509,1,0,0:0:0:0:
80,232,44595,5,0,0:0:0:0:
54,233,44637,1,0,0:0:0:0:
32,219,44680,1,0,0:0:0:0:
20,196,44723,1,0,0:0:0:0:
24,171,44766,1,0,0:0:0:0:
41,151,44809,1,0,0:0:0:0:
66,145,44852,1,0,0:0:0:0:
368,352,44937,2,0,L|376:184,1,157.499995193482
128,360,45280,6,0,P|64:336|120:272,1,165.000005035401
280,256,45623,1,0,0:0:0:0:
136,192,45795,1,0,0:0:0:0:
408,200,45966,2,0,P|472:160|408:104,1,165.000005035401
168,88,46309,1,0,0:0:0:0:
296,48,46480,1,0,0:0:0:0:
56,368,46652,6,0,L|40:184,1,165.000005035401
240,192,46995,1,0,0:0:0:0:
96,120,47166,1,0,0:0:0:0:
472,376,47337,2,0,L|480:192,1,165.000005035401
312,192,47680,1,0,0:0:0:0:
472,112,47852,1,0,0:0:0:0:
232,368,48023,6,0,L|168:368,1,57.5000010967255
24,320,48195,2,0,L|16:248,1,57.5000010967255
240,320,48366,2,0,L|320:320,1,57.5000010967255
448,272,48537,2,0,L|464:200,1,57.5000010967255
216,208,48709,6,0,L|136:208,1,59.9999981689454
376,144,48880,2,0,L|296:144,1,59.9999981689454
96,328,49052,2,0,L|192:328,1,59.9999981689454
336,272,49223,2,0,L|400:272,1,59.9999981689454
160,200,49395,6,0,L|304:200,1,110.000003356934
328,200,49652,1,0,0:0:0:0:
112,128,49737,1,0,0:0:0:0:
168,128,49822,1,0,0:0:0:0:
224,128,49908,1,0,0:0:0:0:
280,128,49994,1,0,0:0:0:0:
64,64,50080,6,0,L|224:64,1,110.000003356934
240,64,50337,1,0,0:0:0:0:
448,344,50423,2,0,L|464:224,1,110.000003356934
200,360,50766,6,0,P|112:352|56:248,1,187.5
280,256,51109,1,0,0:0:0:0:
311,253,51151,1,0,0:0:0:0:
341,248,51194,1,0,0:0:0:0:
371,238,51237,1,0,0:0:0:0:
399,225,51280,1,0,0:0:0:0:
426,208,51323,1,0,0:0:0:0:
450,189,51366,1,0,0:0:0:0:
264,160,51452,6,0,L|184:160,1,62.5
376,160,51623,2,0,L|304:160,1,62.5
96,352,51795,2,0,P|80:280|200:248,1,187.5
352,224,52137,6,0,L|160:176,1,187.5
336,136,52480,6,0,L|416:136,1,62.5
208,128,52652,2,0,L|304:128,1,62.5
472,352,52823,2,0,L|488:240,1,62.5
304,280,52995,2,0,L|216:280,1,62.5
416,280,53166,2,0,P|432:216|304:176,1,187.5
96,368,53509,6,0,L|40:232,1,125
264,248,53766,2,0,L|320:120,1,125
136,120,54023,2,0,L|72:96,1,62.5
368,368,54195,2,0,P|472:352|504:304,1,125
208,336,54452,2,0,P|176:256|200:208,1,125
360,208,54709,2,0,L|432:208,1,62.5
192,208,54880,6,0,P|104:192|64:160,1,125
248,160,55137,2,0,P|168:144|120:104,1,125
320,104,55395,2,0,P|360:88|384:64,1,62.5
96,352,55566,2,0,P|40:320|128:264,1,187.5
168,256,55909,2,0,L|264:256,3,62.5
392,360,56252,6,0,P|464:320|456:192,1,187.5
200,376,56595,5,0,0:0:0:0:
169,368,56637,1,0,0:0:0:0:
139,361,56680,1,0,0:0:0:0:
108,354,56723,1,0,0:0:0:0:
78,346,56766,1,0,0:0:0:0:
48,339,56809,1,0,0:0:0:0:
80,312,56852,1,0,0:0:0:0:
256,272,56937,6,0,L|336:248,1,62.5
88,200,57109,2,0,L|192:176,1,62.5
400,176,57280,2,0,P|464:136|376:88,1,187.5
136,352,57623,6,0,P|120:288|224:264,1,187.5
384,256,57966,2,0,L|464:256,1,62.5
232,176,58137,2,0,L|152:176,1,62.5
464,176,58309,2,0,L|472:88,1,62.5
304,104,58480,2,0,L|200:104,1,62.5
64,368,58652,2,0,P|160:360|232:296,1,187.5
48,280,58995,6,0,P|32:200|112:184,1,125
272,168,59252,2,0,P|344:144|392:88,1,125
176,104,59509,2,0,L|104:64,1,62.5
360,376,59680,2,0,P|400:312|336:288,1,125
176,296,59937,2,0,L|40:256,1,125
224,216,60195,2,0,L|296:192,1,62.5
64,208,60366,6,0,P|112:168|192:160,1,125
240,160,60623,1,0,0:0:0:0:
48,120,60709,2,0,P|128:80|184:80,1,125
232,80,60966,1,0,0:0:0:0:
440,360,61052,2,0,P|480:304|416:288,1,125
376,288,61309,1,0,0:0:0:0:
152,368,61395,2,0,P|64:352|40:240,1,187.5
240,256,61737,6,0,P|312:216|240:184,1,187.5
56,184,62080,2,0,P|80:112|208:112,1,187.5
392,360,62423,2,0,L|456:360,2,62.5
192,360,62680,1,0,0:0:0:0:
344,296,62766,2,0,L|408:272,1,62.5
176,248,62937,2,0,L|136:176,1,62.5
336,184,63109,6,0,L|128:128,1,187.5
392,368,63452,2,0,P|456:336|376:280,1,187.5
208,272,63795,2,0,L|88:272,2,62.5
408,208,64052,1,0,0:0:0:0:
168,200,64137,2,0,L|80:176,1,62.5
272,128,64309,2,0,L|352:104,1,62.5
120,360,64480,6,0,P|56:328|144:264,1,187.5
312,240,64823,2,0,P|176:184|136:136,1,187.5
368,368,65166,2,0,P|432:336|472:272,1,125
224,280,65423,2,0,L|312:280,2,62.5
48,280,65680,2,0,L|16:216,1,62.5
232,200,65852,6,0,P|320:184|408:128,1,187.5
152,352,66195,2,0,P|88:320|168:264,1,187.5
352,256,66537,2,0,L|128:208,1,187.5
352,176,66880,2,0,L|360:112,1,62.5
144,160,67052,2,0,L|104:80,1,62.5
352,360,67223,6,0,P|312:296|184:280,1,187.5
400,224,67566,2,0,P|472:176|384:136,1,187.5
192,360,67909,1,0,0:0:0:0:
132,341,67994,1,0,0:0:0:0:
72,322,68080,1,0,0:0:0:0:
256,272,68166,1,0,0:0:0:0:
96,216,68252,2,0,L|40:176,1,62.5
296,176,68423,2,0,L|216:144,1,62.5
56,352,68595,6,0,P|32:280|144:256,1,187.5
336,240,68937,2,0,P|360:168|256:144,1,187.5
96,352,69280,1,0,0:0:0:0:
153,326,69365,1,0,0:0:0:0:
210,301,69451,1,0,0:0:0:0:
64,256,69537,1,0,0:0:0:0:
264,200,69623,2,0,L|328:176,1,62.5
112,144,69795,2,0,L|192:120,1,62.5
416,344,69966,6,0,P|480:304|400:272,1,187.5
200,272,70309,2,0,P|104:248|24:184,1,187.5
256,192,70652,2,0,P|336:152|264:88,1,187.5
80,360,70995,2,0,P|48:280|136:272,1,187.5
328,360,71337,6,0,B|456:360|456:360|384:360,1,187.5
224,296,71680,2,0,B|352:296|352:296|288:296,1,187.5
48,296,72023,2,0,P|32:224|168:128,1,250
217,126,72451,1,0,0:0:0:0:
280,127,72537,1,0,0:0:0:0:
342,127,72623,1,0,0:0:0:0:
120,352,72709,2,0,P|72:312|144:280,1,150
360,272,73052,6,0,P|432:224|368:192,1,150.000005722046
336,192,73309,1,0,0:0:0:0:
128,192,73395,2,0,P|32:136|32:80,1,150.000005722046
104,104,73652,1,0,0:0:0:0:
264,352,73737,1,0,0:0:0:0:
160,280,73909,1,0,0:0:0:0:
416,288,74080,6,0,P|448:216|384:192,1,150.000005722046
328,192,74337,1,0,0:0:0:0:
160,184,74423,2,0,L|328:136,1,150.000005722046
232,80,74680,1,0,0:0:0:0:
40,352,74766,2,0,P|24:256|56:200,1,150.000005722046
120,208,75023,1,0,0:0:0:0:
288,208,75109,2,0,L|208:176,1,75.0000028610231
384,360,75280,1,0,0:0:0:0:
488,280,75452,5,0,0:0:0:0:
216,280,75623,2,0,L|152:232,1,75.0000028610231
408,192,75795,2,0,P|440:120|384:80,1,150.000005722046
320,80,76052,1,0,0:0:0:0:
112,360,76137,2,0,P|56:304|136:264,1,150.000005722046
160,256,76395,1,0,0:0:0:0:
328,256,76480,1,0,0:0:0:0:
208,176,76652,1,0,0:0:0:0:
456,360,76823,6,0,P|464:256|448:192,1,160
248,344,77080,2,0,L|160:344,1,80
328,248,77337,1,0,0:0:0:0:
80,264,77509,2,0,P|24:200|88:160,1,170.000003242493
256,152,77766,2,0,L|352:120,1,85.0000016212464
96,360,78023,1,0,0:0:0:0:
248,320,78195,6,0,L|264:192,1,100
192,208,78452,1,0,0:0:0:0:
432,344,78537,6,0,P|472:280|416:248,1,150.000005722046
352,248,78795,1,0,0:0:0:0:
168,256,78880,2,0,L|320:208,1,150.000005722046
232,136,79137,1,0,0:0:0:0:
40,136,79223,1,0,0:0:0:0:
176,56,79395,1,0,0:0:0:0:
424,360,79566,6,0,L|272:312,1,150.000005722046
368,240,79823,1,0,0:0:0:0:
160,304,79909,2,0,P|112:240|168:192,1,150.000005722046
224,192,80166,1,0,0:0:0:0:
400,184,80252,1,0,0:0:0:0:
248,96,80423,1,0,0:0:0:0:
480,96,80595,2,0,L|400:96,1,75.0000028610231
208,344,80766,1,0,0:0:0:0:
352,272,80937,6,0,P|408:208|344:176,1,150.000005722046
296,176,81195,1,0,0:0:0:0:
80,176,81280,2,0,P|32:104|120:80,1,150.000005722046
144,64,81537,1,0,0:0:0:0:
328,352,81623,2,0,L|176:336,1,150.000005722046
256,264,81880,1,0,0:0:0:0:
464,272,81966,2,0,L|384:272,1,75.0000028610231
200,272,82137,2,0,L|96:272,1,75.0000028610231
384,360,82309,6,0,P|456:320|360:224,1,250
232,216,82823,1,0,0:0:0:0:
328,136,82995,1,0,0:0:0:0:
168,136,83166,1,0,0:0:0:0:
400,352,83337,2,0,P|472:320|408:232,1,187.5
224,360,83680,2,0,P|112:336|56:288,1,150
344,272,84023,6,0,L|448:216,2,83.3333333333333
152,216,84366,2,0,L|240:176,2,83.3333333333333
440,208,84709,2,0,L|352:160,2,83.3333333333333
224,352,85052,5,0,0:0:0:0:
140,352,85166,1,0,0:0:0:0:
57,352,85280,1,0,0:0:0:0:
296,272,85395,1,0,0:0:0:0:
212,272,85509,1,0,0:0:0:0:
129,272,85623,1,0,0:0:0:0:
368,200,85737,2,0,L|272:160,2,83.3333333333333
96,352,86080,6,0,P|32:288|80:216,1,166.666666666667
272,208,86423,5,0,0:0:0:0:
355,208,86537,1,0,0:0:0:0:
438,208,86651,1,0,0:0:0:0:
192,136,86766,1,0,0:0:0:0:
275,136,86880,1,0,0:0:0:0:
358,136,86994,1,0,0:0:0:0:
72,64,87109,2,0,L|168:40,2,83.3333333333333
408,56,87452,2,0,L|304:24,2,83.3333333333333
160,352,87795,6,0,L|80:312,2,83.3333333333333
408,272,88137,2,0,L|320:240,2,83.3333333333333
56,200,88480,2,0,L|160:160,2,83.3333333333333
336,192,88823,1,0,0:0:0:0:
136,112,88937,1,0,0:0:0:0:
344,120,89052,1,0,0:0:0:0:
120,368,89166,6,0,L|24:368,2,83.3333333333333
208,312,89509,2,0,L|312:312,2,83.3333333333333
120,304,89852,2,0,L|216:304,2,83.3333333333333
32,240,90195,2,0,L|128:240,2,83.3333333333333
160,176,90537,6,0,L|72:176,2,83.3333333333333
272,176,90880,2,0,L|168:176,2,83.3333333333333
384,176,91223,2,0,L|248:176,2,83.3333333333333
288,104,91566,1,0,0:0:0:0:
371,104,91680,1,0,0:0:0:0:
454,104,91794,1,0,0:0:0:0:
120,376,91909,5,4,0:0:0:0:
103,327,91994,1,0,0:0:0:0:
158,297,92080,1,0,0:0:0:0:
217,278,92166,1,0,0:0:0:0:
279,272,92251,1,0,0:0:0:0:
341,279,92337,1,0,0:0:0:0:
168,272,92423,5,4,0:0:0:0:
122,230,92508,1,0,0:0:0:0:
111,169,92594,1,0,0:0:0:0:
137,114,92680,1,0,0:0:0:0:
190,84,92765,1,0,0:0:0:0:
251,92,92851,1,0,0:0:0:0:
464,352,92937,5,4,0:0:0:0:
401,347,93022,1,0,0:0:0:0:
340,336,93108,1,0,0:0:0:0:
281,316,93194,1,0,0:0:0:0:
224,289,93279,1,0,0:0:0:0:
172,255,93365,1,0,0:0:0:0:
400,272,93452,5,4,0:0:0:0:
453,241,93537,1,0,0:0:0:0:
475,184,93623,1,0,0:0:0:0:
456,126,93709,1,0,0:0:0:0:
404,94,93794,1,0,0:0:0:0:
343,101,93880,1,0,0:0:0:0:
160,360,93966,5,4,0:0:0:0:
222,356,94051,1,0,0:0:0:0:
283,342,94137,1,0,0:0:0:0:
340,318,94223,1,0,0:0:0:0:
144,288,94309,5,4,0:0:0:0:
85,270,94394,1,0,0:0:0:0:
52,219,94480,1,0,0:0:0:0:
61,158,94566,1,0,0:0:0:0:
416,352,94652,5,0,0:0:0:0:
460,263,94823,1,0,0:0:0:0:
458,164,94994,1,0,0:0:0:0:
409,78,95166,1,0,0:0:0:0:
326,24,95337,1,0,0:0:0:0:
228,15,95509,1,0,0:0:0:0:
137,53,95680,1,0,0:0:0:0:
74,130,95851,1,0,0:0:0:0:
54,227,96023,5,0,0:0:0:0:
82,322,96194,1,0,0:0:0:0:
172,363,96366,1,0,0:0:0:0:
271,362,96537,1,0,0:0:0:0:
361,319,96709,1,0,0:0:0:0:
424,243,96880,1,0,0:0:0:0:
450,147,97052,1,0,0:0:0:0:
432,50,97223,1,0,0:0:0:0:
280,296,97395,6,0,L|256:64,1,200
448,280,98080,1,0,0:0:0:0:
451,185,98251,1,0,0:0:0:0:
364,148,98422,1,0,0:0:0:0:
472,72,98595,1,0,0:0:0:0:
176,360,98766,6,0,L|64:240,1,150
232,192,99280,1,0,0:0:0:0:
344,192,99452,2,0,L|352:80,1,100
224,104,99795,2,0,L|208:0,1,100
480,368,100137,6,0,L|256:296,1,200
416,256,100652,2,0,L|424:144,1,100
336,88,100995,2,0,L|440:88,2,100
104,360,101509,6,0,P|40:336|128:280,1,200
208,256,102023,2,0,L|296:256,1,50
424,256,102195,2,0,L|440:136,1,100
320,128,102537,2,0,L|440:128,1,100
128,368,102880,6,0,P|88:320|208:264,1,200
328,240,103566,1,0,0:0:0:0:
230,215,103737,1,0,0:0:0:0:
133,191,103908,1,0,0:0:0:0:
112,80,104080,1,0,0:0:0:0:
408,360,104252,5,0,0:0:0:0:
296,304,104423,2,0,P|256:256|344:176,1,200
480,176,104937,2,0,L|368:176,1,100
280,104,105280,2,0,L|408:104,1,100
112,368,105623,6,0,L|320:296,1,200
192,232,106137,1,0,0:0:0:0:
440,360,106309,2,0,L|432:240,1,100
320,232,106652,2,0,L|448:232,1,100
152,368,106995,6,0,P|80:344|48:240,1,150
128,264,107337,2,0,P|192:240|248:144,1,150
56,160,107680,2,0,L|48:48,1,100
344,352,108023,2,0,L|416:240,1,100
144,232,108366,6,0,L|24:200,1,100
304,240,108709,2,0,L|320:168,1,50
256,160,108880,2,0,L|168:152,1,50
400,360,109052,2,0,L|448:248,1,100
200,256,109395,1,0,0:0:0:0:
248,242,109480,1,0,0:0:0:0:
296,228,109566,1,0,0:0:0:0:
344,214,109652,1,0,0:0:0:0:
112,208,109737,5,0,0:0:0:0:
70,185,109822,1,0,0:0:0:0:
70,137,109908,1,0,0:0:0:0:
112,116,109994,1,0,0:0:0:0:
312,360,110080,2,0,L|328:296,1,50
256,288,110252,2,0,L|240:216,1,50
312,224,110423,6,0,L|368:224,1,50
160,216,110595,2,0,L|120:160,1,50
304,144,110766,2,0,L|432:104,1,100
120,376,111109,5,0,0:0:0:0:
74,367,111194,1,0,0:0:0:0:
69,321,111280,1,0,0:0:0:0:
113,304,111366,1,0,0:0:0:0:
272,304,111452,2,0,L|296:248,1,50
232,232,111623,2,0,L|216:160,1,50
392,168,111795,6,0,L|416:104,1,50
344,88,111966,2,0,L|264:88,1,50
56,368,112137,1,0,0:0:0:0:
43,320,112222,1,0,0:0:0:0:
67,278,112308,1,0,0:0:0:0:
113,263,112394,1,0,0:0:0:0:
272,256,112480,6,0,L|336:256,1,50
272,192,112652,2,0,L|192:192,1,50
424,360,112823,2,0,L|432:240,1,100
184,256,113166,1,0,0:0:0:0:
288,192,113337,1,0,0:0:0:0:
48,256,113509,2,0,L|24:200,1,50
80,152,113680,2,0,L|176:152,1,50
368,328,113852,6,0,L|440:328,1,50
368,264,114023,2,0,L|296:264,1,50
128,264,114195,1,0,0:0:0:0:
103,222,114280,1,0,0:0:0:0:
124,178,114366,1,0,0:0:0:0:
171,171,114452,1,0,0:0:0:0:
320,168,114537,6,0,L|328:112,1,50
176,96,114709,2,0,L|112:80,1,50
328,360,114880,1,0,0:0:0:0:
376,350,114965,1,0,0:0:0:0:
421,327,115051,1,0,0:0:0:0:
457,293,115137,1,0,0:0:0:0:
224,280,115223,6,0,L|192:232,1,50
264,208,115395,2,0,L|272:136,1,50
64,360,115566,2,0,L|32:248,1,100
272,264,115909,1,0,0:0:0:0:
112,192,116080,1,0,0:0:0:0:
344,368,116252,1,0,0:0:0:0:
393,359,116337,1,0,0:0:0:0:
435,334,116423,1,0,0:0:0:0:
467,296,116509,1,0,0:0:0:0:
168,288,116595,6,0,L|32:288,1,100
120,224,116852,1,0,0:0:0:0:
288,224,116937,2,0,L|160:224,1,100
240,160,117195,1,0,0:0:0:0:
448,232,117280,2,0,P|472:176|424:144,1,100
392,152,117537,1,0,0:0:0:0:
216,352,117623,2,0,L|216:240,1,100
152,240,117880,1,0,0:0:0:0:
216,192,117966,6,0,L|248:144,1,50
184,120,118137,2,0,L|168:64,1,50
232,48,118309,2,0,L|296:48,1,50
208,16,118480,2,0,L|144:16,1,50
320,352,118652,6,0,L|416:336,1,50
160,360,118823,2,0,L|88:328,1,50
352,352,118995,2,0,L|432:320,1,50
120,360,119166,2,0,L|32:336,1,50
288,248,119337,5,0,0:0:0:0:
144,248,119509,1,0,0:0:0:0:
384,248,119680,2,0,L|512:224,1,104.999996795654
432,160,119937,1,0,0:0:0:0:
176,368,120023,2,0,P|136:328|176:296,1,104.999996795654
216,296,120280,1,0,0:0:0:0:
368,288,120366,1,0,0:0:0:0:
232,208,120537,1,0,0:0:0:0:
472,208,120709,6,0,P|488:144|432:128,1,104.999996795654
408,128,120966,1,0,0:0:0:0:
208,352,121052,2,0,L|56:352,1,104.999996795654
160,280,121309,1,0,0:0:0:0:
344,288,121395,2,0,L|208:288,1,104.999996795654
288,216,121652,1,0,0:0:0:0:
464,216,121737,1,0,0:0:0:0:
144,216,121909,2,0,L|128:152,1,52.4999983978272
288,136,122080,5,0,0:0:0:0:
408,96,122252,1,0,0:0:0:0:
104,352,122423,2,0,P|48:304|96:280,1,104.999996795654
112,264,122680,1,0,0:0:0:0:
288,256,122766,2,0,L|392:256,1,104.999996795654
336,192,123023,1,0,0:0:0:0:
128,184,123109,1,0,0:0:0:0:
272,96,123280,1,0,0:0:0:0:
32,352,123452,6,0,P|32:288|80:280,1,104.999996795654
120,280,123709,1,0,0:0:0:0:
304,280,123795,2,0,P|344:232|288:208,1,104.999996795654
256,208,124052,1,0,0:0:0:0:
72,216,124137,5,0,0:0:0:0:
56,195,124180,1,0,0:0:0:0:
80,183,124222,1,0,0:0:0:0:
103,172,124265,1,0,0:0:0:0:
127,161,124308,1,0,0:0:0:0:
151,150,124351,1,0,0:0:0:0:
175,139,124394,1,0,0:0:0:0:
424,176,124480,6,0,P|448:128|360:88,1,157.499995193482
96,360,124823,6,0,P|40:328|128:272,1,165.000005035401
288,248,125166,1,0,0:0:0:0:
112,160,125337,1,0,0:0:0:0:
376,368,125509,2,0,L|520:368,1,110.000003356934
432,304,125766,1,0,0:0:0:0:
160,304,125852,1,0,0:0:0:0:
280,224,126023,1,0,0:0:0:0:
48,232,126195,6,0,P|40:152|80:120,1,110.000003356934
120,128,126452,1,0,0:0:0:0:
280,128,126537,1,0,0:0:0:0:
416,128,126709,1,0,0:0:0:0:
168,368,126880,2,0,L|32:336,1,110.000003356934
128,264,127137,1,0,0:0:0:0:
400,264,127223,2,0,L|248:264,1,110.000003356934
48,368,127566,6,0,L|8:304,1,57.5000010967255
192,280,127737,2,0,L|200:208,1,57.5000010967255
456,368,127909,2,0,L|488:312,1,57.5000010967255
328,280,128080,2,0,L|320:208,1,57.5000010967255
144,200,128252,2,0,L|40:176,1,59.9999981689454
384,152,128423,2,0,L|288:128,1,59.9999981689454
144,120,128595,2,0,L|48:104,1,59.9999981689454
328,128,128766,2,0,L|432:104,1,59.9999981689454
40,352,128937,6,0,L|248:352,2,200
456,368,129966,2,0,L|480:224,1,100
184,272,130309,6,0,P|280:256|376:192,1,187.5
168,192,130652,1,0,0:0:0:0:
147,215,130694,1,0,0:0:0:0:
118,227,130737,1,0,0:0:0:0:
88,224,130780,1,0,0:0:0:0:
61,209,130823,1,0,0:0:0:0:
44,183,130866,1,0,0:0:0:0:
40,152,130909,1,0,0:0:0:0:
264,352,130995,6,0,L|344:344,1,62.5
112,288,131166,2,0,L|208:272,1,62.5
416,264,131337,2,0,P|408:192|336:192,1,125
296,184,131595,1,0,0:0:0:0:
64,360,131680,6,0,P|40:288|152:272,1,187.5
312,248,132023,2,0,L|416:248,1,62.5
184,152,132195,2,0,L|88:152,1,62.5
392,360,132366,2,0,L|400:280,1,62.5
224,264,132537,2,0,L|312:264,1,62.5
80,264,132709,2,0,P|40:192|144:176,1,187.5
312,360,133052,6,0,L|160:360,1,125
408,280,133309,2,0,L|256:280,1,125
80,272,133566,2,0,L|160:272,1,62.5
360,272,133737,2,0,L|496:216,1,125
232,224,133995,2,0,L|104:176,1,125
368,144,134252,2,0,L|424:88,1,62.5
136,352,134423,6,0,L|304:352,1,125
48,264,134680,2,0,L|200:264,1,125
424,264,134937,2,0,L|328:264,1,62.5
120,256,135109,2,0,P|72:208|168:168,1,187.5
216,160,135452,2,0,L|296:160,3,62.5
48,360,135795,6,0,P|64:288|192:280,1,187.5
352,264,136137,5,0,0:0:0:0:
335,237,136179,1,0,0:0:0:0:
313,215,136222,1,0,0:0:0:0:
287,197,136265,1,0,0:0:0:0:
258,186,136308,1,0,0:0:0:0:
227,180,136351,1,0,0:0:0:0:
196,182,136394,1,0,0:0:0:0:
400,160,136480,6,0,L|464:144,1,62.5
168,96,136652,2,0,L|256:80,1,62.5
464,344,136823,2,0,P|432:256|328:256,1,187.5
96,256,137166,6,0,P|80:184|192:152,1,187.5
360,144,137509,2,0,L|256:144,1,62.5
112,144,137680,2,0,L|32:144,1,62.5
312,352,137852,2,0,L|352:296,1,62.5
176,264,138023,2,0,L|96:256,1,62.5
360,256,138195,2,0,P|264:208|144:200,1,187.5
376,184,138537,6,0,L|504:152,1,125
288,112,138795,2,0,L|440:112,1,125
160,104,139052,2,0,L|64:104,1,62.5
360,328,139223,2,0,P|400:272|336:232,1,125
160,216,139480,2,0,L|16:160,1,125
264,144,139737,2,0,L|160:104,1,62.5
464,360,139909,6,0,P|424:280|360:272,1,125
328,272,140166,1,0,0:0:0:0:
104,280,140252,2,0,P|128:208|208:208,1,125
240,192,140509,1,0,0:0:0:0:
432,200,140595,2,0,P|472:144|416:120,1,125
368,112,140852,1,0,0:0:0:0:
120,376,140937,2,0,P|40:336|72:248,1,187.5
312,328,141280,6,0,P|408:312|464:240,1,187.5
224,264,141623,2,0,P|128:240|96:144,1,187.5
320,152,141966,1,0,0:0:0:0:
382,152,142051,1,0,0:0:0:0:
445,152,142137,1,0,0:0:0:0:
240,152,142223,1,0,0:0:0:0:
440,368,142309,2,0,L|448:288,1,62.5
240,296,142480,2,0,L|152:272,1,62.5
408,240,142652,6,0,P|464:200|376:152,1,187.5
128,232,142995,2,0,P|64:192|152:144,1,187.5
360,360,143337,1,0,0:0:0:0:
297,360,143422,1,0,0:0:0:0:
235,360,143508,1,0,0:0:0:0:
424,288,143595,1,0,0:0:0:0:
200,280,143680,2,0,L|112:280,1,62.5
320,208,143852,2,0,L|344:120,1,62.5
104,296,144023,6,0,P|32:248|112:192,1,187.5
312,192,144366,2,0,L|96:152,1,187.5
344,360,144709,1,0,0:0:0:0:
402,339,144794,1,0,0:0:0:0:
442,292,144880,1,0,0:0:0:0:
176,280,144966,1,0,0:0:0:0:
328,288,145052,2,0,L|416:240,1,62.5
144,208,145223,2,0,L|80:160,1,62.5
280,352,145395,6,0,P|368:320|448:248,1,187.5
200,304,145737,2,0,P|88:304|16:216,1,187.5
344,224,146080,2,0,P|400:168|304:112,1,187.5
136,112,146423,2,0,L|24:112,1,62.5
256,104,146595,2,0,L|368:104,1,62.5
96,360,146766,6,0,P|56:312|152:272,1,187.5
360,264,147109,2,0,L|152:192,1,187.5
360,184,147452,2,0,L|456:184,2,62.5
168,176,147709,1,0,0:0:0:0:
352,368,147795,2,0,L|392:280,1,62.5
120,288,147966,2,0,L|88:216,1,62.5
320,208,148137,6,0,L|104:168,1,187.5
376,160,148480,2,0,L|160:120,1,187.5
392,368,148823,1,0,0:0:0:0:
441,329,148908,1,0,0:0:0:0:
491,291,148994,1,0,0:0:0:0:
208,272,149080,1,0,0:0:0:0:
360,264,149166,2,0,L|440:208,1,62.5
192,208,149337,2,0,L|128:168,1,62.5
344,192,149509,6,0,P|432:160|456:72,1,187.5
224,200,149852,2,0,P|320:160|352:80,1,187.5
144,376,150195,2,0,P|72:352|48:232,1,187.5
368,368,150537,2,0,L|368:216,1,125
32,368,150880,6,0,L|24:144,1,187.5
472,368,151223,2,0,L|496:168,1,187.5
184,280,151566,2,0,P|168:208|320:160,1,250
366,149,151994,1,0,0:0:0:0:
429,150,152080,1,0,0:0:0:0:
491,151,152166,1,0,0:0:0:0:
88,368,152252,6,0,P|32:336|80:288,1,150
456,264,152595,5,0,0:0:0:0:
192,192,152766,1,0,0:0:0:0:
254,192,152851,1,0,0:0:0:0:
317,192,152937,1,0,0:0:0:0:
32,112,153109,1,0,0:0:0:0:
94,112,153194,1,0,0:0:0:0:
157,112,153280,1,0,0:0:0:0:
344,112,153366,1,0,0:0:0:0:
160,48,153452,1,0,0:0:0:0:
352,56,153537,1,0,0:0:0:0:
144,360,153623,6,0,L|16:272,1,150.000005722046
96,224,153880,1,0,0:0:0:0:
312,224,153966,2,0,P|256:168|152:160,1,150.000005722046
120,160,154223,1,0,0:0:0:0:
384,360,154309,1,0,0:0:0:0:
504,296,154480,1,0,0:0:0:0:
432,256,154566,1,0,0:0:0:0:
224,240,154652,2,0,L|328:240,1,75.0000028610231
88,224,154823,1,0,0:0:0:0:
216,136,154995,6,0,L|40:80,1,150.000005722046
72,24,155252,1,0,0:0:0:0:
320,352,155337,2,0,L|480:328,1,150.000005722046
384,248,155595,1,0,0:0:0:0:
136,248,155680,2,0,L|296:208,1,150.000005722046
208,160,155937,1,0,0:0:0:0:
448,160,156023,2,0,B|488:80|488:80|472:0,1,150.000005722046
176,360,156366,6,0,L|8:288,1,160
296,264,156623,2,0,L|360:200,1,80
184,120,156880,1,0,0:0:0:0:
472,360,157052,2,0,L|272:352,1,170.000003242493
240,352,157309,1,0,0:0:0:0:
40,344,157395,1,0,0:0:0:0:
200,248,157566,1,0,0:0:0:0:
56,192,157737,6,0,L|40:72,1,100
376,88,157995,1,0,0:0:0:0:
176,352,158080,6,0,P|160:272|232:248,1,150.000005722046
288,240,158337,1,0,0:0:0:0:
56,240,158423,2,0,P|64:152|144:144,1,150.000005722046
192,136,158680,1,0,0:0:0:0:
392,136,158766,1,0,0:0:0:0:
240,56,158937,2,0,L|224:144,1,75.0000028610231
488,360,159109,6,0,P|424:240|352:240,1,150.000005722046
352,240,159366,1,0,0:0:0:0:
128,240,159452,2,0,L|288:160,1,150.000005722046
288,104,159709,1,0,0:0:0:0:
48,328,159795,2,0,L|24:168,1,150.000005722046
376,176,160137,2,0,L|488:168,1,75.0000028610231
176,352,160309,1,0,0:0:0:0:
488,280,160480,6,0,P|440:184|360:184,1,150.000005722046
336,176,160737,1,0,0:0:0:0:
64,256,160823,2,0,P|104:160|168:152,1,150.000005722046
208,144,161080,1,0,0:0:0:0:
456,152,161166,2,0,P|416:72|336:56,1,150.000005722046
296,48,161423,1,0,0:0:0:0:
56,352,161509,2,0,L|152:312,1,75.0000028610231
368,312,161680,2,0,L|272:272,1,75.0000028610231
32,272,161852,6,0,P|48:184|200:144,1,250
328,144,162366,1,0,0:0:0:0:
192,64,162537,1,0,0:0:0:0:
360,64,162709,1,0,0:0:0:0:
88,368,162880,2,0,P|40:296|144:248,1,187.5
392,224,163223,6,0,P|480:168|504:96,1,150
216,360,163566,5,0,0:0:0:0:
132,360,163680,1,0,0:0:0:0:
49,360,163794,1,0,0:0:0:0:
280,296,163909,1,0,0:0:0:0:
196,296,164023,1,0,0:0:0:0:
113,296,164137,1,0,0:0:0:0:
344,232,164252,1,0,0:0:0:0:
260,232,164366,1,0,0:0:0:0:
177,232,164480,1,0,0:0:0:0:
424,168,164595,6,0,L|336:96,2,83.3333333333333
112,192,164937,2,0,L|200:128,2,83.3333333333333
464,200,165280,2,0,L|344:160,2,83.3333333333333
96,368,165623,2,0,P|32:280|80:248,1,166.666666666667
288,368,165966,5,0,0:0:0:0:
371,368,166080,1,0,0:0:0:0:
454,368,166194,1,0,0:0:0:0:
240,304,166309,2,0,L|368:304,2,83.3333333333333
40,232,166652,1,0,0:0:0:0:
123,232,166766,1,0,0:0:0:0:
206,232,166880,1,0,0:0:0:0:
440,160,166995,2,0,L|344:104,2,83.3333333333333
152,168,167337,6,0,L|240:128,2,83.3333333333333
488,176,167680,1,0,0:0:0:0:
404,176,167794,1,0,0:0:0:0:
321,176,167908,1,0,0:0:0:0:
48,168,168023,1,0,0:0:0:0:
131,168,168137,1,0,0:0:0:0:
214,168,168251,1,0,0:0:0:0:
432,160,168366,1,0,0:0:0:0:
208,88,168480,1,0,0:0:0:0:
432,96,168595,1,0,0:0:0:0:
144,360,168709,6,0,L|48:360,2,83.3333333333333
248,304,169052,2,0,L|336:304,2,83.3333333333333
152,296,169395,2,0,L|264:296,2,83.3333333333333
248,232,169737,1,0,0:0:0:0:
331,232,169851,1,0,0:0:0:0:
414,232,169965,1,0,0:0:0:0:
328,160,170080,5,0,0:0:0:0:
244,160,170194,1,0,0:0:0:0:
161,160,170308,1,0,0:0:0:0:
256,80,170423,2,0,L|368:80,2,83.3333333333333
168,72,170766,2,0,L|272:72,2,83.3333333333333
256,360,171109,1,0,0:0:0:0:
339,360,171223,1,0,0:0:0:0:
422,360,171337,1,0,0:0:0:0:
176,360,171452,5,0,0:0:0:0:
116,345,171537,1,0,0:0:0:0:
78,297,171623,1,0,0:0:0:0:
78,236,171709,1,0,0:0:0:0:
116,187,171794,1,0,0:0:0:0:
175,173,171880,1,0,0:0:0:0:
384,184,171966,5,0,0:0:0:0:
322,172,172051,1,0,0:0:0:0:
260,161,172137,1,0,0:0:0:0:
199,150,172223,1,0,0:0:0:0:
137,139,172308,1,0,0:0:0:0:
76,128,172394,1,0,0:0:0:0:
296,376,172480,5,0,0:0:0:0:
357,371,172565,1,0,0:0:0:0:
413,342,172651,1,0,0:0:0:0:
452,294,172737,1,0,0:0:0:0:
470,235,172822,1,0,0:0:0:0:
464,173,172908,1,0,0:0:0:0:
184,288,172995,5,0,0:0:0:0:
208,233,173080,1,0,0:0:0:0:
249,190,173166,1,0,0:0:0:0:
303,164,173252,1,0,0:0:0:0:
363,158,173337,1,0,0:0:0:0:
420,173,173423,1,0,0:0:0:0:
112,288,173509,5,0,0:0:0:0:
94,231,173594,1,0,0:0:0:0:
107,173,173680,1,0,0:0:0:0:
148,130,173766,1,0,0:0:0:0:
204,112,173851,1,0,0:0:0:0:
262,125,173937,1,0,0:0:0:0:
464,344,174023,5,0,0:0:0:0:
405,330,174108,1,0,0:0:0:0:
347,316,174194,1,0,0:0:0:0:
288,303,174280,1,0,0:0:0:0:
230,289,174365,1,0,0:0:0:0:
171,276,174451,1,0,0:0:0:0:
400,248,174537,5,0,0:0:0:0:
446,216,174622,1,0,0:0:0:0:
463,162,174708,1,0,0:0:0:0:
445,109,174794,1,0,0:0:0:0:
397,78,174879,1,0,0:0:0:0:
341,82,174965,1,0,0:0:0:0:
88,368,175052,5,0,0:0:0:0:
44,331,175137,1,0,0:0:0:0:
30,277,175223,1,0,0:0:0:0:
51,224,175309,1,0,0:0:0:0:
98,194,175394,1,0,0:0:0:0:
155,197,175480,1,0,0:0:0:0:
440,208,175566,5,0,0:0:0:0:
391,176,175651,1,0,0:0:0:0:
339,153,175737,1,0,0:0:0:0:
283,138,175823,1,0,0:0:0:0:
226,133,175908,1,0,0:0:0:0:
169,137,175994,1,0,0:0:0:0:
352,368,176080,5,0,0:0:0:0:
297,360,176165,1,0,0:0:0:0:
243,352,176251,1,0,0:0:0:0:
188,344,176337,1,0,0:0:0:0:
134,336,176422,1,0,0:0:0:0:
79,329,176508,1,0,0:0:0:0:
304,288,176595,5,0,0:0:0:0:
358,286,176680,1,0,0:0:0:0:
409,266,176766,1,0,0:0:0:0:
451,230,176852,1,0,0:0:0:0:
478,183,176937,1,0,0:0:0:0:
487,129,177023,1,0,0:0:0:0:
168,280,177109,5,0,0:0:0:0:
222,271,177194,1,0,0:0:0:0:
274,254,177280,1,0,0:0:0:0:
323,228,177366,1,0,0:0:0:0:
367,196,177451,1,0,0:0:0:0:
405,156,177537,1,0,0:0:0:0:
104,144,177623,6,0,L|104:352,1,200
312,144,178309,5,0,0:0:0:0:
256,192,178480,12,0,183537,0:0:0:0:
