osu file format v14

[General]
AudioFilename: kue lumpur.mp3
AudioLeadIn: 0
PreviewTime: 149954
Countdown: 0
SampleSet: Soft
StackLeniency: 0.7
Mode: 3
LetterboxInBreaks: 0
SpecialStyle: 0
WidescreenStoryboard: 0

[Editor]
DistanceSpacing: 0.8
BeatDivisor: 4
GridSize: 4
TimelineZoom: 1.699999

[Metadata]
Title:MUDPIE
TitleUnicode:MUDPIE
Artist:YUC'e
ArtistUnicode:YUC'e
Creator:Ilham
Version:Easy
Source:
Tags:HAPPYNATION #04 pichnopop HNCD-004 Breakbeat Future Bass Hardcore Trap Syadow- Amiichii FAMoss
BeatmapID:1344193
BeatmapSetID:633309

[Difficulty]
HPDrainRate:6
CircleSize:4
OverallDifficulty:7
ApproachRate:5
SliderMultiplier:1.4
SliderTickRate:1

[Events]
//Background and Video events
0,0,"BG.jpg",0,0
//Break Periods
//Storyboard Layer 0 (Background)
//Storyboard Layer 1 (Fail)
//Storyboard Layer 2 (Pass)
//Storyboard Layer 3 (Foreground)
//Storyboard Sound Samples

[TimingPoints]
2054,342.857142857143,4,2,1,50,1,0
13025,-100,4,2,1,50,0,1
34968,-100,4,2,1,50,0,0
89825,-100,4,2,1,50,0,1
110396,375,4,2,1,50,1,0
110396,-91.743119266055,4,2,1,50,0,0
113024,400,4,2,1,50,1,0
113024,-85.4700854700855,4,2,1,50,0,0
138634,387.096774193548,4,2,1,50,1,0
138634,-88.4955752212389,4,2,1,50,0,0
141731,352.941176470588,4,2,1,50,1,0
141731,-97.0873786407767,4,2,1,50,0,0
144554,342.857142857143,4,2,1,50,1,0
171982,-100,4,2,1,50,0,1
182954,-100,4,2,1,50,0,0

[HitObjects]
64,192,2053,5,2,0:0:0:0:
448,192,2053,1,0,0:0:0:0:
192,192,2396,1,8,0:0:0:0:
320,192,2396,1,0,0:0:0:0:
64,192,2911,1,2,0:0:0:0:
320,192,3082,1,8,0:0:0:0:
448,192,3082,1,0,0:0:0:0:
192,192,3425,1,2,0:0:0:0:
320,192,3768,1,8,0:0:0:0:
448,192,3768,1,0,0:0:0:0:
192,192,3939,1,2,0:0:0:0:
64,192,4282,1,8,0:0:0:0:
320,192,4282,1,0,0:0:0:0:
448,192,4796,1,2,0:0:0:0:
192,192,5139,1,8,0:0:0:0:
320,192,5139,1,0,0:0:0:0:
64,192,5654,1,2,0:0:0:0:
320,192,5825,1,8,0:0:0:0:
448,192,5825,1,0,0:0:0:0:
192,192,6168,1,2,0:0:0:0:
64,192,6511,1,8,0:0:0:0:
448,192,6511,1,0,0:0:0:0:
320,192,6682,1,2,0:0:0:0:
64,192,7025,1,0,0:0:0:70:LR_Clap Low 2.wav
192,192,7025,1,0,0:0:0:0:
320,192,7196,1,0,0:0:0:70:LR_Clap Low 2.wav
448,192,7196,1,0,0:0:0:0:
192,192,7368,1,2,0:0:0:0:
320,192,7539,128,2,7882:0:0:0:0:
448,192,7882,128,8,8225:0:0:0:0:
64,192,8225,128,0,8568:0:0:0:0:
448,192,8568,1,8,0:0:0:0:
320,192,8739,1,0,0:0:0:0:
192,192,8911,128,2,9254:0:0:0:0:
448,192,9254,1,8,0:0:0:0:
320,192,9425,128,0,9768:0:0:0:0:
64,192,9768,1,2,0:0:0:0:
192,192,9939,1,8,0:0:0:0:
320,192,10111,1,0,0:0:0:0:
448,192,10282,128,8,11654:0:0:0:0:
64,192,10625,1,8,0:0:0:0:
320,192,10968,128,0,11654:0:0:0:50:snare3.wav
64,192,11654,1,0,0:0:0:70:Cowbell.wav
320,192,11996,1,0,0:0:0:70:Cowbell.wav
64,192,12339,1,0,0:0:0:70:Cowbell.wav
448,192,12511,128,0,12682:0:0:0:0:
192,192,12682,128,0,13025:0:0:0:0:
320,192,13025,1,2,0:0:0:0:
448,192,13025,1,4,0:0:0:0:
64,192,13282,1,2,0:0:0:0:
448,192,13539,1,0,0:0:0:0:
192,192,13711,1,6,0:0:0:0:
320,192,13882,1,6,0:0:0:0:
64,192,14396,1,2,0:0:0:0:
448,192,14396,1,4,0:0:0:0:
192,192,14654,1,2,0:0:0:0:
448,192,14911,1,0,0:0:0:0:
320,192,15082,1,0,0:0:0:0:
192,192,15254,1,6,0:0:0:0:
64,192,15768,1,2,0:0:0:0:
448,192,15768,1,4,0:0:0:0:
320,192,16025,1,2,0:0:0:0:
64,192,16282,1,6,0:0:0:0:
192,192,16454,1,0,0:0:0:0:
448,192,16625,1,6,0:0:0:0:
320,192,17139,1,6,0:0:0:0:
320,192,17396,1,2,0:0:0:0:
64,192,17654,1,2,0:0:0:0:
192,192,17825,1,6,0:0:0:0:
192,192,18168,1,6,0:0:0:0:
320,192,18511,1,2,0:0:0:0:
448,192,18511,1,4,0:0:0:0:
64,192,18768,1,2,0:0:0:0:
320,192,19025,1,0,0:0:0:0:
192,192,19196,1,6,0:0:0:0:
448,192,19368,1,6,0:0:0:0:
64,192,19882,1,2,0:0:0:0:
192,192,19882,1,4,0:0:0:0:
320,192,20139,1,2,0:0:0:0:
192,192,20396,1,0,0:0:0:0:
448,192,20568,1,0,0:0:0:0:
64,192,20739,1,6,0:0:0:0:
192,192,21254,1,2,0:0:0:0:
320,192,21254,1,4,0:0:0:0:
448,192,21511,1,2,0:0:0:0:
320,192,21768,1,2,0:0:0:0:
64,192,21939,1,4,0:0:0:0:
192,192,22111,1,6,0:0:0:0:
320,192,22625,1,2,0:0:0:0:
448,192,22625,1,4,0:0:0:0:
64,192,22968,1,0,0:0:0:50:snare2.wav
320,192,23311,128,0,23996:0:0:0:0:
192,192,23996,1,6,0:0:0:0:
448,192,24254,1,2,0:0:0:0:
64,192,24511,1,2,0:0:0:0:
192,192,24682,1,0,0:0:0:50:snare2.wav
320,192,24854,1,2,0:0:0:0:
448,192,25368,1,6,0:0:0:0:
320,192,25625,1,2,0:0:0:0:
64,192,25882,1,2,0:0:0:0:
192,192,26054,1,0,0:0:0:50:snare2.wav
448,192,26396,128,2,26739:0:0:0:0:
64,192,26739,1,6,0:0:0:0:
448,192,26996,1,2,0:0:0:0:
192,192,27254,1,2,0:0:0:0:
320,192,27425,1,0,0:0:0:50:snare2.wav
448,192,27596,1,2,0:0:0:0:
64,192,28111,1,6,0:0:0:0:
320,192,28368,1,2,0:0:0:0:
192,192,28625,1,0,0:0:0:50:snare2.wav
448,192,28796,128,6,29139:0:0:0:0:
64,192,29139,128,6,29482:0:0:0:0:
320,192,29482,1,6,0:0:0:0:
192,192,29654,1,0,0:0:0:50:snare.wav
448,192,29996,1,0,0:0:0:50:snare.wav
64,192,30339,1,0,0:0:0:50:snare.wav
192,192,30682,1,0,0:0:0:50:snare.wav
448,192,31025,1,0,0:0:0:50:snare.wav
64,192,31368,1,0,0:0:0:50:snare.wav
192,192,31711,1,0,0:0:0:50:snare.wav
448,192,31882,128,8,32054:0:0:0:50:kick.wav
64,192,32054,128,8,32225:0:0:0:50:kick.wav
320,192,32225,1,0,0:0:0:50:snare.wav
192,192,32396,1,0,0:0:0:50:snare.wav
448,192,32568,1,0,0:0:0:50:snare.wav
320,192,32739,1,0,0:0:0:50:snare.wav
64,192,32911,1,0,0:0:0:50:snare.wav
192,192,33082,1,0,0:0:0:50:snare.wav
448,192,33254,128,0,33425:0:0:0:0:
64,192,33425,1,0,0:0:0:50:snare4.wav
320,192,33596,1,6,0:0:0:0:
192,192,33854,1,0,0:0:0:0:
448,192,34111,1,0,0:0:0:0:
64,192,34282,1,0,0:0:0:50:LR_Clap Low 2.wav
320,192,34625,128,0,34968:0:0:0:50:snare.wav
64,192,34968,1,2,0:0:0:0:
448,192,34968,1,4,0:0:0:0:
192,192,35311,1,0,0:0:0:50:snare.wav
320,192,35311,1,0,0:0:0:0:
64,192,35825,1,2,0:0:0:0:
320,192,35996,1,0,0:0:0:50:snare.wav
448,192,35996,1,0,0:0:0:0:
192,192,36339,1,2,0:0:0:0:
64,192,36682,1,0,0:0:0:50:snare.wav
448,192,36682,1,0,0:0:0:0:
64,192,37196,1,2,0:0:0:0:
192,192,37368,1,0,0:0:0:50:snare.wav
448,192,37368,1,0,0:0:0:0:
320,192,37711,1,2,0:0:0:0:
64,192,38054,1,0,0:0:0:50:snare.wav
192,192,38054,1,0,0:0:0:0:
448,192,38568,1,2,0:0:0:0:
64,192,38739,1,0,0:0:0:50:snare.wav
192,192,38739,1,0,0:0:0:0:
320,192,39082,1,2,0:0:0:0:
192,192,39425,1,0,0:0:0:50:snare.wav
448,192,39425,1,0,0:0:0:0:
448,192,39939,1,2,0:0:0:0:
192,192,40111,1,0,0:0:0:50:snare.wav
320,192,40111,1,0,0:0:0:0:
64,192,40282,128,0,40454:0:0:0:50:snare.wav
448,192,40454,1,6,0:0:0:0:
192,192,40796,1,0,0:0:0:50:snare.wav
320,192,40796,1,0,0:0:0:0:
64,192,41311,1,2,0:0:0:0:
320,192,41482,1,0,0:0:0:50:snare.wav
448,192,41482,1,0,0:0:0:0:
192,192,41825,1,2,0:0:0:0:
64,192,42168,1,0,0:0:0:50:snare.wav
448,192,42168,1,0,0:0:0:0:
64,192,42682,1,2,0:0:0:0:
320,192,42854,1,0,0:0:0:50:snare.wav
448,192,42854,1,0,0:0:0:0:
192,192,43196,1,2,0:0:0:0:
64,192,43539,1,0,0:0:0:50:snare.wav
320,192,43539,1,0,0:0:0:0:
448,192,44054,1,2,0:0:0:0:
64,192,44225,1,0,0:0:0:50:snare.wav
192,192,44225,1,0,0:0:0:0:
320,192,44568,128,0,44911:0:0:0:50:snare4.wav
192,192,44911,1,0,0:0:0:50:snare4.wav
448,192,45082,1,2,0:0:0:0:
192,192,45254,1,0,0:0:0:50:snare4.wav
448,192,45425,1,2,0:0:0:0:
64,192,45596,128,0,45939:0:0:0:0:
320,192,45939,1,6,0:0:0:0:
192,192,46282,1,0,0:0:0:50:snare.wav
448,192,46282,1,0,0:0:0:0:
192,192,46796,1,2,0:0:0:0:
64,192,46968,1,0,0:0:0:50:snare.wav
448,192,46968,1,0,0:0:0:0:
320,192,47311,1,2,0:0:0:0:
192,192,47654,1,0,0:0:0:50:snare.wav
448,192,47654,1,0,0:0:0:0:
448,192,48168,1,2,0:0:0:0:
64,192,48339,1,0,0:0:0:50:snare.wav
320,192,48339,1,0,0:0:0:0:
64,192,48682,1,2,0:0:0:0:
192,192,49025,1,0,0:0:0:50:snare.wav
448,192,49025,1,0,0:0:0:0:
192,192,49539,1,2,0:0:0:0:
320,192,49711,1,0,0:0:0:50:snare.wav
448,192,49711,1,0,0:0:0:0:
448,192,50054,1,2,0:0:0:0:
64,192,50396,1,0,0:0:0:50:snare.wav
320,192,50396,1,0,0:0:0:0:
192,192,50739,1,0,0:0:0:0:
64,192,51082,128,0,51425:0:0:0:50:snare.wav
320,192,51425,1,6,0:0:0:0:
192,192,51768,1,0,0:0:0:50:snare.wav
448,192,51768,1,0,0:0:0:0:
64,192,52282,1,2,0:0:0:0:
320,192,52454,1,0,0:0:0:50:snare.wav
448,192,52454,1,0,0:0:0:0:
192,192,52796,1,2,0:0:0:0:
64,192,53139,1,0,0:0:0:50:snare.wav
448,192,53139,1,0,0:0:0:0:
320,192,53654,1,2,0:0:0:0:
64,192,53825,1,0,0:0:0:50:snare.wav
192,192,53825,1,0,0:0:0:0:
448,192,54168,1,2,0:0:0:0:
64,192,54511,1,0,0:0:0:50:snare.wav
320,192,54511,1,0,0:0:0:0:
192,192,55025,1,2,0:0:0:0:
64,192,55196,1,0,0:0:0:50:snare.wav
448,192,55196,1,0,0:0:0:0:
320,192,55539,1,0,0:0:0:0:
192,192,55796,1,0,0:0:0:0:
448,192,56054,1,0,0:0:0:0:
64,192,56225,1,0,0:0:0:0:
320,192,56568,1,0,0:0:0:0:
64,192,56911,1,4,0:0:0:0:
192,192,56911,1,2,0:0:0:50:snare4.wav
320,192,57254,1,8,0:0:0:50:snare4.wav
64,192,57596,1,8,0:0:0:50:snare4.wav
448,192,57939,1,8,0:0:0:50:snare4.wav
64,192,58282,1,8,0:0:0:50:snare4.wav
320,192,58282,1,0,0:0:0:0:
192,192,58625,1,8,0:0:0:50:snare4.wav
320,192,58968,1,8,0:0:0:50:snare4.wav
64,192,59311,1,8,0:0:0:50:snare4.wav
192,192,59654,1,8,0:0:0:50:snare4.wav
448,192,59654,1,0,0:0:0:0:
320,192,59996,1,8,0:0:0:50:snare4.wav
192,192,60339,1,8,0:0:0:50:snare4.wav
64,192,60682,1,8,0:0:0:50:snare4.wav
320,192,61025,1,8,0:0:0:50:snare4.wav
448,192,61025,1,0,0:0:0:0:
64,192,61368,1,8,0:0:0:50:snare4.wav
192,192,61711,1,8,0:0:0:50:snare4.wav
320,192,62054,128,0,62396:0:0:0:50:snare.wav
64,192,62396,1,4,0:0:0:0:
448,192,62396,1,0,0:0:0:0:
192,192,62739,1,0,0:0:0:0:
320,192,63082,1,8,0:0:0:50:snare4.wav
448,192,63082,1,0,0:0:0:0:
64,192,63339,1,0,0:0:0:0:
448,192,63768,1,8,0:0:0:50:snare4.wav
320,192,64111,1,0,0:0:0:0:
64,192,64454,1,8,0:0:0:50:snare4.wav
192,192,64454,1,0,0:0:0:0:
192,192,65139,128,8,66511:0:0:0:50:snare4.wav
448,192,65139,1,0,0:0:0:0:
448,192,66511,128,0,66854:0:0:0:70:Cowbell.wav
64,192,66854,128,0,67196:0:0:0:70:Cowbell.wav
448,192,67196,1,0,0:0:0:70:Cowbell.wav
192,192,67368,128,0,67539:0:0:0:0:
320,192,67539,1,0,0:0:0:0:
64,192,67882,1,2,0:0:0:0:
448,192,67882,1,4,0:0:0:0:
192,192,68225,1,2,0:0:0:0:
448,192,68568,1,2,0:0:0:0:
64,192,68911,1,2,0:0:0:0:
320,192,69254,1,2,0:0:0:0:
192,192,69596,1,2,0:0:0:0:
448,192,69939,1,2,0:0:0:0:
320,192,70111,1,0,0:0:0:0:
64,192,70282,1,2,0:0:0:0:
192,192,70625,1,2,0:0:0:0:
448,192,70625,1,0,0:0:0:0:
320,192,70968,1,2,0:0:0:0:
64,192,71311,1,2,0:0:0:0:
192,192,71654,1,2,0:0:0:0:
448,192,71996,1,2,0:0:0:0:
320,192,72339,1,2,0:0:0:0:
192,192,72682,1,2,0:0:0:0:
448,192,72854,1,0,0:0:0:0:
64,192,73025,1,2,0:0:0:0:
448,192,73368,1,2,0:0:0:0:
320,192,73711,1,2,0:0:0:0:
64,192,74054,1,2,0:0:0:0:
448,192,74396,1,2,0:0:0:0:
192,192,74739,1,2,0:0:0:0:
320,192,75082,1,2,0:0:0:0:
64,192,75425,1,2,0:0:0:0:
192,192,75596,1,0,0:0:0:0:
448,192,75768,1,2,0:0:0:0:
320,192,76111,1,2,0:0:0:0:
64,192,76282,1,0,0:0:0:0:
192,192,76625,1,0,0:0:0:0:
448,192,76796,1,2,0:0:0:0:
192,192,76968,1,0,0:0:0:0:
320,192,77139,1,2,0:0:0:0:
64,192,77311,1,0,0:0:0:0:
448,192,77482,1,0,0:0:0:0:
320,192,77825,1,0,0:0:0:0:
192,192,78168,1,0,0:0:0:0:
64,192,78511,1,0,0:0:0:0:
192,192,78854,1,2,0:0:0:0:
320,192,78854,1,4,0:0:0:0:
448,192,79196,1,2,0:0:0:0:
320,192,79539,1,2,0:0:0:0:
64,192,79882,1,2,0:0:0:0:
448,192,80225,1,2,0:0:0:0:
192,192,80568,1,2,0:0:0:0:
320,192,80911,1,2,0:0:0:0:
64,192,81082,1,0,0:0:0:0:
192,192,81254,1,2,0:0:0:0:
64,192,81596,1,2,0:0:0:0:
448,192,81596,1,0,0:0:0:0:
320,192,81939,1,2,0:0:0:0:
192,192,82282,1,2,0:0:0:0:
448,192,82625,1,2,0:0:0:0:
64,192,82968,1,2,0:0:0:0:
192,192,83311,1,2,0:0:0:0:
320,192,83654,1,2,0:0:0:0:
64,192,83825,1,0,0:0:0:0:
448,192,83996,1,2,0:0:0:0:
64,192,84339,1,2,0:0:0:0:
448,192,84682,1,2,0:0:0:0:
192,192,85025,1,2,0:0:0:0:
64,192,85368,1,2,0:0:0:0:
320,192,85711,1,2,0:0:0:0:
448,192,86054,1,2,0:0:0:0:
192,192,86396,1,2,0:0:0:0:
320,192,86568,1,0,0:0:0:0:
448,192,86739,1,2,0:0:0:0:
64,192,87082,1,0,0:0:0:50:snare.wav
320,192,87254,1,0,0:0:0:50:snare.wav
64,192,87425,1,0,0:0:0:50:snare.wav
448,192,87596,128,0,87939:0:0:0:50:snare.wav
320,192,87939,1,0,0:0:0:50:snare.wav
192,192,88111,1,0,0:0:0:50:snare.wav
320,192,88282,1,0,0:0:0:50:snare.wav
64,192,88454,128,0,89139:0:0:0:50:snare.wav
448,192,89311,128,0,89482:0:0:0:0:
192,192,89482,128,0,89825:0:0:0:0:
64,192,89825,1,2,0:0:0:0:
320,192,89825,1,4,0:0:0:0:
448,192,90082,1,2,0:0:0:0:
64,192,90339,1,0,0:0:0:0:
320,192,90511,1,6,0:0:0:0:
192,192,90682,1,6,0:0:0:0:
320,192,91196,1,2,0:0:0:0:
448,192,91196,1,4,0:0:0:0:
64,192,91454,1,2,0:0:0:0:
320,192,91711,1,0,0:0:0:0:
192,192,91882,1,0,0:0:0:0:
448,192,92054,1,6,0:0:0:0:
64,192,92568,1,2,0:0:0:0:
320,192,92568,1,4,0:0:0:0:
448,192,92825,1,2,0:0:0:0:
64,192,93082,1,6,0:0:0:0:
192,192,93254,1,0,0:0:0:0:
320,192,93425,1,6,0:0:0:0:
64,192,93939,1,6,0:0:0:0:
64,192,94196,1,2,0:0:0:0:
448,192,94454,1,2,0:0:0:0:
320,192,94625,1,6,0:0:0:0:
320,192,94968,1,6,0:0:0:0:
64,192,95311,1,2,0:0:0:0:
448,192,95311,1,4,0:0:0:0:
320,192,95568,1,2,0:0:0:0:
192,192,95825,1,0,0:0:0:0:
448,192,95996,1,6,0:0:0:0:
64,192,96168,1,6,0:0:0:0:
320,192,96682,1,2,0:0:0:0:
448,192,96682,1,4,0:0:0:0:
192,192,96939,1,2,0:0:0:0:
320,192,97196,1,0,0:0:0:0:
64,192,97368,1,0,0:0:0:0:
448,192,97539,1,6,0:0:0:0:
64,192,98054,1,2,0:0:0:0:
192,192,98054,1,4,0:0:0:0:
320,192,98311,1,2,0:0:0:0:
64,192,98568,1,2,0:0:0:0:
192,192,98739,1,4,0:0:0:0:
448,192,98911,1,6,0:0:0:0:
64,192,99425,1,2,0:0:0:0:
320,192,99425,1,4,0:0:0:0:
192,192,99768,1,0,0:0:0:50:snare2.wav
448,192,100111,128,0,100796:0:0:0:0:
64,192,100796,1,6,0:0:0:0:
320,192,101054,1,2,0:0:0:0:
192,192,101311,1,2,0:0:0:0:
64,192,101482,1,0,0:0:0:50:snare2.wav
448,192,101654,1,2,0:0:0:0:
320,192,102168,1,6,0:0:0:0:
192,192,102425,1,2,0:0:0:0:
448,192,102682,1,2,0:0:0:0:
64,192,102854,1,0,0:0:0:50:snare2.wav
320,192,103196,128,2,103539:0:0:0:0:
64,192,103539,1,6,0:0:0:0:
192,192,103796,1,2,0:0:0:0:
448,192,104054,1,2,0:0:0:0:
320,192,104225,1,0,0:0:0:50:snare2.wav
64,192,104396,1,2,0:0:0:0:
192,192,104911,1,6,0:0:0:0:
448,192,105168,1,2,0:0:0:0:
64,192,105425,1,0,0:0:0:50:snare2.wav
320,192,105596,128,6,105939:0:0:0:0:
192,192,105939,128,6,106282:0:0:0:0:
448,192,106282,1,6,0:0:0:0:
64,192,106454,1,0,0:0:0:50:snare.wav
192,192,106796,1,0,0:0:0:50:snare.wav
448,192,107139,1,0,0:0:0:50:snare.wav
64,192,107482,1,0,0:0:0:50:snare.wav
320,192,107825,1,0,0:0:0:50:snare.wav
192,192,108168,1,0,0:0:0:50:snare.wav
448,192,108511,1,0,0:0:0:50:snare.wav
192,192,108682,128,8,108854:0:0:0:50:kick.wav
320,192,108854,128,8,109025:0:0:0:50:kick.wav
64,192,109025,1,0,0:0:0:50:snare.wav
448,192,109196,1,0,0:0:0:50:snare.wav
192,192,109368,1,0,0:0:0:50:snare.wav
320,192,109539,1,0,0:0:0:50:snare.wav
64,192,109711,128,0,110054:0:0:0:50:snare.wav
448,192,110054,128,0,110396:0:0:0:0:
192,192,110396,128,6,110677:0:0:0:0:
64,192,110677,128,0,110958:0:0:0:0:
448,192,110958,128,0,111239:0:0:0:0:
320,192,111239,128,0,111521:0:0:0:0:
192,192,111521,128,0,112271:0:0:0:0:
320,192,112271,128,0,113024:0:0:0:0:
448,192,113024,1,0,0:0:0:0:
64,192,113024,1,6,0:0:0:0:
320,192,113424,1,0,0:0:0:0:
64,192,113824,1,0,0:0:0:0:
448,192,114224,1,2,0:0:0:0:
192,192,114624,1,0,0:0:0:0:
448,192,115024,1,2,0:0:0:0:
320,192,115224,1,0,0:0:0:0:
192,192,115424,1,0,0:0:0:0:
64,192,115824,1,2,0:0:0:0:
320,192,116224,1,2,0:0:0:0:
448,192,116224,1,0,0:0:0:0:
64,192,116624,1,0,0:0:0:0:
448,192,117024,1,0,0:0:0:0:
192,192,117424,1,0,0:0:0:0:
320,192,117824,1,0,0:0:0:0:
64,192,118224,128,2,118624:0:0:0:0:
448,192,118224,1,0,0:0:0:0:
320,192,118624,1,0,0:0:0:0:
192,192,118824,1,2,0:0:0:0:
320,192,119024,128,0,119224:0:0:0:0:
64,192,119224,128,0,119424:0:0:0:0:
192,192,119424,1,2,0:0:0:0:
448,192,119424,1,0,0:0:0:0:
320,192,119824,1,0,0:0:0:0:
192,192,120224,1,0,0:0:0:0:
64,192,120624,1,2,0:0:0:0:
448,192,121024,1,0,0:0:0:0:
192,192,121424,1,2,0:0:0:0:
320,192,121624,1,0,0:0:0:0:
448,192,121824,1,0,0:0:0:0:
64,192,122224,1,2,0:0:0:0:
192,192,122624,1,2,0:0:0:0:
320,192,122624,1,0,0:0:0:0:
448,192,123024,1,0,0:0:0:0:
64,192,123424,1,0,0:0:0:0:
320,192,123824,1,0,0:0:0:0:
192,192,124224,1,0,0:0:0:0:
64,192,124624,1,2,0:0:0:0:
448,192,124624,128,0,125024:0:0:0:0:
64,192,125024,1,0,0:0:0:0:
192,192,125224,1,2,0:0:0:0:
320,192,125424,128,0,125624:0:0:0:0:
64,192,125624,128,0,125824:0:0:0:0:
448,192,125824,128,0,126224:0:0:0:0:
192,192,126224,1,2,0:0:0:0:
320,192,126224,1,0,0:0:0:0:
448,192,126624,1,0,0:0:0:0:
448,192,127024,1,2,0:0:0:0:
64,192,127424,1,0,0:0:0:0:
192,192,127824,1,2,0:0:0:0:
320,192,128024,1,0,0:0:0:0:
192,192,128224,1,0,0:0:0:0:
448,192,128624,1,2,0:0:0:0:
64,192,129024,1,2,0:0:0:0:
192,192,129024,1,0,0:0:0:0:
320,192,129424,1,0,0:0:0:0:
320,192,129824,1,0,0:0:0:0:
64,192,130224,1,0,0:0:0:0:
448,192,130624,1,0,0:0:0:0:
192,192,131024,1,2,0:0:0:0:
320,192,131424,1,0,0:0:0:0:
64,192,131624,1,2,0:0:0:0:
448,192,131824,128,0,132024:0:0:0:0:
192,192,132024,128,0,132224:0:0:0:0:
64,192,132224,1,2,0:0:0:0:
320,192,132224,1,0,0:0:0:0:
448,192,132624,1,0,0:0:0:0:
448,192,133024,1,0,0:0:0:0:
192,192,133424,1,2,0:0:0:0:
320,192,133824,1,0,0:0:0:0:
64,192,134224,1,2,0:0:0:0:
448,192,134424,1,0,0:0:0:0:
64,192,134624,1,0,0:0:0:0:
320,192,135024,1,2,0:0:0:0:
64,192,135424,1,2,0:0:0:0:
192,192,135424,1,0,0:0:0:0:
448,192,135824,1,0,0:0:0:0:
448,192,136224,1,0,0:0:0:0:
64,192,136624,1,0,0:0:0:0:
320,192,137024,128,0,138634:0:0:0:0:
192,192,137424,1,2,0:0:0:0:
192,192,138024,1,2,0:0:0:0:
64,192,138634,1,4,0:0:0:0:
448,192,138634,1,2,0:0:0:50:snare4.wav
192,192,139021,1,8,0:0:0:50:snare4.wav
320,192,139408,1,8,0:0:0:50:snare4.wav
64,192,139795,1,8,0:0:0:50:snare4.wav
320,192,140182,1,8,0:0:0:50:snare4.wav
448,192,140182,1,0,0:0:0:0:
192,192,140569,1,8,0:0:0:50:snare4.wav
64,192,140956,1,8,0:0:0:50:snare4.wav
448,192,141343,1,8,0:0:0:50:snare4.wav
64,192,141731,1,8,0:0:0:50:snare4.wav
192,192,141731,1,0,0:0:0:0:
320,192,142083,1,8,0:0:0:50:snare4.wav
64,192,142436,1,8,0:0:0:50:snare4.wav
448,192,142789,1,8,0:0:0:50:snare4.wav
192,192,143142,1,8,0:0:0:50:snare4.wav
320,192,143142,1,0,0:0:0:0:
64,192,143495,1,8,0:0:0:50:snare4.wav
448,192,143848,1,8,0:0:0:50:snare4.wav
192,192,144201,128,0,144554:0:0:0:50:snare.wav
64,192,144554,1,4,0:0:0:0:
320,192,144554,1,0,0:0:0:0:
192,192,144896,1,0,0:0:0:0:
64,192,145239,1,8,0:0:0:50:snare4.wav
448,192,145239,1,0,0:0:0:0:
320,192,145496,1,0,0:0:0:0:
192,192,145925,1,8,0:0:0:50:snare4.wav
320,192,146268,1,0,0:0:0:0:
64,192,146611,1,8,0:0:0:50:snare4.wav
448,192,146611,1,0,0:0:0:0:
64,192,147296,1,8,0:0:0:50:snare4.wav
320,192,147296,128,0,148668:0:0:0:0:
192,192,148668,128,0,149011:0:0:0:70:Cowbell.wav
448,192,149011,128,0,149354:0:0:0:70:Cowbell.wav
192,192,149354,1,0,0:0:0:70:Cowbell.wav
320,192,149525,128,0,149696:0:0:0:0:
64,192,149696,1,0,0:0:0:0:
192,192,150039,1,2,0:0:0:0:
448,192,150039,1,4,0:0:0:0:
320,192,150211,1,0,0:0:0:0:
64,192,150554,1,0,0:0:0:0:
448,192,150896,1,0,0:0:0:0:
192,192,151239,1,0,0:0:0:0:
320,192,151582,1,0,0:0:0:0:
64,192,151925,1,0,0:0:0:0:
448,192,152268,1,0,0:0:0:0:
64,192,152782,1,2,0:0:0:0:
448,192,152782,1,4,0:0:0:0:
192,192,153125,1,2,0:0:0:0:
320,192,153468,1,2,0:0:0:0:
64,192,153811,1,2,0:0:0:0:
448,192,154154,1,2,0:0:0:0:
192,192,154496,1,2,0:0:0:0:
320,192,154839,1,2,0:0:0:0:
448,192,155011,1,0,0:0:0:0:
64,192,155182,1,2,0:0:0:0:
448,192,155525,1,2,0:0:0:0:
192,192,155868,1,2,0:0:0:0:
320,192,156211,1,2,0:0:0:0:
448,192,156554,1,2,0:0:0:0:
192,192,156896,1,2,0:0:0:0:
64,192,157239,1,2,0:0:0:0:
448,192,157582,1,2,0:0:0:0:
192,192,157754,1,0,0:0:0:0:
320,192,157925,1,2,0:0:0:0:
64,192,158268,1,2,0:0:0:0:
192,192,158439,1,0,0:0:0:0:
448,192,158782,1,0,0:0:0:0:
320,192,158954,1,2,0:0:0:0:
64,192,159125,1,0,0:0:0:0:
320,192,159296,1,2,0:0:0:0:
192,192,159468,1,0,0:0:0:0:
448,192,159811,1,0,0:0:0:0:
64,192,160154,1,0,0:0:0:0:
320,192,160496,1,0,0:0:0:0:
64,192,161011,1,2,0:0:0:0:
192,192,161011,1,4,0:0:0:0:
448,192,161354,1,2,0:0:0:0:
192,192,161696,1,2,0:0:0:0:
320,192,162039,1,2,0:0:0:0:
64,192,162382,1,2,0:0:0:0:
448,192,162725,1,2,0:0:0:0:
320,192,163068,1,2,0:0:0:0:
64,192,163239,1,0,0:0:0:0:
192,192,163411,1,2,0:0:0:0:
64,192,163754,1,2,0:0:0:0:
448,192,163754,1,0,0:0:0:0:
320,192,164096,1,2,0:0:0:0:
192,192,164439,1,2,0:0:0:0:
448,192,164782,1,2,0:0:0:0:
64,192,165125,1,2,0:0:0:0:
320,192,165468,1,2,0:0:0:0:
192,192,165811,1,2,0:0:0:0:
64,192,165982,1,0,0:0:0:0:
448,192,166154,1,2,0:0:0:0:
64,192,166496,1,2,0:0:0:0:
192,192,166839,1,2,0:0:0:0:
320,192,167182,1,2,0:0:0:0:
192,192,167525,1,2,0:0:0:0:
448,192,167868,1,2,0:0:0:0:
320,192,168211,1,2,0:0:0:0:
64,192,168554,1,2,0:0:0:0:
320,192,168725,1,0,0:0:0:0:
192,192,168896,1,2,0:0:0:0:
448,192,169239,1,0,0:0:0:50:snare.wav
64,192,169411,1,0,0:0:0:50:snare.wav
448,192,169582,1,0,0:0:0:50:snare.wav
192,192,169754,128,0,170096:0:0:0:50:snare.wav
64,192,170096,1,0,0:0:0:50:snare.wav
448,192,170268,1,0,0:0:0:50:snare.wav
64,192,170439,1,0,0:0:0:50:snare.wav
320,192,170611,128,0,171296:0:0:0:50:snare.wav
192,192,171468,128,0,171639:0:0:0:0:
448,192,171639,128,0,171982:0:0:0:0:
64,192,171982,1,2,0:0:0:0:
320,192,171982,1,4,0:0:0:0:
192,192,172239,1,2,0:0:0:0:
448,192,172496,1,0,0:0:0:0:
320,192,172668,1,6,0:0:0:0:
64,192,172839,1,6,0:0:0:0:
192,192,173354,1,2,0:0:0:0:
320,192,173354,1,4,0:0:0:0:
448,192,173611,1,2,0:0:0:0:
64,192,173868,1,0,0:0:0:0:
320,192,174039,1,0,0:0:0:0:
448,192,174211,1,6,0:0:0:0:
64,192,174725,1,2,0:0:0:0:
192,192,174725,1,4,0:0:0:0:
320,192,174982,1,2,0:0:0:0:
64,192,175239,1,6,0:0:0:0:
448,192,175411,1,0,0:0:0:0:
192,192,175582,1,6,0:0:0:0:
448,192,176096,1,6,0:0:0:0:
448,192,176354,1,2,0:0:0:0:
64,192,176611,1,2,0:0:0:0:
192,192,176782,1,6,0:0:0:0:
192,192,177125,1,6,0:0:0:0:
320,192,177468,1,2,0:0:0:0:
448,192,177468,1,4,0:0:0:0:
64,192,177725,1,2,0:0:0:0:
448,192,177982,1,0,0:0:0:0:
192,192,178154,1,6,0:0:0:0:
320,192,178325,1,6,0:0:0:0:
64,192,178839,1,2,0:0:0:0:
192,192,178839,1,4,0:0:0:0:
320,192,179096,1,2,0:0:0:0:
448,192,179354,1,0,0:0:0:0:
192,192,179525,1,0,0:0:0:0:
64,192,179696,1,6,0:0:0:0:
320,192,180211,1,2,0:0:0:0:
448,192,180211,1,4,0:0:0:0:
64,192,180468,1,2,0:0:0:0:
192,192,180725,1,2,0:0:0:0:
320,192,180896,1,4,0:0:0:0:
448,192,181068,1,6,0:0:0:0:
64,192,181582,1,2,0:0:0:0:
192,192,181582,1,4,0:0:0:0:
448,192,181925,1,0,0:0:0:50:snare2.wav
320,192,182268,128,0,182954:0:0:0:0:
64,192,182954,1,2,0:0:0:0:
448,192,182954,1,4,0:0:0:0:
192,192,183211,1,2,0:0:0:0:
448,192,183468,1,2,0:0:0:0:
320,192,183639,1,0,0:0:0:50:snare2.wav
64,192,183811,1,2,0:0:0:0:
448,192,184325,1,6,0:0:0:0:
64,192,184582,1,2,0:0:0:0:
192,192,184839,1,2,0:0:0:0:
320,192,185011,1,0,0:0:0:50:snare2.wav
448,192,185354,1,2,0:0:0:0:
64,192,185696,1,2,0:0:0:0:
448,192,185696,1,4,0:0:0:0:
192,192,185954,1,2,0:0:0:0:
320,192,186211,1,2,0:0:0:0:
448,192,186382,1,0,0:0:0:50:snare2.wav
192,192,186554,1,2,0:0:0:0:
320,192,187068,1,6,0:0:0:0:
192,192,187325,1,2,0:0:0:0:
64,192,187582,1,0,0:0:0:50:snare2.wav
448,192,187754,128,6,188096:0:0:0:0:
192,192,188096,128,6,188439:0:0:0:0:
64,192,188439,1,2,0:0:0:0:
320,192,188439,1,4,0:0:0:0:
448,192,188611,1,0,0:0:0:50:snare.wav
192,192,188954,1,0,0:0:0:50:snare.wav
320,192,189296,1,0,0:0:0:50:snare.wav
64,192,189639,1,0,0:0:0:50:snare.wav
448,192,189982,1,0,0:0:0:50:snare.wav
192,192,190325,1,0,0:0:0:50:snare.wav
320,192,190668,1,0,0:0:0:50:snare.wav
64,192,190839,128,8,191011:0:0:0:50:kick.wav
448,192,191011,128,8,191182:0:0:0:50:kick.wav
192,192,191182,1,0,0:0:0:50:snare.wav
320,192,191354,1,0,0:0:0:50:snare.wav
64,192,191525,1,0,0:0:0:50:snare.wav
448,192,191696,1,0,0:0:0:50:snare.wav
192,192,191868,128,0,192211:0:0:0:50:snare.wav
320,192,192211,128,0,192554:0:0:0:0:
64,192,192554,1,6,0:0:0:0:
192,192,192725,1,2,0:0:0:0:
448,192,192896,128,0,193582:0:0:0:50:LR_Clap Low 2.wav
192,192,193582,128,0,193925:0:0:0:50:snare.wav
64,192,193925,1,6,0:0:0:0:
448,192,193925,1,0,0:0:0:70:wind.wav
