osu file format v14

[General]
AudioFilename: kue lumpur.mp3
AudioLeadIn: 0
PreviewTime: 149954
Countdown: 0
SampleSet: Soft
StackLeniency: 0.7
Mode: 3
LetterboxInBreaks: 0
SpecialStyle: 0
WidescreenStoryboard: 0

[Editor]
DistanceSpacing: 0.8
BeatDivisor: 8
GridSize: 4
TimelineZoom: 1.8

[Metadata]
Title:MUDPIE
TitleUnicode:MUDPIE
Artist:YUC'e
ArtistUnicode:YUC'e
Creator:Ilham
Version:Amii's Insane
Source:
Tags:HAPPYNATION #04 pichnopop HNCD-004 Breakbeat Future Bass Hardcore Trap Syadow- Amiichii FAMoss
BeatmapID:1345173
BeatmapSetID:633309

[Difficulty]
HPDrainRate:8
CircleSize:4
OverallDifficulty:8
ApproachRate:5
SliderMultiplier:1.4
SliderTickRate:1

[Events]
//Background and Video events
0,0,"BG.jpg",0,0
//Break Periods
//Storyboard Layer 0 (Background)
//Storyboard Layer 1 (Fail)
//Storyboard Layer 2 (Pass)
//Storyboard Layer 3 (Foreground)
//Storyboard Sound Samples

[TimingPoints]
2054,342.857142857143,4,2,1,50,1,0
13025,-100,4,2,1,50,0,1
34968,-100,4,2,1,50,0,0
89825,-100,4,2,1,50,0,1
110396,375,4,2,1,50,1,0
110396,-91.743119266055,4,2,1,50,0,0
113024,400,4,2,1,50,1,0
113024,-85.4700854700855,4,2,1,50,0,0
138634,387.096774193548,4,2,1,50,1,0
138634,-88.4955752212389,4,2,1,50,0,0
141731,352.941176470588,4,2,1,50,1,0
141731,-97.0873786407767,4,2,1,50,0,0
144554,342.857142857143,4,2,1,50,1,0
171982,-100,4,2,1,50,0,1
182954,-100,4,2,1,50,0,0

[HitObjects]
64,192,2053,5,2,0:0:0:0:
320,192,2053,1,0,0:0:0:0:
448,192,2053,1,0,0:0:0:0:
192,192,2225,1,0,0:0:0:0:
320,192,2396,1,8,0:0:0:0:
448,192,2396,1,0,0:0:0:0:
64,192,2568,1,0,0:0:0:0:
192,192,2654,1,0,0:0:0:0:
448,192,2739,1,0,0:0:0:0:
320,192,2825,1,0,0:0:0:0:
64,192,2911,1,2,0:0:0:0:
192,192,2911,1,0,0:0:0:0:
320,192,3082,1,8,0:0:0:0:
448,192,3082,1,0,0:0:0:0:
192,192,3254,1,0,0:0:0:0:
320,192,3339,1,0,0:0:0:0:
64,192,3425,1,2,0:0:0:0:
448,192,3425,1,0,0:0:0:0:
192,192,3596,1,0,0:0:0:0:
320,192,3768,1,8,0:0:0:0:
448,192,3768,1,0,0:0:0:0:
64,192,3939,1,2,0:0:0:0:
192,192,3939,1,0,0:0:0:0:
320,192,4111,1,0,0:0:0:0:
192,192,4282,1,8,0:0:0:0:
448,192,4282,1,0,0:0:0:0:
64,192,4454,1,0,0:0:0:0:
192,192,4539,1,0,0:0:0:0:
320,192,4625,1,0,0:0:0:0:
192,192,4711,1,0,0:0:0:0:
320,192,4796,1,2,0:0:0:0:
448,192,4796,1,0,0:0:0:0:
64,192,4968,1,0,0:0:0:0:
192,192,5139,1,8,0:0:0:0:
448,192,5139,1,0,0:0:0:0:
320,192,5311,1,0,0:0:0:0:
192,192,5396,1,0,0:0:0:0:
320,192,5482,1,0,0:0:0:0:
192,192,5568,1,0,0:0:0:0:
64,192,5654,1,2,0:0:0:0:
448,192,5654,1,0,0:0:0:0:
192,192,5825,1,8,0:0:0:0:
320,192,5825,1,0,0:0:0:0:
448,192,5996,1,0,0:0:0:0:
320,192,6082,1,0,0:0:0:0:
64,192,6168,1,2,0:0:0:0:
192,192,6168,1,0,0:0:0:0:
320,192,6339,1,0,0:0:0:0:
64,192,6511,1,8,0:0:0:0:
448,192,6511,1,0,0:0:0:0:
192,192,6682,1,2,0:0:0:0:
320,192,6682,1,0,0:0:0:0:
64,192,6854,1,0,0:0:0:0:
320,192,7025,1,0,0:0:0:70:LR_Clap Low 2.wav
448,192,7025,1,0,0:0:0:0:
320,192,7196,1,0,0:0:0:70:LR_Clap Low 2.wav
448,192,7196,1,0,0:0:0:0:
64,192,7368,1,2,0:0:0:0:
192,192,7368,1,0,0:0:0:0:
320,192,7454,1,2,0:0:0:0:
64,192,7539,128,2,7882:0:0:0:0:
448,192,7539,1,0,0:0:0:0:
320,192,7711,1,0,0:0:0:0:
192,192,7882,128,8,8225:0:0:0:0:
448,192,7882,1,0,0:0:0:0:
320,192,8054,1,0,0:0:0:0:
64,192,8225,1,0,0:0:0:0:
320,192,8225,128,0,8568:0:0:0:0:
192,192,8396,1,2,0:0:0:0:
448,192,8396,1,0,0:0:0:0:
64,192,8568,128,8,8739:0:0:0:0:
192,192,8568,1,0,0:0:0:0:
448,192,8739,128,0,8911:0:0:0:0:
64,192,8911,1,2,0:0:0:0:
192,192,8911,128,0,9254:0:0:0:0:
320,192,9082,1,0,0:0:0:0:
64,192,9254,1,8,0:0:0:0:
448,192,9254,128,0,9768:0:0:0:0:
320,192,9425,128,0,9768:0:0:0:0:
64,192,9511,1,0,0:0:0:0:
192,192,9596,1,0,0:0:0:0:
64,192,9682,1,0,0:0:0:0:
192,192,9768,128,2,9939:0:0:0:0:
64,192,9939,1,8,0:0:0:0:
448,192,9939,128,0,10111:0:0:0:0:
320,192,10111,128,0,10282:0:0:0:0:
64,192,10282,128,8,10968:0:0:0:0:
192,192,10282,1,0,0:0:0:0:
448,192,10454,1,0,0:0:0:0:
192,192,10539,1,0,0:0:0:0:
320,192,10625,1,8,0:0:0:0:
448,192,10625,1,0,0:0:0:0:
192,192,10796,1,0,0:0:0:0:
320,192,10882,1,0,0:0:0:0:
192,192,10968,1,0,0:0:0:50:snare3.wav
448,192,10968,128,0,11654:0:0:0:0:
320,192,11054,1,0,0:0:0:50:snare3.wav
64,192,11139,1,0,0:0:0:50:snare3.wav
192,192,11225,1,0,0:0:0:50:snare3.wav
320,192,11311,1,0,0:0:0:50:snare3.wav
64,192,11396,1,0,0:0:0:50:snare3.wav
192,192,11482,1,0,0:0:0:50:snare3.wav
320,192,11568,1,0,0:0:0:50:snare3.wav
64,192,11654,1,0,0:0:0:70:Cowbell.wav
64,192,11996,1,0,0:0:0:70:Cowbell.wav
64,192,12339,1,0,0:0:0:70:Cowbell.wav
448,192,12511,1,0,0:0:0:0:
448,192,12682,128,0,13025:0:0:0:0:
64,192,13025,128,2,13196:0:0:0:0:
192,192,13025,1,4,0:0:0:0:
320,192,13025,1,0,0:0:0:0:
320,192,13196,1,2,0:0:0:0:
448,192,13196,128,0,13368:0:0:0:0:
192,192,13282,1,2,0:0:0:0:
64,192,13368,1,0,0:0:0:50:snare.wav
320,192,13368,1,0,0:0:0:0:
192,192,13454,1,0,0:0:0:0:
64,192,13539,1,0,0:0:0:0:
320,192,13625,1,0,0:0:0:0:
192,192,13711,1,2,0:0:0:0:
448,192,13711,128,4,13882:0:0:0:0:
64,192,13882,128,2,14054:0:0:0:0:
320,192,13882,1,4,0:0:0:0:
448,192,14054,1,0,0:0:0:0:
320,192,14139,1,0,0:0:0:0:
192,192,14225,1,0,0:0:0:0:
64,192,14311,1,0,0:0:0:0:
320,192,14396,1,2,0:0:0:0:
448,192,14396,128,4,14568:0:0:0:0:
64,192,14568,128,0,14739:0:0:0:50:snare.wav
192,192,14568,1,0,0:0:0:0:
320,192,14654,1,2,0:0:0:0:
448,192,14654,1,0,0:0:0:0:
192,192,14739,1,0,0:0:0:0:
320,192,14825,1,0,0:0:0:0:
448,192,14911,1,0,0:0:0:0:
192,192,14996,1,0,0:0:0:0:
64,192,15082,128,0,15254:0:0:0:0:
320,192,15082,1,0,0:0:0:0:
192,192,15168,1,0,0:0:0:0:
320,192,15254,1,2,0:0:0:0:
448,192,15254,128,4,15425:0:0:0:0:
64,192,15425,128,0,15768:0:0:0:50:snare.wav
192,192,15425,1,0,0:0:0:0:
192,192,15768,1,2,0:0:0:0:
320,192,15768,128,4,15939:0:0:0:0:
448,192,15768,1,0,0:0:0:0:
64,192,15939,128,2,16111:0:0:0:0:
192,192,15939,1,0,0:0:0:0:
448,192,16025,1,2,0:0:0:0:
192,192,16111,1,4,0:0:0:0:
320,192,16111,1,0,0:0:0:50:snare.wav
448,192,16196,1,0,0:0:0:0:
64,192,16282,1,2,0:0:0:0:
192,192,16282,1,4,0:0:0:0:
448,192,16368,1,0,0:0:0:0:
64,192,16454,128,0,16625:0:0:0:0:
320,192,16539,1,0,0:0:0:0:
192,192,16625,1,2,0:0:0:0:
448,192,16625,128,4,16796:0:0:0:0:
64,192,16796,128,0,17139:0:0:0:50:snare.wav
320,192,16796,1,0,0:0:0:0:
192,192,16968,128,0,17139:0:0:0:0:
320,192,17139,1,2,0:0:0:0:
448,192,17139,1,4,0:0:0:0:
64,192,17311,1,0,0:0:0:0:
192,192,17396,1,2,0:0:0:0:
448,192,17396,1,0,0:0:0:0:
320,192,17482,1,0,0:0:0:0:
448,192,17568,1,0,0:0:0:0:
64,192,17654,1,2,0:0:0:0:
192,192,17654,1,0,0:0:0:0:
320,192,17739,1,0,0:0:0:0:
64,192,17825,1,2,0:0:0:0:
448,192,17825,1,4,0:0:0:0:
192,192,17911,1,0,0:0:0:0:
320,192,17996,1,0,0:0:0:50:snare.wav
448,192,17996,1,0,0:0:0:0:
320,192,18082,1,0,0:0:0:50:snare.wav
448,192,18082,1,0,0:0:0:0:
64,192,18168,1,2,0:0:0:0:
192,192,18168,1,4,0:0:0:0:
320,192,18339,1,0,0:0:0:50:snare.wav
448,192,18339,1,0,0:0:0:0:
320,192,18425,1,0,0:0:0:50:snare.wav
448,192,18425,1,0,0:0:0:0:
64,192,18511,1,2,0:0:0:0:
192,192,18511,1,4,0:0:0:0:
320,192,18682,1,0,0:0:0:0:
64,192,18854,1,0,0:0:0:50:snare.wav
448,192,18854,1,0,0:0:0:0:
192,192,18939,1,0,0:0:0:0:
320,192,19025,1,0,0:0:0:0:
320,192,19111,1,0,0:0:0:0:
192,192,19196,1,2,0:0:0:0:
448,192,19196,1,4,0:0:0:0:
64,192,19282,1,0,0:0:0:0:
320,192,19368,1,2,0:0:0:0:
448,192,19368,1,4,0:0:0:0:
64,192,19539,1,0,0:0:0:0:
448,192,19596,1,0,0:0:0:0:
320,192,19654,1,0,0:0:0:0:
192,192,19711,1,0,0:0:0:0:
64,192,19768,1,0,0:0:0:0:
448,192,19825,1,0,0:0:0:0:
192,192,19882,1,2,0:0:0:0:
320,192,19882,128,4,20054:0:0:0:0:
64,192,20054,1,0,0:0:0:50:snare.wav
192,192,20054,128,0,20225:0:0:0:0:
320,192,20139,1,2,0:0:0:0:
448,192,20139,1,0,0:0:0:0:
64,192,20225,1,0,0:0:0:0:
448,192,20311,1,0,0:0:0:0:
64,192,20396,1,0,0:0:0:0:
448,192,20482,1,0,0:0:0:0:
64,192,20568,128,0,20739:0:0:0:0:
192,192,20654,1,0,0:0:0:0:
320,192,20739,128,2,20911:0:0:0:0:
448,192,20739,1,4,0:0:0:0:
64,192,20911,1,0,0:0:0:50:snare.wav
448,192,20911,1,0,0:0:0:0:
192,192,21025,1,0,0:0:0:50:snare.wav
320,192,21025,1,0,0:0:0:0:
64,192,21139,1,0,0:0:0:50:snare.wav
448,192,21139,1,0,0:0:0:0:
192,192,21254,1,2,0:0:0:0:
320,192,21254,128,4,21425:0:0:0:0:
64,192,21425,128,0,21596:0:0:0:0:
192,192,21511,1,2,0:0:0:0:
320,192,21596,1,0,0:0:0:50:snare.wav
448,192,21596,1,0,0:0:0:0:
192,192,21682,1,0,0:0:0:0:
64,192,21768,1,2,0:0:0:0:
448,192,21768,1,0,0:0:0:0:
320,192,21854,1,0,0:0:0:0:
192,192,21939,128,4,22111:0:0:0:0:
320,192,22025,1,0,0:0:0:0:
64,192,22111,1,2,0:0:0:0:
448,192,22111,128,4,22282:0:0:0:0:
64,192,22282,128,0,22454:0:0:0:0:
320,192,22454,1,0,0:0:0:0:
320,192,22539,1,0,0:0:0:0:
192,192,22625,1,2,0:0:0:0:
448,192,22625,1,4,0:0:0:0:
64,192,22796,1,0,0:0:0:0:
192,192,22882,1,0,0:0:0:0:
320,192,22968,1,0,0:0:0:50:snare2.wav
448,192,22968,1,0,0:0:0:0:
192,192,23054,1,0,0:0:0:0:
320,192,23139,1,0,0:0:0:0:
448,192,23225,1,0,0:0:0:0:
64,192,23311,1,0,0:0:0:0:
64,192,23396,1,0,0:0:0:0:
320,192,23482,1,0,0:0:0:0:
320,192,23568,1,0,0:0:0:0:
192,192,23654,1,0,0:0:0:0:
192,192,23739,1,0,0:0:0:0:
448,192,23825,1,0,0:0:0:0:
448,192,23911,1,0,0:0:0:0:
64,192,23996,1,2,0:0:0:0:
192,192,23996,1,4,0:0:0:0:
320,192,24168,1,0,0:0:0:0:
64,192,24254,1,2,0:0:0:0:
448,192,24254,1,0,0:0:0:0:
192,192,24339,1,0,0:0:0:0:
320,192,24425,1,0,0:0:0:0:
64,192,24511,1,2,0:0:0:0:
448,192,24511,1,0,0:0:0:0:
192,192,24596,1,0,0:0:0:0:
320,192,24682,1,0,0:0:0:50:snare2.wav
448,192,24682,1,0,0:0:0:0:
64,192,24854,1,2,0:0:0:0:
192,192,24854,1,0,0:0:0:0:
448,192,25025,1,0,0:0:0:0:
320,192,25111,1,0,0:0:0:0:
64,192,25196,1,0,0:0:0:0:
192,192,25282,1,0,0:0:0:0:
320,192,25368,1,2,0:0:0:0:
448,192,25368,1,4,0:0:0:0:
192,192,25539,1,0,0:0:0:0:
64,192,25625,1,2,0:0:0:0:
448,192,25625,1,0,0:0:0:0:
320,192,25711,1,0,0:0:0:0:
192,192,25796,1,0,0:0:0:0:
64,192,25882,1,2,0:0:0:0:
448,192,25882,1,0,0:0:0:0:
320,192,25968,1,0,0:0:0:0:
64,192,26054,1,0,0:0:0:50:snare2.wav
192,192,26054,1,0,0:0:0:0:
320,192,26225,1,0,0:0:0:0:
64,192,26396,128,2,26568:0:0:0:0:
448,192,26396,1,0,0:0:0:0:
320,192,26568,128,0,26739:0:0:0:0:
192,192,26739,1,2,0:0:0:0:
448,192,26739,1,4,0:0:0:0:
64,192,26911,1,0,0:0:0:0:
192,192,26996,1,2,0:0:0:0:
448,192,26996,1,0,0:0:0:0:
320,192,27082,1,0,0:0:0:0:
64,192,27168,1,0,0:0:0:0:
192,192,27254,1,2,0:0:0:0:
448,192,27254,1,0,0:0:0:0:
320,192,27339,1,0,0:0:0:0:
64,192,27425,1,0,0:0:0:50:snare2.wav
192,192,27425,1,0,0:0:0:0:
320,192,27596,1,2,0:0:0:0:
448,192,27596,1,0,0:0:0:0:
64,192,27768,1,0,0:0:0:0:
192,192,27825,1,0,0:0:0:0:
320,192,27882,1,0,0:0:0:0:
448,192,27939,1,0,0:0:0:0:
64,192,27996,1,0,0:0:0:0:
192,192,28054,1,0,0:0:0:0:
320,192,28111,1,2,0:0:0:0:
448,192,28111,1,4,0:0:0:0:
192,192,28282,1,0,0:0:0:0:
64,192,28368,1,2,0:0:0:0:
448,192,28368,1,0,0:0:0:0:
320,192,28454,1,0,0:0:0:0:
192,192,28539,1,0,0:0:0:0:
64,192,28625,1,0,0:0:0:50:snare2.wav
448,192,28625,1,0,0:0:0:0:
192,192,28711,1,0,0:0:0:50:snare2.wav
320,192,28711,1,0,0:0:0:0:
64,192,28796,1,2,0:0:0:0:
448,192,28796,1,4,0:0:0:0:
192,192,28882,1,0,0:0:0:0:
320,192,28968,1,0,0:0:0:0:
448,192,29054,1,0,0:0:0:0:
64,192,29139,1,2,0:0:0:0:
192,192,29139,1,4,0:0:0:0:
320,192,29225,1,0,0:0:0:0:
192,192,29311,1,0,0:0:0:0:
320,192,29396,1,0,0:0:0:0:
64,192,29482,1,2,0:0:0:0:
448,192,29482,1,4,0:0:0:0:
192,192,29654,1,0,0:0:0:50:snare.wav
320,192,29654,1,0,0:0:0:0:
64,192,29739,1,2,0:0:0:0:
448,192,29739,1,0,0:0:0:0:
192,192,29825,1,0,0:0:0:0:
320,192,29911,1,2,0:0:0:0:
448,192,29911,1,0,0:0:0:0:
64,192,29996,1,0,0:0:0:50:snare.wav
192,192,29996,1,0,0:0:0:0:
320,192,30082,1,0,0:0:0:0:
64,192,30168,1,2,0:0:0:0:
448,192,30168,1,0,0:0:0:0:
192,192,30339,1,0,0:0:0:50:snare.wav
320,192,30339,1,0,0:0:0:0:
448,192,30511,1,2,0:0:0:0:
320,192,30568,1,0,0:0:0:0:
192,192,30625,1,0,0:0:0:0:
64,192,30682,1,0,0:0:0:50:snare.wav
448,192,30739,1,0,0:0:0:0:
320,192,30796,1,0,0:0:0:0:
64,192,30854,1,2,0:0:0:0:
192,192,30854,1,4,0:0:0:0:
192,192,31025,1,0,0:0:0:50:snare.wav
320,192,31025,1,0,0:0:0:0:
448,192,31196,1,0,0:0:0:0:
64,192,31282,1,2,0:0:0:0:
192,192,31282,1,0,0:0:0:0:
320,192,31368,1,0,0:0:0:50:snare.wav
448,192,31368,1,0,0:0:0:0:
192,192,31454,1,0,0:0:0:0:
64,192,31539,1,2,0:0:0:0:
320,192,31539,1,0,0:0:0:0:
192,192,31711,1,0,0:0:0:50:snare.wav
448,192,31711,1,0,0:0:0:0:
64,192,31882,1,8,0:0:0:50:kick.wav
192,192,31882,1,0,0:0:0:0:
64,192,32054,1,8,0:0:0:50:kick.wav
192,192,32054,1,0,0:0:0:0:
320,192,32225,1,0,0:0:0:50:snare.wav
448,192,32225,1,0,0:0:0:0:
64,192,32396,1,0,0:0:0:50:snare.wav
192,192,32396,1,0,0:0:0:0:
320,192,32568,1,0,0:0:0:50:snare.wav
448,192,32568,1,0,0:0:0:0:
64,192,32739,1,0,0:0:0:50:snare.wav
192,192,32739,1,0,0:0:0:0:
448,192,32911,1,0,0:0:0:50:snare.wav
320,192,32996,1,0,0:0:0:50:snare.wav
64,192,33082,1,0,0:0:0:50:snare.wav
192,192,33168,1,0,0:0:0:50:snare.wav
448,192,33254,1,0,0:0:0:0:
320,192,33296,1,0,0:0:0:0:
192,192,33339,1,0,0:0:0:0:
64,192,33382,1,0,0:0:0:0:
448,192,33425,1,0,0:0:0:50:snare4.wav
448,192,33511,1,0,0:0:0:50:snare4.wav
64,192,33596,1,2,0:0:0:0:
192,192,33596,1,4,0:0:0:0:
320,192,33768,1,2,0:0:0:0:
448,192,33768,1,0,0:0:0:0:
64,192,33939,1,0,0:0:0:50:LR_Clap Low 2.wav
320,192,34111,1,0,0:0:0:0:
448,192,34196,1,0,0:0:0:0:
192,192,34282,1,0,0:0:0:50:LR_Clap Low 2.wav
64,192,34368,1,0,0:0:0:0:
320,192,34454,1,2,0:0:0:0:
448,192,34454,1,0,0:0:0:0:
64,192,34625,1,0,0:0:0:50:snare.wav
192,192,34625,1,0,0:0:0:0:
320,192,34711,1,0,0:0:0:50:snare.wav
64,192,34796,1,0,0:0:0:50:snare.wav
448,192,34796,1,0,0:0:0:0:
192,192,34882,1,0,0:0:0:50:snare.wav
320,192,34968,1,2,0:0:0:0:
448,192,34968,1,4,0:0:0:0:
192,192,35139,1,0,0:0:0:0:
448,192,35225,1,0,0:0:0:0:
64,192,35311,1,0,0:0:0:50:snare.wav
320,192,35311,1,0,0:0:0:0:
448,192,35482,1,0,0:0:0:0:
448,192,35654,1,0,0:0:0:0:
64,192,35825,1,2,0:0:0:0:
192,192,35825,1,0,0:0:0:0:
64,192,35996,1,0,0:0:0:50:snare.wav
320,192,35996,1,0,0:0:0:0:
448,192,35996,1,0,0:0:0:0:
192,192,36168,1,0,0:0:0:0:
64,192,36339,1,2,0:0:0:0:
448,192,36339,1,0,0:0:0:0:
320,192,36511,1,0,0:0:0:0:
64,192,36596,1,0,0:0:0:0:
192,192,36682,1,0,0:0:0:50:snare.wav
448,192,36682,1,0,0:0:0:0:
64,192,36854,1,0,0:0:0:0:
64,192,37025,1,0,0:0:0:0:
320,192,37196,1,2,0:0:0:0:
448,192,37196,1,0,0:0:0:0:
64,192,37368,1,0,0:0:0:50:snare.wav
192,192,37368,1,0,0:0:0:0:
320,192,37539,1,0,0:0:0:0:
192,192,37711,1,2,0:0:0:0:
448,192,37711,1,0,0:0:0:0:
64,192,37882,1,0,0:0:0:0:
192,192,37968,1,0,0:0:0:0:
320,192,38054,1,0,0:0:0:50:snare.wav
448,192,38054,1,0,0:0:0:0:
192,192,38225,1,0,0:0:0:0:
192,192,38396,1,0,0:0:0:0:
64,192,38568,1,2,0:0:0:0:
320,192,38568,1,0,0:0:0:0:
192,192,38739,1,0,0:0:0:50:snare.wav
448,192,38739,1,0,0:0:0:0:
320,192,38911,1,0,0:0:0:0:
64,192,39082,1,2,0:0:0:0:
448,192,39082,1,0,0:0:0:0:
192,192,39254,1,0,0:0:0:0:
320,192,39425,1,0,0:0:0:50:snare.wav
448,192,39425,1,0,0:0:0:0:
64,192,39596,1,0,0:0:0:0:
320,192,39768,1,0,0:0:0:0:
64,192,39939,1,2,0:0:0:0:
192,192,39939,1,0,0:0:0:0:
320,192,40111,1,0,0:0:0:50:snare.wav
448,192,40111,1,0,0:0:0:0:
320,192,40282,1,0,0:0:0:50:snare.wav
448,192,40282,1,0,0:0:0:0:
192,192,40368,1,0,0:0:0:50:snare.wav
64,192,40454,1,2,0:0:0:0:
320,192,40454,1,4,0:0:0:0:
448,192,40454,1,0,0:0:0:0:
192,192,40625,1,0,0:0:0:0:
320,192,40711,1,0,0:0:0:0:
64,192,40796,1,0,0:0:0:50:snare.wav
192,192,40796,1,0,0:0:0:0:
320,192,40968,1,0,0:0:0:0:
320,192,41139,1,0,0:0:0:0:
64,192,41311,1,2,0:0:0:0:
448,192,41311,1,0,0:0:0:0:
192,192,41482,1,0,0:0:0:50:snare.wav
320,192,41482,1,0,0:0:0:0:
64,192,41654,1,0,0:0:0:0:
192,192,41825,1,2,0:0:0:0:
448,192,41825,1,0,0:0:0:0:
320,192,41996,1,0,0:0:0:0:
192,192,42082,1,0,0:0:0:0:
64,192,42168,1,0,0:0:0:50:snare.wav
448,192,42168,1,0,0:0:0:0:
192,192,42339,1,0,0:0:0:0:
192,192,42511,1,0,0:0:0:0:
320,192,42682,1,2,0:0:0:0:
448,192,42682,1,0,0:0:0:0:
64,192,42854,1,0,0:0:0:50:snare.wav
192,192,42854,1,0,0:0:0:0:
320,192,43025,1,0,0:0:0:0:
64,192,43196,1,2,0:0:0:0:
448,192,43196,1,0,0:0:0:0:
192,192,43368,1,0,0:0:0:0:
448,192,43454,1,0,0:0:0:0:
64,192,43539,1,0,0:0:0:50:snare.wav
320,192,43539,1,0,0:0:0:0:
448,192,43711,1,0,0:0:0:0:
448,192,43882,1,0,0:0:0:0:
64,192,44054,1,2,0:0:0:0:
192,192,44054,1,0,0:0:0:0:
320,192,44225,1,0,0:0:0:50:snare.wav
448,192,44225,1,0,0:0:0:0:
192,192,44396,1,0,0:0:0:0:
64,192,44568,1,0,0:0:0:50:snare4.wav
448,192,44568,1,0,0:0:0:0:
320,192,44654,1,0,0:0:0:50:snare4.wav
192,192,44739,1,0,0:0:0:50:snare4.wav
64,192,44825,1,0,0:0:0:50:snare4.wav
448,192,44825,1,0,0:0:0:0:
192,192,44911,1,0,0:0:0:50:snare4.wav
320,192,44911,1,0,0:0:0:0:
64,192,45082,1,2,0:0:0:0:
448,192,45082,1,0,0:0:0:0:
64,192,45254,1,0,0:0:0:50:snare4.wav
448,192,45254,1,0,0:0:0:0:
192,192,45425,1,2,0:0:0:0:
320,192,45425,1,0,0:0:0:0:
448,192,45596,128,0,45939:0:0:0:0:
320,192,45768,128,0,45939:0:0:0:0:
64,192,45939,1,2,0:0:0:0:
192,192,45939,1,4,0:0:0:0:
320,192,46111,1,0,0:0:0:0:
64,192,46282,1,0,0:0:0:50:snare.wav
192,192,46282,1,0,0:0:0:0:
448,192,46454,1,0,0:0:0:0:
320,192,46539,1,0,0:0:0:0:
64,192,46625,1,0,0:0:0:0:
192,192,46711,1,0,0:0:0:0:
320,192,46796,1,2,0:0:0:0:
448,192,46796,1,0,0:0:0:0:
64,192,46968,1,0,0:0:0:50:snare.wav
192,192,46968,1,0,0:0:0:0:
320,192,47139,1,0,0:0:0:0:
64,192,47311,1,2,0:0:0:0:
448,192,47311,1,0,0:0:0:0:
192,192,47482,1,0,0:0:0:0:
320,192,47654,1,0,0:0:0:50:snare.wav
448,192,47654,1,0,0:0:0:0:
192,192,47825,1,0,0:0:0:0:
64,192,47911,1,0,0:0:0:0:
320,192,47996,1,0,0:0:0:0:
448,192,48082,1,0,0:0:0:0:
64,192,48168,1,2,0:0:0:0:
192,192,48168,1,0,0:0:0:0:
320,192,48339,1,0,0:0:0:50:snare.wav
448,192,48339,1,0,0:0:0:0:
192,192,48511,1,0,0:0:0:0:
64,192,48682,1,2,0:0:0:0:
448,192,48682,1,0,0:0:0:0:
320,192,48854,1,0,0:0:0:0:
64,192,49025,1,0,0:0:0:50:snare.wav
192,192,49025,1,0,0:0:0:0:
320,192,49196,1,0,0:0:0:0:
192,192,49282,1,0,0:0:0:0:
448,192,49368,1,0,0:0:0:0:
320,192,49454,1,0,0:0:0:0:
64,192,49539,1,2,0:0:0:0:
192,192,49539,1,0,0:0:0:0:
320,192,49711,1,0,0:0:0:50:snare.wav
448,192,49711,1,0,0:0:0:0:
192,192,49882,1,0,0:0:0:0:
64,192,50054,1,2,0:0:0:0:
448,192,50054,1,0,0:0:0:0:
192,192,50225,1,0,0:0:0:0:
320,192,50396,1,0,0:0:0:50:snare.wav
448,192,50396,1,0,0:0:0:0:
192,192,50568,1,0,0:0:0:0:
320,192,50654,1,0,0:0:0:0:
64,192,50739,1,0,0:0:0:0:
192,192,50825,1,0,0:0:0:0:
320,192,50911,1,2,0:0:0:0:
448,192,50911,1,0,0:0:0:0:
64,192,51082,1,0,0:0:0:50:snare.wav
192,192,51082,1,0,0:0:0:0:
320,192,51168,1,0,0:0:0:50:snare.wav
192,192,51254,1,0,0:0:0:50:snare.wav
320,192,51339,1,0,0:0:0:50:snare.wav
64,192,51425,1,2,0:0:0:0:
192,192,51425,1,4,0:0:0:0:
448,192,51425,1,0,0:0:0:0:
320,192,51596,128,0,51682:0:0:0:0:
64,192,51768,128,0,51854:0:0:0:50:snare.wav
192,192,51768,1,0,0:0:0:0:
448,192,51939,128,0,52025:0:0:0:0:
320,192,52025,1,0,0:0:0:0:
64,192,52111,128,0,52196:0:0:0:0:
192,192,52196,1,0,0:0:0:0:
320,192,52282,1,2,0:0:0:0:
448,192,52282,1,0,0:0:0:0:
64,192,52454,1,0,0:0:0:50:snare.wav
192,192,52454,1,0,0:0:0:0:
320,192,52625,1,0,0:0:0:0:
64,192,52796,1,2,0:0:0:0:
448,192,52796,1,0,0:0:0:0:
192,192,52968,128,0,53054:0:0:0:0:
320,192,53139,128,0,53225:0:0:0:50:snare.wav
448,192,53139,1,0,0:0:0:0:
64,192,53311,128,0,53396:0:0:0:0:
192,192,53396,1,0,0:0:0:0:
448,192,53482,128,0,53568:0:0:0:0:
320,192,53568,1,0,0:0:0:0:
64,192,53654,128,2,53739:0:0:0:0:
192,192,53654,1,0,0:0:0:0:
320,192,53825,1,0,0:0:0:50:snare.wav
448,192,53825,1,0,0:0:0:0:
192,192,53996,1,0,0:0:0:0:
64,192,54168,1,2,0:0:0:0:
448,192,54168,1,0,0:0:0:0:
320,192,54339,128,0,54425:0:0:0:0:
192,192,54511,1,0,0:0:0:50:snare.wav
448,192,54511,128,0,54596:0:0:0:0:
64,192,54682,128,0,54768:0:0:0:0:
192,192,54768,1,0,0:0:0:0:
448,192,54854,128,0,54939:0:0:0:0:
320,192,54939,1,0,0:0:0:0:
64,192,55025,1,2,0:0:0:0:
192,192,55025,1,0,0:0:0:0:
320,192,55196,1,0,0:0:0:50:snare.wav
448,192,55196,1,0,0:0:0:0:
192,192,55368,1,0,0:0:0:0:
64,192,55539,1,0,0:0:0:0:
448,192,55539,1,0,0:0:0:0:
64,192,55796,1,0,0:0:0:0:
448,192,55796,1,0,0:0:0:0:
64,192,56054,1,0,0:0:0:0:
448,192,56054,1,0,0:0:0:0:
64,192,56225,1,0,0:0:0:0:
448,192,56225,1,0,0:0:0:0:
320,192,56568,1,0,0:0:0:0:
64,192,56911,1,4,0:0:0:0:
448,192,56911,1,2,0:0:0:50:snare4.wav
192,192,57082,1,0,0:0:0:50:snare.wav
320,192,57168,1,0,0:0:0:50:snare.wav
64,192,57254,1,8,0:0:0:50:snare4.wav
448,192,57254,1,0,0:0:0:0:
320,192,57425,1,0,0:0:0:50:snare.wav
192,192,57511,1,0,0:0:0:50:snare.wav
64,192,57596,1,8,0:0:0:50:snare4.wav
448,192,57596,1,0,0:0:0:0:
192,192,57768,1,0,0:0:0:50:snare.wav
320,192,57854,1,0,0:0:0:50:snare.wav
64,192,57939,1,8,0:0:0:50:snare4.wav
448,192,57939,1,0,0:0:0:0:
320,192,58111,1,0,0:0:0:50:snare.wav
192,192,58196,1,0,0:0:0:0:
64,192,58282,1,8,0:0:0:50:snare4.wav
448,192,58282,1,0,0:0:0:0:
64,192,58454,1,0,0:0:0:50:snare.wav
192,192,58539,1,0,0:0:0:50:snare.wav
320,192,58625,1,8,0:0:0:50:snare4.wav
448,192,58625,1,0,0:0:0:0:
448,192,58796,1,0,0:0:0:50:snare.wav
320,192,58882,1,0,0:0:0:50:snare.wav
64,192,58968,1,8,0:0:0:50:snare4.wav
192,192,58968,1,0,0:0:0:0:
64,192,59139,1,0,0:0:0:50:snare.wav
192,192,59225,1,0,0:0:0:50:snare.wav
320,192,59311,1,8,0:0:0:50:snare4.wav
448,192,59311,1,0,0:0:0:0:
448,192,59482,1,0,0:0:0:50:snare.wav
320,192,59568,1,0,0:0:0:0:
64,192,59654,1,8,0:0:0:50:snare4.wav
192,192,59654,1,0,0:0:0:0:
320,192,59825,1,0,0:0:0:50:snare.wav
192,192,59911,1,0,0:0:0:50:snare.wav
64,192,59996,1,8,0:0:0:50:snare4.wav
448,192,59996,1,0,0:0:0:0:
192,192,60168,1,0,0:0:0:50:snare.wav
320,192,60254,1,0,0:0:0:50:snare.wav
64,192,60339,1,8,0:0:0:50:snare4.wav
448,192,60339,1,0,0:0:0:0:
320,192,60511,1,0,0:0:0:50:snare.wav
192,192,60596,1,0,0:0:0:50:snare.wav
64,192,60682,1,8,0:0:0:50:snare4.wav
448,192,60682,1,0,0:0:0:0:
192,192,60854,1,0,0:0:0:50:snare.wav
320,192,60939,1,0,0:0:0:0:
64,192,61025,1,8,0:0:0:50:snare4.wav
448,192,61025,1,0,0:0:0:0:
320,192,61196,1,0,0:0:0:50:snare.wav
192,192,61282,1,0,0:0:0:50:snare.wav
320,192,61368,1,8,0:0:0:50:snare4.wav
448,192,61368,1,0,0:0:0:0:
192,192,61539,1,0,0:0:0:50:snare.wav
320,192,61625,1,0,0:0:0:50:snare.wav
64,192,61711,1,8,0:0:0:50:snare4.wav
192,192,61711,1,0,0:0:0:0:
320,192,61882,1,0,0:0:0:50:snare.wav
192,192,61968,1,0,0:0:0:50:snare.wav
448,192,62054,1,0,0:0:0:50:snare.wav
320,192,62096,1,0,0:0:0:50:snare.wav
192,192,62139,1,0,0:0:0:50:snare.wav
64,192,62182,1,0,0:0:0:50:snare.wav
448,192,62225,1,0,0:0:0:50:snare.wav
320,192,62268,1,0,0:0:0:50:snare.wav
192,192,62311,1,0,0:0:0:50:snare.wav
64,192,62354,1,0,0:0:0:50:snare.wav
320,192,62396,1,4,0:0:0:0:
448,192,62396,128,0,66511:0:0:0:0:
192,192,62568,1,0,0:0:0:50:snare.wav
192,192,62654,1,0,0:0:0:50:snare.wav
64,192,62739,1,0,0:0:0:0:
320,192,62911,1,0,0:0:0:50:snare.wav
320,192,62996,1,0,0:0:0:50:snare.wav
64,192,63082,1,8,0:0:0:50:snare4.wav
192,192,63082,1,0,0:0:0:0:
320,192,63254,1,0,0:0:0:50:snare.wav
320,192,63339,1,0,0:0:0:0:
192,192,63425,1,0,0:0:0:0:
64,192,63511,1,0,0:0:0:50:snare.wav
64,192,63596,1,0,0:0:0:50:snare.wav
192,192,63682,1,0,0:0:0:50:snare.wav
320,192,63768,1,8,0:0:0:50:snare4.wav
320,192,63854,1,0,0:0:0:50:snare.wav
64,192,63939,1,0,0:0:0:50:snare.wav
192,192,64025,1,0,0:0:0:50:snare.wav
320,192,64111,1,0,0:0:0:0:
192,192,64282,1,0,0:0:0:50:snare.wav
192,192,64368,1,0,0:0:0:50:snare.wav
320,192,64454,1,8,0:0:0:50:snare4.wav
64,192,64625,1,0,0:0:0:50:snare.wav
192,192,64625,1,8,0:0:0:50:kick.wav
64,192,64796,1,0,0:0:0:50:snare.wav
192,192,64796,1,8,0:0:0:50:kick.wav
64,192,64968,1,0,0:0:0:50:snare.wav
192,192,64968,1,8,0:0:0:50:kick.wav
320,192,65139,1,8,0:0:0:50:snare4.wav
64,192,65225,1,0,0:0:0:50:snare.wav
192,192,65311,1,0,0:0:0:50:snare.wav
320,192,65396,1,0,0:0:0:50:snare.wav
64,192,65482,1,8,0:0:0:50:snare4.wav
192,192,65568,1,0,0:0:0:50:snare.wav
320,192,65654,1,0,0:0:0:50:snare.wav
64,192,65739,1,0,0:0:0:50:snare.wav
192,192,65825,1,8,0:0:0:50:snare4.wav
320,192,65911,1,0,0:0:0:50:snare.wav
64,192,65996,1,0,0:0:0:50:snare.wav
192,192,66082,1,0,0:0:0:50:snare.wav
320,192,66168,1,8,0:0:0:50:snare4.wav
64,192,66254,1,0,0:0:0:50:snare.wav
192,192,66339,1,0,0:0:0:50:snare.wav
320,192,66425,1,0,0:0:0:50:snare.wav
64,192,66511,128,0,66768:0:0:0:70:Cowbell.wav
64,192,66854,128,0,67111:0:0:0:70:Cowbell.wav
64,192,67196,128,0,67368:0:0:0:70:Cowbell.wav
448,192,67368,1,0,0:0:0:0:
320,192,67425,1,0,0:0:0:0:
192,192,67482,1,0,0:0:0:0:
64,192,67539,128,0,67882:0:0:0:0:
192,192,67882,1,2,0:0:0:0:
320,192,67882,1,4,0:0:0:0:
448,192,67882,1,0,0:0:0:0:
64,192,68054,1,0,0:0:0:0:
192,192,68225,1,2,0:0:0:0:
448,192,68225,1,0,0:0:0:0:
320,192,68396,1,0,0:0:0:0:
192,192,68482,1,0,0:0:0:0:
64,192,68568,1,2,0:0:0:0:
448,192,68568,1,0,0:0:0:0:
320,192,68654,1,0,0:0:0:0:
192,192,68739,1,0,0:0:0:0:
64,192,68911,1,2,0:0:0:0:
448,192,68911,1,0,0:0:0:0:
320,192,69082,1,0,0:0:0:0:
64,192,69254,1,2,0:0:0:0:
192,192,69254,1,0,0:0:0:0:
320,192,69425,1,0,0:0:0:0:
192,192,69596,1,2,0:0:0:0:
448,192,69596,1,0,0:0:0:0:
64,192,69768,1,0,0:0:0:0:
192,192,69854,1,0,0:0:0:0:
320,192,69939,1,2,0:0:0:0:
448,192,69939,1,0,0:0:0:0:
192,192,70025,1,0,0:0:0:0:
64,192,70111,1,0,0:0:0:0:
192,192,70282,1,2,0:0:0:0:
448,192,70282,1,0,0:0:0:0:
320,192,70454,1,0,0:0:0:0:
64,192,70625,1,2,0:0:0:0:
192,192,70625,1,0,0:0:0:0:
448,192,70796,1,0,0:0:0:0:
64,192,70968,1,2,0:0:0:0:
320,192,70968,1,0,0:0:0:0:
192,192,71139,1,0,0:0:0:0:
320,192,71225,1,0,0:0:0:0:
64,192,71311,1,2,0:0:0:0:
448,192,71311,1,0,0:0:0:0:
192,192,71396,1,0,0:0:0:0:
320,192,71482,1,0,0:0:0:0:
64,192,71654,1,2,0:0:0:0:
448,192,71654,1,0,0:0:0:0:
192,192,71825,1,0,0:0:0:0:
320,192,71996,1,2,0:0:0:0:
448,192,71996,1,0,0:0:0:0:
192,192,72168,1,0,0:0:0:0:
64,192,72339,1,2,0:0:0:0:
320,192,72339,1,0,0:0:0:0:
448,192,72511,1,0,0:0:0:0:
320,192,72596,1,0,0:0:0:0:
64,192,72682,1,2,0:0:0:0:
192,192,72682,1,0,0:0:0:0:
320,192,72768,1,0,0:0:0:0:
448,192,72854,1,0,0:0:0:0:
64,192,73025,1,2,0:0:0:0:
320,192,73025,1,0,0:0:0:0:
192,192,73196,1,0,0:0:0:0:
64,192,73368,1,2,0:0:0:0:
448,192,73368,1,0,0:0:0:0:
320,192,73539,1,0,0:0:0:0:
64,192,73711,1,2,0:0:0:0:
192,192,73711,1,0,0:0:0:0:
320,192,73882,1,0,0:0:0:0:
64,192,73968,1,0,0:0:0:0:
192,192,74054,1,2,0:0:0:0:
448,192,74054,1,0,0:0:0:0:
64,192,74139,1,0,0:0:0:0:
320,192,74225,1,0,0:0:0:0:
64,192,74396,1,2,0:0:0:0:
192,192,74396,1,0,0:0:0:0:
320,192,74568,1,0,0:0:0:0:
64,192,74739,1,2,0:0:0:0:
448,192,74739,1,0,0:0:0:0:
192,192,74911,1,0,0:0:0:0:
320,192,75082,1,2,0:0:0:0:
448,192,75082,1,0,0:0:0:0:
64,192,75254,1,0,0:0:0:0:
448,192,75339,1,0,0:0:0:0:
192,192,75425,1,2,0:0:0:0:
320,192,75425,1,0,0:0:0:0:
64,192,75511,1,0,0:0:0:0:
448,192,75596,1,0,0:0:0:0:
64,192,75768,1,2,0:0:0:0:
320,192,75768,1,0,0:0:0:0:
192,192,75939,1,0,0:0:0:0:
320,192,76111,1,2,0:0:0:0:
448,192,76111,1,0,0:0:0:0:
64,192,76282,1,0,0:0:0:0:
192,192,76454,1,2,0:0:0:0:
448,192,76454,1,0,0:0:0:0:
320,192,76625,1,0,0:0:0:0:
192,192,76711,1,0,0:0:0:0:
64,192,76796,1,2,0:0:0:0:
448,192,76796,1,0,0:0:0:0:
320,192,76882,1,0,0:0:0:0:
192,192,76968,1,0,0:0:0:0:
64,192,77139,1,2,0:0:0:0:
448,192,77139,1,0,0:0:0:0:
192,192,77311,1,0,0:0:0:0:
64,192,77482,1,0,0:0:0:0:
448,192,77482,128,0,77654:0:0:0:0:
320,192,77654,1,0,0:0:0:0:
64,192,77739,1,0,0:0:0:0:
192,192,77825,128,0,77996:0:0:0:0:
448,192,77825,1,0,0:0:0:0:
320,192,77996,1,0,0:0:0:0:
448,192,78082,1,0,0:0:0:0:
64,192,78168,128,0,78339:0:0:0:0:
192,192,78168,1,0,0:0:0:0:
320,192,78339,1,0,0:0:0:0:
192,192,78425,1,0,0:0:0:0:
448,192,78511,128,0,78682:0:0:0:0:
64,192,78854,1,2,0:0:0:0:
192,192,78854,1,4,0:0:0:0:
320,192,78854,1,0,0:0:0:0:
448,192,79025,1,0,0:0:0:0:
320,192,79111,1,0,0:0:0:0:
64,192,79196,1,2,0:0:0:0:
192,192,79196,1,0,0:0:0:0:
320,192,79368,1,0,0:0:0:0:
192,192,79539,1,2,0:0:0:0:
448,192,79539,1,0,0:0:0:0:
64,192,79711,1,0,0:0:0:0:
192,192,79796,1,0,0:0:0:0:
320,192,79882,1,2,0:0:0:0:
448,192,79882,1,0,0:0:0:0:
192,192,80054,1,0,0:0:0:0:
64,192,80225,1,2,0:0:0:0:
448,192,80225,1,0,0:0:0:0:
320,192,80396,1,0,0:0:0:0:
192,192,80482,1,0,0:0:0:0:
320,192,80568,1,2,0:0:0:0:
448,192,80568,1,0,0:0:0:0:
192,192,80739,1,0,0:0:0:0:
64,192,80911,1,2,0:0:0:0:
448,192,80911,128,0,81082:0:0:0:0:
192,192,81082,1,0,0:0:0:0:
320,192,81082,128,0,81254:0:0:0:0:
64,192,81168,1,0,0:0:0:0:
192,192,81254,128,2,81425:0:0:0:0:
448,192,81254,1,0,0:0:0:0:
64,192,81425,128,0,81596:0:0:0:0:
320,192,81596,1,2,0:0:0:0:
448,192,81596,1,0,0:0:0:0:
192,192,81768,1,0,0:0:0:0:
320,192,81854,1,0,0:0:0:0:
64,192,81939,1,2,0:0:0:0:
448,192,81939,1,0,0:0:0:0:
192,192,82111,1,0,0:0:0:0:
64,192,82282,1,2,0:0:0:0:
320,192,82282,1,0,0:0:0:0:
448,192,82454,1,0,0:0:0:0:
320,192,82539,1,0,0:0:0:0:
64,192,82625,1,2,0:0:0:0:
192,192,82625,1,0,0:0:0:0:
320,192,82796,1,0,0:0:0:0:
64,192,82968,128,2,83139:0:0:0:0:
448,192,82968,1,0,0:0:0:0:
320,192,83139,1,0,0:0:0:0:
448,192,83225,1,0,0:0:0:0:
64,192,83311,1,2,0:0:0:0:
192,192,83311,128,0,83482:0:0:0:0:
448,192,83482,1,0,0:0:0:0:
64,192,83654,1,2,0:0:0:0:
320,192,83654,128,0,83825:0:0:0:0:
192,192,83825,1,0,0:0:0:0:
64,192,83911,1,0,0:0:0:0:
320,192,83996,1,2,0:0:0:0:
448,192,83996,128,0,84168:0:0:0:0:
192,192,84082,1,0,0:0:0:0:
64,192,84168,1,0,0:0:0:0:
320,192,84254,1,0,0:0:0:0:
64,192,84339,1,2,0:0:0:0:
192,192,84339,1,0,0:0:0:0:
448,192,84511,1,0,0:0:0:0:
192,192,84596,1,0,0:0:0:0:
64,192,84682,1,2,0:0:0:0:
320,192,84682,1,0,0:0:0:0:
448,192,84854,1,0,0:0:0:0:
192,192,85025,1,2,0:0:0:0:
320,192,85025,1,0,0:0:0:0:
64,192,85196,1,0,0:0:0:0:
192,192,85282,1,0,0:0:0:0:
320,192,85368,128,2,85539:0:0:0:0:
448,192,85368,1,0,0:0:0:0:
192,192,85539,128,0,85711:0:0:0:0:
320,192,85711,1,2,0:0:0:0:
448,192,85711,128,0,85882:0:0:0:0:
64,192,85882,128,0,86054:0:0:0:0:
192,192,85968,1,0,0:0:0:0:
320,192,86054,128,2,86225:0:0:0:0:
448,192,86054,1,0,0:0:0:0:
192,192,86225,128,0,86396:0:0:0:0:
64,192,86396,128,2,86568:0:0:0:0:
448,192,86396,1,0,0:0:0:0:
320,192,86568,1,0,0:0:0:0:
192,192,86654,1,0,0:0:0:0:
320,192,86739,1,2,0:0:0:0:
448,192,86739,1,0,0:0:0:0:
192,192,86911,1,0,0:0:0:0:
64,192,87082,1,0,0:0:0:50:snare.wav
448,192,87082,1,0,0:0:0:0:
192,192,87254,1,0,0:0:0:50:snare.wav
320,192,87254,1,0,0:0:0:0:
64,192,87425,1,0,0:0:0:50:snare.wav
448,192,87425,1,0,0:0:0:0:
320,192,87596,1,0,0:0:0:50:snare.wav
448,192,87596,1,0,0:0:0:0:
64,192,87682,1,0,0:0:0:50:snare.wav
192,192,87682,1,0,0:0:0:0:
448,192,87768,128,0,87939:0:0:0:0:
64,192,87939,1,0,0:0:0:50:snare.wav
192,192,87939,1,0,0:0:0:0:
320,192,88111,1,0,0:0:0:50:snare.wav
448,192,88111,1,0,0:0:0:0:
64,192,88282,1,0,0:0:0:50:snare.wav
192,192,88282,1,0,0:0:0:0:
320,192,88454,1,0,0:0:0:50:snare.wav
448,192,88539,1,0,0:0:0:50:snare.wav
192,192,88625,1,0,0:0:0:50:snare.wav
64,192,88711,1,0,0:0:0:50:snare.wav
320,192,88796,1,0,0:0:0:50:snare.wav
448,192,88882,1,0,0:0:0:50:snare.wav
192,192,88968,1,0,0:0:0:50:snare.wav
64,192,89054,1,0,0:0:0:50:snare.wav
320,192,89139,1,0,0:0:0:0:
448,192,89311,1,0,0:0:0:0:
448,192,89482,128,0,89825:0:0:0:0:
64,192,89825,128,2,89996:0:0:0:0:
192,192,89825,1,4,0:0:0:0:
320,192,89825,1,0,0:0:0:0:
320,192,89996,1,2,0:0:0:0:
448,192,89996,128,0,90168:0:0:0:0:
192,192,90082,1,2,0:0:0:0:
64,192,90168,1,0,0:0:0:50:snare.wav
320,192,90168,1,0,0:0:0:0:
192,192,90254,1,0,0:0:0:0:
64,192,90339,1,0,0:0:0:0:
320,192,90425,1,0,0:0:0:0:
192,192,90511,1,2,0:0:0:0:
448,192,90511,128,4,90682:0:0:0:0:
64,192,90682,128,2,90854:0:0:0:0:
320,192,90682,1,4,0:0:0:0:
448,192,90854,1,0,0:0:0:0:
320,192,90939,1,0,0:0:0:0:
192,192,91025,1,0,0:0:0:0:
64,192,91111,1,0,0:0:0:0:
320,192,91196,1,2,0:0:0:0:
448,192,91196,128,4,91368:0:0:0:0:
64,192,91368,128,0,91539:0:0:0:50:snare.wav
192,192,91368,1,0,0:0:0:0:
320,192,91454,1,2,0:0:0:0:
448,192,91454,1,0,0:0:0:0:
192,192,91539,1,0,0:0:0:0:
320,192,91625,1,0,0:0:0:0:
448,192,91711,1,0,0:0:0:0:
192,192,91796,1,0,0:0:0:0:
64,192,91882,128,0,92054:0:0:0:0:
320,192,91882,1,0,0:0:0:0:
192,192,91968,1,0,0:0:0:0:
320,192,92054,1,2,0:0:0:0:
448,192,92054,128,4,92225:0:0:0:0:
64,192,92225,128,0,92568:0:0:0:50:snare.wav
192,192,92225,1,0,0:0:0:0:
192,192,92568,128,2,92739:0:0:0:0:
320,192,92568,1,4,0:0:0:0:
448,192,92568,1,0,0:0:0:0:
320,192,92739,1,2,0:0:0:0:
448,192,92739,128,0,92911:0:0:0:0:
64,192,92825,1,2,0:0:0:0:
192,192,92911,1,4,0:0:0:0:
320,192,92911,1,0,0:0:0:50:snare.wav
64,192,92996,1,0,0:0:0:0:
320,192,93082,1,2,0:0:0:0:
448,192,93082,1,4,0:0:0:0:
64,192,93168,1,0,0:0:0:0:
448,192,93254,128,0,93425:0:0:0:0:
192,192,93339,1,0,0:0:0:0:
64,192,93425,128,2,93596:0:0:0:0:
320,192,93425,1,4,0:0:0:0:
192,192,93596,1,0,0:0:0:50:snare.wav
448,192,93596,128,0,93939:0:0:0:0:
320,192,93768,128,0,93939:0:0:0:0:
64,192,93939,1,2,0:0:0:0:
192,192,93939,1,4,0:0:0:0:
448,192,94111,1,0,0:0:0:0:
64,192,94196,1,2,0:0:0:0:
320,192,94196,1,0,0:0:0:0:
192,192,94282,1,0,0:0:0:0:
64,192,94368,1,0,0:0:0:0:
320,192,94454,1,2,0:0:0:0:
448,192,94454,1,0,0:0:0:0:
192,192,94539,1,0,0:0:0:0:
64,192,94625,1,2,0:0:0:0:
448,192,94625,1,4,0:0:0:0:
320,192,94711,1,0,0:0:0:0:
64,192,94796,1,0,0:0:0:50:snare.wav
192,192,94796,1,0,0:0:0:0:
64,192,94882,1,0,0:0:0:50:snare.wav
192,192,94882,1,0,0:0:0:0:
320,192,94968,1,2,0:0:0:0:
448,192,94968,1,4,0:0:0:0:
64,192,95139,1,0,0:0:0:50:snare.wav
192,192,95139,1,0,0:0:0:0:
64,192,95225,1,0,0:0:0:50:snare.wav
192,192,95225,1,0,0:0:0:0:
320,192,95311,1,2,0:0:0:0:
448,192,95311,1,4,0:0:0:0:
192,192,95482,1,0,0:0:0:0:
64,192,95654,1,0,0:0:0:50:snare.wav
448,192,95654,1,0,0:0:0:0:
320,192,95739,1,0,0:0:0:0:
192,192,95825,1,0,0:0:0:0:
192,192,95911,1,0,0:0:0:0:
64,192,95996,1,2,0:0:0:0:
320,192,95996,1,4,0:0:0:0:
448,192,96082,1,0,0:0:0:0:
64,192,96168,1,2,0:0:0:0:
192,192,96168,1,4,0:0:0:0:
448,192,96339,1,0,0:0:0:0:
64,192,96396,1,0,0:0:0:0:
192,192,96454,1,0,0:0:0:0:
320,192,96511,1,0,0:0:0:0:
448,192,96568,1,0,0:0:0:0:
64,192,96625,1,0,0:0:0:0:
192,192,96682,128,2,96854:0:0:0:0:
320,192,96682,1,4,0:0:0:0:
320,192,96854,128,0,97025:0:0:0:50:snare.wav
448,192,96854,1,0,0:0:0:0:
64,192,96939,1,2,0:0:0:0:
192,192,96939,1,0,0:0:0:0:
448,192,97025,1,0,0:0:0:0:
64,192,97111,1,0,0:0:0:0:
448,192,97196,1,0,0:0:0:0:
64,192,97282,1,0,0:0:0:0:
448,192,97368,128,0,97539:0:0:0:0:
320,192,97454,1,0,0:0:0:0:
64,192,97539,1,2,0:0:0:0:
192,192,97539,128,4,97711:0:0:0:0:
64,192,97711,1,0,0:0:0:50:snare.wav
448,192,97711,1,0,0:0:0:0:
192,192,97825,1,0,0:0:0:50:snare.wav
320,192,97825,1,0,0:0:0:0:
64,192,97939,1,0,0:0:0:50:snare.wav
448,192,97939,1,0,0:0:0:0:
192,192,98054,128,2,98225:0:0:0:0:
320,192,98054,1,4,0:0:0:0:
448,192,98225,128,0,98396:0:0:0:0:
320,192,98311,1,2,0:0:0:0:
64,192,98396,1,0,0:0:0:50:snare.wav
192,192,98396,1,0,0:0:0:0:
320,192,98482,1,0,0:0:0:0:
64,192,98568,1,2,0:0:0:0:
448,192,98568,1,0,0:0:0:0:
192,192,98654,1,0,0:0:0:0:
320,192,98739,128,4,98911:0:0:0:0:
192,192,98825,1,0,0:0:0:0:
64,192,98911,128,2,99082:0:0:0:0:
448,192,98911,1,4,0:0:0:0:
448,192,99082,128,0,99254:0:0:0:0:
192,192,99254,1,0,0:0:0:0:
192,192,99339,1,0,0:0:0:0:
64,192,99425,1,2,0:0:0:0:
320,192,99425,1,4,0:0:0:0:
448,192,99596,1,2,0:0:0:0:
320,192,99682,1,0,0:0:0:0:
64,192,99768,1,0,0:0:0:50:snare2.wav
192,192,99768,1,0,0:0:0:0:
320,192,99854,1,0,0:0:0:0:
192,192,99939,1,0,0:0:0:0:
64,192,100025,1,0,0:0:0:0:
448,192,100111,1,0,0:0:0:0:
448,192,100196,1,0,0:0:0:0:
192,192,100282,1,0,0:0:0:0:
192,192,100368,1,0,0:0:0:0:
320,192,100454,1,0,0:0:0:0:
320,192,100539,1,0,0:0:0:0:
64,192,100625,1,0,0:0:0:0:
64,192,100711,1,0,0:0:0:0:
320,192,100796,1,2,0:0:0:0:
448,192,100796,1,4,0:0:0:0:
192,192,100968,1,0,0:0:0:0:
64,192,101054,1,2,0:0:0:0:
448,192,101054,1,0,0:0:0:0:
320,192,101139,1,0,0:0:0:0:
192,192,101225,1,0,0:0:0:0:
64,192,101311,1,2,0:0:0:0:
448,192,101311,1,0,0:0:0:0:
320,192,101396,1,0,0:0:0:0:
64,192,101482,1,0,0:0:0:50:snare2.wav
192,192,101482,1,0,0:0:0:0:
320,192,101654,1,2,0:0:0:0:
448,192,101654,1,0,0:0:0:0:
64,192,101825,1,0,0:0:0:0:
192,192,101911,1,0,0:0:0:0:
448,192,101996,1,0,0:0:0:0:
320,192,102082,1,0,0:0:0:0:
64,192,102168,1,2,0:0:0:0:
192,192,102168,1,4,0:0:0:0:
320,192,102339,1,0,0:0:0:0:
64,192,102425,1,2,0:0:0:0:
448,192,102425,1,0,0:0:0:0:
192,192,102511,1,0,0:0:0:0:
320,192,102596,1,0,0:0:0:0:
64,192,102682,1,2,0:0:0:0:
448,192,102682,1,0,0:0:0:0:
192,192,102768,1,0,0:0:0:0:
320,192,102854,1,0,0:0:0:50:snare2.wav
448,192,102854,1,0,0:0:0:0:
192,192,103025,1,0,0:0:0:0:
64,192,103196,1,2,0:0:0:0:
448,192,103196,128,0,103368:0:0:0:0:
192,192,103368,128,0,103539:0:0:0:0:
64,192,103539,1,2,0:0:0:0:
320,192,103539,1,4,0:0:0:0:
448,192,103711,1,0,0:0:0:0:
64,192,103796,1,2,0:0:0:0:
320,192,103796,1,0,0:0:0:0:
192,192,103882,1,0,0:0:0:0:
448,192,103968,1,0,0:0:0:0:
64,192,104054,1,2,0:0:0:0:
320,192,104054,1,0,0:0:0:0:
192,192,104139,1,0,0:0:0:0:
320,192,104225,1,0,0:0:0:50:snare2.wav
448,192,104225,1,0,0:0:0:0:
64,192,104396,1,2,0:0:0:0:
192,192,104396,1,0,0:0:0:0:
448,192,104568,1,0,0:0:0:0:
320,192,104625,1,0,0:0:0:0:
192,192,104682,1,0,0:0:0:0:
64,192,104739,1,0,0:0:0:0:
448,192,104796,1,0,0:0:0:0:
320,192,104854,1,0,0:0:0:0:
64,192,104911,1,2,0:0:0:0:
192,192,104911,1,4,0:0:0:0:
320,192,105082,1,0,0:0:0:0:
64,192,105168,1,2,0:0:0:0:
448,192,105168,1,0,0:0:0:0:
192,192,105254,1,0,0:0:0:0:
320,192,105339,1,0,0:0:0:0:
64,192,105425,1,0,0:0:0:50:snare2.wav
448,192,105425,1,0,0:0:0:0:
192,192,105511,1,0,0:0:0:50:snare2.wav
320,192,105511,1,0,0:0:0:0:
64,192,105596,1,2,0:0:0:0:
448,192,105596,1,4,0:0:0:0:
192,192,105682,1,0,0:0:0:0:
320,192,105768,1,0,0:0:0:0:
448,192,105854,1,0,0:0:0:0:
64,192,105939,1,2,0:0:0:0:
192,192,105939,1,4,0:0:0:0:
320,192,106025,1,0,0:0:0:0:
192,192,106111,1,0,0:0:0:0:
320,192,106196,1,0,0:0:0:0:
64,192,106282,1,2,0:0:0:0:
448,192,106282,1,4,0:0:0:0:
192,192,106454,1,0,0:0:0:50:snare.wav
320,192,106454,1,0,0:0:0:0:
64,192,106539,1,2,0:0:0:0:
448,192,106539,1,0,0:0:0:0:
192,192,106625,1,0,0:0:0:0:
320,192,106711,1,2,0:0:0:0:
448,192,106711,1,0,0:0:0:0:
64,192,106796,1,0,0:0:0:50:snare.wav
192,192,106796,1,0,0:0:0:0:
320,192,106882,1,0,0:0:0:0:
64,192,106968,1,2,0:0:0:0:
448,192,106968,1,0,0:0:0:0:
192,192,107139,1,0,0:0:0:50:snare.wav
320,192,107139,1,0,0:0:0:0:
64,192,107311,1,2,0:0:0:0:
192,192,107368,1,0,0:0:0:0:
320,192,107425,1,0,0:0:0:0:
448,192,107482,1,0,0:0:0:50:snare.wav
64,192,107539,1,0,0:0:0:0:
192,192,107596,1,0,0:0:0:0:
320,192,107654,1,2,0:0:0:0:
448,192,107654,1,4,0:0:0:0:
192,192,107825,1,0,0:0:0:50:snare.wav
320,192,107825,1,0,0:0:0:0:
64,192,107996,1,0,0:0:0:0:
320,192,108082,1,2,0:0:0:0:
448,192,108082,1,0,0:0:0:0:
64,192,108168,1,0,0:0:0:50:snare.wav
192,192,108168,1,0,0:0:0:0:
320,192,108254,1,0,0:0:0:0:
192,192,108339,1,2,0:0:0:0:
448,192,108339,1,0,0:0:0:0:
64,192,108511,1,0,0:0:0:50:snare.wav
320,192,108511,1,0,0:0:0:0:
320,192,108682,1,8,0:0:0:50:kick.wav
448,192,108682,1,0,0:0:0:0:
320,192,108854,1,8,0:0:0:50:kick.wav
448,192,108854,1,0,0:0:0:0:
64,192,109025,1,0,0:0:0:50:snare.wav
192,192,109025,1,0,0:0:0:0:
320,192,109196,1,0,0:0:0:50:snare.wav
448,192,109196,1,0,0:0:0:0:
64,192,109368,1,0,0:0:0:50:snare.wav
192,192,109368,1,0,0:0:0:0:
320,192,109539,1,0,0:0:0:50:snare.wav
448,192,109539,1,0,0:0:0:0:
64,192,109711,1,0,0:0:0:50:snare.wav
192,192,109796,1,0,0:0:0:50:snare.wav
448,192,109882,1,0,0:0:0:50:snare.wav
320,192,109968,1,0,0:0:0:50:snare.wav
64,192,110054,1,0,0:0:0:0:
192,192,110096,1,0,0:0:0:0:
320,192,110139,1,0,0:0:0:0:
448,192,110182,1,0,0:0:0:0:
64,192,110225,1,0,0:0:0:50:snare4.wav
64,192,110311,1,0,0:0:0:50:snare4.wav
320,192,110396,1,2,0:0:0:0:
448,192,110396,128,4,110677:0:0:0:0:
64,192,110677,128,0,110958:0:0:0:0:
192,192,110958,128,0,111239:0:0:0:0:
320,192,111239,128,0,111521:0:0:0:0:
64,192,111521,128,0,111708:0:0:0:0:
448,192,111521,128,0,113024:0:0:0:0:
64,192,111896,128,0,112083:0:0:0:0:
64,192,112271,128,0,112458:0:0:0:0:
64,192,112646,128,0,112833:0:0:0:0:
192,192,113024,1,2,0:0:0:0:
320,192,113024,1,4,0:0:0:0:
64,192,113424,128,0,113624:0:0:0:0:
192,192,113424,128,0,113624:0:0:0:0:
320,192,113624,1,2,0:0:0:0:
448,192,113824,128,0,114024:0:0:0:0:
192,192,114224,128,2,114424:0:0:0:0:
320,192,114224,128,0,114424:0:0:0:0:
64,192,114624,128,0,114824:0:0:0:0:
320,192,115024,128,2,115224:0:0:0:0:
448,192,115024,128,0,115224:0:0:0:0:
192,192,115224,128,0,115424:0:0:0:0:
64,192,115424,128,0,115624:0:0:0:0:
192,192,115824,128,2,116024:0:0:0:0:
320,192,115824,128,0,116024:0:0:0:0:
64,192,116224,1,2,0:0:0:0:
448,192,116224,1,0,0:0:0:0:
192,192,116624,128,0,116824:0:0:0:0:
320,192,116624,128,0,116824:0:0:0:0:
64,192,116824,1,2,0:0:0:0:
448,192,117024,128,0,117224:0:0:0:0:
64,192,117424,128,0,117624:0:0:0:0:
192,192,117424,128,0,117624:0:0:0:0:
320,192,117824,128,0,118024:0:0:0:0:
64,192,118224,128,2,118424:0:0:0:0:
448,192,118224,128,0,118424:0:0:0:0:
64,192,118624,128,0,118824:0:0:0:0:
320,192,118624,128,0,118824:0:0:0:0:
448,192,118824,1,2,0:0:0:0:
64,192,119024,128,0,119224:0:0:0:0:
192,192,119024,128,0,119124:0:0:0:0:
448,192,119224,128,0,119324:0:0:0:0:
64,192,119424,128,2,119624:0:0:0:0:
320,192,119424,1,0,0:0:0:0:
320,192,119824,128,0,120024:0:0:0:0:
448,192,119824,128,0,120024:0:0:0:0:
64,192,120024,1,2,0:0:0:0:
192,192,120224,128,0,120424:0:0:0:0:
320,192,120624,128,2,120824:0:0:0:0:
448,192,120624,128,0,120824:0:0:0:0:
64,192,121024,128,0,121224:0:0:0:0:
320,192,121424,128,2,121624:0:0:0:0:
448,192,121424,128,0,121624:0:0:0:0:
192,192,121624,128,0,121824:0:0:0:0:
64,192,121824,128,0,122024:0:0:0:0:
320,192,122224,128,2,122424:0:0:0:0:
448,192,122224,128,0,122424:0:0:0:0:
64,192,122624,1,2,0:0:0:0:
448,192,122624,1,0,0:0:0:0:
64,192,123024,128,0,123224:0:0:0:0:
192,192,123024,128,0,123224:0:0:0:0:
320,192,123224,1,2,0:0:0:0:
448,192,123424,128,0,123624:0:0:0:0:
64,192,123824,128,0,124024:0:0:0:0:
192,192,123824,128,0,124024:0:0:0:0:
320,192,124224,128,0,124424:0:0:0:0:
64,192,124624,128,2,125024:0:0:0:0:
192,192,124624,128,0,124824:0:0:0:0:
448,192,124824,128,0,125024:0:0:0:0:
192,192,125024,128,0,125224:0:0:0:0:
320,192,125224,128,2,125324:0:0:0:0:
64,192,125424,128,0,125524:0:0:0:0:
448,192,125424,128,0,125524:0:0:0:0:
64,192,125624,128,0,125724:0:0:0:0:
448,192,125624,128,0,125724:0:0:0:0:
192,192,125824,1,0,0:0:0:0:
64,192,126224,1,2,0:0:0:0:
448,192,126224,1,0,0:0:0:0:
320,192,126324,1,0,0:0:0:0:
64,192,126424,1,0,0:0:0:0:
192,192,126524,1,0,0:0:0:0:
320,192,126624,1,0,0:0:0:0:
448,192,126624,1,0,0:0:0:0:
192,192,126724,1,0,0:0:0:0:
64,192,126824,1,0,0:0:0:0:
448,192,126924,1,0,0:0:0:0:
64,192,127024,1,2,0:0:0:0:
320,192,127024,1,0,0:0:0:0:
192,192,127124,1,0,0:0:0:0:
320,192,127224,1,0,0:0:0:0:
64,192,127324,1,0,0:0:0:0:
320,192,127424,1,0,0:0:0:0:
448,192,127424,1,0,0:0:0:0:
192,192,127524,1,0,0:0:0:0:
320,192,127624,1,0,0:0:0:0:
192,192,127724,1,0,0:0:0:0:
64,192,127824,1,2,0:0:0:0:
448,192,127824,1,0,0:0:0:0:
320,192,127924,1,0,0:0:0:0:
64,192,128024,1,0,0:0:0:0:
192,192,128024,1,0,0:0:0:0:
320,192,128124,1,0,0:0:0:0:
192,192,128224,1,0,0:0:0:0:
448,192,128224,1,0,0:0:0:0:
64,192,128324,1,0,0:0:0:0:
320,192,128424,1,0,0:0:0:0:
192,192,128524,1,0,0:0:0:0:
64,192,128624,1,2,0:0:0:0:
448,192,128624,1,0,0:0:0:0:
320,192,128724,1,0,0:0:0:0:
192,192,128824,1,0,0:0:0:0:
320,192,128924,1,0,0:0:0:0:
64,192,129024,128,2,129424:0:0:0:0:
192,192,129024,128,0,129424:0:0:0:0:
448,192,129424,1,0,0:0:0:0:
192,192,129624,1,2,0:0:0:0:
320,192,129624,1,0,0:0:0:0:
448,192,129724,1,0,0:0:0:0:
64,192,129824,1,0,0:0:0:0:
192,192,129824,1,0,0:0:0:0:
320,192,129924,1,0,0:0:0:0:
192,192,130024,1,0,0:0:0:0:
448,192,130124,1,0,0:0:0:0:
64,192,130224,1,0,0:0:0:0:
320,192,130224,1,0,0:0:0:0:
192,192,130324,1,0,0:0:0:0:
320,192,130424,1,0,0:0:0:0:
64,192,130524,1,0,0:0:0:0:
192,192,130624,1,0,0:0:0:0:
320,192,130624,1,0,0:0:0:0:
448,192,130724,1,0,0:0:0:0:
320,192,130824,1,0,0:0:0:0:
192,192,130924,1,0,0:0:0:0:
64,192,131024,1,2,0:0:0:0:
448,192,131024,1,0,0:0:0:0:
320,192,131124,1,0,0:0:0:0:
64,192,131224,1,0,0:0:0:0:
192,192,131224,1,0,0:0:0:0:
64,192,131324,1,0,0:0:0:0:
192,192,131324,1,0,0:0:0:0:
320,192,131424,1,0,0:0:0:0:
448,192,131424,1,0,0:0:0:0:
192,192,131524,1,0,0:0:0:0:
64,192,131624,1,2,0:0:0:0:
448,192,131624,1,0,0:0:0:0:
192,192,131724,1,0,0:0:0:0:
320,192,131724,1,0,0:0:0:0:
64,192,131824,128,0,131924:0:0:0:0:
448,192,131824,128,0,131924:0:0:0:0:
64,192,132024,128,0,132124:0:0:0:0:
448,192,132024,128,0,132124:0:0:0:0:
192,192,132224,128,2,132324:0:0:0:0:
320,192,132224,128,0,132324:0:0:0:0:
64,192,132424,128,0,132524:0:0:0:0:
192,192,132424,128,0,132524:0:0:0:0:
320,192,132624,1,0,0:0:0:0:
448,192,132624,1,0,0:0:0:0:
192,192,132724,1,0,0:0:0:0:
64,192,132824,1,2,0:0:0:0:
448,192,132824,1,0,0:0:0:0:
320,192,132924,1,0,0:0:0:0:
64,192,133024,1,0,0:0:0:0:
192,192,133024,1,0,0:0:0:0:
320,192,133124,1,0,0:0:0:0:
448,192,133224,1,0,0:0:0:0:
192,192,133324,1,0,0:0:0:0:
64,192,133424,1,2,0:0:0:0:
448,192,133424,1,0,0:0:0:0:
320,192,133524,1,0,0:0:0:0:
192,192,133624,1,0,0:0:0:0:
64,192,133724,1,0,0:0:0:0:
320,192,133824,1,0,0:0:0:0:
448,192,133824,1,0,0:0:0:0:
192,192,133924,1,0,0:0:0:0:
64,192,134024,1,0,0:0:0:0:
448,192,134124,1,0,0:0:0:0:
64,192,134224,1,2,0:0:0:0:
320,192,134224,1,0,0:0:0:0:
192,192,134324,1,0,0:0:0:0:
320,192,134424,1,0,0:0:0:0:
448,192,134424,1,0,0:0:0:0:
192,192,134524,1,0,0:0:0:0:
64,192,134624,1,0,0:0:0:0:
448,192,134624,1,0,0:0:0:0:
320,192,134724,1,0,0:0:0:0:
192,192,134824,1,0,0:0:0:0:
320,192,134924,1,0,0:0:0:0:
64,192,135024,1,2,0:0:0:0:
192,192,135024,1,0,0:0:0:0:
448,192,135124,1,0,0:0:0:0:
192,192,135224,1,0,0:0:0:0:
320,192,135324,1,0,0:0:0:0:
64,192,135424,128,2,135824:0:0:0:0:
448,192,135424,128,0,135824:0:0:0:0:
192,192,135824,1,0,0:0:0:0:
320,192,135824,1,0,0:0:0:0:
448,192,135924,1,0,0:0:0:0:
64,192,136024,1,2,0:0:0:0:
192,192,136024,1,0,0:0:0:0:
320,192,136124,1,0,0:0:0:0:
64,192,136224,1,0,0:0:0:0:
448,192,136224,1,0,0:0:0:0:
192,192,136324,1,0,0:0:0:0:
320,192,136424,1,0,0:0:0:0:
192,192,136524,1,0,0:0:0:0:
320,192,136624,1,0,0:0:0:0:
448,192,136624,1,0,0:0:0:0:
64,192,136724,1,0,0:0:0:0:
448,192,136824,1,0,0:0:0:0:
320,192,136924,1,0,0:0:0:0:
64,192,137024,128,0,138524:0:0:0:0:
192,192,137024,1,0,0:0:0:0:
320,192,137124,1,0,0:0:0:0:
448,192,137224,1,0,0:0:0:0:
192,192,137324,1,0,0:0:0:0:
320,192,137424,1,2,0:0:0:0:
448,192,137524,1,0,0:0:0:0:
192,192,137624,1,0,0:0:0:0:
320,192,137724,1,0,0:0:0:0:
192,192,137824,1,0,0:0:0:0:
448,192,137824,128,0,138524:0:0:0:0:
320,192,137924,1,0,0:0:0:0:
192,192,138024,1,2,0:0:0:0:
320,192,138124,1,0,0:0:0:0:
192,192,138224,1,0,0:0:0:0:
320,192,138324,1,0,0:0:0:0:
192,192,138424,1,0,0:0:0:0:
320,192,138524,1,0,0:0:0:0:
64,192,138634,1,4,0:0:0:0:
192,192,138634,1,2,0:0:0:50:snare4.wav
448,192,138634,1,0,0:0:0:0:
320,192,138827,1,0,0:0:0:50:snare.wav
192,192,138924,1,0,0:0:0:50:snare.wav
64,192,139021,1,8,0:0:0:50:snare4.wav
448,192,139021,1,0,0:0:0:0:
192,192,139214,1,0,0:0:0:50:snare.wav
320,192,139311,1,0,0:0:0:50:snare.wav
64,192,139408,1,8,0:0:0:50:snare4.wav
448,192,139408,1,0,0:0:0:0:
320,192,139601,1,0,0:0:0:50:snare.wav
192,192,139698,1,0,0:0:0:50:snare.wav
64,192,139795,1,8,0:0:0:50:snare4.wav
448,192,139795,1,0,0:0:0:0:
320,192,139988,1,0,0:0:0:50:snare.wav
64,192,140182,1,8,0:0:0:50:snare4.wav
192,192,140182,1,0,0:0:0:0:
448,192,140375,1,0,0:0:0:50:snare.wav
320,192,140472,1,0,0:0:0:50:snare.wav
64,192,140569,1,8,0:0:0:50:snare4.wav
192,192,140569,1,0,0:0:0:0:
64,192,140763,1,0,0:0:0:50:snare.wav
192,192,140859,1,0,0:0:0:50:snare.wav
320,192,140956,1,8,0:0:0:50:snare4.wav
448,192,140956,1,0,0:0:0:0:
448,192,141150,1,0,0:0:0:50:snare.wav
320,192,141246,1,0,0:0:0:50:snare.wav
64,192,141343,1,8,0:0:0:50:snare4.wav
192,192,141343,1,0,0:0:0:0:
64,192,141537,1,0,0:0:0:50:snare.wav
320,192,141731,1,0,0:0:0:0:
448,192,141731,1,8,0:0:0:50:snare4.wav
192,192,141907,1,0,0:0:0:50:snare.wav
320,192,141995,1,0,0:0:0:50:snare.wav
64,192,142083,1,8,0:0:0:50:snare4.wav
192,192,142083,1,0,0:0:0:0:
320,192,142260,1,0,0:0:0:50:snare.wav
192,192,142348,1,0,0:0:0:50:snare.wav
320,192,142436,1,8,0:0:0:50:snare4.wav
448,192,142436,1,0,0:0:0:0:
192,192,142613,1,0,0:0:0:50:snare.wav
320,192,142701,1,0,0:0:0:50:snare.wav
64,192,142789,1,8,0:0:0:50:snare4.wav
192,192,142789,1,0,0:0:0:0:
320,192,142966,1,0,0:0:0:50:snare.wav
64,192,143142,1,8,0:0:0:50:snare4.wav
448,192,143142,1,0,0:0:0:0:
192,192,143319,1,0,0:0:0:50:snare.wav
320,192,143407,1,0,0:0:0:50:snare.wav
64,192,143495,1,8,0:0:0:50:snare4.wav
448,192,143495,1,0,0:0:0:0:
320,192,143672,1,0,0:0:0:50:snare.wav
192,192,143760,1,0,0:0:0:50:snare.wav
64,192,143848,1,8,0:0:0:50:snare4.wav
448,192,143848,1,0,0:0:0:0:
192,192,144025,1,0,0:0:0:50:snare.wav
320,192,144113,1,0,0:0:0:50:snare.wav
64,192,144201,1,0,0:0:0:50:snare.wav
192,192,144245,1,0,0:0:0:50:snare.wav
320,192,144289,1,0,0:0:0:50:snare.wav
448,192,144333,1,0,0:0:0:50:snare.wav
64,192,144378,1,0,0:0:0:50:snare.wav
192,192,144422,1,0,0:0:0:50:snare.wav
320,192,144466,1,0,0:0:0:50:snare.wav
448,192,144510,1,0,0:0:0:50:snare.wav
64,192,144554,128,4,148668:0:0:0:0:
192,192,144554,1,0,0:0:0:0:
320,192,144725,1,0,0:0:0:50:snare.wav
320,192,144811,1,0,0:0:0:50:snare.wav
448,192,144896,1,0,0:0:0:0:
192,192,145068,1,0,0:0:0:50:snare.wav
192,192,145154,1,0,0:0:0:50:snare.wav
320,192,145239,1,8,0:0:0:50:snare4.wav
448,192,145411,1,0,0:0:0:50:snare.wav
448,192,145496,1,0,0:0:0:0:
320,192,145582,1,0,0:0:0:0:
192,192,145668,1,0,0:0:0:50:snare.wav
192,192,145754,1,0,0:0:0:50:snare.wav
448,192,145839,1,0,0:0:0:50:snare.wav
320,192,145925,1,8,0:0:0:50:snare4.wav
320,192,146011,1,0,0:0:0:50:snare.wav
192,192,146096,1,0,0:0:0:50:snare.wav
320,192,146182,1,0,0:0:0:50:snare.wav
448,192,146268,1,0,0:0:0:0:
192,192,146354,1,0,0:0:0:0:
448,192,146439,1,0,0:0:0:50:snare.wav
448,192,146525,1,0,0:0:0:50:snare.wav
192,192,146611,1,8,0:0:0:50:snare4.wav
320,192,146782,1,0,0:0:0:50:snare.wav
448,192,146782,1,8,0:0:0:50:kick.wav
320,192,146954,1,0,0:0:0:50:snare.wav
448,192,146954,1,8,0:0:0:50:kick.wav
320,192,147125,1,0,0:0:0:50:snare.wav
448,192,147125,1,8,0:0:0:50:kick.wav
192,192,147296,1,8,0:0:0:50:snare4.wav
320,192,147382,1,0,0:0:0:50:snare.wav
448,192,147468,1,0,0:0:0:50:snare.wav
192,192,147554,1,0,0:0:0:50:snare.wav
320,192,147639,1,8,0:0:0:50:snare4.wav
448,192,147725,1,0,0:0:0:50:snare.wav
192,192,147811,1,0,0:0:0:50:snare.wav
320,192,147896,1,0,0:0:0:50:snare.wav
448,192,147982,1,8,0:0:0:50:snare4.wav
192,192,148068,1,0,0:0:0:50:snare.wav
320,192,148154,1,0,0:0:0:50:snare.wav
448,192,148239,1,0,0:0:0:50:snare.wav
192,192,148325,1,8,0:0:0:50:snare4.wav
320,192,148411,1,0,0:0:0:50:snare.wav
448,192,148496,1,0,0:0:0:50:snare.wav
192,192,148582,1,0,0:0:0:50:snare.wav
320,192,148668,128,0,148925:0:0:0:70:Cowbell.wav
320,192,149011,128,0,149268:0:0:0:70:Cowbell.wav
320,192,149354,128,0,149525:0:0:0:70:Cowbell.wav
64,192,149525,1,0,0:0:0:0:
192,192,149582,1,0,0:0:0:0:
448,192,149639,1,0,0:0:0:0:
320,192,149696,128,0,150039:0:0:0:0:
64,192,150039,1,2,0:0:0:0:
192,192,150039,1,4,0:0:0:0:
448,192,150039,1,0,0:0:0:0:
320,192,150211,128,0,150382:0:0:0:0:
64,192,150382,1,0,0:0:0:0:
320,192,150554,128,0,150725:0:0:0:0:
64,192,150725,1,0,0:0:0:0:
448,192,150896,128,0,151068:0:0:0:0:
192,192,151068,1,0,0:0:0:0:
448,192,151239,128,0,151411:0:0:0:0:
192,192,151411,1,0,0:0:0:0:
64,192,151582,128,0,151754:0:0:0:0:
320,192,151754,1,0,0:0:0:0:
64,192,151925,128,0,152096:0:0:0:0:
320,192,152096,1,0,0:0:0:0:
192,192,152268,128,0,152439:0:0:0:0:
320,192,152439,1,0,0:0:0:0:
448,192,152439,128,0,152782:0:0:0:0:
64,192,152782,1,2,0:0:0:0:
320,192,152782,1,4,0:0:0:0:
192,192,152954,1,0,0:0:0:0:
320,192,153125,1,2,0:0:0:0:
448,192,153125,1,0,0:0:0:0:
192,192,153296,1,0,0:0:0:0:
320,192,153382,1,0,0:0:0:0:
64,192,153468,1,2,0:0:0:0:
448,192,153468,1,0,0:0:0:0:
192,192,153554,1,0,0:0:0:0:
320,192,153639,1,0,0:0:0:0:
64,192,153811,1,2,0:0:0:0:
192,192,153811,1,0,0:0:0:0:
448,192,153982,1,0,0:0:0:0:
64,192,154154,1,2,0:0:0:0:
320,192,154154,1,0,0:0:0:0:
192,192,154325,1,0,0:0:0:0:
320,192,154496,1,2,0:0:0:0:
448,192,154496,1,0,0:0:0:0:
64,192,154668,1,0,0:0:0:0:
448,192,154754,1,0,0:0:0:0:
192,192,154839,1,2,0:0:0:0:
320,192,154839,1,0,0:0:0:0:
64,192,154925,1,0,0:0:0:0:
448,192,155011,1,0,0:0:0:0:
64,192,155182,1,2,0:0:0:0:
192,192,155182,1,0,0:0:0:0:
320,192,155354,1,0,0:0:0:0:
64,192,155525,1,2,0:0:0:0:
448,192,155525,1,0,0:0:0:0:
192,192,155696,1,0,0:0:0:0:
320,192,155868,1,2,0:0:0:0:
448,192,155868,1,0,0:0:0:0:
192,192,156039,1,0,0:0:0:0:
320,192,156125,1,0,0:0:0:0:
64,192,156211,1,2,0:0:0:0:
192,192,156211,1,0,0:0:0:0:
448,192,156296,1,0,0:0:0:0:
320,192,156382,1,0,0:0:0:0:
192,192,156554,1,2,0:0:0:0:
448,192,156554,1,0,0:0:0:0:
64,192,156725,1,0,0:0:0:0:
320,192,156896,1,2,0:0:0:0:
448,192,156896,1,0,0:0:0:0:
192,192,157068,1,0,0:0:0:0:
64,192,157239,1,2,0:0:0:0:
448,192,157239,1,0,0:0:0:0:
320,192,157411,1,0,0:0:0:0:
64,192,157496,1,0,0:0:0:0:
192,192,157582,1,2,0:0:0:0:
448,192,157582,1,0,0:0:0:0:
64,192,157668,1,0,0:0:0:0:
320,192,157754,1,0,0:0:0:0:
64,192,157925,1,2,0:0:0:0:
192,192,157925,1,0,0:0:0:0:
448,192,158096,1,0,0:0:0:0:
64,192,158268,1,2,0:0:0:0:
320,192,158268,1,0,0:0:0:0:
192,192,158439,1,0,0:0:0:0:
320,192,158611,1,2,0:0:0:0:
448,192,158611,1,0,0:0:0:0:
64,192,158782,1,0,0:0:0:0:
320,192,158868,1,0,0:0:0:0:
192,192,158954,1,2,0:0:0:0:
448,192,158954,1,0,0:0:0:0:
320,192,159039,1,0,0:0:0:0:
64,192,159125,1,0,0:0:0:0:
192,192,159296,1,2,0:0:0:0:
320,192,159296,1,0,0:0:0:0:
448,192,159468,1,0,0:0:0:0:
64,192,159639,1,0,0:0:0:0:
192,192,159639,128,0,159811:0:0:0:0:
448,192,159811,1,0,0:0:0:0:
64,192,159896,1,0,0:0:0:0:
320,192,159982,128,0,160154:0:0:0:0:
448,192,159982,1,0,0:0:0:0:
192,192,160154,1,0,0:0:0:0:
448,192,160239,1,0,0:0:0:0:
64,192,160325,128,0,160496:0:0:0:0:
192,192,160325,1,0,0:0:0:0:
320,192,160496,1,0,0:0:0:0:
192,192,160582,1,0,0:0:0:0:
448,192,160668,128,0,160839:0:0:0:0:
64,192,161011,1,2,0:0:0:0:
192,192,161011,1,4,0:0:0:0:
320,192,161011,1,0,0:0:0:0:
64,192,161182,1,0,0:0:0:0:
320,192,161268,1,0,0:0:0:0:
64,192,161354,1,2,0:0:0:0:
192,192,161354,1,0,0:0:0:0:
64,192,161525,1,0,0:0:0:0:
64,192,161696,1,2,0:0:0:0:
320,192,161696,1,0,0:0:0:0:
448,192,161868,1,0,0:0:0:0:
64,192,161954,1,0,0:0:0:0:
192,192,162039,1,2,0:0:0:0:
320,192,162039,1,0,0:0:0:0:
64,192,162211,1,0,0:0:0:0:
64,192,162382,128,2,162554:0:0:0:0:
448,192,162382,1,0,0:0:0:0:
192,192,162554,1,0,0:0:0:0:
320,192,162639,128,0,162811:0:0:0:0:
64,192,162725,1,2,0:0:0:0:
448,192,162725,1,0,0:0:0:0:
192,192,162896,128,0,163068:0:0:0:0:
320,192,163068,1,2,0:0:0:0:
448,192,163068,128,0,163239:0:0:0:0:
64,192,163239,1,0,0:0:0:0:
192,192,163325,1,0,0:0:0:0:
320,192,163411,1,2,0:0:0:0:
448,192,163411,1,0,0:0:0:0:
192,192,163582,1,0,0:0:0:0:
64,192,163754,1,2,0:0:0:0:
448,192,163754,1,0,0:0:0:0:
448,192,163925,1,0,0:0:0:0:
192,192,164011,1,0,0:0:0:0:
320,192,164096,1,2,0:0:0:0:
448,192,164096,1,0,0:0:0:0:
448,192,164268,1,0,0:0:0:0:
192,192,164439,1,2,0:0:0:0:
448,192,164439,1,0,0:0:0:0:
64,192,164611,1,0,0:0:0:0:
448,192,164696,1,0,0:0:0:0:
192,192,164782,1,2,0:0:0:0:
320,192,164782,1,0,0:0:0:0:
448,192,164954,1,0,0:0:0:0:
64,192,165125,1,2,0:0:0:0:
448,192,165125,128,0,165296:0:0:0:0:
320,192,165296,1,0,0:0:0:0:
192,192,165382,128,0,165554:0:0:0:0:
64,192,165468,1,2,0:0:0:0:
448,192,165468,1,0,0:0:0:0:
320,192,165639,128,0,165811:0:0:0:0:
64,192,165811,128,2,165982:0:0:0:0:
192,192,165811,1,0,0:0:0:0:
448,192,165982,1,0,0:0:0:0:
320,192,166068,1,0,0:0:0:0:
64,192,166154,1,2,0:0:0:0:
192,192,166154,1,0,0:0:0:0:
448,192,166239,1,0,0:0:0:0:
320,192,166325,1,0,0:0:0:0:
192,192,166411,1,0,0:0:0:0:
320,192,166496,1,2,0:0:0:0:
448,192,166496,1,0,0:0:0:0:
64,192,166668,1,0,0:0:0:0:
320,192,166754,1,0,0:0:0:0:
64,192,166839,1,2,0:0:0:0:
192,192,166839,1,0,0:0:0:0:
448,192,167011,1,0,0:0:0:0:
64,192,167182,1,2,0:0:0:0:
320,192,167182,1,0,0:0:0:0:
192,192,167354,1,0,0:0:0:0:
320,192,167439,1,0,0:0:0:0:
64,192,167525,1,2,0:0:0:0:
448,192,167525,1,0,0:0:0:0:
192,192,167696,1,0,0:0:0:0:
320,192,167868,1,2,0:0:0:0:
448,192,167868,1,0,0:0:0:0:
192,192,168039,1,0,0:0:0:0:
448,192,168125,1,0,0:0:0:0:
64,192,168211,1,2,0:0:0:0:
320,192,168211,1,0,0:0:0:0:
192,192,168382,1,0,0:0:0:0:
64,192,168554,1,2,0:0:0:0:
448,192,168554,1,0,0:0:0:0:
320,192,168725,1,0,0:0:0:0:
192,192,168811,1,0,0:0:0:0:
320,192,168896,1,2,0:0:0:0:
448,192,168896,1,0,0:0:0:0:
192,192,169068,1,0,0:0:0:0:
64,192,169239,1,0,0:0:0:50:snare.wav
448,192,169239,1,0,0:0:0:0:
192,192,169411,1,0,0:0:0:50:snare.wav
320,192,169411,1,0,0:0:0:0:
64,192,169582,1,0,0:0:0:50:snare.wav
448,192,169582,1,0,0:0:0:0:
320,192,169754,1,0,0:0:0:50:snare.wav
448,192,169754,1,0,0:0:0:0:
64,192,169839,1,0,0:0:0:50:snare.wav
192,192,169839,1,0,0:0:0:0:
448,192,169925,1,0,0:0:0:0:
320,192,169968,1,0,0:0:0:0:
192,192,170011,1,0,0:0:0:0:
64,192,170054,1,0,0:0:0:0:
320,192,170096,1,0,0:0:0:50:snare.wav
448,192,170096,1,0,0:0:0:0:
64,192,170268,1,0,0:0:0:50:snare.wav
192,192,170268,1,0,0:0:0:0:
320,192,170439,1,0,0:0:0:50:snare.wav
448,192,170439,1,0,0:0:0:0:
64,192,170611,1,0,0:0:0:50:snare.wav
192,192,170611,1,0,0:0:0:0:
320,192,170696,1,0,0:0:0:50:snare.wav
64,192,170782,1,0,0:0:0:50:snare.wav
192,192,170868,1,0,0:0:0:50:snare.wav
448,192,170954,1,0,0:0:0:50:snare.wav
320,192,171039,1,0,0:0:0:50:snare.wav
64,192,171125,1,0,0:0:0:50:snare.wav
192,192,171211,1,0,0:0:0:50:snare.wav
448,192,171296,1,0,0:0:0:0:
320,192,171468,1,0,0:0:0:0:
320,192,171639,128,0,171982:0:0:0:0:
64,192,171982,1,2,0:0:0:0:
192,192,171982,1,4,0:0:0:0:
448,192,171982,1,0,0:0:0:0:
320,192,172154,1,2,0:0:0:0:
448,192,172154,1,0,0:0:0:0:
64,192,172239,1,2,0:0:0:0:
192,192,172239,1,0,0:0:0:0:
320,192,172325,1,0,0:0:0:50:snare.wav
448,192,172325,1,0,0:0:0:0:
192,192,172411,1,0,0:0:0:0:
320,192,172496,1,0,0:0:0:0:
192,192,172582,1,0,0:0:0:0:
320,192,172668,1,2,0:0:0:0:
448,192,172668,1,4,0:0:0:0:
64,192,172839,1,2,0:0:0:0:
192,192,172839,1,4,0:0:0:0:
448,192,173011,1,0,0:0:0:0:
320,192,173054,1,0,0:0:0:0:
192,192,173096,1,0,0:0:0:0:
64,192,173139,1,0,0:0:0:0:
448,192,173182,1,0,0:0:0:0:
320,192,173268,1,0,0:0:0:0:
64,192,173354,1,2,0:0:0:0:
192,192,173354,1,4,0:0:0:0:
320,192,173525,1,0,0:0:0:50:snare.wav
448,192,173525,1,0,0:0:0:0:
64,192,173611,1,2,0:0:0:0:
192,192,173611,1,0,0:0:0:0:
320,192,173696,1,0,0:0:0:0:
192,192,173782,1,0,0:0:0:0:
448,192,173868,1,0,0:0:0:0:
320,192,173911,1,0,0:0:0:0:
192,192,173954,1,0,0:0:0:0:
64,192,173996,1,0,0:0:0:0:
448,192,174039,1,0,0:0:0:0:
320,192,174125,1,0,0:0:0:0:
64,192,174211,1,2,0:0:0:0:
192,192,174211,1,4,0:0:0:0:
320,192,174382,1,0,0:0:0:50:snare.wav
448,192,174382,128,0,174725:0:0:0:0:
192,192,174725,1,2,0:0:0:0:
320,192,174725,1,4,0:0:0:0:
64,192,174896,1,2,0:0:0:0:
448,192,174896,1,0,0:0:0:0:
192,192,174982,1,2,0:0:0:0:
320,192,174982,1,0,0:0:0:0:
64,192,175068,1,4,0:0:0:0:
448,192,175068,1,0,0:0:0:50:snare.wav
320,192,175154,1,0,0:0:0:0:
64,192,175239,1,2,0:0:0:0:
192,192,175239,1,4,0:0:0:0:
320,192,175325,1,0,0:0:0:0:
64,192,175411,1,0,0:0:0:0:
192,192,175496,1,0,0:0:0:0:
320,192,175582,1,2,0:0:0:0:
448,192,175582,1,4,0:0:0:0:
64,192,175754,128,0,176096:0:0:0:50:snare.wav
192,192,175754,1,0,0:0:0:0:
448,192,175925,128,0,176096:0:0:0:0:
192,192,176096,1,2,0:0:0:0:
320,192,176096,1,4,0:0:0:0:
64,192,176268,1,0,0:0:0:0:
320,192,176354,1,2,0:0:0:0:
448,192,176354,1,0,0:0:0:0:
192,192,176439,1,0,0:0:0:0:
320,192,176525,1,0,0:0:0:0:
64,192,176611,1,2,0:0:0:0:
448,192,176611,1,0,0:0:0:0:
192,192,176696,1,0,0:0:0:0:
320,192,176782,1,2,0:0:0:0:
448,192,176782,1,4,0:0:0:0:
64,192,176954,1,0,0:0:0:50:snare.wav
192,192,176954,1,0,0:0:0:0:
320,192,177039,1,0,0:0:0:50:snare.wav
448,192,177039,1,0,0:0:0:0:
64,192,177125,1,2,0:0:0:0:
192,192,177125,1,4,0:0:0:0:
64,192,177296,1,0,0:0:0:50:snare.wav
448,192,177296,1,0,0:0:0:0:
192,192,177382,1,0,0:0:0:50:snare.wav
320,192,177382,1,0,0:0:0:0:
64,192,177468,1,2,0:0:0:0:
448,192,177468,1,4,0:0:0:0:
320,192,177639,1,0,0:0:0:0:
64,192,177725,1,2,0:0:0:0:
192,192,177725,1,0,0:0:0:0:
320,192,177811,1,0,0:0:0:50:snare.wav
448,192,177811,1,0,0:0:0:0:
192,192,177896,1,0,0:0:0:0:
320,192,177982,1,0,0:0:0:0:
192,192,178068,1,0,0:0:0:0:
320,192,178154,1,2,0:0:0:0:
448,192,178154,1,4,0:0:0:0:
64,192,178325,1,2,0:0:0:0:
192,192,178325,1,4,0:0:0:0:
448,192,178496,1,0,0:0:0:0:
320,192,178554,1,0,0:0:0:0:
192,192,178611,1,0,0:0:0:0:
64,192,178668,1,0,0:0:0:0:
448,192,178725,1,0,0:0:0:0:
320,192,178782,1,0,0:0:0:0:
64,192,178839,1,2,0:0:0:0:
192,192,178839,1,4,0:0:0:0:
320,192,179011,1,0,0:0:0:50:snare.wav
448,192,179011,1,0,0:0:0:0:
64,192,179096,1,2,0:0:0:0:
192,192,179096,1,0,0:0:0:0:
448,192,179182,1,0,0:0:0:0:
320,192,179268,1,0,0:0:0:0:
64,192,179354,1,0,0:0:0:0:
192,192,179396,1,0,0:0:0:0:
320,192,179439,1,0,0:0:0:0:
448,192,179482,1,0,0:0:0:0:
64,192,179525,1,0,0:0:0:0:
192,192,179611,1,0,0:0:0:0:
320,192,179696,1,2,0:0:0:0:
448,192,179696,1,4,0:0:0:0:
64,192,179868,1,0,0:0:0:50:snare.wav
448,192,179868,1,0,0:0:0:0:
192,192,179982,1,0,0:0:0:50:snare.wav
320,192,179982,1,0,0:0:0:0:
64,192,180096,1,0,0:0:0:50:snare.wav
448,192,180096,1,0,0:0:0:0:
192,192,180211,1,2,0:0:0:0:
320,192,180211,1,4,0:0:0:0:
64,192,180382,1,0,0:0:0:0:
320,192,180468,1,2,0:0:0:0:
448,192,180468,1,0,0:0:0:0:
64,192,180554,1,0,0:0:0:50:snare.wav
192,192,180554,1,0,0:0:0:0:
448,192,180639,1,0,0:0:0:0:
64,192,180725,1,2,0:0:0:0:
320,192,180725,1,0,0:0:0:0:
192,192,180811,1,0,0:0:0:0:
448,192,180896,1,4,0:0:0:0:
320,192,180982,1,0,0:0:0:0:
64,192,181068,1,2,0:0:0:0:
192,192,181068,1,4,0:0:0:0:
448,192,181239,1,0,0:0:0:0:
320,192,181282,1,0,0:0:0:0:
192,192,181325,1,0,0:0:0:0:
64,192,181368,1,0,0:0:0:0:
320,192,181411,1,0,0:0:0:0:
448,192,181411,1,0,0:0:0:0:
64,192,181496,1,0,0:0:0:0:
192,192,181496,1,0,0:0:0:0:
320,192,181582,1,2,0:0:0:0:
448,192,181582,1,4,0:0:0:0:
192,192,181754,1,0,0:0:0:0:
320,192,181839,1,0,0:0:0:0:
64,192,181925,1,0,0:0:0:50:snare2.wav
448,192,181925,1,0,0:0:0:0:
192,192,182011,1,0,0:0:0:0:
320,192,182096,1,0,0:0:0:0:
448,192,182182,1,0,0:0:0:0:
64,192,182268,1,0,0:0:0:0:
64,192,182354,1,0,0:0:0:0:
320,192,182439,1,0,0:0:0:0:
320,192,182525,1,0,0:0:0:0:
192,192,182611,1,0,0:0:0:0:
192,192,182696,1,0,0:0:0:0:
448,192,182782,1,0,0:0:0:0:
448,192,182868,1,0,0:0:0:0:
64,192,182954,128,2,183296:0:0:0:0:
192,192,182954,1,4,0:0:0:0:
320,192,183211,1,2,0:0:0:0:
448,192,183211,1,0,0:0:0:0:
192,192,183296,128,0,183639:0:0:0:0:
320,192,183468,1,2,0:0:0:0:
448,192,183468,1,0,0:0:0:0:
64,192,183639,1,0,0:0:0:50:snare2.wav
448,192,183639,128,0,183811:0:0:0:0:
192,192,183811,1,2,0:0:0:0:
320,192,183811,128,0,183982:0:0:0:0:
192,192,183982,128,0,184154:0:0:0:0:
64,192,184154,128,0,184496:0:0:0:0:
320,192,184325,1,2,0:0:0:0:
448,192,184325,1,4,0:0:0:0:
192,192,184496,128,0,184668:0:0:0:0:
64,192,184582,1,2,0:0:0:0:
448,192,184582,1,0,0:0:0:0:
320,192,184668,128,0,184839:0:0:0:0:
64,192,184839,1,2,0:0:0:0:
448,192,184839,128,0,185011:0:0:0:0:
192,192,185011,128,0,185182:0:0:0:50:snare2.wav
320,192,185011,1,0,0:0:0:0:
64,192,185182,1,0,0:0:0:0:
320,192,185268,1,0,0:0:0:0:
64,192,185354,128,2,185525:0:0:0:0:
448,192,185354,1,0,0:0:0:0:
192,192,185525,128,0,185696:0:0:0:0:
320,192,185696,1,2,0:0:0:0:
448,192,185696,128,4,186039:0:0:0:0:
192,192,185954,1,2,0:0:0:0:
320,192,185954,1,0,0:0:0:0:
64,192,186039,128,0,186382:0:0:0:0:
192,192,186211,1,2,0:0:0:0:
320,192,186211,1,0,0:0:0:0:
320,192,186382,128,0,186554:0:0:0:50:snare2.wav
448,192,186382,1,0,0:0:0:0:
64,192,186554,1,2,0:0:0:0:
192,192,186554,128,0,186725:0:0:0:0:
320,192,186725,1,0,0:0:0:0:
448,192,186725,128,0,187068:0:0:0:0:
64,192,186896,128,0,187068:0:0:0:0:
192,192,187068,1,2,0:0:0:0:
320,192,187068,1,4,0:0:0:0:
192,192,187325,1,2,0:0:0:0:
320,192,187325,1,0,0:0:0:0:
320,192,187582,1,0,0:0:0:50:snare2.wav
448,192,187582,1,0,0:0:0:0:
320,192,187668,1,0,0:0:0:50:snare2.wav
448,192,187668,1,0,0:0:0:0:
64,192,187754,1,2,0:0:0:0:
192,192,187754,1,4,0:0:0:0:
64,192,187839,1,0,0:0:0:0:
320,192,187925,1,0,0:0:0:0:
320,192,188011,1,0,0:0:0:0:
64,192,188096,1,2,0:0:0:0:
192,192,188096,1,4,0:0:0:0:
448,192,188096,1,0,0:0:0:0:
64,192,188182,1,0,0:0:0:0:
448,192,188268,1,0,0:0:0:0:
448,192,188354,1,0,0:0:0:0:
64,192,188439,1,2,0:0:0:0:
192,192,188439,1,4,0:0:0:0:
320,192,188439,1,0,0:0:0:0:
320,192,188611,1,0,0:0:0:50:snare.wav
448,192,188611,1,0,0:0:0:0:
64,192,188696,1,2,0:0:0:0:
192,192,188696,1,0,0:0:0:0:
64,192,188868,1,2,0:0:0:0:
192,192,188868,1,0,0:0:0:0:
320,192,188954,1,0,0:0:0:50:snare.wav
448,192,188954,1,0,0:0:0:0:
192,192,189125,1,2,0:0:0:0:
320,192,189125,1,0,0:0:0:0:
64,192,189296,1,0,0:0:0:50:snare.wav
448,192,189296,1,0,0:0:0:0:
192,192,189468,1,2,0:0:0:0:
320,192,189468,1,0,0:0:0:0:
320,192,189639,1,0,0:0:0:50:snare.wav
448,192,189639,1,0,0:0:0:0:
320,192,189725,1,0,0:0:0:50:snare.wav
448,192,189725,1,0,0:0:0:0:
64,192,189811,1,2,0:0:0:0:
192,192,189811,1,4,0:0:0:0:
320,192,189982,1,0,0:0:0:50:snare.wav
448,192,189982,1,0,0:0:0:0:
64,192,190068,1,2,0:0:0:0:
192,192,190068,1,0,0:0:0:0:
64,192,190239,1,2,0:0:0:0:
192,192,190239,1,0,0:0:0:0:
320,192,190325,1,0,0:0:0:50:snare.wav
448,192,190325,1,0,0:0:0:0:
192,192,190496,1,2,0:0:0:0:
320,192,190496,1,0,0:0:0:0:
64,192,190668,1,0,0:0:0:50:snare.wav
448,192,190668,1,0,0:0:0:0:
64,192,190839,128,8,190925:0:0:0:50:kick.wav
320,192,190839,128,0,190925:0:0:0:0:
192,192,191011,128,8,191096:0:0:0:50:kick.wav
448,192,191011,128,0,191096:0:0:0:0:
64,192,191182,1,0,0:0:0:50:snare.wav
320,192,191182,1,0,0:0:0:0:
64,192,191354,1,0,0:0:0:50:snare.wav
192,192,191354,1,0,0:0:0:0:
320,192,191525,1,0,0:0:0:50:snare.wav
448,192,191525,1,0,0:0:0:0:
192,192,191696,1,0,0:0:0:50:snare.wav
448,192,191696,1,0,0:0:0:0:
64,192,191868,1,0,0:0:0:50:snare.wav
192,192,191954,1,0,0:0:0:50:snare.wav
320,192,192039,1,0,0:0:0:50:snare.wav
448,192,192125,1,0,0:0:0:50:snare.wav
64,192,192211,1,0,0:0:0:0:
192,192,192254,1,0,0:0:0:0:
320,192,192296,1,0,0:0:0:0:
448,192,192339,1,0,0:0:0:0:
64,192,192382,1,0,0:0:0:50:snare4.wav
64,192,192468,1,0,0:0:0:50:snare4.wav
320,192,192554,1,2,0:0:0:0:
448,192,192554,1,4,0:0:0:0:
192,192,192725,1,2,0:0:0:0:
64,192,192896,1,0,0:0:0:50:LR_Clap Low 2.wav
448,192,193068,1,0,0:0:0:0:
192,192,193154,1,0,0:0:0:0:
320,192,193239,1,0,0:0:0:50:LR_Clap Low 2.wav
64,192,193325,1,0,0:0:0:0:
192,192,193411,1,2,0:0:0:0:
448,192,193496,1,0,0:0:0:0:
64,192,193582,1,0,0:0:0:50:snare.wav
192,192,193625,1,0,0:0:0:50:snare.wav
320,192,193668,1,0,0:0:0:50:snare.wav
448,192,193711,1,0,0:0:0:50:snare.wav
64,192,193754,1,0,0:0:0:50:snare.wav
192,192,193796,1,0,0:0:0:50:snare.wav
320,192,193839,1,0,0:0:0:50:snare.wav
448,192,193882,1,0,0:0:0:50:snare.wav
64,192,193925,1,6,0:0:0:0:
192,192,193925,1,0,0:0:0:70:wind.wav
