osu file format v14

[General]
AudioFilename: audio.mp3
AudioLeadIn: 0
PreviewTime: 173375
Countdown: 0
SampleSet: Normal
StackLeniency: 0.7
Mode: 3
LetterboxInBreaks: 0
SpecialStyle: 0
WidescreenStoryboard: 0

[Editor]
Bookmarks: 21041,42375,65041,75708,97041,118375,131708,151708,173041,195708
DistanceSpacing: 0.1
BeatDivisor: 4
GridSize: 32
TimelineZoom: 2.899999

[Metadata]
Title:Future Cider
TitleUnicode:Future Cider
Artist:YUC'e
ArtistUnicode:YUC'e
Creator:Mastermile
Version:Normal
Source:
Tags:future candy i mean cider
BeatmapID:1428488
BeatmapSetID:636651

[Difficulty]
HPDrainRate:6
CircleSize:4
OverallDifficulty:7
ApproachRate:5
SliderMultiplier:1.4
SliderTickRate:1

[Events]
//Background and Video events
0,0,"Creative name.png",0,0
//Break Periods
//Storyboard Layer 0 (Background)
//Storyboard Layer 1 (Fail)
//Storyboard Layer 2 (Pass)
//Storyboard Layer 3 (Foreground)
//Storyboard Sound Samples

[TimingPoints]
1042,333.333333333333,4,1,1,20,1,0
44041,-100,4,1,1,20,0,1
65041,-100,4,1,1,20,0,0
174708,-100,4,1,1,20,0,1
195041,-100,4,1,1,20,0,0
196041,-100,4,1,1,20,0,1
217041,-100,4,1,1,20,0,0

[HitObjects]
64,192,1042,5,0,0:0:0:0:
192,192,1208,1,0,0:0:0:0:
448,192,1375,1,0,0:0:0:0:
320,192,1541,1,0,0:0:0:0:
64,192,1708,1,0,0:0:0:0:
192,192,1708,1,0,0:0:0:0:
64,192,2041,1,0,0:0:0:0:
448,192,2375,1,0,0:0:0:0:
320,192,2541,1,0,0:0:0:0:
64,192,2708,1,0,0:0:0:0:
448,192,2875,1,0,0:0:0:0:
320,192,3041,1,0,0:0:0:0:
192,192,3041,1,0,0:0:0:0:
64,192,3708,1,0,0:0:0:0:
192,192,3875,1,0,0:0:0:0:
320,192,4041,1,0,0:0:0:0:
192,192,4208,1,0,0:0:0:0:
320,192,4375,1,0,0:0:0:0:
448,192,4375,1,0,0:0:0:0:
64,192,4708,1,0,0:0:0:0:
192,192,5041,1,0,0:0:0:0:
448,192,5208,1,0,0:0:0:0:
320,192,5375,1,0,0:0:0:0:
448,192,5541,1,0,0:0:0:0:
192,192,5708,1,0,0:0:0:0:
64,192,5708,1,0,0:0:0:0:
64,192,6041,1,0,0:0:0:0:
448,192,6375,1,0,0:0:0:0:
64,192,7041,1,0,0:0:0:0:
192,192,7041,1,0,0:0:0:0:
320,192,7375,1,0,0:0:0:0:
448,192,7708,1,0,0:0:0:0:
192,192,8041,1,0,0:0:0:0:
320,192,8375,1,0,0:0:0:0:
448,192,8375,1,0,0:0:0:0:
192,192,8708,1,0,0:0:0:0:
64,192,9041,1,0,0:0:0:0:
320,192,9375,1,0,0:0:0:0:
192,192,9708,1,0,0:0:0:0:
64,192,9708,1,0,0:0:0:0:
448,192,10375,1,0,0:0:0:0:
320,192,10708,1,0,0:0:0:0:
64,192,11041,1,0,0:0:0:0:
320,192,11208,1,0,0:0:0:0:
64,192,11375,128,0,11708:0:0:0:0:
448,192,11708,1,0,0:0:0:0:
192,192,12041,1,0,0:0:0:0:
448,192,12375,1,0,0:0:0:0:
320,192,12375,1,0,0:0:0:0:
64,192,12708,1,0,0:0:0:0:
192,192,13041,1,0,0:0:0:0:
448,192,13375,1,0,0:0:0:0:
64,192,13708,1,0,0:0:0:0:
320,192,13708,1,0,0:0:0:0:
192,192,14041,1,0,0:0:0:0:
448,192,14375,1,0,0:0:0:0:
192,192,14708,1,0,0:0:0:0:
320,192,15041,1,0,0:0:0:0:
448,192,15041,1,0,0:0:0:0:
64,192,15375,1,0,0:0:0:0:
192,192,15708,1,0,0:0:0:0:
320,192,16041,1,0,0:0:0:0:
64,192,16375,1,0,0:0:0:0:
448,192,16375,1,0,0:0:0:0:
192,192,16708,1,0,0:0:0:0:
64,192,17041,1,0,0:0:0:0:
448,192,17375,1,0,0:0:0:0:
320,192,17375,1,0,0:0:0:0:
192,192,17708,1,0,0:0:0:0:
320,192,18041,1,0,0:0:0:0:
448,192,18041,1,0,0:0:0:0:
64,192,18375,1,0,0:0:0:0:
320,192,18708,1,0,0:0:0:0:
448,192,18708,1,0,0:0:0:0:
192,192,19041,1,0,0:0:0:0:
320,192,19375,1,0,0:0:0:0:
448,192,19375,1,0,0:0:0:0:
64,192,19708,128,0,21041:0:0:0:0:
448,192,21041,1,0,0:0:0:0:
192,192,21208,1,0,0:0:0:0:
448,192,21375,1,0,0:0:0:0:
192,192,21541,1,0,0:0:0:0:
448,192,21708,1,0,0:0:0:0:
320,192,21875,1,0,0:0:0:0:
192,192,21958,1,0,0:0:0:0:
64,192,22041,128,0,22375:0:0:0:0:
448,192,22375,1,0,0:0:0:0:
320,192,22375,1,0,0:0:0:0:
192,192,23541,1,0,0:0:0:0:
448,192,23541,1,0,0:0:0:0:
64,192,24041,1,0,0:0:0:0:
448,192,24041,1,0,0:0:0:0:
192,192,24375,128,0,24541:0:0:0:0:
320,192,24708,128,0,24875:0:0:0:0:
64,192,25041,1,0,0:0:0:0:
192,192,25041,1,0,0:0:0:0:
320,192,26208,1,0,0:0:0:0:
64,192,26208,1,0,0:0:0:0:
64,192,26708,1,0,0:0:0:0:
448,192,26708,1,0,0:0:0:0:
320,192,27041,1,0,0:0:0:0:
192,192,27208,1,0,0:0:0:0:
448,192,27375,1,0,0:0:0:0:
320,192,27375,1,0,0:0:0:0:
64,192,27708,1,0,0:0:0:0:
192,192,27708,1,0,0:0:0:0:
192,192,28875,1,0,0:0:0:0:
448,192,28875,1,0,0:0:0:0:
64,192,29375,1,0,0:0:0:0:
448,192,29375,1,0,0:0:0:0:
192,192,29708,128,0,29875:0:0:0:0:
320,192,30041,128,0,30208:0:0:0:0:
192,192,30375,1,0,0:0:0:0:
64,192,30375,1,0,0:0:0:0:
448,192,30708,128,0,31541:0:0:0:0:
64,192,31541,1,0,0:0:0:0:
320,192,31541,1,0,0:0:0:0:
64,192,32041,1,0,0:0:0:0:
448,192,32041,1,0,0:0:0:0:
64,192,32375,128,0,33041:0:0:0:0:
320,192,33041,1,0,0:0:0:0:
448,192,33041,1,0,0:0:0:0:
192,192,33375,1,0,0:0:0:0:
64,192,33375,1,0,0:0:0:0:
448,192,33708,1,0,0:0:0:0:
192,192,33708,1,0,0:0:0:0:
64,192,34041,1,0,0:0:0:0:
448,192,34041,1,0,0:0:0:0:
320,192,34375,1,0,0:0:0:0:
192,192,34375,1,0,0:0:0:0:
192,192,34708,1,0,0:0:0:0:
448,192,34708,1,0,0:0:0:0:
448,192,35041,1,0,0:0:0:0:
320,192,35041,1,0,0:0:0:0:
320,192,35375,1,0,0:0:0:0:
64,192,35375,1,0,0:0:0:0:
448,192,35541,1,0,0:0:0:0:
64,192,35708,1,0,0:0:0:0:
192,192,35708,1,0,0:0:0:0:
320,192,36041,1,0,0:0:0:0:
448,192,36041,1,0,0:0:0:0:
64,192,36375,1,0,0:0:0:0:
320,192,36375,1,0,0:0:0:0:
320,192,36708,1,0,0:0:0:0:
448,192,36708,1,0,0:0:0:0:
192,192,37041,1,0,0:0:0:0:
64,192,37041,1,0,0:0:0:0:
448,192,37375,1,0,0:0:0:0:
192,192,37375,1,0,0:0:0:0:
64,192,37708,128,0,38041:0:0:0:0:
320,192,38041,1,0,0:0:0:0:
448,192,38041,1,0,0:0:0:0:
448,192,38375,1,0,0:0:0:0:
192,192,38541,1,0,0:0:0:0:
448,192,38708,1,0,0:0:0:0:
192,192,38875,1,0,0:0:0:0:
448,192,39041,1,0,0:0:0:0:
192,192,39208,1,0,0:0:0:0:
448,192,39375,1,0,0:0:0:0:
192,192,39541,128,0,39708:0:0:0:0:
64,192,39708,1,0,0:0:0:0:
320,192,39875,1,0,0:0:0:0:
64,192,40041,1,0,0:0:0:0:
320,192,40208,1,0,0:0:0:0:
64,192,40375,1,0,0:0:0:0:
320,192,40541,1,0,0:0:0:0:
64,192,40708,1,0,0:0:0:0:
320,192,40875,1,0,0:0:0:0:
448,192,41041,128,0,42375:0:0:0:0:
64,192,42375,1,0,0:0:0:0:
192,192,42375,1,0,0:0:0:0:
448,192,44041,1,0,0:0:0:0:
320,192,44041,1,0,0:0:0:0:
64,192,44208,1,0,0:0:0:0:
448,192,44375,1,0,0:0:0:0:
192,192,44375,1,0,0:0:0:0:
64,192,44625,1,0,0:0:0:0:
192,192,44625,1,0,0:0:0:0:
192,192,44875,1,0,0:0:0:0:
448,192,44875,1,0,0:0:0:0:
64,192,45041,128,0,45375:0:0:0:0:
320,192,45041,1,0,0:0:0:0:
320,192,45375,1,0,0:0:0:0:
448,192,45375,1,0,0:0:0:0:
192,192,45541,1,0,0:0:0:0:
320,192,45708,1,0,0:0:0:0:
64,192,45708,1,0,0:0:0:0:
448,192,45958,1,0,0:0:0:0:
320,192,45958,1,0,0:0:0:0:
192,192,46208,1,0,0:0:0:0:
64,192,46208,1,0,0:0:0:0:
320,192,46375,1,0,0:0:0:0:
448,192,46375,1,0,0:0:0:0:
64,192,46541,1,0,0:0:0:0:
448,192,46708,1,0,0:0:0:0:
192,192,46708,1,0,0:0:0:0:
64,192,47041,1,0,0:0:0:0:
192,192,47041,1,0,0:0:0:0:
320,192,47291,1,0,0:0:0:0:
448,192,47291,1,0,0:0:0:0:
64,192,47541,1,0,0:0:0:0:
320,192,47541,1,0,0:0:0:0:
192,192,47708,1,0,0:0:0:0:
448,192,47708,128,0,48041:0:0:0:0:
64,192,48041,1,0,0:0:0:0:
192,192,48041,1,0,0:0:0:0:
320,192,48375,1,0,0:0:0:0:
448,192,48375,1,0,0:0:0:0:
64,192,48541,128,0,49041:0:0:0:0:
448,192,48708,1,0,0:0:0:0:
320,192,49041,1,0,0:0:0:0:
448,192,49041,1,0,0:0:0:0:
64,192,49375,1,0,0:0:0:0:
448,192,49375,1,0,0:0:0:0:
64,192,49708,1,0,0:0:0:0:
192,192,49708,1,0,0:0:0:0:
448,192,49958,1,0,0:0:0:0:
64,192,49958,1,0,0:0:0:0:
192,192,50208,1,0,0:0:0:0:
64,192,50208,1,0,0:0:0:0:
448,192,50375,1,0,0:0:0:0:
320,192,50375,1,0,0:0:0:0:
192,192,50708,1,0,0:0:0:0:
64,192,50708,1,0,0:0:0:0:
192,192,51041,1,0,0:0:0:0:
448,192,51041,1,0,0:0:0:0:
320,192,51291,1,0,0:0:0:0:
64,192,51291,1,0,0:0:0:0:
320,192,51541,1,0,0:0:0:0:
448,192,51541,1,0,0:0:0:0:
64,192,51708,128,0,51875:0:0:0:0:
192,192,51708,1,0,0:0:0:0:
320,192,51875,1,0,0:0:0:0:
448,192,51875,1,0,0:0:0:0:
192,192,52041,128,0,52208:0:0:0:0:
448,192,52208,1,0,0:0:0:0:
64,192,52208,1,0,0:0:0:0:
320,192,52375,128,0,52541:0:0:0:0:
448,192,52541,1,0,0:0:0:0:
64,192,52625,1,0,0:0:0:0:
192,192,52625,1,0,0:0:0:0:
320,192,52875,1,0,0:0:0:0:
448,192,52875,1,0,0:0:0:0:
64,192,53041,1,0,0:0:0:0:
192,192,53041,1,0,0:0:0:0:
448,192,53208,1,0,0:0:0:0:
320,192,53375,1,0,0:0:0:0:
64,192,53375,1,0,0:0:0:0:
320,192,53708,1,0,0:0:0:0:
448,192,53708,1,0,0:0:0:0:
64,192,53875,1,0,0:0:0:0:
448,192,54041,128,0,54375:0:0:0:0:
64,192,54375,128,0,54708:0:0:0:0:
448,192,54708,1,0,0:0:0:0:
320,192,54875,1,0,0:0:0:0:
192,192,55041,1,0,0:0:0:0:
64,192,55041,1,0,0:0:0:0:
320,192,55291,1,0,0:0:0:0:
448,192,55291,1,0,0:0:0:0:
320,192,55541,1,0,0:0:0:0:
64,192,55541,128,0,55875:0:0:0:0:
448,192,55875,1,0,0:0:0:0:
320,192,55875,1,0,0:0:0:0:
192,192,56041,1,0,0:0:0:0:
64,192,56041,1,0,0:0:0:0:
192,192,56375,1,0,0:0:0:0:
448,192,56375,1,0,0:0:0:0:
64,192,56625,1,0,0:0:0:0:
192,192,56625,1,0,0:0:0:0:
320,192,56875,1,0,0:0:0:0:
448,192,56875,1,0,0:0:0:0:
64,192,57041,1,0,0:0:0:0:
320,192,57041,1,0,0:0:0:0:
192,192,57208,1,0,0:0:0:0:
320,192,57375,1,0,0:0:0:0:
448,192,57375,1,0,0:0:0:0:
64,192,57541,1,0,0:0:0:0:
192,192,57708,1,0,0:0:0:0:
448,192,57708,1,0,0:0:0:0:
320,192,57958,1,0,0:0:0:0:
448,192,57958,1,0,0:0:0:0:
64,192,58208,1,0,0:0:0:0:
192,192,58208,1,0,0:0:0:0:
448,192,58375,128,0,58541:0:0:0:0:
320,192,58541,1,0,0:0:0:0:
64,192,58541,1,0,0:0:0:0:
192,192,58708,1,0,0:0:0:0:
64,192,58708,1,0,0:0:0:0:
320,192,59041,1,0,0:0:0:0:
448,192,59041,1,0,0:0:0:0:
64,192,59375,128,0,59708:0:0:0:0:
320,192,59375,1,0,0:0:0:0:
320,192,59708,1,0,0:0:0:0:
448,192,59708,128,0,60041:0:0:0:0:
64,192,60041,1,0,0:0:0:0:
192,192,60041,1,0,0:0:0:0:
192,192,60375,1,0,0:0:0:0:
448,192,60375,1,0,0:0:0:0:
320,192,60625,1,0,0:0:0:0:
448,192,60625,1,0,0:0:0:0:
64,192,60875,1,0,0:0:0:0:
192,192,60875,1,0,0:0:0:0:
320,192,61208,1,0,0:0:0:0:
448,192,61208,1,0,0:0:0:0:
64,192,61375,1,0,0:0:0:0:
192,192,61375,1,0,0:0:0:0:
192,192,61708,1,0,0:0:0:0:
448,192,61708,1,0,0:0:0:0:
64,192,62041,1,0,0:0:0:0:
320,192,62041,1,0,0:0:0:0:
320,192,62375,1,0,0:0:0:0:
448,192,62375,128,0,62541:0:0:0:0:
192,192,62541,1,0,0:0:0:0:
64,192,62541,1,0,0:0:0:0:
320,192,62708,128,0,62875:0:0:0:0:
64,192,62875,1,0,0:0:0:0:
192,192,62875,1,0,0:0:0:0:
448,192,63041,128,0,63208:0:0:0:0:
64,192,63208,1,0,0:0:0:0:
320,192,63208,1,0,0:0:0:0:
192,192,63375,128,0,63541:0:0:0:0:
320,192,63541,1,0,0:0:0:0:
448,192,63541,1,0,0:0:0:0:
64,192,63708,128,0,64375:0:0:0:0:
192,192,65041,5,0,0:0:0:0:
448,192,65041,1,0,0:0:0:0:
64,192,65375,1,0,0:0:0:0:
192,192,65375,1,0,0:0:0:0:
320,192,65708,1,0,0:0:0:0:
448,192,65708,1,0,0:0:0:0:
192,192,65958,1,0,0:0:0:0:
64,192,65958,1,0,0:0:0:0:
192,192,66208,1,0,0:0:0:0:
448,192,66208,1,0,0:0:0:0:
64,192,66375,1,0,0:0:0:0:
192,192,66458,1,0,0:0:0:0:
320,192,66541,1,0,0:0:0:0:
64,192,66708,1,0,0:0:0:0:
448,192,66708,1,0,0:0:0:0:
320,192,66875,1,0,0:0:0:0:
192,192,66958,1,0,0:0:0:0:
64,192,67041,1,0,0:0:0:0:
448,192,67208,1,0,0:0:0:0:
64,192,67375,128,0,67708:0:0:0:0:
448,192,67708,1,0,0:0:0:0:
64,192,68041,1,0,0:0:0:0:
192,192,68041,1,0,0:0:0:0:
448,192,68375,128,0,68708:0:0:0:0:
192,192,68708,1,0,0:0:0:0:
64,192,68875,128,0,69041:0:0:0:0:
448,192,69041,1,0,0:0:0:0:
192,192,69208,1,0,0:0:0:0:
320,192,69375,1,0,0:0:0:0:
64,192,69541,1,0,0:0:0:0:
192,192,69625,1,0,0:0:0:0:
448,192,69708,128,0,70375:0:0:0:0:
320,192,70041,128,0,70375:0:0:0:0:
192,192,70375,1,0,0:0:0:0:
64,192,70375,1,0,0:0:0:0:
192,192,70708,1,0,0:0:0:0:
448,192,70708,1,0,0:0:0:0:
64,192,71041,1,0,0:0:0:0:
192,192,71041,1,0,0:0:0:0:
448,192,71375,128,0,71708:0:0:0:0:
64,192,71708,1,0,0:0:0:0:
192,192,72041,1,0,0:0:0:0:
448,192,72041,1,0,0:0:0:0:
192,192,72375,1,0,0:0:0:0:
64,192,72375,1,0,0:0:0:0:
448,192,72708,128,0,73041:0:0:0:0:
64,192,73041,1,0,0:0:0:0:
320,192,73208,1,0,0:0:0:0:
64,192,73375,1,0,0:0:0:0:
320,192,73541,1,0,0:0:0:0:
64,192,73708,1,0,0:0:0:0:
320,192,73875,1,0,0:0:0:0:
64,192,74041,1,0,0:0:0:0:
320,192,74208,1,0,0:0:0:0:
64,192,74375,128,0,75708:0:0:0:0:
192,192,75041,128,0,75708:0:0:0:0:
448,192,75708,1,0,0:0:0:0:
64,192,76041,1,0,0:0:0:0:
448,192,76208,1,0,0:0:0:0:
192,192,76541,1,0,0:0:0:0:
448,192,76708,1,0,0:0:0:0:
64,192,76875,1,0,0:0:0:0:
192,192,77041,1,0,0:0:0:0:
448,192,77208,1,0,0:0:0:0:
64,192,77375,1,0,0:0:0:0:
448,192,77708,1,0,0:0:0:0:
320,192,77875,1,0,0:0:0:0:
64,192,78041,1,0,0:0:0:0:
448,192,78208,1,0,0:0:0:0:
64,192,78375,1,0,0:0:0:0:
320,192,78541,1,0,0:0:0:0:
192,192,78708,1,0,0:0:0:0:
448,192,78875,1,0,0:0:0:0:
64,192,79208,1,0,0:0:0:0:
192,192,79375,1,0,0:0:0:0:
448,192,79541,1,0,0:0:0:0:
64,192,79875,1,0,0:0:0:0:
320,192,80041,1,0,0:0:0:0:
192,192,80208,1,0,0:0:0:0:
448,192,80375,1,0,0:0:0:0:
320,192,80541,1,0,0:0:0:0:
192,192,80708,1,0,0:0:0:0:
448,192,81041,1,0,0:0:0:0:
320,192,81208,1,0,0:0:0:0:
64,192,81375,1,0,0:0:0:0:
448,192,81541,1,0,0:0:0:0:
64,192,81875,1,0,0:0:0:0:
192,192,82041,1,0,0:0:0:0:
448,192,82208,1,0,0:0:0:0:
64,192,82375,1,0,0:0:0:0:
320,192,82541,1,0,0:0:0:0:
192,192,82708,1,0,0:0:0:0:
448,192,83041,1,0,0:0:0:0:
320,192,83208,1,0,0:0:0:0:
192,192,83375,1,0,0:0:0:0:
448,192,83541,1,0,0:0:0:0:
64,192,83708,1,0,0:0:0:0:
192,192,83875,1,0,0:0:0:0:
448,192,84041,1,0,0:0:0:0:
64,192,84208,1,0,0:0:0:0:
448,192,84541,1,0,0:0:0:0:
192,192,84708,1,0,0:0:0:0:
320,192,84875,1,0,0:0:0:0:
64,192,85208,1,0,0:0:0:0:
448,192,85375,128,0,85708:0:0:0:0:
64,192,85708,1,0,0:0:0:0:
192,192,85875,1,0,0:0:0:0:
448,192,86041,1,0,0:0:0:0:
64,192,86375,1,0,0:0:0:0:
192,192,86375,1,0,0:0:0:0:
448,192,86708,1,0,0:0:0:0:
320,192,87208,1,0,0:0:0:0:
192,192,87208,1,0,0:0:0:0:
64,192,87375,1,0,0:0:0:0:
320,192,87708,1,0,0:0:0:0:
448,192,87708,1,0,0:0:0:0:
192,192,88041,1,0,0:0:0:0:
64,192,88541,1,0,0:0:0:0:
192,192,88541,1,0,0:0:0:0:
320,192,88708,1,0,0:0:0:0:
320,192,89041,1,0,0:0:0:0:
448,192,89041,1,0,0:0:0:0:
192,192,89375,1,0,0:0:0:0:
192,192,89875,1,0,0:0:0:0:
64,192,89875,1,0,0:0:0:0:
320,192,90041,1,0,0:0:0:0:
64,192,90375,1,0,0:0:0:0:
192,192,90375,1,0,0:0:0:0:
448,192,90708,1,0,0:0:0:0:
320,192,91208,1,0,0:0:0:0:
448,192,91208,1,0,0:0:0:0:
192,192,91375,1,0,0:0:0:0:
320,192,91708,1,0,0:0:0:0:
448,192,91708,1,0,0:0:0:0:
64,192,92041,1,0,0:0:0:0:
64,192,92541,1,0,0:0:0:0:
192,192,92541,1,0,0:0:0:0:
448,192,92708,1,0,0:0:0:0:
64,192,93041,1,0,0:0:0:0:
192,192,93041,1,0,0:0:0:0:
320,192,93375,1,0,0:0:0:0:
320,192,93875,1,0,0:0:0:0:
448,192,93875,1,0,0:0:0:0:
192,192,94041,1,0,0:0:0:0:
320,192,94375,1,0,0:0:0:0:
448,192,94375,1,0,0:0:0:0:
64,192,94708,1,0,0:0:0:0:
64,192,95208,1,0,0:0:0:0:
192,192,95208,1,0,0:0:0:0:
320,192,95375,1,0,0:0:0:0:
64,192,95708,1,0,0:0:0:0:
192,192,95708,1,0,0:0:0:0:
448,192,96041,1,0,0:0:0:0:
64,192,96375,128,0,96708:0:0:0:0:
448,192,96708,128,0,97041:0:0:0:0:
64,192,97041,1,0,0:0:0:0:
192,192,97041,1,0,0:0:0:0:
448,192,97375,1,0,0:0:0:0:
64,192,97708,1,0,0:0:0:0:
320,192,98041,1,0,0:0:0:0:
64,192,98375,1,0,0:0:0:0:
448,192,98708,1,0,0:0:0:0:
192,192,99041,1,0,0:0:0:0:
320,192,99375,1,0,0:0:0:0:
64,192,99708,1,0,0:0:0:0:
192,192,100041,1,0,0:0:0:0:
448,192,100375,1,0,0:0:0:0:
64,192,100708,1,0,0:0:0:0:
448,192,101041,1,0,0:0:0:0:
320,192,101375,1,0,0:0:0:0:
64,192,101708,1,0,0:0:0:0:
320,192,102041,1,0,0:0:0:0:
448,192,102041,1,0,0:0:0:0:
64,192,102375,1,0,0:0:0:0:
192,192,102541,1,0,0:0:0:0:
448,192,102708,1,0,0:0:0:0:
320,192,102875,1,0,0:0:0:0:
192,192,103041,1,0,0:0:0:0:
64,192,103208,1,0,0:0:0:0:
448,192,103375,1,0,0:0:0:0:
320,192,103541,1,0,0:0:0:0:
64,192,103708,1,0,0:0:0:0:
192,192,103875,1,0,0:0:0:0:
320,192,104041,1,0,0:0:0:0:
64,192,104208,1,0,0:0:0:0:
192,192,104375,1,0,0:0:0:0:
448,192,104541,1,0,0:0:0:0:
320,192,104708,1,0,0:0:0:0:
64,192,104875,1,0,0:0:0:0:
448,192,105041,128,0,106375:0:0:0:0:
64,192,106375,1,0,0:0:0:0:
192,192,106375,1,0,0:0:0:0:
64,192,107708,128,0,108375:0:0:0:0:
192,192,107708,1,0,0:0:0:0:
448,192,108375,1,0,0:0:0:0:
320,192,108375,1,0,0:0:0:0:
192,192,108541,1,0,0:0:0:0:
448,192,108541,128,0,109041:0:0:0:0:
192,192,109041,1,0,0:0:0:0:
64,192,109041,128,0,109541:0:0:0:0:
448,192,109541,1,0,0:0:0:0:
192,192,109541,1,0,0:0:0:0:
448,192,109708,1,0,0:0:0:0:
320,192,109708,128,0,110208:0:0:0:0:
64,192,110375,1,0,0:0:0:0:
448,192,110375,128,0,111041:0:0:0:0:
64,192,111041,1,0,0:0:0:0:
192,192,111041,1,0,0:0:0:0:
320,192,111375,1,0,0:0:0:0:
448,192,111375,1,0,0:0:0:0:
320,192,111875,1,0,0:0:0:0:
64,192,112041,1,0,0:0:0:0:
448,192,112041,1,0,0:0:0:0:
192,192,112375,1,0,0:0:0:0:
64,192,112541,1,0,0:0:0:0:
448,192,112708,128,0,113041:0:0:0:0:
192,192,113041,1,0,0:0:0:0:
320,192,113041,128,0,113208:0:0:0:0:
64,192,113375,1,0,0:0:0:0:
192,192,113375,128,0,113541:0:0:0:0:
448,192,113708,1,0,0:0:0:0:
320,192,113708,1,0,0:0:0:0:
192,192,113875,1,0,0:0:0:0:
64,192,113875,128,0,114208:0:0:0:0:
192,192,114375,1,0,0:0:0:0:
448,192,114375,128,0,114708:0:0:0:0:
64,192,114708,1,0,0:0:0:0:
192,192,114875,1,0,0:0:0:0:
320,192,115041,1,0,0:0:0:0:
448,192,115041,1,0,0:0:0:0:
64,192,115208,128,0,115375:0:0:0:0:
448,192,115708,1,0,0:0:0:0:
192,192,115708,128,0,116375:0:0:0:0:
64,192,116375,1,0,0:0:0:0:
448,192,116375,128,0,116708:0:0:0:0:
192,192,116708,1,0,0:0:0:0:
64,192,116708,128,0,117208:0:0:0:0:
320,192,117208,1,0,0:0:0:0:
448,192,117208,1,0,0:0:0:0:
192,192,117375,128,0,117541:0:0:0:0:
448,192,117708,1,0,0:0:0:0:
320,192,117875,1,0,0:0:0:0:
64,192,118041,1,0,0:0:0:0:
320,192,118375,1,0,0:0:0:0:
448,192,118375,1,0,0:0:0:0:
64,192,118708,1,0,0:0:0:0:
320,192,119041,1,0,0:0:0:0:
448,192,119291,1,0,0:0:0:0:
64,192,119541,1,0,0:0:0:0:
192,192,119708,1,0,0:0:0:0:
448,192,119791,1,0,0:0:0:0:
320,192,119875,1,0,0:0:0:0:
64,192,120041,1,0,0:0:0:0:
448,192,120208,1,0,0:0:0:0:
320,192,120291,1,0,0:0:0:0:
192,192,120375,1,0,0:0:0:0:
448,192,120541,1,0,0:0:0:0:
64,192,120708,128,0,120875:0:0:0:0:
448,192,120875,1,0,0:0:0:0:
320,192,121041,1,0,0:0:0:0:
64,192,121375,1,0,0:0:0:0:
448,192,121708,128,0,122041:0:0:0:0:
64,192,122041,1,0,0:0:0:0:
192,192,122208,1,0,0:0:0:0:
320,192,122208,128,0,122541:0:0:0:0:
64,192,122541,1,0,0:0:0:0:
192,192,122708,1,0,0:0:0:0:
448,192,122875,1,0,0:0:0:0:
320,192,122958,1,0,0:0:0:0:
64,192,123041,128,0,123708:0:0:0:0:
448,192,123375,128,0,123708:0:0:0:0:
320,192,123708,1,0,0:0:0:0:
64,192,124041,1,0,0:0:0:0:
320,192,124375,1,0,0:0:0:0:
64,192,124708,1,0,0:0:0:0:
448,192,125041,1,0,0:0:0:0:
192,192,125375,1,0,0:0:0:0:
448,192,125708,1,0,0:0:0:0:
192,192,126041,1,0,0:0:0:0:
320,192,126375,1,0,0:0:0:0:
64,192,126541,1,0,0:0:0:0:
320,192,126708,1,0,0:0:0:0:
192,192,126875,1,0,0:0:0:0:
448,192,127041,1,0,0:0:0:0:
320,192,127208,1,0,0:0:0:0:
192,192,127375,1,0,0:0:0:0:
448,192,127541,1,0,0:0:0:0:
320,192,127708,1,0,0:0:0:0:
64,192,127875,1,0,0:0:0:0:
192,192,128041,1,0,0:0:0:0:
448,192,128208,1,0,0:0:0:0:
64,192,128375,128,0,129041:0:0:0:0:
320,192,129041,1,0,0:0:0:0:
448,192,129041,1,0,0:0:0:0:
448,192,131708,1,0,0:0:0:0:
64,192,131875,1,0,0:0:0:0:
192,192,132041,1,0,0:0:0:0:
448,192,132208,1,0,0:0:0:0:
64,192,132375,1,0,0:0:0:0:
320,192,132708,1,0,0:0:0:0:
64,192,133041,1,0,0:0:0:0:
448,192,133208,1,0,0:0:0:0:
320,192,133375,1,0,0:0:0:0:
64,192,133541,1,0,0:0:0:0:
448,192,133708,1,0,0:0:0:0:
64,192,134041,1,0,0:0:0:0:
192,192,134375,1,0,0:0:0:0:
320,192,134541,1,0,0:0:0:0:
64,192,134708,1,0,0:0:0:0:
448,192,134875,1,0,0:0:0:0:
192,192,135041,1,0,0:0:0:0:
64,192,135375,1,0,0:0:0:0:
320,192,135708,1,0,0:0:0:0:
192,192,135875,1,0,0:0:0:0:
448,192,136041,1,0,0:0:0:0:
192,192,136208,1,0,0:0:0:0:
448,192,136375,1,0,0:0:0:0:
64,192,136708,1,0,0:0:0:0:
192,192,137041,1,0,0:0:0:0:
448,192,137375,1,0,0:0:0:0:
320,192,137708,1,0,0:0:0:0:
192,192,138041,1,0,0:0:0:0:
448,192,138375,1,0,0:0:0:0:
64,192,138708,1,0,0:0:0:0:
448,192,139041,1,0,0:0:0:0:
192,192,139375,1,0,0:0:0:0:
64,192,139708,1,0,0:0:0:0:
320,192,139708,1,0,0:0:0:0:
448,192,140041,1,0,0:0:0:0:
192,192,140375,1,0,0:0:0:0:
64,192,140708,1,0,0:0:0:0:
448,192,141041,1,0,0:0:0:0:
192,192,141041,1,0,0:0:0:0:
192,192,141375,1,0,0:0:0:0:
320,192,141708,1,0,0:0:0:0:
448,192,141708,1,0,0:0:0:0:
64,192,141875,1,0,0:0:0:0:
320,192,142041,128,0,142375:0:0:0:0:
192,192,142375,1,0,0:0:0:0:
64,192,142375,1,0,0:0:0:0:
64,192,142708,1,0,0:0:0:0:
448,192,143041,1,0,0:0:0:0:
320,192,143041,1,0,0:0:0:0:
64,192,143375,1,0,0:0:0:0:
192,192,143708,1,0,0:0:0:0:
448,192,144041,1,0,0:0:0:0:
320,192,144375,1,0,0:0:0:0:
64,192,144375,1,0,0:0:0:0:
192,192,144708,1,0,0:0:0:0:
448,192,145041,1,0,0:0:0:0:
320,192,145375,1,0,0:0:0:0:
192,192,145708,1,0,0:0:0:0:
64,192,145708,1,0,0:0:0:0:
320,192,146041,1,0,0:0:0:0:
64,192,146375,1,0,0:0:0:0:
192,192,146708,1,0,0:0:0:0:
320,192,147041,1,0,0:0:0:0:
448,192,147041,1,0,0:0:0:0:
64,192,147375,1,0,0:0:0:0:
448,192,147708,1,0,0:0:0:0:
192,192,148041,1,0,0:0:0:0:
64,192,148041,1,0,0:0:0:0:
320,192,148375,1,0,0:0:0:0:
192,192,148708,1,0,0:0:0:0:
64,192,148708,1,0,0:0:0:0:
448,192,149041,1,0,0:0:0:0:
64,192,149375,1,0,0:0:0:0:
192,192,149375,1,0,0:0:0:0:
320,192,149708,1,0,0:0:0:0:
192,192,150041,1,0,0:0:0:0:
64,192,150041,1,0,0:0:0:0:
448,192,150375,128,0,151708:0:0:0:0:
64,192,151708,1,0,0:0:0:0:
320,192,151875,1,0,0:0:0:0:
192,192,152041,1,0,0:0:0:0:
320,192,152208,1,0,0:0:0:0:
64,192,152375,1,0,0:0:0:0:
448,192,152541,1,0,0:0:0:0:
320,192,152625,1,0,0:0:0:0:
64,192,152708,128,0,153041:0:0:0:0:
320,192,153041,1,0,0:0:0:0:
448,192,153041,1,0,0:0:0:0:
64,192,154208,1,0,0:0:0:0:
320,192,154208,1,0,0:0:0:0:
448,192,154708,1,0,0:0:0:0:
64,192,154708,1,0,0:0:0:0:
320,192,155041,128,0,155208:0:0:0:0:
192,192,155375,128,0,155541:0:0:0:0:
320,192,155708,1,0,0:0:0:0:
448,192,155708,1,0,0:0:0:0:
448,192,156875,1,0,0:0:0:0:
192,192,156875,1,0,0:0:0:0:
64,192,157375,1,0,0:0:0:0:
448,192,157375,1,0,0:0:0:0:
192,192,157708,1,0,0:0:0:0:
320,192,157875,1,0,0:0:0:0:
192,192,158041,1,0,0:0:0:0:
64,192,158041,1,0,0:0:0:0:
320,192,158375,1,0,0:0:0:0:
448,192,158375,1,0,0:0:0:0:
64,192,159541,1,0,0:0:0:0:
320,192,159541,1,0,0:0:0:0:
64,192,160041,1,0,0:0:0:0:
448,192,160041,1,0,0:0:0:0:
320,192,160375,128,0,160541:0:0:0:0:
192,192,160708,128,0,160875:0:0:0:0:
448,192,161041,1,0,0:0:0:0:
320,192,161041,1,0,0:0:0:0:
64,192,161375,128,0,162208:0:0:0:0:
192,192,162208,1,0,0:0:0:0:
448,192,162208,1,0,0:0:0:0:
64,192,162708,1,0,0:0:0:0:
448,192,162708,1,0,0:0:0:0:
448,192,163041,128,0,163708:0:0:0:0:
192,192,163708,1,0,0:0:0:0:
64,192,163708,1,0,0:0:0:0:
320,192,164041,1,0,0:0:0:0:
448,192,164041,1,0,0:0:0:0:
64,192,164375,1,0,0:0:0:0:
320,192,164375,1,0,0:0:0:0:
448,192,164708,1,0,0:0:0:0:
320,192,164708,1,0,0:0:0:0:
192,192,165041,1,0,0:0:0:0:
64,192,165041,1,0,0:0:0:0:
320,192,165375,1,0,0:0:0:0:
64,192,165375,1,0,0:0:0:0:
64,192,165708,1,0,0:0:0:0:
192,192,165708,1,0,0:0:0:0:
192,192,166041,1,0,0:0:0:0:
448,192,166041,1,0,0:0:0:0:
64,192,166208,1,0,0:0:0:0:
448,192,166375,1,0,0:0:0:0:
320,192,166375,1,0,0:0:0:0:
192,192,166708,1,0,0:0:0:0:
320,192,166708,1,0,0:0:0:0:
448,192,167041,1,0,0:0:0:0:
64,192,167041,1,0,0:0:0:0:
64,192,167375,1,0,0:0:0:0:
320,192,167375,1,0,0:0:0:0:
320,192,167708,1,0,0:0:0:0:
448,192,167708,1,0,0:0:0:0:
64,192,168041,1,0,0:0:0:0:
192,192,168041,1,0,0:0:0:0:
448,192,168375,128,0,168708:0:0:0:0:
192,192,168708,1,0,0:0:0:0:
64,192,169041,1,0,0:0:0:0:
320,192,169208,1,0,0:0:0:0:
192,192,169375,1,0,0:0:0:0:
320,192,169541,1,0,0:0:0:0:
64,192,169708,1,0,0:0:0:0:
320,192,169875,1,0,0:0:0:0:
64,192,170041,1,0,0:0:0:0:
320,192,170208,128,0,170375:0:0:0:0:
448,192,170375,1,0,0:0:0:0:
192,192,170541,1,0,0:0:0:0:
448,192,170708,1,0,0:0:0:0:
192,192,170875,1,0,0:0:0:0:
448,192,171041,1,0,0:0:0:0:
320,192,171208,1,0,0:0:0:0:
64,192,171375,1,0,0:0:0:0:
320,192,171541,1,0,0:0:0:0:
448,192,171708,128,0,173041:0:0:0:0:
64,192,173041,1,0,0:0:0:0:
192,192,173041,1,0,0:0:0:0:
64,192,174708,1,0,0:0:0:0:
192,192,174708,1,0,0:0:0:0:
448,192,174875,1,0,0:0:0:0:
64,192,175041,1,0,0:0:0:0:
320,192,175041,1,0,0:0:0:0:
448,192,175291,1,0,0:0:0:0:
320,192,175291,1,0,0:0:0:0:
320,192,175541,1,0,0:0:0:0:
64,192,175541,1,0,0:0:0:0:
448,192,175708,128,0,176041:0:0:0:0:
192,192,175708,1,0,0:0:0:0:
192,192,176041,1,0,0:0:0:0:
64,192,176041,1,0,0:0:0:0:
320,192,176208,1,0,0:0:0:0:
192,192,176375,1,0,0:0:0:0:
448,192,176375,1,0,0:0:0:0:
64,192,176625,1,0,0:0:0:0:
192,192,176625,1,0,0:0:0:0:
320,192,176875,1,0,0:0:0:0:
448,192,176875,1,0,0:0:0:0:
192,192,177041,1,0,0:0:0:0:
64,192,177041,1,0,0:0:0:0:
448,192,177208,1,0,0:0:0:0:
64,192,177375,1,0,0:0:0:0:
320,192,177375,1,0,0:0:0:0:
448,192,177708,1,0,0:0:0:0:
320,192,177708,1,0,0:0:0:0:
192,192,177958,1,0,0:0:0:0:
64,192,177958,1,0,0:0:0:0:
448,192,178208,1,0,0:0:0:0:
192,192,178208,1,0,0:0:0:0:
320,192,178375,1,0,0:0:0:0:
64,192,178375,128,0,178708:0:0:0:0:
448,192,178708,1,0,0:0:0:0:
320,192,178708,1,0,0:0:0:0:
192,192,179041,1,0,0:0:0:0:
64,192,179041,1,0,0:0:0:0:
448,192,179208,128,0,179708:0:0:0:0:
64,192,179375,1,0,0:0:0:0:
192,192,179708,1,0,0:0:0:0:
64,192,179708,1,0,0:0:0:0:
448,192,180041,1,0,0:0:0:0:
64,192,180041,1,0,0:0:0:0:
448,192,180375,1,0,0:0:0:0:
320,192,180375,1,0,0:0:0:0:
64,192,180625,1,0,0:0:0:0:
448,192,180625,1,0,0:0:0:0:
320,192,180875,1,0,0:0:0:0:
448,192,180875,1,0,0:0:0:0:
64,192,181041,1,0,0:0:0:0:
192,192,181041,1,0,0:0:0:0:
320,192,181375,1,0,0:0:0:0:
448,192,181375,1,0,0:0:0:0:
320,192,181708,1,0,0:0:0:0:
64,192,181708,1,0,0:0:0:0:
192,192,181958,1,0,0:0:0:0:
448,192,181958,1,0,0:0:0:0:
192,192,182208,1,0,0:0:0:0:
64,192,182208,1,0,0:0:0:0:
448,192,182375,128,0,182541:0:0:0:0:
320,192,182375,1,0,0:0:0:0:
192,192,182541,1,0,0:0:0:0:
64,192,182541,1,0,0:0:0:0:
320,192,182708,128,0,182875:0:0:0:0:
64,192,182875,1,0,0:0:0:0:
448,192,182875,1,0,0:0:0:0:
192,192,183041,128,0,183208:0:0:0:0:
64,192,183208,1,0,0:0:0:0:
448,192,183291,1,0,0:0:0:0:
320,192,183291,1,0,0:0:0:0:
192,192,183541,1,0,0:0:0:0:
64,192,183541,1,0,0:0:0:0:
448,192,183708,1,0,0:0:0:0:
320,192,183708,1,0,0:0:0:0:
64,192,183875,1,0,0:0:0:0:
192,192,184041,1,0,0:0:0:0:
448,192,184041,1,0,0:0:0:0:
192,192,184375,1,0,0:0:0:0:
64,192,184375,1,0,0:0:0:0:
448,192,184541,1,0,0:0:0:0:
64,192,184708,128,0,185041:0:0:0:0:
448,192,185041,128,0,185375:0:0:0:0:
64,192,185375,1,0,0:0:0:0:
192,192,185541,1,0,0:0:0:0:
320,192,185708,1,0,0:0:0:0:
448,192,185708,1,0,0:0:0:0:
192,192,185958,1,0,0:0:0:0:
64,192,185958,1,0,0:0:0:0:
192,192,186208,1,0,0:0:0:0:
448,192,186208,128,0,186541:0:0:0:0:
64,192,186541,1,0,0:0:0:0:
192,192,186541,1,0,0:0:0:0:
320,192,186708,1,0,0:0:0:0:
448,192,186708,1,0,0:0:0:0:
320,192,187041,1,0,0:0:0:0:
64,192,187041,1,0,0:0:0:0:
448,192,187291,1,0,0:0:0:0:
320,192,187291,1,0,0:0:0:0:
192,192,187541,1,0,0:0:0:0:
64,192,187541,1,0,0:0:0:0:
448,192,187708,1,0,0:0:0:0:
192,192,187708,1,0,0:0:0:0:
320,192,187875,1,0,0:0:0:0:
192,192,188041,1,0,0:0:0:0:
64,192,188041,1,0,0:0:0:0:
448,192,188208,1,0,0:0:0:0:
320,192,188375,1,0,0:0:0:0:
64,192,188375,1,0,0:0:0:0:
192,192,188625,1,0,0:0:0:0:
64,192,188625,1,0,0:0:0:0:
448,192,188875,1,0,0:0:0:0:
320,192,188875,1,0,0:0:0:0:
64,192,189041,128,0,189208:0:0:0:0:
192,192,189208,1,0,0:0:0:0:
448,192,189208,1,0,0:0:0:0:
320,192,189375,1,0,0:0:0:0:
448,192,189375,1,0,0:0:0:0:
192,192,189708,1,0,0:0:0:0:
64,192,189708,1,0,0:0:0:0:
448,192,190041,128,0,190375:0:0:0:0:
192,192,190041,1,0,0:0:0:0:
192,192,190375,1,0,0:0:0:0:
64,192,190375,128,0,190708:0:0:0:0:
448,192,190708,1,0,0:0:0:0:
320,192,190708,1,0,0:0:0:0:
320,192,191041,1,0,0:0:0:0:
64,192,191041,1,0,0:0:0:0:
192,192,191291,1,0,0:0:0:0:
64,192,191291,1,0,0:0:0:0:
448,192,191541,1,0,0:0:0:0:
320,192,191541,1,0,0:0:0:0:
192,192,191875,1,0,0:0:0:0:
64,192,191875,1,0,0:0:0:0:
448,192,192041,1,0,0:0:0:0:
320,192,192041,1,0,0:0:0:0:
320,192,192375,1,0,0:0:0:0:
64,192,192375,1,0,0:0:0:0:
448,192,192708,1,0,0:0:0:0:
192,192,192708,1,0,0:0:0:0:
192,192,193041,1,0,0:0:0:0:
64,192,193041,128,0,193208:0:0:0:0:
320,192,193208,1,0,0:0:0:0:
448,192,193208,1,0,0:0:0:0:
192,192,193375,128,0,193541:0:0:0:0:
448,192,193541,1,0,0:0:0:0:
320,192,193541,1,0,0:0:0:0:
64,192,193708,128,0,193875:0:0:0:0:
448,192,193875,1,0,0:0:0:0:
192,192,193875,1,0,0:0:0:0:
320,192,194041,128,0,194208:0:0:0:0:
192,192,194208,1,0,0:0:0:0:
64,192,194208,1,0,0:0:0:0:
448,192,194375,128,0,195041:0:0:0:0:
64,192,195708,1,0,0:0:0:0:
448,192,195708,1,0,0:0:0:0:
64,192,196041,1,0,0:0:0:0:
192,192,196041,1,0,0:0:0:0:
448,192,196208,1,0,0:0:0:0:
192,192,196375,1,0,0:0:0:0:
64,192,196375,1,0,0:0:0:0:
448,192,196625,1,0,0:0:0:0:
320,192,196625,1,0,0:0:0:0:
64,192,196875,1,0,0:0:0:0:
320,192,196875,1,0,0:0:0:0:
192,192,197041,1,0,0:0:0:0:
448,192,197041,128,0,197375:0:0:0:0:
192,192,197375,1,0,0:0:0:0:
64,192,197375,1,0,0:0:0:0:
320,192,197541,1,0,0:0:0:0:
64,192,197708,1,0,0:0:0:0:
448,192,197708,1,0,0:0:0:0:
192,192,197958,1,0,0:0:0:0:
64,192,197958,1,0,0:0:0:0:
320,192,198208,1,0,0:0:0:0:
448,192,198208,1,0,0:0:0:0:
64,192,198375,1,0,0:0:0:0:
192,192,198375,1,0,0:0:0:0:
448,192,198541,1,0,0:0:0:0:
64,192,198708,1,0,0:0:0:0:
320,192,198708,1,0,0:0:0:0:
192,192,198875,1,0,0:0:0:0:
320,192,199041,1,0,0:0:0:0:
448,192,199041,1,0,0:0:0:0:
192,192,199291,1,0,0:0:0:0:
64,192,199291,1,0,0:0:0:0:
192,192,199541,1,0,0:0:0:0:
448,192,199541,1,0,0:0:0:0:
320,192,199708,1,0,0:0:0:0:
448,192,199708,128,0,200041:0:0:0:0:
64,192,200041,1,0,0:0:0:0:
192,192,200041,1,0,0:0:0:0:
320,192,200375,1,0,0:0:0:0:
448,192,200375,1,0,0:0:0:0:
64,192,200708,1,0,0:0:0:0:
448,192,200708,1,0,0:0:0:0:
448,192,201041,1,0,0:0:0:0:
192,192,201041,1,0,0:0:0:0:
320,192,201208,1,0,0:0:0:0:
192,192,201375,1,0,0:0:0:0:
448,192,201375,1,0,0:0:0:0:
64,192,201541,1,0,0:0:0:0:
320,192,201708,1,0,0:0:0:0:
448,192,201708,1,0,0:0:0:0:
192,192,201958,1,0,0:0:0:0:
448,192,201958,1,0,0:0:0:0:
320,192,202208,1,0,0:0:0:0:
448,192,202208,1,0,0:0:0:0:
64,192,202375,1,0,0:0:0:0:
192,192,202375,1,0,0:0:0:0:
448,192,202541,128,0,202708:0:0:0:0:
320,192,202708,1,0,0:0:0:0:
64,192,202708,1,0,0:0:0:0:
320,192,203041,1,0,0:0:0:0:
448,192,203041,1,0,0:0:0:0:
64,192,203291,1,0,0:0:0:0:
192,192,203291,1,0,0:0:0:0:
192,192,203541,1,0,0:0:0:0:
448,192,203541,1,0,0:0:0:0:
320,192,203708,1,0,0:0:0:0:
64,192,203708,1,0,0:0:0:0:
448,192,203875,128,0,204041:0:0:0:0:
320,192,204041,1,0,0:0:0:0:
64,192,204041,1,0,0:0:0:0:
192,192,204208,1,0,0:0:0:0:
320,192,204375,1,0,0:0:0:0:
448,192,204375,1,0,0:0:0:0:
64,192,204625,1,0,0:0:0:0:
192,192,204625,1,0,0:0:0:0:
320,192,204875,1,0,0:0:0:0:
448,192,204875,1,0,0:0:0:0:
320,192,205041,1,0,0:0:0:0:
64,192,205041,128,0,205375:0:0:0:0:
320,192,205375,1,0,0:0:0:0:
448,192,205375,1,0,0:0:0:0:
64,192,205708,1,0,0:0:0:0:
320,192,205708,1,0,0:0:0:0:
192,192,205875,1,0,0:0:0:0:
448,192,206041,1,0,0:0:0:0:
320,192,206041,128,0,206375:0:0:0:0:
64,192,207041,1,0,0:0:0:0:
192,192,207041,1,0,0:0:0:0:
192,192,207291,1,0,0:0:0:0:
448,192,207291,1,0,0:0:0:0:
320,192,207541,1,0,0:0:0:0:
192,192,207541,128,0,207875:0:0:0:0:
320,192,207875,1,0,0:0:0:0:
448,192,207875,1,0,0:0:0:0:
64,192,208041,1,0,0:0:0:0:
192,192,208041,1,0,0:0:0:0:
192,192,208375,1,0,0:0:0:0:
448,192,208375,1,0,0:0:0:0:
64,192,208625,1,0,0:0:0:0:
320,192,208625,1,0,0:0:0:0:
320,192,208875,1,0,0:0:0:0:
448,192,208875,1,0,0:0:0:0:
192,192,209041,1,0,0:0:0:0:
64,192,209041,1,0,0:0:0:0:
448,192,209208,1,0,0:0:0:0:
320,192,209375,1,0,0:0:0:0:
64,192,209375,1,0,0:0:0:0:
320,192,209708,1,0,0:0:0:0:
448,192,209708,1,0,0:0:0:0:
64,192,209958,1,0,0:0:0:0:
320,192,209958,1,0,0:0:0:0:
448,192,210208,1,0,0:0:0:0:
192,192,210208,128,0,210541:0:0:0:0:
320,192,210541,1,0,0:0:0:0:
448,192,210541,1,0,0:0:0:0:
192,192,210708,1,0,0:0:0:0:
64,192,210708,1,0,0:0:0:0:
192,192,211041,1,0,0:0:0:0:
448,192,211041,1,0,0:0:0:0:
64,192,211375,128,0,211708:0:0:0:0:
320,192,211708,1,0,0:0:0:0:
448,192,211708,1,0,0:0:0:0:
64,192,211875,1,0,0:0:0:0:
192,192,212041,1,0,0:0:0:0:
448,192,212041,1,0,0:0:0:0:
320,192,212208,1,0,0:0:0:0:
192,192,212375,1,0,0:0:0:0:
64,192,212375,1,0,0:0:0:0:
320,192,212625,1,0,0:0:0:0:
448,192,212625,1,0,0:0:0:0:
320,192,212875,1,0,0:0:0:0:
64,192,212875,128,0,213208:0:0:0:0:
320,192,213208,1,0,0:0:0:0:
448,192,213208,1,0,0:0:0:0:
64,192,213375,1,0,0:0:0:0:
192,192,213375,1,0,0:0:0:0:
192,192,213708,1,0,0:0:0:0:
448,192,213708,1,0,0:0:0:0:
64,192,214041,1,0,0:0:0:0:
192,192,214041,1,0,0:0:0:0:
448,192,214375,1,0,0:0:0:0:
320,192,214375,128,0,214541:0:0:0:0:
64,192,214541,1,0,0:0:0:0:
192,192,214541,1,0,0:0:0:0:
64,192,214708,128,0,214875:0:0:0:0:
320,192,214875,1,0,0:0:0:0:
448,192,214875,1,0,0:0:0:0:
192,192,215041,128,0,215208:0:0:0:0:
320,192,215208,1,0,0:0:0:0:
448,192,215208,1,0,0:0:0:0:
448,192,215375,128,0,215541:0:0:0:0:
64,192,215541,1,0,0:0:0:0:
320,192,215541,1,0,0:0:0:0:
192,192,215708,128,0,216375:0:0:0:0:
448,192,216375,128,0,217041:0:0:0:0:
64,192,217041,1,0,0:0:0:0:
