osu file format v14

[General]
AudioFilename: audio.mp3
AudioLeadIn: 0
PreviewTime: 173375
Countdown: 0
SampleSet: Normal
StackLeniency: 0.7
Mode: 3
LetterboxInBreaks: 0
SpecialStyle: 0
WidescreenStoryboard: 0

[Editor]
Bookmarks: 21041,42375,65041,75708,97041,118375,131708,151708,173041,195708
DistanceSpacing: 0.1
BeatDivisor: 4
GridSize: 32
TimelineZoom: 2.899999

[Metadata]
Title:Future Cider
TitleUnicode:Future Cider
Artist:YUC'e
ArtistUnicode:YUC'e
Creator:Mastermile
Version:Insane
Source:
Tags:future candy i mean cider
BeatmapID:1359554
BeatmapSetID:636651

[Difficulty]
HPDrainRate:8.2
CircleSize:4
OverallDifficulty:8.5
ApproachRate:5
SliderMultiplier:1.4
SliderTickRate:1

[Events]
//Background and Video events
0,0,"Creative name.png",0,0
//Break Periods
//Storyboard Layer 0 (Background)
//Storyboard Layer 1 (Fail)
//Storyboard Layer 2 (Pass)
//Storyboard Layer 3 (Foreground)
//Storyboard Sound Samples

[TimingPoints]
1042,333.333333333333,4,1,1,20,1,0
44041,-100,4,1,1,20,0,1
59375,-500,4,1,1,20,0,1
59416,-50,4,1,1,20,0,1
59458,-500,4,1,1,20,0,1
59500,-50,4,1,1,20,0,1
59541,-500,4,1,1,20,0,1
59583,-50,4,1,1,20,0,1
59625,-500,4,1,1,20,0,1
59666,-50,4,1,1,20,0,1
59708,-100,4,1,1,20,0,1
65041,-100,4,1,1,20,0,0
129041,-500,4,1,1,20,0,0
130375,-100,4,1,1,20,0,0
174708,-100,4,1,1,20,0,1
190041,-500,4,1,1,20,0,1
190083,-50,4,1,1,20,0,1
190125,-500,4,1,1,20,0,1
190166,-50,4,1,1,20,0,1
190208,-500,4,1,1,20,0,1
190250,-50,4,1,1,20,0,1
190291,-500,4,1,1,20,0,1
190333,-50,4,1,1,20,0,1
190375,-100,4,1,1,20,0,1
195041,-100,4,1,1,20,0,0
196041,-100,4,1,1,20,0,1
211375,-500,4,1,1,20,0,1
211416,-50,4,1,1,20,0,1
211458,-500,4,1,1,20,0,1
211500,-50,4,1,1,20,0,1
211541,-500,4,1,1,20,0,1
211583,-62.5,4,1,1,20,0,1
211625,-500,4,1,1,20,0,1
211666,-76.9230769230769,4,1,1,20,0,1
211708,-100,4,1,1,20,0,1
217041,-100,4,1,1,20,0,0

[HitObjects]
64,192,1042,5,0,0:0:0:0:
64,192,1208,1,0,0:0:0:0:
448,192,1375,1,0,0:0:0:0:
448,192,1541,1,0,0:0:0:0:
64,192,1708,128,0,2041:0:0:0:0:
192,192,1708,1,0,0:0:0:0:
192,192,2041,1,0,0:0:0:0:
192,192,2375,1,0,0:0:0:0:
320,192,2541,1,0,0:0:0:0:
192,192,2708,1,0,0:0:0:0:
320,192,2875,1,0,0:0:0:0:
64,192,3041,1,0,0:0:0:0:
192,192,3041,1,0,0:0:0:0:
448,192,3708,1,0,0:0:0:0:
64,192,3875,1,0,0:0:0:0:
448,192,4041,1,0,0:0:0:0:
64,192,4208,1,0,0:0:0:0:
448,192,4375,1,0,0:0:0:0:
320,192,4375,1,0,0:0:0:0:
64,192,4708,1,0,0:0:0:0:
192,192,5041,1,0,0:0:0:0:
448,192,5208,1,0,0:0:0:0:
192,192,5375,1,0,0:0:0:0:
448,192,5541,1,0,0:0:0:0:
64,192,5708,1,0,0:0:0:0:
192,192,5708,1,0,0:0:0:0:
448,192,6041,128,0,6375:0:0:0:0:
320,192,6375,1,0,0:0:0:0:
64,192,7041,1,0,0:0:0:0:
192,192,7041,1,0,0:0:0:0:
448,192,7375,1,0,0:0:0:0:
192,192,7708,1,0,0:0:0:0:
448,192,8041,1,0,0:0:0:0:
192,192,8375,1,0,0:0:0:0:
64,192,8375,1,0,0:0:0:0:
320,192,8708,1,0,0:0:0:0:
64,192,9041,1,0,0:0:0:0:
448,192,9041,1,0,0:0:0:0:
192,192,9375,1,0,0:0:0:0:
64,192,9708,1,0,0:0:0:0:
320,192,9708,1,0,0:0:0:0:
320,192,10375,1,0,0:0:0:0:
448,192,10708,1,0,0:0:0:0:
64,192,11041,1,0,0:0:0:0:
192,192,11208,1,0,0:0:0:0:
448,192,11375,1,0,0:0:0:0:
320,192,11375,1,0,0:0:0:0:
64,192,11458,1,0,0:0:0:0:
192,192,11458,1,0,0:0:0:0:
448,192,11541,1,0,0:0:0:0:
320,192,11541,1,0,0:0:0:0:
192,192,11625,1,0,0:0:0:0:
64,192,11625,1,0,0:0:0:0:
448,192,11708,1,0,0:0:0:0:
320,192,11708,1,0,0:0:0:0:
64,192,11791,1,0,0:0:0:0:
192,192,11875,1,0,0:0:0:0:
448,192,11958,1,0,0:0:0:0:
320,192,12041,1,0,0:0:0:0:
64,192,12041,1,0,0:0:0:0:
192,192,12125,1,0,0:0:0:0:
320,192,12208,1,0,0:0:0:0:
448,192,12291,1,0,0:0:0:0:
64,192,12375,1,0,0:0:0:0:
192,192,12375,1,0,0:0:0:0:
448,192,12458,1,0,0:0:0:0:
320,192,12541,1,0,0:0:0:0:
64,192,12625,1,0,0:0:0:0:
192,192,12708,1,0,0:0:0:0:
448,192,12708,1,0,0:0:0:0:
320,192,12791,1,0,0:0:0:0:
192,192,12875,1,0,0:0:0:0:
448,192,12958,1,0,0:0:0:0:
320,192,13041,1,0,0:0:0:0:
64,192,13041,1,0,0:0:0:0:
192,192,13125,1,0,0:0:0:0:
320,192,13208,1,0,0:0:0:0:
448,192,13291,1,0,0:0:0:0:
192,192,13375,1,0,0:0:0:0:
64,192,13375,1,0,0:0:0:0:
320,192,13458,1,0,0:0:0:0:
448,192,13541,1,0,0:0:0:0:
320,192,13625,1,0,0:0:0:0:
192,192,13708,1,0,0:0:0:0:
64,192,13708,1,0,0:0:0:0:
448,192,13791,1,0,0:0:0:0:
320,192,13875,1,0,0:0:0:0:
448,192,13958,1,0,0:0:0:0:
192,192,14041,1,0,0:0:0:0:
64,192,14041,1,0,0:0:0:0:
320,192,14125,1,0,0:0:0:0:
448,192,14208,1,0,0:0:0:0:
64,192,14291,1,0,0:0:0:0:
192,192,14375,1,0,0:0:0:0:
448,192,14375,1,0,0:0:0:0:
320,192,14458,1,0,0:0:0:0:
192,192,14541,1,0,0:0:0:0:
64,192,14625,1,0,0:0:0:0:
448,192,14708,1,0,0:0:0:0:
320,192,14708,1,0,0:0:0:0:
192,192,14791,1,0,0:0:0:0:
64,192,14875,1,0,0:0:0:0:
192,192,14958,1,0,0:0:0:0:
320,192,15041,1,0,0:0:0:0:
448,192,15041,1,0,0:0:0:0:
64,192,15125,1,0,0:0:0:0:
192,192,15208,1,0,0:0:0:0:
64,192,15291,1,0,0:0:0:0:
320,192,15375,1,0,0:0:0:0:
448,192,15375,1,0,0:0:0:0:
192,192,15458,1,0,0:0:0:0:
64,192,15541,1,0,0:0:0:0:
448,192,15625,1,0,0:0:0:0:
320,192,15708,1,0,0:0:0:0:
64,192,15708,1,0,0:0:0:0:
192,192,15791,1,0,0:0:0:0:
320,192,15875,1,0,0:0:0:0:
448,192,15958,1,0,0:0:0:0:
192,192,16041,1,0,0:0:0:0:
64,192,16041,1,0,0:0:0:0:
320,192,16125,1,0,0:0:0:0:
448,192,16208,1,0,0:0:0:0:
64,192,16291,1,0,0:0:0:0:
192,192,16375,1,0,0:0:0:0:
448,192,16375,1,0,0:0:0:0:
320,192,16458,1,0,0:0:0:0:
192,192,16541,1,0,0:0:0:0:
64,192,16625,1,0,0:0:0:0:
320,192,16708,1,0,0:0:0:0:
448,192,16708,1,0,0:0:0:0:
192,192,16791,1,0,0:0:0:0:
64,192,16875,1,0,0:0:0:0:
448,192,16958,1,0,0:0:0:0:
320,192,17041,1,0,0:0:0:0:
192,192,17041,1,0,0:0:0:0:
448,192,17125,1,0,0:0:0:0:
64,192,17208,1,0,0:0:0:0:
192,192,17291,1,0,0:0:0:0:
320,192,17375,1,0,0:0:0:0:
448,192,17375,1,0,0:0:0:0:
64,192,17458,1,0,0:0:0:0:
192,192,17541,1,0,0:0:0:0:
448,192,17625,1,0,0:0:0:0:
320,192,17708,1,0,0:0:0:0:
64,192,17708,1,0,0:0:0:0:
192,192,17791,1,0,0:0:0:0:
320,192,17875,1,0,0:0:0:0:
448,192,17958,1,0,0:0:0:0:
64,192,18041,1,0,0:0:0:0:
192,192,18041,1,0,0:0:0:0:
320,192,18125,1,0,0:0:0:0:
448,192,18208,1,0,0:0:0:0:
64,192,18291,1,0,0:0:0:0:
192,192,18375,1,0,0:0:0:0:
320,192,18375,1,0,0:0:0:0:
64,192,18458,1,0,0:0:0:0:
448,192,18541,1,0,0:0:0:0:
320,192,18625,1,0,0:0:0:0:
192,192,18708,1,0,0:0:0:0:
64,192,18708,1,0,0:0:0:0:
448,192,18791,1,0,0:0:0:0:
320,192,18875,1,0,0:0:0:0:
64,192,18958,1,0,0:0:0:0:
192,192,19041,1,0,0:0:0:0:
448,192,19041,1,0,0:0:0:0:
320,192,19125,1,0,0:0:0:0:
192,192,19208,1,0,0:0:0:0:
448,192,19291,1,0,0:0:0:0:
320,192,19375,1,0,0:0:0:0:
64,192,19375,1,0,0:0:0:0:
192,192,19458,1,0,0:0:0:0:
64,192,19541,1,0,0:0:0:0:
192,192,19625,1,0,0:0:0:0:
320,192,19708,1,0,0:0:0:0:
448,192,19708,1,0,0:0:0:0:
64,192,19750,1,0,0:0:0:0:
192,192,19791,1,0,0:0:0:0:
320,192,19833,1,0,0:0:0:0:
448,192,19875,1,0,0:0:0:0:
64,192,19916,1,0,0:0:0:0:
192,192,19958,1,0,0:0:0:0:
320,192,20000,1,0,0:0:0:0:
448,192,20041,1,0,0:0:0:0:
64,192,20083,1,0,0:0:0:0:
192,192,20125,1,0,0:0:0:0:
320,192,20166,1,0,0:0:0:0:
448,192,20208,1,0,0:0:0:0:
64,192,20250,1,0,0:0:0:0:
192,192,20291,1,0,0:0:0:0:
320,192,20333,1,0,0:0:0:0:
448,192,20375,1,0,0:0:0:0:
64,192,20416,1,0,0:0:0:0:
192,192,20458,1,0,0:0:0:0:
320,192,20500,1,0,0:0:0:0:
448,192,20541,1,0,0:0:0:0:
64,192,20583,1,0,0:0:0:0:
192,192,20625,1,0,0:0:0:0:
320,192,20666,1,0,0:0:0:0:
448,192,20708,1,0,0:0:0:0:
64,192,20750,1,0,0:0:0:0:
192,192,20791,1,0,0:0:0:0:
320,192,20833,1,0,0:0:0:0:
448,192,20875,1,0,0:0:0:0:
64,192,20916,1,0,0:0:0:0:
192,192,20958,1,0,0:0:0:0:
320,192,21000,1,0,0:0:0:0:
448,192,21041,1,0,0:0:0:0:
64,192,21208,1,0,0:0:0:0:
320,192,21375,1,0,0:0:0:0:
448,192,21375,1,0,0:0:0:0:
64,192,21541,1,0,0:0:0:0:
320,192,21708,1,0,0:0:0:0:
192,192,21708,1,0,0:0:0:0:
448,192,21875,1,0,0:0:0:0:
320,192,21958,1,0,0:0:0:0:
64,192,22041,1,0,0:0:0:0:
192,192,22041,1,0,0:0:0:0:
448,192,22125,1,0,0:0:0:0:
320,192,22125,1,0,0:0:0:0:
64,192,22208,1,0,0:0:0:0:
192,192,22208,1,0,0:0:0:0:
448,192,22291,1,0,0:0:0:0:
320,192,22291,1,0,0:0:0:0:
192,192,22375,1,0,0:0:0:0:
64,192,22375,1,0,0:0:0:0:
320,192,22541,1,0,0:0:0:0:
192,192,22708,1,0,0:0:0:0:
64,192,22708,1,0,0:0:0:0:
64,192,23041,1,0,0:0:0:0:
192,192,23208,1,0,0:0:0:0:
320,192,23375,1,0,0:0:0:0:
64,192,23541,128,0,24041:0:0:0:0:
192,192,23541,128,0,24041:0:0:0:0:
448,192,24041,1,0,0:0:0:0:
320,192,24041,1,0,0:0:0:0:
448,192,24375,128,0,24458:0:0:0:0:
64,192,24541,1,0,0:0:0:0:
64,192,24708,128,0,24791:0:0:0:0:
448,192,24875,1,0,0:0:0:0:
320,192,24958,1,0,0:0:0:0:
192,192,25041,1,0,0:0:0:0:
64,192,25041,1,0,0:0:0:0:
64,192,25375,1,0,0:0:0:0:
192,192,25541,1,0,0:0:0:0:
320,192,25708,1,0,0:0:0:0:
448,192,26041,1,0,0:0:0:0:
64,192,26208,128,0,26541:0:0:0:0:
192,192,26208,128,0,26541:0:0:0:0:
320,192,26708,128,0,27041:0:0:0:0:
448,192,26708,128,0,27041:0:0:0:0:
64,192,27041,1,0,0:0:0:0:
192,192,27125,1,0,0:0:0:0:
64,192,27208,1,0,0:0:0:0:
320,192,27375,128,0,27541:0:0:0:0:
448,192,27375,128,0,27541:0:0:0:0:
64,192,27708,1,0,0:0:0:0:
192,192,27708,1,0,0:0:0:0:
320,192,27708,1,0,0:0:0:0:
64,192,28041,1,0,0:0:0:0:
192,192,28125,1,0,0:0:0:0:
64,192,28208,1,0,0:0:0:0:
192,192,28291,1,0,0:0:0:0:
64,192,28375,1,0,0:0:0:0:
448,192,28708,1,0,0:0:0:0:
320,192,28708,1,0,0:0:0:0:
192,192,28875,128,0,29375:0:0:0:0:
64,192,28875,128,0,29375:0:0:0:0:
320,192,29375,1,0,0:0:0:0:
448,192,29375,1,0,0:0:0:0:
64,192,29708,128,0,29875:0:0:0:0:
320,192,29708,128,0,29875:0:0:0:0:
448,192,30041,128,0,30208:0:0:0:0:
192,192,30041,128,0,30208:0:0:0:0:
64,192,30375,1,0,0:0:0:0:
192,192,30375,1,0,0:0:0:0:
320,192,30375,1,0,0:0:0:0:
64,192,30708,1,0,0:0:0:0:
192,192,30791,1,0,0:0:0:0:
64,192,30875,1,0,0:0:0:0:
192,192,30958,1,0,0:0:0:0:
448,192,31041,1,0,0:0:0:0:
320,192,31125,1,0,0:0:0:0:
64,192,31208,1,0,0:0:0:0:
192,192,31291,1,0,0:0:0:0:
320,192,31375,1,0,0:0:0:0:
192,192,31541,128,0,31875:0:0:0:0:
448,192,31541,128,0,31875:0:0:0:0:
320,192,32041,128,0,32375:0:0:0:0:
448,192,32041,128,0,32375:0:0:0:0:
64,192,32375,1,0,0:0:0:0:
192,192,32458,1,0,0:0:0:0:
320,192,32541,1,0,0:0:0:0:
64,192,32625,1,0,0:0:0:0:
192,192,32708,1,0,0:0:0:0:
448,192,32791,1,0,0:0:0:0:
320,192,32875,1,0,0:0:0:0:
64,192,32958,1,0,0:0:0:0:
192,192,33041,1,0,0:0:0:0:
448,192,33041,1,0,0:0:0:0:
320,192,33208,1,0,0:0:0:0:
64,192,33375,1,0,0:0:0:0:
192,192,33375,1,0,0:0:0:0:
320,192,33541,1,0,0:0:0:0:
448,192,33708,1,0,0:0:0:0:
192,192,33708,1,0,0:0:0:0:
320,192,33875,1,0,0:0:0:0:
64,192,34041,1,0,0:0:0:0:
448,192,34041,1,0,0:0:0:0:
192,192,34125,1,0,0:0:0:0:
64,192,34208,1,0,0:0:0:0:
192,192,34291,1,0,0:0:0:0:
320,192,34375,1,0,0:0:0:0:
448,192,34375,1,0,0:0:0:0:
192,192,34541,1,0,0:0:0:0:
64,192,34708,1,0,0:0:0:0:
320,192,34708,1,0,0:0:0:0:
448,192,34875,1,0,0:0:0:0:
192,192,35041,1,0,0:0:0:0:
64,192,35041,1,0,0:0:0:0:
448,192,35125,1,0,0:0:0:0:
320,192,35208,1,0,0:0:0:0:
448,192,35291,1,0,0:0:0:0:
320,192,35375,1,0,0:0:0:0:
64,192,35375,1,0,0:0:0:0:
192,192,35541,1,0,0:0:0:0:
320,192,35625,1,0,0:0:0:0:
448,192,35708,1,0,0:0:0:0:
192,192,35708,1,0,0:0:0:0:
320,192,35875,1,0,0:0:0:0:
64,192,36041,1,0,0:0:0:0:
192,192,36041,1,0,0:0:0:0:
448,192,36208,1,0,0:0:0:0:
320,192,36291,1,0,0:0:0:0:
64,192,36375,1,0,0:0:0:0:
192,192,36375,1,0,0:0:0:0:
320,192,36541,1,0,0:0:0:0:
192,192,36708,1,0,0:0:0:0:
448,192,36708,1,0,0:0:0:0:
64,192,36875,1,0,0:0:0:0:
192,192,36958,1,0,0:0:0:0:
320,192,37041,1,0,0:0:0:0:
448,192,37041,1,0,0:0:0:0:
192,192,37208,1,0,0:0:0:0:
320,192,37375,1,0,0:0:0:0:
448,192,37375,1,0,0:0:0:0:
64,192,37541,1,0,0:0:0:0:
192,192,37625,1,0,0:0:0:0:
64,192,37708,1,0,0:0:0:0:
320,192,37708,1,0,0:0:0:0:
192,192,37875,1,0,0:0:0:0:
448,192,38041,1,0,0:0:0:0:
320,192,38041,1,0,0:0:0:0:
192,192,38208,1,0,0:0:0:0:
64,192,38375,1,0,0:0:0:0:
320,192,38375,1,0,0:0:0:0:
192,192,38541,1,0,0:0:0:0:
448,192,38541,1,0,0:0:0:0:
64,192,38708,1,0,0:0:0:0:
192,192,38708,1,0,0:0:0:0:
320,192,38875,1,0,0:0:0:0:
448,192,38875,1,0,0:0:0:0:
192,192,39041,1,0,0:0:0:0:
64,192,39041,1,0,0:0:0:0:
448,192,39208,1,0,0:0:0:0:
64,192,39208,1,0,0:0:0:0:
192,192,39375,1,0,0:0:0:0:
320,192,39375,1,0,0:0:0:0:
448,192,39541,1,0,0:0:0:0:
320,192,39541,1,0,0:0:0:0:
64,192,39625,1,0,0:0:0:0:
192,192,39625,1,0,0:0:0:0:
448,192,39708,1,0,0:0:0:0:
320,192,39708,1,0,0:0:0:0:
320,192,39875,1,0,0:0:0:0:
64,192,39875,1,0,0:0:0:0:
192,192,40041,1,0,0:0:0:0:
448,192,40041,1,0,0:0:0:0:
320,192,40208,1,0,0:0:0:0:
192,192,40208,1,0,0:0:0:0:
64,192,40375,1,0,0:0:0:0:
448,192,40375,1,0,0:0:0:0:
320,192,40541,1,0,0:0:0:0:
192,192,40541,1,0,0:0:0:0:
320,192,40708,1,0,0:0:0:0:
448,192,40708,1,0,0:0:0:0:
192,192,40875,1,0,0:0:0:0:
64,192,40875,1,0,0:0:0:0:
320,192,40958,1,0,0:0:0:0:
448,192,40958,1,0,0:0:0:0:
64,192,41041,1,0,0:0:0:0:
192,192,41041,1,0,0:0:0:0:
448,192,41125,1,0,0:0:0:0:
320,192,41208,1,0,0:0:0:0:
192,192,41291,1,0,0:0:0:0:
64,192,41375,1,0,0:0:0:0:
448,192,41458,1,0,0:0:0:0:
320,192,41541,1,0,0:0:0:0:
192,192,41625,1,0,0:0:0:0:
64,192,41708,1,0,0:0:0:0:
448,192,41791,1,0,0:0:0:0:
320,192,41875,1,0,0:0:0:0:
192,192,41958,1,0,0:0:0:0:
64,192,42041,1,0,0:0:0:0:
448,192,42125,1,0,0:0:0:0:
320,192,42208,1,0,0:0:0:0:
192,192,42291,1,0,0:0:0:0:
64,192,42375,1,0,0:0:0:0:
448,192,42375,1,0,0:0:0:0:
64,192,44041,1,0,0:0:0:0:
448,192,44041,1,0,0:0:0:0:
192,192,44125,1,0,0:0:0:0:
320,192,44208,1,0,0:0:0:0:
64,192,44291,1,0,0:0:0:0:
448,192,44375,1,0,0:0:0:0:
320,192,44375,1,0,0:0:0:0:
64,192,44458,1,0,0:0:0:0:
192,192,44541,1,0,0:0:0:0:
320,192,44625,1,0,0:0:0:0:
448,192,44625,1,0,0:0:0:0:
64,192,44708,1,0,0:0:0:0:
192,192,44791,1,0,0:0:0:0:
448,192,44875,1,0,0:0:0:0:
320,192,44875,1,0,0:0:0:0:
192,192,45041,1,0,0:0:0:0:
64,192,45041,1,0,0:0:0:0:
320,192,45125,1,0,0:0:0:0:
448,192,45208,1,0,0:0:0:0:
64,192,45291,1,0,0:0:0:0:
192,192,45375,1,0,0:0:0:0:
320,192,45375,1,0,0:0:0:0:
448,192,45458,1,0,0:0:0:0:
64,192,45541,1,0,0:0:0:0:
192,192,45625,1,0,0:0:0:0:
448,192,45708,1,0,0:0:0:0:
320,192,45708,1,0,0:0:0:0:
192,192,45791,1,0,0:0:0:0:
320,192,45875,1,0,0:0:0:0:
64,192,45958,1,0,0:0:0:0:
192,192,45958,1,0,0:0:0:0:
448,192,46041,1,0,0:0:0:0:
320,192,46125,1,0,0:0:0:0:
64,192,46208,1,0,0:0:0:0:
192,192,46208,1,0,0:0:0:0:
448,192,46375,1,0,0:0:0:0:
320,192,46375,1,0,0:0:0:0:
192,192,46458,1,0,0:0:0:0:
64,192,46541,1,0,0:0:0:0:
448,192,46625,1,0,0:0:0:0:
320,192,46708,1,0,0:0:0:0:
192,192,46708,1,0,0:0:0:0:
64,192,46791,1,0,0:0:0:0:
448,192,46875,1,0,0:0:0:0:
320,192,46958,1,0,0:0:0:0:
192,192,47041,1,0,0:0:0:0:
64,192,47041,1,0,0:0:0:0:
448,192,47125,1,0,0:0:0:0:
320,192,47208,1,0,0:0:0:0:
64,192,47291,1,0,0:0:0:0:
192,192,47291,1,0,0:0:0:0:
448,192,47375,1,0,0:0:0:0:
192,192,47458,1,0,0:0:0:0:
320,192,47541,1,0,0:0:0:0:
448,192,47541,1,0,0:0:0:0:
448,192,47708,1,0,0:0:0:0:
64,192,47708,1,0,0:0:0:0:
320,192,47791,1,0,0:0:0:0:
192,192,47875,1,0,0:0:0:0:
320,192,47958,1,0,0:0:0:0:
448,192,48041,1,0,0:0:0:0:
64,192,48041,1,0,0:0:0:0:
320,192,48208,1,0,0:0:0:0:
64,192,48208,1,0,0:0:0:0:
192,192,48291,1,0,0:0:0:0:
448,192,48291,1,0,0:0:0:0:
320,192,48375,1,0,0:0:0:0:
64,192,48375,1,0,0:0:0:0:
448,192,48541,1,0,0:0:0:0:
320,192,48541,1,0,0:0:0:0:
64,192,48625,1,0,0:0:0:0:
192,192,48625,1,0,0:0:0:0:
320,192,48708,1,0,0:0:0:0:
448,192,48708,1,0,0:0:0:0:
64,192,48791,1,0,0:0:0:0:
192,192,48875,1,0,0:0:0:0:
320,192,48958,1,0,0:0:0:0:
448,192,49041,1,0,0:0:0:0:
64,192,49041,1,0,0:0:0:0:
64,192,49208,1,0,0:0:0:0:
192,192,49291,1,0,0:0:0:0:
320,192,49375,1,0,0:0:0:0:
448,192,49375,1,0,0:0:0:0:
64,192,49458,1,0,0:0:0:0:
192,192,49541,1,0,0:0:0:0:
448,192,49625,1,0,0:0:0:0:
64,192,49708,1,0,0:0:0:0:
192,192,49708,1,0,0:0:0:0:
320,192,49791,1,0,0:0:0:0:
448,192,49875,1,0,0:0:0:0:
64,192,49958,1,0,0:0:0:0:
192,192,49958,1,0,0:0:0:0:
320,192,50041,1,0,0:0:0:0:
448,192,50125,1,0,0:0:0:0:
192,192,50208,1,0,0:0:0:0:
64,192,50208,1,0,0:0:0:0:
320,192,50375,1,0,0:0:0:0:
448,192,50375,1,0,0:0:0:0:
64,192,50541,1,0,0:0:0:0:
192,192,50583,1,0,0:0:0:0:
320,192,50625,1,0,0:0:0:0:
448,192,50708,1,0,0:0:0:0:
64,192,50708,1,0,0:0:0:0:
192,192,50791,1,0,0:0:0:0:
320,192,50875,1,0,0:0:0:0:
448,192,50958,1,0,0:0:0:0:
192,192,51041,1,0,0:0:0:0:
64,192,51041,1,0,0:0:0:0:
320,192,51208,1,0,0:0:0:0:
64,192,51291,1,0,0:0:0:0:
192,192,51291,1,0,0:0:0:0:
448,192,51375,1,0,0:0:0:0:
320,192,51458,1,0,0:0:0:0:
192,192,51541,1,0,0:0:0:0:
64,192,51541,1,0,0:0:0:0:
320,192,51708,1,0,0:0:0:0:
448,192,51708,1,0,0:0:0:0:
64,192,51875,1,0,0:0:0:0:
192,192,51958,1,0,0:0:0:0:
320,192,52041,1,0,0:0:0:0:
448,192,52041,1,0,0:0:0:0:
320,192,52208,1,0,0:0:0:0:
192,192,52291,1,0,0:0:0:0:
64,192,52375,1,0,0:0:0:0:
448,192,52375,1,0,0:0:0:0:
320,192,52541,1,0,0:0:0:0:
64,192,52625,1,0,0:0:0:0:
192,192,52625,1,0,0:0:0:0:
448,192,52708,1,0,0:0:0:0:
320,192,52791,1,0,0:0:0:0:
64,192,52875,1,0,0:0:0:0:
192,192,52875,1,0,0:0:0:0:
320,192,53041,1,0,0:0:0:0:
448,192,53041,1,0,0:0:0:0:
64,192,53208,1,0,0:0:0:0:
192,192,53250,1,0,0:0:0:0:
320,192,53291,1,0,0:0:0:0:
64,192,53375,1,0,0:0:0:0:
448,192,53375,1,0,0:0:0:0:
192,192,53458,1,0,0:0:0:0:
320,192,53541,1,0,0:0:0:0:
448,192,53625,1,0,0:0:0:0:
192,192,53708,1,0,0:0:0:0:
64,192,53708,1,0,0:0:0:0:
320,192,53875,1,0,0:0:0:0:
192,192,53958,1,0,0:0:0:0:
320,192,54041,1,0,0:0:0:0:
448,192,54041,1,0,0:0:0:0:
192,192,54125,1,0,0:0:0:0:
64,192,54208,1,0,0:0:0:0:
448,192,54291,1,0,0:0:0:0:
320,192,54375,1,0,0:0:0:0:
64,192,54375,128,0,54708:0:0:0:0:
448,192,54708,1,0,0:0:0:0:
320,192,54791,1,0,0:0:0:0:
192,192,54875,1,0,0:0:0:0:
64,192,54958,1,0,0:0:0:0:
192,192,55041,128,0,55208:0:0:0:0:
448,192,55041,128,0,55208:0:0:0:0:
320,192,55291,128,0,55458:0:0:0:0:
64,192,55291,128,0,55458:0:0:0:0:
320,192,55541,128,0,55708:0:0:0:0:
448,192,55541,128,0,55708:0:0:0:0:
192,192,55708,1,0,0:0:0:0:
64,192,55708,1,0,0:0:0:0:
320,192,55791,1,0,0:0:0:0:
448,192,55791,1,0,0:0:0:0:
64,192,55875,1,0,0:0:0:0:
192,192,55875,1,0,0:0:0:0:
192,192,56041,1,0,0:0:0:0:
320,192,56041,1,0,0:0:0:0:
448,192,56208,1,0,0:0:0:0:
320,192,56291,1,0,0:0:0:0:
192,192,56375,1,0,0:0:0:0:
64,192,56375,1,0,0:0:0:0:
192,192,56541,1,0,0:0:0:0:
320,192,56625,1,0,0:0:0:0:
448,192,56625,1,0,0:0:0:0:
64,192,56791,1,0,0:0:0:0:
320,192,56875,1,0,0:0:0:0:
192,192,56875,1,0,0:0:0:0:
320,192,57041,1,0,0:0:0:0:
448,192,57041,1,0,0:0:0:0:
192,192,57208,1,0,0:0:0:0:
320,192,57291,1,0,0:0:0:0:
64,192,57375,1,0,0:0:0:0:
192,192,57375,1,0,0:0:0:0:
448,192,57458,1,0,0:0:0:0:
320,192,57541,1,0,0:0:0:0:
64,192,57625,1,0,0:0:0:0:
320,192,57708,1,0,0:0:0:0:
448,192,57708,1,0,0:0:0:0:
64,192,57875,1,0,0:0:0:0:
192,192,57958,1,0,0:0:0:0:
320,192,57958,1,0,0:0:0:0:
192,192,58125,1,0,0:0:0:0:
320,192,58208,1,0,0:0:0:0:
448,192,58208,1,0,0:0:0:0:
64,192,58375,1,0,0:0:0:0:
192,192,58416,1,0,0:0:0:0:
320,192,58458,1,0,0:0:0:0:
64,192,58541,1,0,0:0:0:0:
448,192,58541,1,0,0:0:0:0:
320,192,58708,1,0,0:0:0:0:
192,192,58708,1,0,0:0:0:0:
320,192,58875,1,0,0:0:0:0:
192,192,58958,1,0,0:0:0:0:
320,192,59041,1,0,0:0:0:0:
448,192,59041,1,0,0:0:0:0:
64,192,59208,1,0,0:0:0:0:
192,192,59291,1,0,0:0:0:0:
448,192,59375,128,0,59708:0:0:0:0:
64,192,59708,128,0,60041:0:0:0:0:
192,192,59708,1,0,0:0:0:0:
192,192,60041,1,0,0:0:0:0:
320,192,60041,1,0,0:0:0:0:
448,192,60125,1,0,0:0:0:0:
320,192,60208,1,0,0:0:0:0:
64,192,60291,1,0,0:0:0:0:
192,192,60375,1,0,0:0:0:0:
320,192,60375,1,0,0:0:0:0:
320,192,60541,1,0,0:0:0:0:
192,192,60625,1,0,0:0:0:0:
64,192,60625,1,0,0:0:0:0:
192,192,60791,1,0,0:0:0:0:
448,192,60875,1,0,0:0:0:0:
320,192,60875,1,0,0:0:0:0:
64,192,61041,1,0,0:0:0:0:
192,192,61083,1,0,0:0:0:0:
320,192,61125,1,0,0:0:0:0:
448,192,61208,1,0,0:0:0:0:
64,192,61208,1,0,0:0:0:0:
320,192,61375,1,0,0:0:0:0:
192,192,61375,1,0,0:0:0:0:
320,192,61541,1,0,0:0:0:0:
192,192,61625,1,0,0:0:0:0:
320,192,61708,1,0,0:0:0:0:
448,192,61708,1,0,0:0:0:0:
64,192,61875,1,0,0:0:0:0:
192,192,61958,1,0,0:0:0:0:
320,192,62041,1,0,0:0:0:0:
448,192,62041,1,0,0:0:0:0:
192,192,62208,1,0,0:0:0:0:
64,192,62291,1,0,0:0:0:0:
320,192,62375,1,0,0:0:0:0:
448,192,62375,1,0,0:0:0:0:
448,192,62541,1,0,0:0:0:0:
320,192,62625,1,0,0:0:0:0:
192,192,62708,1,0,0:0:0:0:
64,192,62708,1,0,0:0:0:0:
320,192,62875,1,0,0:0:0:0:
192,192,62958,1,0,0:0:0:0:
320,192,63041,1,0,0:0:0:0:
448,192,63041,1,0,0:0:0:0:
192,192,63208,1,0,0:0:0:0:
320,192,63291,1,0,0:0:0:0:
64,192,63375,1,0,0:0:0:0:
192,192,63375,1,0,0:0:0:0:
64,192,63541,1,0,0:0:0:0:
192,192,63625,1,0,0:0:0:0:
320,192,63708,1,0,0:0:0:0:
448,192,63708,1,0,0:0:0:0:
64,192,63791,1,0,0:0:0:0:
192,192,63791,1,0,0:0:0:0:
448,192,63875,1,0,0:0:0:0:
320,192,63875,1,0,0:0:0:0:
192,192,63958,1,0,0:0:0:0:
64,192,63958,1,0,0:0:0:0:
320,192,64041,1,0,0:0:0:0:
448,192,64041,1,0,0:0:0:0:
64,192,64125,1,0,0:0:0:0:
192,192,64208,1,0,0:0:0:0:
320,192,64291,1,0,0:0:0:0:
448,192,64375,1,0,0:0:0:0:
64,192,64541,1,0,0:0:0:0:
448,192,64708,1,0,0:0:0:0:
64,192,65041,1,0,0:0:0:0:
192,192,65041,1,0,0:0:0:0:
448,192,65208,1,0,0:0:0:0:
320,192,65291,1,0,0:0:0:0:
64,192,65375,1,0,0:0:0:0:
192,192,65375,1,0,0:0:0:0:
320,192,65541,1,0,0:0:0:0:
192,192,65625,1,0,0:0:0:0:
320,192,65708,1,0,0:0:0:0:
448,192,65708,1,0,0:0:0:0:
64,192,65791,1,0,0:0:0:0:
192,192,65875,1,0,0:0:0:0:
64,192,65958,1,0,0:0:0:0:
448,192,66041,1,0,0:0:0:0:
320,192,66041,1,0,0:0:0:0:
192,192,66208,1,0,0:0:0:0:
320,192,66291,1,0,0:0:0:0:
192,192,66375,1,0,0:0:0:0:
64,192,66375,1,0,0:0:0:0:
320,192,66458,1,0,0:0:0:0:
448,192,66458,1,0,0:0:0:0:
64,192,66541,1,0,0:0:0:0:
192,192,66541,1,0,0:0:0:0:
192,192,66708,1,0,0:0:0:0:
320,192,66708,1,0,0:0:0:0:
64,192,66875,1,0,0:0:0:0:
192,192,66958,1,0,0:0:0:0:
320,192,67041,1,0,0:0:0:0:
448,192,67041,1,0,0:0:0:0:
192,192,67208,1,0,0:0:0:0:
64,192,67375,1,0,0:0:0:0:
192,192,67375,1,0,0:0:0:0:
320,192,67458,1,0,0:0:0:0:
448,192,67458,1,0,0:0:0:0:
192,192,67541,1,0,0:0:0:0:
64,192,67541,1,0,0:0:0:0:
192,192,67708,1,0,0:0:0:0:
320,192,67708,1,0,0:0:0:0:
448,192,67875,1,0,0:0:0:0:
320,192,67958,1,0,0:0:0:0:
192,192,68041,1,0,0:0:0:0:
64,192,68041,1,0,0:0:0:0:
320,192,68208,1,0,0:0:0:0:
192,192,68291,1,0,0:0:0:0:
320,192,68375,1,0,0:0:0:0:
448,192,68375,1,0,0:0:0:0:
64,192,68458,1,0,0:0:0:0:
320,192,68541,1,0,0:0:0:0:
64,192,68625,1,0,0:0:0:0:
320,192,68708,1,0,0:0:0:0:
448,192,68708,1,0,0:0:0:0:
192,192,68875,1,0,0:0:0:0:
448,192,68958,1,0,0:0:0:0:
192,192,69041,1,0,0:0:0:0:
64,192,69041,1,0,0:0:0:0:
448,192,69125,1,0,0:0:0:0:
192,192,69208,1,0,0:0:0:0:
320,192,69375,1,0,0:0:0:0:
448,192,69375,1,0,0:0:0:0:
192,192,69541,1,0,0:0:0:0:
320,192,69625,1,0,0:0:0:0:
192,192,69708,1,0,0:0:0:0:
64,192,69708,1,0,0:0:0:0:
448,192,70041,128,0,70375:0:0:0:0:
64,192,70375,1,0,0:0:0:0:
192,192,70375,1,0,0:0:0:0:
320,192,70541,128,0,70708:0:0:0:0:
192,192,70708,1,0,0:0:0:0:
64,192,70708,1,0,0:0:0:0:
448,192,70875,128,0,71041:0:0:0:0:
320,192,71041,1,0,0:0:0:0:
192,192,71041,1,0,0:0:0:0:
64,192,71208,128,0,71375:0:0:0:0:
192,192,71375,1,0,0:0:0:0:
320,192,71375,1,0,0:0:0:0:
320,192,71541,1,0,0:0:0:0:
448,192,71541,1,0,0:0:0:0:
64,192,71625,1,0,0:0:0:0:
192,192,71625,1,0,0:0:0:0:
320,192,71708,1,0,0:0:0:0:
448,192,71708,1,0,0:0:0:0:
64,192,71875,128,0,72041:0:0:0:0:
192,192,72041,1,0,0:0:0:0:
320,192,72041,1,0,0:0:0:0:
448,192,72208,128,0,72375:0:0:0:0:
320,192,72375,1,0,0:0:0:0:
192,192,72375,1,0,0:0:0:0:
192,192,72541,128,0,72708:0:0:0:0:
320,192,72708,1,0,0:0:0:0:
448,192,72708,1,0,0:0:0:0:
192,192,72875,1,0,0:0:0:0:
64,192,72875,1,0,0:0:0:0:
448,192,72958,1,0,0:0:0:0:
320,192,72958,1,0,0:0:0:0:
192,192,73041,1,0,0:0:0:0:
64,192,73041,1,0,0:0:0:0:
448,192,73208,1,0,0:0:0:0:
320,192,73208,1,0,0:0:0:0:
192,192,73375,1,0,0:0:0:0:
64,192,73375,1,0,0:0:0:0:
192,192,73541,1,0,0:0:0:0:
448,192,73541,1,0,0:0:0:0:
320,192,73708,1,0,0:0:0:0:
64,192,73708,1,0,0:0:0:0:
192,192,73875,1,0,0:0:0:0:
320,192,73875,1,0,0:0:0:0:
64,192,74041,1,0,0:0:0:0:
448,192,74041,1,0,0:0:0:0:
64,192,74208,1,0,0:0:0:0:
192,192,74208,1,0,0:0:0:0:
320,192,74375,1,0,0:0:0:0:
448,192,74375,1,0,0:0:0:0:
192,192,74458,1,0,0:0:0:0:
64,192,74458,1,0,0:0:0:0:
320,192,74541,1,0,0:0:0:0:
64,192,74625,1,0,0:0:0:0:
320,192,74708,1,0,0:0:0:0:
64,192,74791,1,0,0:0:0:0:
320,192,74875,1,0,0:0:0:0:
64,192,74958,1,0,0:0:0:0:
448,192,75041,1,0,0:0:0:0:
320,192,75041,1,0,0:0:0:0:
64,192,75125,1,0,0:0:0:0:
192,192,75125,1,0,0:0:0:0:
448,192,75208,1,0,0:0:0:0:
320,192,75208,1,0,0:0:0:0:
64,192,75291,1,0,0:0:0:0:
192,192,75291,1,0,0:0:0:0:
448,192,75375,1,0,0:0:0:0:
320,192,75375,1,0,0:0:0:0:
64,192,75458,1,0,0:0:0:0:
192,192,75458,1,0,0:0:0:0:
448,192,75541,1,0,0:0:0:0:
320,192,75541,1,0,0:0:0:0:
64,192,75625,1,0,0:0:0:0:
192,192,75625,1,0,0:0:0:0:
320,192,75708,1,0,0:0:0:0:
448,192,75708,1,0,0:0:0:0:
64,192,75875,1,0,0:0:0:0:
320,192,76041,1,0,0:0:0:0:
64,192,76208,1,0,0:0:0:0:
448,192,76541,1,0,0:0:0:0:
320,192,76708,1,0,0:0:0:0:
192,192,76875,1,0,0:0:0:0:
448,192,77041,1,0,0:0:0:0:
192,192,77208,1,0,0:0:0:0:
320,192,77375,1,0,0:0:0:0:
320,192,77708,1,0,0:0:0:0:
192,192,77875,1,0,0:0:0:0:
64,192,78041,1,0,0:0:0:0:
192,192,78208,1,0,0:0:0:0:
448,192,78375,1,0,0:0:0:0:
320,192,78541,1,0,0:0:0:0:
192,192,78708,1,0,0:0:0:0:
320,192,78875,1,0,0:0:0:0:
64,192,79208,1,0,0:0:0:0:
192,192,79375,1,0,0:0:0:0:
320,192,79541,1,0,0:0:0:0:
192,192,79875,1,0,0:0:0:0:
64,192,80041,1,0,0:0:0:0:
320,192,80208,1,0,0:0:0:0:
192,192,80375,1,0,0:0:0:0:
320,192,80458,1,0,0:0:0:0:
192,192,80541,1,0,0:0:0:0:
448,192,80708,1,0,0:0:0:0:
64,192,81041,1,0,0:0:0:0:
320,192,81208,1,0,0:0:0:0:
192,192,81375,1,0,0:0:0:0:
320,192,81541,1,0,0:0:0:0:
192,192,81875,1,0,0:0:0:0:
320,192,82041,1,0,0:0:0:0:
192,192,82208,1,0,0:0:0:0:
320,192,82375,1,0,0:0:0:0:
64,192,82541,1,0,0:0:0:0:
448,192,82708,1,0,0:0:0:0:
64,192,83041,1,0,0:0:0:0:
448,192,83208,1,0,0:0:0:0:
192,192,83375,1,0,0:0:0:0:
320,192,83541,1,0,0:0:0:0:
64,192,83708,1,0,0:0:0:0:
448,192,83875,1,0,0:0:0:0:
320,192,84041,1,0,0:0:0:0:
192,192,84208,1,0,0:0:0:0:
320,192,84541,1,0,0:0:0:0:
192,192,84708,1,0,0:0:0:0:
320,192,84875,1,0,0:0:0:0:
64,192,85041,1,0,0:0:0:0:
192,192,85208,1,0,0:0:0:0:
320,192,85375,1,0,0:0:0:0:
64,192,85541,1,0,0:0:0:0:
192,192,85708,1,0,0:0:0:0:
320,192,85875,1,0,0:0:0:0:
192,192,86041,1,0,0:0:0:0:
320,192,86208,1,0,0:0:0:0:
64,192,86375,1,0,0:0:0:0:
192,192,86375,1,0,0:0:0:0:
320,192,86708,1,0,0:0:0:0:
320,192,87208,1,0,0:0:0:0:
448,192,87208,1,0,0:0:0:0:
192,192,87375,1,0,0:0:0:0:
192,192,87708,1,0,0:0:0:0:
320,192,87708,1,0,0:0:0:0:
448,192,88041,1,0,0:0:0:0:
64,192,88541,1,0,0:0:0:0:
192,192,88541,1,0,0:0:0:0:
320,192,88708,1,0,0:0:0:0:
320,192,89041,1,0,0:0:0:0:
448,192,89041,1,0,0:0:0:0:
192,192,89375,1,0,0:0:0:0:
64,192,89875,1,0,0:0:0:0:
192,192,89875,1,0,0:0:0:0:
320,192,90041,1,0,0:0:0:0:
192,192,90375,1,0,0:0:0:0:
320,192,90375,1,0,0:0:0:0:
448,192,90708,1,0,0:0:0:0:
64,192,91208,1,0,0:0:0:0:
192,192,91208,1,0,0:0:0:0:
320,192,91375,1,0,0:0:0:0:
320,192,91708,1,0,0:0:0:0:
448,192,91708,1,0,0:0:0:0:
192,192,92041,1,0,0:0:0:0:
64,192,92541,1,0,0:0:0:0:
192,192,92541,1,0,0:0:0:0:
320,192,92708,1,0,0:0:0:0:
320,192,93041,1,0,0:0:0:0:
192,192,93041,1,0,0:0:0:0:
448,192,93375,1,0,0:0:0:0:
448,192,93875,1,0,0:0:0:0:
320,192,93875,1,0,0:0:0:0:
192,192,94041,1,0,0:0:0:0:
320,192,94375,1,0,0:0:0:0:
192,192,94375,1,0,0:0:0:0:
448,192,94708,1,0,0:0:0:0:
64,192,95208,1,0,0:0:0:0:
192,192,95208,1,0,0:0:0:0:
320,192,95375,1,0,0:0:0:0:
448,192,95708,1,0,0:0:0:0:
320,192,95708,1,0,0:0:0:0:
192,192,96041,1,0,0:0:0:0:
64,192,96375,1,0,0:0:0:0:
192,192,96375,1,0,0:0:0:0:
320,192,96458,1,0,0:0:0:0:
448,192,96458,1,0,0:0:0:0:
192,192,96541,1,0,0:0:0:0:
64,192,96541,1,0,0:0:0:0:
320,192,96708,1,0,0:0:0:0:
448,192,96708,1,0,0:0:0:0:
64,192,96791,1,0,0:0:0:0:
192,192,96791,1,0,0:0:0:0:
320,192,96875,1,0,0:0:0:0:
448,192,96875,1,0,0:0:0:0:
192,192,96958,1,0,0:0:0:0:
64,192,96958,1,0,0:0:0:0:
320,192,97041,1,0,0:0:0:0:
448,192,97041,1,0,0:0:0:0:
320,192,97375,1,0,0:0:0:0:
448,192,97375,1,0,0:0:0:0:
64,192,97708,1,0,0:0:0:0:
192,192,97708,1,0,0:0:0:0:
192,192,98041,1,0,0:0:0:0:
448,192,98041,1,0,0:0:0:0:
320,192,98375,1,0,0:0:0:0:
64,192,98375,1,0,0:0:0:0:
64,192,98708,1,0,0:0:0:0:
448,192,98708,1,0,0:0:0:0:
192,192,99041,1,0,0:0:0:0:
320,192,99041,1,0,0:0:0:0:
64,192,99375,1,0,0:0:0:0:
192,192,99375,1,0,0:0:0:0:
448,192,99541,1,0,0:0:0:0:
320,192,99625,1,0,0:0:0:0:
192,192,99708,1,0,0:0:0:0:
64,192,99708,1,0,0:0:0:0:
320,192,99875,1,0,0:0:0:0:
192,192,99958,1,0,0:0:0:0:
320,192,100041,1,0,0:0:0:0:
448,192,100041,1,0,0:0:0:0:
64,192,100208,1,0,0:0:0:0:
192,192,100291,1,0,0:0:0:0:
320,192,100375,1,0,0:0:0:0:
448,192,100375,1,0,0:0:0:0:
64,192,100541,1,0,0:0:0:0:
192,192,100625,1,0,0:0:0:0:
320,192,100708,1,0,0:0:0:0:
448,192,100708,1,0,0:0:0:0:
192,192,100875,1,0,0:0:0:0:
320,192,100958,1,0,0:0:0:0:
192,192,101041,1,0,0:0:0:0:
64,192,101041,1,0,0:0:0:0:
448,192,101208,1,0,0:0:0:0:
320,192,101291,1,0,0:0:0:0:
192,192,101375,1,0,0:0:0:0:
64,192,101375,1,0,0:0:0:0:
320,192,101541,1,0,0:0:0:0:
192,192,101625,1,0,0:0:0:0:
320,192,101708,1,0,0:0:0:0:
448,192,101708,1,0,0:0:0:0:
64,192,101875,1,0,0:0:0:0:
192,192,101958,1,0,0:0:0:0:
320,192,102041,1,0,0:0:0:0:
448,192,102041,1,0,0:0:0:0:
64,192,102041,1,0,0:0:0:0:
64,192,102375,1,0,0:0:0:0:
192,192,102375,1,0,0:0:0:0:
320,192,102541,1,0,0:0:0:0:
448,192,102541,1,0,0:0:0:0:
64,192,102708,1,0,0:0:0:0:
192,192,102708,1,0,0:0:0:0:
192,192,102875,1,0,0:0:0:0:
448,192,102875,1,0,0:0:0:0:
320,192,103041,1,0,0:0:0:0:
64,192,103041,1,0,0:0:0:0:
192,192,103208,1,0,0:0:0:0:
320,192,103208,1,0,0:0:0:0:
64,192,103375,1,0,0:0:0:0:
448,192,103375,1,0,0:0:0:0:
320,192,103541,1,0,0:0:0:0:
192,192,103541,1,0,0:0:0:0:
64,192,103708,1,0,0:0:0:0:
320,192,103708,1,0,0:0:0:0:
192,192,103875,1,0,0:0:0:0:
448,192,103875,1,0,0:0:0:0:
64,192,104041,1,0,0:0:0:0:
192,192,104041,1,0,0:0:0:0:
320,192,104208,1,0,0:0:0:0:
448,192,104208,1,0,0:0:0:0:
64,192,104375,1,0,0:0:0:0:
192,192,104375,1,0,0:0:0:0:
192,192,104541,1,0,0:0:0:0:
320,192,104541,1,0,0:0:0:0:
64,192,104708,1,0,0:0:0:0:
448,192,104708,1,0,0:0:0:0:
192,192,104875,1,0,0:0:0:0:
320,192,104875,1,0,0:0:0:0:
320,192,105041,1,0,0:0:0:0:
448,192,105041,1,0,0:0:0:0:
64,192,105083,1,0,0:0:0:0:
192,192,105125,1,0,0:0:0:0:
320,192,105166,1,0,0:0:0:0:
448,192,105208,1,0,0:0:0:0:
64,192,105250,1,0,0:0:0:0:
192,192,105291,1,0,0:0:0:0:
320,192,105333,1,0,0:0:0:0:
448,192,105375,1,0,0:0:0:0:
64,192,105416,1,0,0:0:0:0:
192,192,105458,1,0,0:0:0:0:
320,192,105500,1,0,0:0:0:0:
448,192,105541,1,0,0:0:0:0:
64,192,105583,1,0,0:0:0:0:
192,192,105625,1,0,0:0:0:0:
320,192,105666,1,0,0:0:0:0:
448,192,105708,1,0,0:0:0:0:
64,192,105750,1,0,0:0:0:0:
192,192,105791,1,0,0:0:0:0:
320,192,105833,1,0,0:0:0:0:
448,192,105875,1,0,0:0:0:0:
64,192,105916,1,0,0:0:0:0:
192,192,105958,1,0,0:0:0:0:
320,192,106000,1,0,0:0:0:0:
448,192,106041,1,0,0:0:0:0:
64,192,106083,1,0,0:0:0:0:
192,192,106125,1,0,0:0:0:0:
320,192,106166,1,0,0:0:0:0:
448,192,106208,1,0,0:0:0:0:
64,192,106250,1,0,0:0:0:0:
192,192,106291,1,0,0:0:0:0:
320,192,106333,1,0,0:0:0:0:
448,192,106375,1,0,0:0:0:0:
64,192,106708,1,0,0:0:0:0:
448,192,106875,1,0,0:0:0:0:
192,192,107041,1,0,0:0:0:0:
320,192,107375,128,0,107541:0:0:0:0:
64,192,107708,1,0,0:0:0:0:
192,192,107708,1,0,0:0:0:0:
448,192,107791,1,0,0:0:0:0:
320,192,107875,1,0,0:0:0:0:
64,192,107958,1,0,0:0:0:0:
320,192,108041,1,0,0:0:0:0:
64,192,108125,1,0,0:0:0:0:
448,192,108208,1,0,0:0:0:0:
320,192,108291,1,0,0:0:0:0:
192,192,108375,1,0,0:0:0:0:
64,192,108375,1,0,0:0:0:0:
192,192,108541,1,0,0:0:0:0:
320,192,108541,1,0,0:0:0:0:
64,192,108625,1,0,0:0:0:0:
448,192,108708,1,0,0:0:0:0:
320,192,108791,1,0,0:0:0:0:
64,192,108875,1,0,0:0:0:0:
192,192,108958,1,0,0:0:0:0:
320,192,109041,1,0,0:0:0:0:
448,192,109041,1,0,0:0:0:0:
64,192,109125,1,0,0:0:0:0:
192,192,109208,1,0,0:0:0:0:
448,192,109291,1,0,0:0:0:0:
64,192,109375,1,0,0:0:0:0:
192,192,109458,1,0,0:0:0:0:
320,192,109541,1,0,0:0:0:0:
448,192,109541,1,0,0:0:0:0:
192,192,109708,1,0,0:0:0:0:
64,192,109708,1,0,0:0:0:0:
448,192,109791,1,0,0:0:0:0:
64,192,109875,1,0,0:0:0:0:
192,192,109958,1,0,0:0:0:0:
448,192,110041,1,0,0:0:0:0:
192,192,110125,1,0,0:0:0:0:
448,192,110208,1,0,0:0:0:0:
320,192,110291,1,0,0:0:0:0:
64,192,110375,1,0,0:0:0:0:
192,192,110375,1,0,0:0:0:0:
448,192,110458,1,0,0:0:0:0:
320,192,110541,1,0,0:0:0:0:
64,192,110625,1,0,0:0:0:0:
448,192,110708,1,0,0:0:0:0:
192,192,110791,1,0,0:0:0:0:
448,192,110875,1,0,0:0:0:0:
320,192,110958,1,0,0:0:0:0:
64,192,111041,1,0,0:0:0:0:
192,192,111041,1,0,0:0:0:0:
448,192,111125,1,0,0:0:0:0:
320,192,111125,1,0,0:0:0:0:
64,192,111208,1,0,0:0:0:0:
192,192,111208,1,0,0:0:0:0:
320,192,111291,1,0,0:0:0:0:
448,192,111291,1,0,0:0:0:0:
192,192,111375,1,0,0:0:0:0:
320,192,111375,1,0,0:0:0:0:
64,192,111541,1,0,0:0:0:0:
192,192,111541,1,0,0:0:0:0:
320,192,111625,1,0,0:0:0:0:
448,192,111625,1,0,0:0:0:0:
192,192,111708,1,0,0:0:0:0:
64,192,111708,1,0,0:0:0:0:
448,192,111791,1,0,0:0:0:0:
320,192,111875,1,0,0:0:0:0:
192,192,111875,1,0,0:0:0:0:
64,192,112041,128,0,112208:0:0:0:0:
448,192,112208,1,0,0:0:0:0:
320,192,112291,1,0,0:0:0:0:
192,192,112375,128,0,112708:0:0:0:0:
448,192,112541,128,0,112708:0:0:0:0:
64,192,112708,128,0,113041:0:0:0:0:
320,192,113041,1,0,0:0:0:0:
448,192,113041,1,0,0:0:0:0:
192,192,113125,1,0,0:0:0:0:
64,192,113208,1,0,0:0:0:0:
448,192,113291,1,0,0:0:0:0:
320,192,113375,1,0,0:0:0:0:
64,192,113458,1,0,0:0:0:0:
448,192,113541,1,0,0:0:0:0:
320,192,113625,1,0,0:0:0:0:
64,192,113708,1,0,0:0:0:0:
192,192,113708,1,0,0:0:0:0:
192,192,113875,1,0,0:0:0:0:
320,192,113875,1,0,0:0:0:0:
64,192,113958,1,0,0:0:0:0:
448,192,114041,1,0,0:0:0:0:
192,192,114125,1,0,0:0:0:0:
448,192,114208,1,0,0:0:0:0:
64,192,114291,1,0,0:0:0:0:
320,192,114375,1,0,0:0:0:0:
448,192,114375,1,0,0:0:0:0:
64,192,114458,1,0,0:0:0:0:
448,192,114541,1,0,0:0:0:0:
64,192,114625,1,0,0:0:0:0:
320,192,114708,1,0,0:0:0:0:
64,192,114791,1,0,0:0:0:0:
448,192,114875,1,0,0:0:0:0:
320,192,114875,1,0,0:0:0:0:
192,192,115041,1,0,0:0:0:0:
320,192,115041,1,0,0:0:0:0:
64,192,115125,1,0,0:0:0:0:
320,192,115208,1,0,0:0:0:0:
64,192,115291,1,0,0:0:0:0:
320,192,115375,1,0,0:0:0:0:
448,192,115458,1,0,0:0:0:0:
64,192,115541,1,0,0:0:0:0:
192,192,115625,1,0,0:0:0:0:
320,192,115708,1,0,0:0:0:0:
448,192,115708,1,0,0:0:0:0:
64,192,115791,1,0,0:0:0:0:
192,192,115875,1,0,0:0:0:0:
64,192,115958,1,0,0:0:0:0:
448,192,116041,1,0,0:0:0:0:
320,192,116125,1,0,0:0:0:0:
192,192,116208,1,0,0:0:0:0:
448,192,116291,1,0,0:0:0:0:
64,192,116375,1,0,0:0:0:0:
192,192,116375,1,0,0:0:0:0:
448,192,116458,1,0,0:0:0:0:
320,192,116458,1,0,0:0:0:0:
192,192,116541,1,0,0:0:0:0:
64,192,116541,1,0,0:0:0:0:
320,192,116625,1,0,0:0:0:0:
448,192,116625,1,0,0:0:0:0:
64,192,116708,1,0,0:0:0:0:
192,192,116708,1,0,0:0:0:0:
448,192,116875,1,0,0:0:0:0:
320,192,116875,1,0,0:0:0:0:
192,192,116958,1,0,0:0:0:0:
64,192,116958,1,0,0:0:0:0:
320,192,117041,1,0,0:0:0:0:
448,192,117041,1,0,0:0:0:0:
192,192,117125,1,0,0:0:0:0:
64,192,117125,1,0,0:0:0:0:
320,192,117208,1,0,0:0:0:0:
448,192,117208,1,0,0:0:0:0:
64,192,117375,128,0,117541:0:0:0:0:
448,192,117541,1,0,0:0:0:0:
320,192,117625,1,0,0:0:0:0:
64,192,117708,1,0,0:0:0:0:
448,192,117875,1,0,0:0:0:0:
320,192,118041,128,0,118375:0:0:0:0:
64,192,118375,1,0,0:0:0:0:
192,192,118375,1,0,0:0:0:0:
320,192,118458,1,0,0:0:0:0:
448,192,118541,1,0,0:0:0:0:
64,192,118625,1,0,0:0:0:0:
192,192,118708,1,0,0:0:0:0:
320,192,118708,1,0,0:0:0:0:
448,192,118791,1,0,0:0:0:0:
64,192,118875,1,0,0:0:0:0:
192,192,118958,1,0,0:0:0:0:
320,192,119041,1,0,0:0:0:0:
448,192,119041,1,0,0:0:0:0:
64,192,119291,1,0,0:0:0:0:
192,192,119375,1,0,0:0:0:0:
320,192,119375,1,0,0:0:0:0:
448,192,119541,1,0,0:0:0:0:
320,192,119541,1,0,0:0:0:0:
64,192,119708,1,0,0:0:0:0:
192,192,119708,1,0,0:0:0:0:
320,192,119791,1,0,0:0:0:0:
448,192,119791,1,0,0:0:0:0:
192,192,119875,1,0,0:0:0:0:
64,192,119875,1,0,0:0:0:0:
320,192,120041,1,0,0:0:0:0:
448,192,120041,1,0,0:0:0:0:
64,192,120208,1,0,0:0:0:0:
192,192,120291,1,0,0:0:0:0:
320,192,120375,1,0,0:0:0:0:
448,192,120375,1,0,0:0:0:0:
320,192,120541,1,0,0:0:0:0:
64,192,120625,1,0,0:0:0:0:
192,192,120625,1,0,0:0:0:0:
320,192,120708,1,0,0:0:0:0:
448,192,120708,1,0,0:0:0:0:
192,192,120791,1,0,0:0:0:0:
64,192,120791,1,0,0:0:0:0:
320,192,120875,1,0,0:0:0:0:
448,192,120875,1,0,0:0:0:0:
64,192,121041,1,0,0:0:0:0:
192,192,121041,1,0,0:0:0:0:
320,192,121125,1,0,0:0:0:0:
448,192,121208,1,0,0:0:0:0:
64,192,121291,1,0,0:0:0:0:
192,192,121375,1,0,0:0:0:0:
320,192,121375,1,0,0:0:0:0:
448,192,121458,1,0,0:0:0:0:
64,192,121541,1,0,0:0:0:0:
192,192,121625,1,0,0:0:0:0:
448,192,121708,1,0,0:0:0:0:
320,192,121708,1,0,0:0:0:0:
192,192,121791,1,0,0:0:0:0:
64,192,121791,1,0,0:0:0:0:
320,192,121875,1,0,0:0:0:0:
448,192,121875,1,0,0:0:0:0:
64,192,121958,1,0,0:0:0:0:
192,192,121958,1,0,0:0:0:0:
320,192,122041,1,0,0:0:0:0:
448,192,122041,1,0,0:0:0:0:
64,192,122208,1,0,0:0:0:0:
192,192,122208,1,0,0:0:0:0:
320,192,122291,1,0,0:0:0:0:
448,192,122291,1,0,0:0:0:0:
192,192,122375,1,0,0:0:0:0:
64,192,122375,1,0,0:0:0:0:
320,192,122458,1,0,0:0:0:0:
448,192,122458,1,0,0:0:0:0:
192,192,122541,1,0,0:0:0:0:
64,192,122541,1,0,0:0:0:0:
320,192,122708,1,0,0:0:0:0:
448,192,122708,1,0,0:0:0:0:
64,192,122875,1,0,0:0:0:0:
192,192,122875,1,0,0:0:0:0:
320,192,122958,1,0,0:0:0:0:
448,192,122958,1,0,0:0:0:0:
64,192,123041,128,0,123708:0:0:0:0:
320,192,123708,1,0,0:0:0:0:
448,192,123708,1,0,0:0:0:0:
64,192,123875,128,0,124041:0:0:0:0:
192,192,124041,1,0,0:0:0:0:
320,192,124041,1,0,0:0:0:0:
448,192,124208,128,0,124375:0:0:0:0:
64,192,124375,1,0,0:0:0:0:
192,192,124375,1,0,0:0:0:0:
320,192,124541,128,0,124708:0:0:0:0:
192,192,124708,1,0,0:0:0:0:
64,192,124708,1,0,0:0:0:0:
448,192,124875,128,0,125041:0:0:0:0:
320,192,125041,1,0,0:0:0:0:
192,192,125041,1,0,0:0:0:0:
64,192,125208,128,0,125375:0:0:0:0:
192,192,125375,1,0,0:0:0:0:
320,192,125375,1,0,0:0:0:0:
192,192,125541,128,0,125708:0:0:0:0:
320,192,125708,1,0,0:0:0:0:
448,192,125708,1,0,0:0:0:0:
64,192,125875,128,0,126041:0:0:0:0:
192,192,126041,1,0,0:0:0:0:
320,192,126041,1,0,0:0:0:0:
448,192,126208,128,0,126375:0:0:0:0:
192,192,126375,1,0,0:0:0:0:
64,192,126375,1,0,0:0:0:0:
320,192,126541,1,0,0:0:0:0:
448,192,126541,1,0,0:0:0:0:
64,192,126708,1,0,0:0:0:0:
192,192,126708,1,0,0:0:0:0:
448,192,126875,1,0,0:0:0:0:
192,192,126875,1,0,0:0:0:0:
64,192,127041,1,0,0:0:0:0:
320,192,127041,1,0,0:0:0:0:
192,192,127208,1,0,0:0:0:0:
320,192,127208,1,0,0:0:0:0:
448,192,127375,1,0,0:0:0:0:
64,192,127375,1,0,0:0:0:0:
192,192,127541,1,0,0:0:0:0:
320,192,127541,1,0,0:0:0:0:
448,192,127708,1,0,0:0:0:0:
192,192,127791,1,0,0:0:0:0:
320,192,127875,1,0,0:0:0:0:
64,192,127958,1,0,0:0:0:0:
448,192,128041,1,0,0:0:0:0:
192,192,128125,1,0,0:0:0:0:
448,192,128208,1,0,0:0:0:0:
64,192,128291,1,0,0:0:0:0:
448,192,128375,1,0,0:0:0:0:
320,192,128375,1,0,0:0:0:0:
64,192,128458,1,0,0:0:0:0:
192,192,128458,1,0,0:0:0:0:
448,192,128541,1,0,0:0:0:0:
320,192,128541,1,0,0:0:0:0:
192,192,128625,1,0,0:0:0:0:
64,192,128625,1,0,0:0:0:0:
320,192,128708,1,0,0:0:0:0:
448,192,128708,1,0,0:0:0:0:
192,192,128791,1,0,0:0:0:0:
64,192,128791,1,0,0:0:0:0:
448,192,128875,1,0,0:0:0:0:
320,192,128875,1,0,0:0:0:0:
192,192,128958,1,0,0:0:0:0:
64,192,128958,1,0,0:0:0:0:
320,192,129041,1,0,0:0:0:0:
448,192,129041,1,0,0:0:0:0:
64,192,131708,1,0,0:0:0:0:
64,192,131875,1,0,0:0:0:0:
448,192,132041,1,0,0:0:0:0:
448,192,132208,1,0,0:0:0:0:
64,192,132375,128,0,132708:0:0:0:0:
192,192,132708,1,0,0:0:0:0:
448,192,133041,1,0,0:0:0:0:
64,192,133208,1,0,0:0:0:0:
448,192,133375,1,0,0:0:0:0:
64,192,133541,1,0,0:0:0:0:
320,192,133708,1,0,0:0:0:0:
320,192,134041,1,0,0:0:0:0:
320,192,134375,1,0,0:0:0:0:
192,192,134541,1,0,0:0:0:0:
320,192,134708,1,0,0:0:0:0:
192,192,134875,1,0,0:0:0:0:
448,192,135041,1,0,0:0:0:0:
64,192,135375,1,0,0:0:0:0:
320,192,135708,1,0,0:0:0:0:
64,192,135875,1,0,0:0:0:0:
320,192,136041,1,0,0:0:0:0:
64,192,136208,1,0,0:0:0:0:
448,192,136375,1,0,0:0:0:0:
64,192,136708,128,0,137041:0:0:0:0:
192,192,137041,1,0,0:0:0:0:
192,192,137375,1,0,0:0:0:0:
448,192,137708,1,0,0:0:0:0:
192,192,138041,1,0,0:0:0:0:
320,192,138375,1,0,0:0:0:0:
64,192,138708,1,0,0:0:0:0:
448,192,139041,1,0,0:0:0:0:
320,192,139375,1,0,0:0:0:0:
64,192,139708,128,0,140041:0:0:0:0:
448,192,140041,1,0,0:0:0:0:
320,192,140375,1,0,0:0:0:0:
320,192,140708,1,0,0:0:0:0:
64,192,141041,1,0,0:0:0:0:
192,192,141375,1,0,0:0:0:0:
320,192,141708,1,0,0:0:0:0:
448,192,141708,1,0,0:0:0:0:
192,192,141875,1,0,0:0:0:0:
448,192,142041,1,0,0:0:0:0:
320,192,142041,1,0,0:0:0:0:
64,192,142125,1,0,0:0:0:0:
192,192,142125,1,0,0:0:0:0:
320,192,142208,1,0,0:0:0:0:
448,192,142208,1,0,0:0:0:0:
192,192,142291,1,0,0:0:0:0:
64,192,142291,1,0,0:0:0:0:
320,192,142375,1,0,0:0:0:0:
448,192,142375,1,0,0:0:0:0:
64,192,142458,1,0,0:0:0:0:
192,192,142541,1,0,0:0:0:0:
448,192,142625,1,0,0:0:0:0:
64,192,142708,1,0,0:0:0:0:
320,192,142708,1,0,0:0:0:0:
192,192,142791,1,0,0:0:0:0:
320,192,142875,1,0,0:0:0:0:
448,192,142958,1,0,0:0:0:0:
192,192,143041,1,0,0:0:0:0:
64,192,143041,1,0,0:0:0:0:
448,192,143125,1,0,0:0:0:0:
320,192,143208,1,0,0:0:0:0:
64,192,143291,1,0,0:0:0:0:
448,192,143375,1,0,0:0:0:0:
192,192,143375,1,0,0:0:0:0:
320,192,143458,1,0,0:0:0:0:
192,192,143541,1,0,0:0:0:0:
448,192,143625,1,0,0:0:0:0:
64,192,143708,1,0,0:0:0:0:
320,192,143708,1,0,0:0:0:0:
192,192,143791,1,0,0:0:0:0:
320,192,143875,1,0,0:0:0:0:
448,192,143958,1,0,0:0:0:0:
64,192,144041,1,0,0:0:0:0:
192,192,144041,1,0,0:0:0:0:
320,192,144125,1,0,0:0:0:0:
448,192,144208,1,0,0:0:0:0:
320,192,144291,1,0,0:0:0:0:
64,192,144375,1,0,0:0:0:0:
192,192,144375,1,0,0:0:0:0:
448,192,144458,1,0,0:0:0:0:
320,192,144541,1,0,0:0:0:0:
448,192,144625,1,0,0:0:0:0:
64,192,144708,1,0,0:0:0:0:
192,192,144708,1,0,0:0:0:0:
320,192,144791,1,0,0:0:0:0:
448,192,144875,1,0,0:0:0:0:
64,192,144958,1,0,0:0:0:0:
448,192,145041,1,0,0:0:0:0:
192,192,145041,1,0,0:0:0:0:
320,192,145125,1,0,0:0:0:0:
192,192,145208,1,0,0:0:0:0:
64,192,145291,1,0,0:0:0:0:
320,192,145375,1,0,0:0:0:0:
448,192,145375,1,0,0:0:0:0:
192,192,145458,1,0,0:0:0:0:
64,192,145541,1,0,0:0:0:0:
192,192,145625,1,0,0:0:0:0:
448,192,145708,1,0,0:0:0:0:
320,192,145708,1,0,0:0:0:0:
64,192,145791,1,0,0:0:0:0:
192,192,145875,1,0,0:0:0:0:
64,192,145958,1,0,0:0:0:0:
448,192,146041,1,0,0:0:0:0:
320,192,146041,1,0,0:0:0:0:
192,192,146125,1,0,0:0:0:0:
64,192,146208,1,0,0:0:0:0:
448,192,146291,1,0,0:0:0:0:
64,192,146375,1,0,0:0:0:0:
320,192,146375,1,0,0:0:0:0:
192,192,146458,1,0,0:0:0:0:
320,192,146541,1,0,0:0:0:0:
448,192,146625,1,0,0:0:0:0:
64,192,146708,1,0,0:0:0:0:
192,192,146708,1,0,0:0:0:0:
320,192,146791,1,0,0:0:0:0:
448,192,146875,1,0,0:0:0:0:
64,192,146958,1,0,0:0:0:0:
448,192,147041,1,0,0:0:0:0:
192,192,147041,1,0,0:0:0:0:
320,192,147125,1,0,0:0:0:0:
192,192,147208,1,0,0:0:0:0:
64,192,147291,1,0,0:0:0:0:
448,192,147375,1,0,0:0:0:0:
320,192,147375,1,0,0:0:0:0:
192,192,147458,1,0,0:0:0:0:
64,192,147541,1,0,0:0:0:0:
448,192,147625,1,0,0:0:0:0:
192,192,147708,1,0,0:0:0:0:
320,192,147708,1,0,0:0:0:0:
448,192,147791,1,0,0:0:0:0:
64,192,147875,1,0,0:0:0:0:
192,192,147958,1,0,0:0:0:0:
448,192,148041,1,0,0:0:0:0:
320,192,148041,1,0,0:0:0:0:
64,192,148125,1,0,0:0:0:0:
192,192,148208,1,0,0:0:0:0:
448,192,148291,1,0,0:0:0:0:
64,192,148375,1,0,0:0:0:0:
320,192,148375,1,0,0:0:0:0:
192,192,148458,1,0,0:0:0:0:
320,192,148541,1,0,0:0:0:0:
448,192,148625,1,0,0:0:0:0:
192,192,148708,1,0,0:0:0:0:
64,192,148708,1,0,0:0:0:0:
320,192,148791,1,0,0:0:0:0:
448,192,148875,1,0,0:0:0:0:
64,192,148958,1,0,0:0:0:0:
320,192,149041,1,0,0:0:0:0:
192,192,149041,1,0,0:0:0:0:
64,192,149125,1,0,0:0:0:0:
448,192,149208,1,0,0:0:0:0:
320,192,149291,1,0,0:0:0:0:
64,192,149375,1,0,0:0:0:0:
192,192,149375,1,0,0:0:0:0:
448,192,149458,1,0,0:0:0:0:
320,192,149541,1,0,0:0:0:0:
64,192,149625,1,0,0:0:0:0:
448,192,149708,1,0,0:0:0:0:
192,192,149708,1,0,0:0:0:0:
320,192,149791,1,0,0:0:0:0:
192,192,149875,1,0,0:0:0:0:
448,192,149958,1,0,0:0:0:0:
64,192,150041,1,0,0:0:0:0:
320,192,150041,1,0,0:0:0:0:
192,192,150125,1,0,0:0:0:0:
64,192,150208,1,0,0:0:0:0:
192,192,150291,1,0,0:0:0:0:
448,192,150375,1,0,0:0:0:0:
320,192,150375,1,0,0:0:0:0:
64,192,150416,1,0,0:0:0:0:
192,192,150458,1,0,0:0:0:0:
320,192,150500,1,0,0:0:0:0:
448,192,150541,1,0,0:0:0:0:
64,192,150583,1,0,0:0:0:0:
192,192,150625,1,0,0:0:0:0:
320,192,150666,1,0,0:0:0:0:
448,192,150708,1,0,0:0:0:0:
64,192,150750,1,0,0:0:0:0:
192,192,150791,1,0,0:0:0:0:
320,192,150833,1,0,0:0:0:0:
448,192,150875,1,0,0:0:0:0:
64,192,150916,1,0,0:0:0:0:
192,192,150958,1,0,0:0:0:0:
320,192,151000,1,0,0:0:0:0:
448,192,151041,1,0,0:0:0:0:
64,192,151083,1,0,0:0:0:0:
192,192,151125,1,0,0:0:0:0:
320,192,151166,1,0,0:0:0:0:
448,192,151208,1,0,0:0:0:0:
64,192,151250,1,0,0:0:0:0:
192,192,151291,1,0,0:0:0:0:
320,192,151333,1,0,0:0:0:0:
448,192,151375,1,0,0:0:0:0:
64,192,151416,1,0,0:0:0:0:
192,192,151458,1,0,0:0:0:0:
320,192,151500,1,0,0:0:0:0:
448,192,151541,1,0,0:0:0:0:
64,192,151583,1,0,0:0:0:0:
192,192,151625,1,0,0:0:0:0:
320,192,151666,1,0,0:0:0:0:
448,192,151708,1,0,0:0:0:0:
64,192,151875,1,0,0:0:0:0:
320,192,152041,1,0,0:0:0:0:
448,192,152041,1,0,0:0:0:0:
64,192,152208,1,0,0:0:0:0:
448,192,152375,1,0,0:0:0:0:
320,192,152375,1,0,0:0:0:0:
64,192,152541,1,0,0:0:0:0:
192,192,152625,1,0,0:0:0:0:
320,192,152708,1,0,0:0:0:0:
448,192,152708,1,0,0:0:0:0:
192,192,152791,1,0,0:0:0:0:
64,192,152791,1,0,0:0:0:0:
320,192,152875,1,0,0:0:0:0:
448,192,152875,1,0,0:0:0:0:
192,192,152958,1,0,0:0:0:0:
64,192,152958,1,0,0:0:0:0:
320,192,153041,1,0,0:0:0:0:
448,192,153041,1,0,0:0:0:0:
64,192,153208,1,0,0:0:0:0:
320,192,153375,1,0,0:0:0:0:
448,192,153375,1,0,0:0:0:0:
192,192,153541,1,0,0:0:0:0:
64,192,153708,1,0,0:0:0:0:
192,192,153875,1,0,0:0:0:0:
320,192,154041,1,0,0:0:0:0:
64,192,154208,128,0,154708:0:0:0:0:
192,192,154208,128,0,154708:0:0:0:0:
320,192,154708,1,0,0:0:0:0:
448,192,154708,1,0,0:0:0:0:
448,192,155041,128,0,155125:0:0:0:0:
448,192,155208,1,0,0:0:0:0:
64,192,155375,128,0,155458:0:0:0:0:
64,192,155541,1,0,0:0:0:0:
192,192,155625,1,0,0:0:0:0:
320,192,155708,1,0,0:0:0:0:
448,192,155708,1,0,0:0:0:0:
64,192,156041,1,0,0:0:0:0:
192,192,156208,1,0,0:0:0:0:
320,192,156375,1,0,0:0:0:0:
448,192,156708,1,0,0:0:0:0:
192,192,156875,128,0,157208:0:0:0:0:
64,192,156875,128,0,157208:0:0:0:0:
320,192,157375,128,0,157708:0:0:0:0:
448,192,157375,128,0,157708:0:0:0:0:
64,192,157708,1,0,0:0:0:0:
192,192,157791,1,0,0:0:0:0:
64,192,157875,1,0,0:0:0:0:
320,192,158041,128,0,158208:0:0:0:0:
448,192,158041,128,0,158208:0:0:0:0:
64,192,158375,1,0,0:0:0:0:
192,192,158375,1,0,0:0:0:0:
320,192,158708,1,0,0:0:0:0:
192,192,158791,1,0,0:0:0:0:
320,192,158875,1,0,0:0:0:0:
192,192,158958,1,0,0:0:0:0:
320,192,159041,1,0,0:0:0:0:
64,192,159375,1,0,0:0:0:0:
192,192,159375,1,0,0:0:0:0:
320,192,159541,128,0,160041:0:0:0:0:
448,192,159541,128,0,160041:0:0:0:0:
192,192,160041,1,0,0:0:0:0:
64,192,160041,1,0,0:0:0:0:
64,192,160375,128,0,160541:0:0:0:0:
320,192,160375,128,0,160541:0:0:0:0:
192,192,160708,128,0,160875:0:0:0:0:
448,192,160708,128,0,160875:0:0:0:0:
320,192,161041,1,0,0:0:0:0:
192,192,161041,1,0,0:0:0:0:
64,192,161041,1,0,0:0:0:0:
448,192,161375,1,0,0:0:0:0:
320,192,161458,1,0,0:0:0:0:
448,192,161541,1,0,0:0:0:0:
320,192,161625,1,0,0:0:0:0:
64,192,161708,1,0,0:0:0:0:
192,192,161791,1,0,0:0:0:0:
448,192,161875,1,0,0:0:0:0:
320,192,161958,1,0,0:0:0:0:
192,192,162041,1,0,0:0:0:0:
64,192,162208,128,0,162541:0:0:0:0:
320,192,162208,128,0,162541:0:0:0:0:
448,192,162708,128,0,163041:0:0:0:0:
320,192,162708,128,0,163041:0:0:0:0:
64,192,163041,1,0,0:0:0:0:
192,192,163125,1,0,0:0:0:0:
320,192,163208,1,0,0:0:0:0:
64,192,163291,1,0,0:0:0:0:
192,192,163375,1,0,0:0:0:0:
448,192,163458,1,0,0:0:0:0:
320,192,163541,1,0,0:0:0:0:
64,192,163625,1,0,0:0:0:0:
192,192,163708,1,0,0:0:0:0:
448,192,163708,1,0,0:0:0:0:
320,192,163875,1,0,0:0:0:0:
64,192,164041,1,0,0:0:0:0:
192,192,164041,1,0,0:0:0:0:
448,192,164208,1,0,0:0:0:0:
320,192,164375,1,0,0:0:0:0:
64,192,164375,1,0,0:0:0:0:
192,192,164541,1,0,0:0:0:0:
448,192,164708,1,0,0:0:0:0:
64,192,164708,1,0,0:0:0:0:
192,192,164791,1,0,0:0:0:0:
64,192,164875,1,0,0:0:0:0:
192,192,164958,1,0,0:0:0:0:
448,192,165041,1,0,0:0:0:0:
320,192,165041,1,0,0:0:0:0:
192,192,165208,1,0,0:0:0:0:
64,192,165375,1,0,0:0:0:0:
320,192,165375,1,0,0:0:0:0:
448,192,165541,1,0,0:0:0:0:
64,192,165708,1,0,0:0:0:0:
192,192,165708,1,0,0:0:0:0:
320,192,165875,1,0,0:0:0:0:
64,192,166041,1,0,0:0:0:0:
448,192,166041,1,0,0:0:0:0:
320,192,166125,1,0,0:0:0:0:
448,192,166208,1,0,0:0:0:0:
320,192,166291,1,0,0:0:0:0:
64,192,166375,1,0,0:0:0:0:
192,192,166375,1,0,0:0:0:0:
320,192,166541,1,0,0:0:0:0:
448,192,166708,1,0,0:0:0:0:
192,192,166708,1,0,0:0:0:0:
320,192,166875,1,0,0:0:0:0:
192,192,166958,1,0,0:0:0:0:
64,192,167041,1,0,0:0:0:0:
320,192,167041,1,0,0:0:0:0:
448,192,167208,1,0,0:0:0:0:
64,192,167375,1,0,0:0:0:0:
192,192,167375,1,0,0:0:0:0:
320,192,167541,1,0,0:0:0:0:
192,192,167625,1,0,0:0:0:0:
448,192,167708,1,0,0:0:0:0:
64,192,167708,1,0,0:0:0:0:
320,192,167875,1,0,0:0:0:0:
64,192,168041,1,0,0:0:0:0:
192,192,168041,1,0,0:0:0:0:
448,192,168208,1,0,0:0:0:0:
320,192,168291,1,0,0:0:0:0:
64,192,168375,1,0,0:0:0:0:
192,192,168375,1,0,0:0:0:0:
320,192,168541,1,0,0:0:0:0:
64,192,168708,1,0,0:0:0:0:
192,192,168708,1,0,0:0:0:0:
320,192,169041,1,0,0:0:0:0:
448,192,169041,1,0,0:0:0:0:
192,192,169208,1,0,0:0:0:0:
64,192,169208,1,0,0:0:0:0:
448,192,169375,1,0,0:0:0:0:
192,192,169375,1,0,0:0:0:0:
64,192,169541,1,0,0:0:0:0:
320,192,169541,1,0,0:0:0:0:
192,192,169708,1,0,0:0:0:0:
320,192,169708,1,0,0:0:0:0:
64,192,169875,1,0,0:0:0:0:
448,192,169875,1,0,0:0:0:0:
320,192,170041,1,0,0:0:0:0:
192,192,170041,1,0,0:0:0:0:
320,192,170208,1,0,0:0:0:0:
448,192,170208,1,0,0:0:0:0:
192,192,170291,1,0,0:0:0:0:
64,192,170291,1,0,0:0:0:0:
320,192,170375,1,0,0:0:0:0:
448,192,170375,1,0,0:0:0:0:
64,192,170541,1,0,0:0:0:0:
320,192,170541,1,0,0:0:0:0:
192,192,170708,1,0,0:0:0:0:
448,192,170708,1,0,0:0:0:0:
192,192,170875,1,0,0:0:0:0:
320,192,170875,1,0,0:0:0:0:
448,192,171041,1,0,0:0:0:0:
64,192,171041,1,0,0:0:0:0:
192,192,171208,1,0,0:0:0:0:
320,192,171208,1,0,0:0:0:0:
64,192,171375,1,0,0:0:0:0:
192,192,171375,1,0,0:0:0:0:
448,192,171541,1,0,0:0:0:0:
320,192,171541,1,0,0:0:0:0:
192,192,171625,1,0,0:0:0:0:
64,192,171625,1,0,0:0:0:0:
320,192,171708,1,0,0:0:0:0:
448,192,171708,1,0,0:0:0:0:
64,192,171791,1,0,0:0:0:0:
192,192,171875,1,0,0:0:0:0:
320,192,171958,1,0,0:0:0:0:
448,192,172041,1,0,0:0:0:0:
64,192,172125,1,0,0:0:0:0:
192,192,172208,1,0,0:0:0:0:
320,192,172291,1,0,0:0:0:0:
448,192,172375,1,0,0:0:0:0:
64,192,172458,1,0,0:0:0:0:
192,192,172541,1,0,0:0:0:0:
320,192,172625,1,0,0:0:0:0:
448,192,172708,1,0,0:0:0:0:
64,192,172791,1,0,0:0:0:0:
192,192,172875,1,0,0:0:0:0:
320,192,172958,1,0,0:0:0:0:
448,192,173041,1,0,0:0:0:0:
64,192,173041,1,0,0:0:0:0:
448,192,174708,1,0,0:0:0:0:
64,192,174708,1,0,0:0:0:0:
320,192,174791,1,0,0:0:0:0:
192,192,174875,1,0,0:0:0:0:
448,192,174958,1,0,0:0:0:0:
64,192,175041,1,0,0:0:0:0:
192,192,175041,1,0,0:0:0:0:
448,192,175125,1,0,0:0:0:0:
320,192,175208,1,0,0:0:0:0:
192,192,175291,1,0,0:0:0:0:
64,192,175291,1,0,0:0:0:0:
448,192,175375,1,0,0:0:0:0:
320,192,175458,1,0,0:0:0:0:
64,192,175541,1,0,0:0:0:0:
192,192,175541,1,0,0:0:0:0:
320,192,175708,1,0,0:0:0:0:
448,192,175708,1,0,0:0:0:0:
192,192,175791,1,0,0:0:0:0:
64,192,175875,1,0,0:0:0:0:
448,192,175958,1,0,0:0:0:0:
320,192,176041,1,0,0:0:0:0:
192,192,176041,1,0,0:0:0:0:
64,192,176125,1,0,0:0:0:0:
448,192,176208,1,0,0:0:0:0:
320,192,176291,1,0,0:0:0:0:
64,192,176375,1,0,0:0:0:0:
192,192,176375,1,0,0:0:0:0:
320,192,176458,1,0,0:0:0:0:
192,192,176541,1,0,0:0:0:0:
448,192,176625,1,0,0:0:0:0:
320,192,176625,1,0,0:0:0:0:
64,192,176708,1,0,0:0:0:0:
192,192,176791,1,0,0:0:0:0:
448,192,176875,1,0,0:0:0:0:
320,192,176875,1,0,0:0:0:0:
64,192,177041,1,0,0:0:0:0:
192,192,177041,1,0,0:0:0:0:
320,192,177125,1,0,0:0:0:0:
448,192,177208,1,0,0:0:0:0:
64,192,177291,1,0,0:0:0:0:
192,192,177375,1,0,0:0:0:0:
320,192,177375,1,0,0:0:0:0:
448,192,177458,1,0,0:0:0:0:
64,192,177541,1,0,0:0:0:0:
192,192,177625,1,0,0:0:0:0:
320,192,177708,1,0,0:0:0:0:
448,192,177708,1,0,0:0:0:0:
64,192,177791,1,0,0:0:0:0:
192,192,177875,1,0,0:0:0:0:
448,192,177958,1,0,0:0:0:0:
320,192,177958,1,0,0:0:0:0:
64,192,178041,1,0,0:0:0:0:
320,192,178125,1,0,0:0:0:0:
192,192,178208,1,0,0:0:0:0:
64,192,178208,1,0,0:0:0:0:
64,192,178375,1,0,0:0:0:0:
448,192,178375,1,0,0:0:0:0:
192,192,178458,1,0,0:0:0:0:
320,192,178541,1,0,0:0:0:0:
192,192,178625,1,0,0:0:0:0:
64,192,178708,1,0,0:0:0:0:
448,192,178708,1,0,0:0:0:0:
192,192,178875,1,0,0:0:0:0:
448,192,178875,1,0,0:0:0:0:
320,192,178958,1,0,0:0:0:0:
64,192,178958,1,0,0:0:0:0:
192,192,179041,1,0,0:0:0:0:
448,192,179041,1,0,0:0:0:0:
64,192,179208,1,0,0:0:0:0:
192,192,179208,1,0,0:0:0:0:
448,192,179291,1,0,0:0:0:0:
320,192,179291,1,0,0:0:0:0:
192,192,179375,1,0,0:0:0:0:
64,192,179375,1,0,0:0:0:0:
448,192,179458,1,0,0:0:0:0:
320,192,179541,1,0,0:0:0:0:
192,192,179625,1,0,0:0:0:0:
64,192,179708,1,0,0:0:0:0:
448,192,179708,1,0,0:0:0:0:
448,192,179875,1,0,0:0:0:0:
320,192,179958,1,0,0:0:0:0:
192,192,180041,1,0,0:0:0:0:
64,192,180041,1,0,0:0:0:0:
448,192,180125,1,0,0:0:0:0:
320,192,180208,1,0,0:0:0:0:
64,192,180291,1,0,0:0:0:0:
448,192,180375,1,0,0:0:0:0:
320,192,180375,1,0,0:0:0:0:
192,192,180458,1,0,0:0:0:0:
64,192,180541,1,0,0:0:0:0:
448,192,180625,1,0,0:0:0:0:
320,192,180625,1,0,0:0:0:0:
192,192,180708,1,0,0:0:0:0:
64,192,180791,1,0,0:0:0:0:
320,192,180875,1,0,0:0:0:0:
448,192,180875,1,0,0:0:0:0:
192,192,181041,1,0,0:0:0:0:
64,192,181041,1,0,0:0:0:0:
448,192,181208,1,0,0:0:0:0:
320,192,181250,1,0,0:0:0:0:
192,192,181291,1,0,0:0:0:0:
64,192,181375,1,0,0:0:0:0:
448,192,181375,1,0,0:0:0:0:
320,192,181458,1,0,0:0:0:0:
192,192,181541,1,0,0:0:0:0:
64,192,181625,1,0,0:0:0:0:
320,192,181708,1,0,0:0:0:0:
448,192,181708,1,0,0:0:0:0:
192,192,181875,1,0,0:0:0:0:
448,192,181958,1,0,0:0:0:0:
320,192,181958,1,0,0:0:0:0:
64,192,182041,1,0,0:0:0:0:
192,192,182125,1,0,0:0:0:0:
320,192,182208,1,0,0:0:0:0:
448,192,182208,1,0,0:0:0:0:
192,192,182375,1,0,0:0:0:0:
64,192,182375,1,0,0:0:0:0:
448,192,182541,1,0,0:0:0:0:
320,192,182625,1,0,0:0:0:0:
192,192,182708,1,0,0:0:0:0:
64,192,182708,1,0,0:0:0:0:
192,192,182875,1,0,0:0:0:0:
320,192,182958,1,0,0:0:0:0:
448,192,183041,1,0,0:0:0:0:
64,192,183041,1,0,0:0:0:0:
192,192,183208,1,0,0:0:0:0:
448,192,183291,1,0,0:0:0:0:
320,192,183291,1,0,0:0:0:0:
192,192,183375,1,0,0:0:0:0:
64,192,183458,1,0,0:0:0:0:
448,192,183541,1,0,0:0:0:0:
320,192,183541,1,0,0:0:0:0:
192,192,183708,1,0,0:0:0:0:
64,192,183708,1,0,0:0:0:0:
448,192,183875,1,0,0:0:0:0:
320,192,183916,1,0,0:0:0:0:
192,192,183958,1,0,0:0:0:0:
448,192,184041,1,0,0:0:0:0:
64,192,184041,1,0,0:0:0:0:
320,192,184125,1,0,0:0:0:0:
192,192,184208,1,0,0:0:0:0:
64,192,184291,1,0,0:0:0:0:
320,192,184375,1,0,0:0:0:0:
448,192,184375,1,0,0:0:0:0:
192,192,184541,1,0,0:0:0:0:
320,192,184625,1,0,0:0:0:0:
192,192,184708,1,0,0:0:0:0:
64,192,184708,1,0,0:0:0:0:
320,192,184791,1,0,0:0:0:0:
448,192,184875,1,0,0:0:0:0:
64,192,184958,1,0,0:0:0:0:
192,192,185041,1,0,0:0:0:0:
448,192,185041,128,0,185375:0:0:0:0:
64,192,185375,1,0,0:0:0:0:
192,192,185458,1,0,0:0:0:0:
320,192,185541,1,0,0:0:0:0:
448,192,185625,1,0,0:0:0:0:
320,192,185708,128,0,185875:0:0:0:0:
64,192,185708,128,0,185875:0:0:0:0:
192,192,185958,128,0,186125:0:0:0:0:
448,192,185958,128,0,186125:0:0:0:0:
192,192,186208,128,0,186375:0:0:0:0:
64,192,186208,128,0,186375:0:0:0:0:
320,192,186375,1,0,0:0:0:0:
448,192,186375,1,0,0:0:0:0:
192,192,186458,1,0,0:0:0:0:
64,192,186458,1,0,0:0:0:0:
448,192,186541,1,0,0:0:0:0:
320,192,186541,1,0,0:0:0:0:
320,192,186708,1,0,0:0:0:0:
192,192,186708,1,0,0:0:0:0:
64,192,186875,1,0,0:0:0:0:
192,192,186958,1,0,0:0:0:0:
320,192,187041,1,0,0:0:0:0:
448,192,187041,1,0,0:0:0:0:
320,192,187208,1,0,0:0:0:0:
192,192,187291,1,0,0:0:0:0:
64,192,187291,1,0,0:0:0:0:
448,192,187458,1,0,0:0:0:0:
192,192,187541,1,0,0:0:0:0:
320,192,187541,1,0,0:0:0:0:
192,192,187708,1,0,0:0:0:0:
64,192,187708,1,0,0:0:0:0:
320,192,187875,1,0,0:0:0:0:
192,192,187958,1,0,0:0:0:0:
448,192,188041,1,0,0:0:0:0:
320,192,188041,1,0,0:0:0:0:
64,192,188125,1,0,0:0:0:0:
192,192,188208,1,0,0:0:0:0:
448,192,188291,1,0,0:0:0:0:
192,192,188375,1,0,0:0:0:0:
64,192,188375,1,0,0:0:0:0:
448,192,188541,1,0,0:0:0:0:
320,192,188625,1,0,0:0:0:0:
192,192,188625,1,0,0:0:0:0:
320,192,188791,1,0,0:0:0:0:
192,192,188875,1,0,0:0:0:0:
64,192,188875,1,0,0:0:0:0:
448,192,189041,1,0,0:0:0:0:
320,192,189083,1,0,0:0:0:0:
192,192,189125,1,0,0:0:0:0:
448,192,189208,1,0,0:0:0:0:
64,192,189208,1,0,0:0:0:0:
192,192,189375,1,0,0:0:0:0:
320,192,189375,1,0,0:0:0:0:
192,192,189541,1,0,0:0:0:0:
320,192,189625,1,0,0:0:0:0:
192,192,189708,1,0,0:0:0:0:
64,192,189708,1,0,0:0:0:0:
448,192,189875,1,0,0:0:0:0:
320,192,189958,1,0,0:0:0:0:
64,192,190041,128,0,190375:0:0:0:0:
448,192,190375,128,0,190708:0:0:0:0:
320,192,190375,1,0,0:0:0:0:
320,192,190708,1,0,0:0:0:0:
192,192,190708,1,0,0:0:0:0:
64,192,190791,1,0,0:0:0:0:
192,192,190875,1,0,0:0:0:0:
448,192,190958,1,0,0:0:0:0:
320,192,191041,1,0,0:0:0:0:
192,192,191041,1,0,0:0:0:0:
192,192,191208,1,0,0:0:0:0:
320,192,191291,1,0,0:0:0:0:
448,192,191291,1,0,0:0:0:0:
320,192,191458,1,0,0:0:0:0:
64,192,191541,1,0,0:0:0:0:
192,192,191541,1,0,0:0:0:0:
448,192,191708,1,0,0:0:0:0:
320,192,191750,1,0,0:0:0:0:
192,192,191791,1,0,0:0:0:0:
64,192,191875,1,0,0:0:0:0:
448,192,191875,1,0,0:0:0:0:
192,192,192041,1,0,0:0:0:0:
320,192,192041,1,0,0:0:0:0:
192,192,192208,1,0,0:0:0:0:
320,192,192291,1,0,0:0:0:0:
192,192,192375,1,0,0:0:0:0:
64,192,192375,1,0,0:0:0:0:
448,192,192541,1,0,0:0:0:0:
320,192,192625,1,0,0:0:0:0:
192,192,192708,1,0,0:0:0:0:
64,192,192708,1,0,0:0:0:0:
320,192,192875,1,0,0:0:0:0:
448,192,192958,1,0,0:0:0:0:
192,192,193041,1,0,0:0:0:0:
64,192,193041,1,0,0:0:0:0:
64,192,193208,1,0,0:0:0:0:
192,192,193291,1,0,0:0:0:0:
320,192,193375,1,0,0:0:0:0:
448,192,193375,1,0,0:0:0:0:
192,192,193541,1,0,0:0:0:0:
320,192,193625,1,0,0:0:0:0:
192,192,193708,1,0,0:0:0:0:
64,192,193708,1,0,0:0:0:0:
320,192,193875,1,0,0:0:0:0:
192,192,193958,1,0,0:0:0:0:
448,192,194041,1,0,0:0:0:0:
320,192,194041,1,0,0:0:0:0:
448,192,194208,1,0,0:0:0:0:
320,192,194291,1,0,0:0:0:0:
192,192,194375,1,0,0:0:0:0:
64,192,194375,1,0,0:0:0:0:
448,192,194458,1,0,0:0:0:0:
320,192,194458,1,0,0:0:0:0:
64,192,194541,1,0,0:0:0:0:
192,192,194541,1,0,0:0:0:0:
320,192,194625,1,0,0:0:0:0:
448,192,194625,1,0,0:0:0:0:
192,192,194708,1,0,0:0:0:0:
64,192,194708,1,0,0:0:0:0:
448,192,194791,1,0,0:0:0:0:
320,192,194875,1,0,0:0:0:0:
192,192,194958,1,0,0:0:0:0:
64,192,195041,1,0,0:0:0:0:
448,192,195208,1,0,0:0:0:0:
64,192,195375,1,0,0:0:0:0:
64,192,195708,1,0,0:0:0:0:
320,192,195708,1,0,0:0:0:0:
448,192,195708,1,0,0:0:0:0:
448,192,196041,1,0,0:0:0:0:
64,192,196041,1,0,0:0:0:0:
320,192,196125,1,0,0:0:0:0:
192,192,196208,1,0,0:0:0:0:
448,192,196291,1,0,0:0:0:0:
320,192,196375,1,0,0:0:0:0:
64,192,196375,1,0,0:0:0:0:
320,192,196541,1,0,0:0:0:0:
192,192,196625,1,0,0:0:0:0:
64,192,196625,1,0,0:0:0:0:
192,192,196791,1,0,0:0:0:0:
320,192,196875,1,0,0:0:0:0:
448,192,196875,1,0,0:0:0:0:
320,192,197041,1,0,0:0:0:0:
64,192,197041,1,0,0:0:0:0:
192,192,197041,1,0,0:0:0:0:
448,192,197208,1,0,0:0:0:0:
320,192,197208,1,0,0:0:0:0:
192,192,197291,1,0,0:0:0:0:
64,192,197291,1,0,0:0:0:0:
448,192,197375,1,0,0:0:0:0:
320,192,197375,1,0,0:0:0:0:
64,192,197541,1,0,0:0:0:0:
192,192,197625,1,0,0:0:0:0:
448,192,197708,1,0,0:0:0:0:
320,192,197708,1,0,0:0:0:0:
64,192,197791,1,0,0:0:0:0:
192,192,197875,1,0,0:0:0:0:
320,192,197958,1,0,0:0:0:0:
448,192,197958,1,0,0:0:0:0:
64,192,198041,1,0,0:0:0:0:
192,192,198125,1,0,0:0:0:0:
448,192,198208,1,0,0:0:0:0:
320,192,198208,1,0,0:0:0:0:
192,192,198375,1,0,0:0:0:0:
320,192,198375,1,0,0:0:0:0:
448,192,198375,1,0,0:0:0:0:
64,192,198541,1,0,0:0:0:0:
192,192,198625,1,0,0:0:0:0:
320,192,198708,1,0,0:0:0:0:
448,192,198708,1,0,0:0:0:0:
64,192,198875,1,0,0:0:0:0:
192,192,198958,1,0,0:0:0:0:
320,192,199041,1,0,0:0:0:0:
448,192,199041,1,0,0:0:0:0:
64,192,199125,1,0,0:0:0:0:
448,192,199208,1,0,0:0:0:0:
320,192,199291,1,0,0:0:0:0:
192,192,199291,1,0,0:0:0:0:
64,192,199458,1,0,0:0:0:0:
192,192,199541,1,0,0:0:0:0:
320,192,199541,1,0,0:0:0:0:
320,192,199708,1,0,0:0:0:0:
448,192,199708,1,0,0:0:0:0:
64,192,199708,1,0,0:0:0:0:
64,192,199875,1,0,0:0:0:0:
192,192,199916,1,0,0:0:0:0:
320,192,199958,1,0,0:0:0:0:
64,192,200041,1,0,0:0:0:0:
448,192,200041,1,0,0:0:0:0:
192,192,200125,1,0,0:0:0:0:
64,192,200208,1,0,0:0:0:0:
192,192,200291,1,0,0:0:0:0:
320,192,200375,1,0,0:0:0:0:
448,192,200375,1,0,0:0:0:0:
64,192,200541,1,0,0:0:0:0:
192,192,200541,1,0,0:0:0:0:
448,192,200625,1,0,0:0:0:0:
320,192,200625,1,0,0:0:0:0:
192,192,200708,1,0,0:0:0:0:
64,192,200708,1,0,0:0:0:0:
448,192,200875,1,0,0:0:0:0:
320,192,200958,1,0,0:0:0:0:
192,192,201041,1,0,0:0:0:0:
64,192,201041,1,0,0:0:0:0:
448,192,201125,1,0,0:0:0:0:
320,192,201208,1,0,0:0:0:0:
448,192,201291,1,0,0:0:0:0:
64,192,201375,1,0,0:0:0:0:
192,192,201375,1,0,0:0:0:0:
320,192,201541,1,0,0:0:0:0:
448,192,201625,1,0,0:0:0:0:
64,192,201708,1,0,0:0:0:0:
192,192,201708,1,0,0:0:0:0:
320,192,201791,1,0,0:0:0:0:
448,192,201875,1,0,0:0:0:0:
64,192,201958,1,0,0:0:0:0:
192,192,201958,1,0,0:0:0:0:
320,192,202041,1,0,0:0:0:0:
448,192,202125,1,0,0:0:0:0:
192,192,202208,1,0,0:0:0:0:
64,192,202208,1,0,0:0:0:0:
320,192,202375,1,0,0:0:0:0:
448,192,202375,1,0,0:0:0:0:
192,192,202375,1,0,0:0:0:0:
192,192,202541,1,0,0:0:0:0:
64,192,202625,1,0,0:0:0:0:
320,192,202708,1,0,0:0:0:0:
448,192,202708,1,0,0:0:0:0:
64,192,202875,1,0,0:0:0:0:
192,192,202958,1,0,0:0:0:0:
320,192,203041,1,0,0:0:0:0:
448,192,203041,1,0,0:0:0:0:
64,192,203125,1,0,0:0:0:0:
192,192,203208,1,0,0:0:0:0:
320,192,203291,1,0,0:0:0:0:
448,192,203291,1,0,0:0:0:0:
64,192,203458,1,0,0:0:0:0:
192,192,203541,1,0,0:0:0:0:
320,192,203541,1,0,0:0:0:0:
320,192,203708,1,0,0:0:0:0:
448,192,203708,1,0,0:0:0:0:
64,192,203708,1,0,0:0:0:0:
192,192,203875,1,0,0:0:0:0:
64,192,203958,1,0,0:0:0:0:
320,192,204041,1,0,0:0:0:0:
448,192,204041,1,0,0:0:0:0:
448,192,204208,1,0,0:0:0:0:
320,192,204291,1,0,0:0:0:0:
192,192,204375,1,0,0:0:0:0:
64,192,204375,1,0,0:0:0:0:
192,192,204541,1,0,0:0:0:0:
448,192,204625,1,0,0:0:0:0:
320,192,204625,1,0,0:0:0:0:
64,192,204791,1,0,0:0:0:0:
192,192,204875,1,0,0:0:0:0:
320,192,204875,1,0,0:0:0:0:
320,192,205041,1,0,0:0:0:0:
448,192,205041,1,0,0:0:0:0:
192,192,205041,1,0,0:0:0:0:
64,192,205208,1,0,0:0:0:0:
192,192,205291,1,0,0:0:0:0:
320,192,205375,1,0,0:0:0:0:
448,192,205375,1,0,0:0:0:0:
192,192,205541,1,0,0:0:0:0:
64,192,205625,1,0,0:0:0:0:
320,192,205708,1,0,0:0:0:0:
448,192,205708,1,0,0:0:0:0:
64,192,205791,1,0,0:0:0:0:
192,192,205875,1,0,0:0:0:0:
448,192,205958,1,0,0:0:0:0:
64,192,206041,1,0,0:0:0:0:
192,192,206041,1,0,0:0:0:0:
320,192,206125,1,0,0:0:0:0:
448,192,206208,1,0,0:0:0:0:
64,192,206291,1,0,0:0:0:0:
320,192,206375,1,0,0:0:0:0:
192,192,206375,1,0,0:0:0:0:
64,192,207041,1,0,0:0:0:0:
192,192,207041,1,0,0:0:0:0:
448,192,207041,1,0,0:0:0:0:
320,192,207291,1,0,0:0:0:0:
448,192,207291,1,0,0:0:0:0:
64,192,207291,1,0,0:0:0:0:
64,192,207541,1,0,0:0:0:0:
192,192,207541,1,0,0:0:0:0:
448,192,207541,1,0,0:0:0:0:
320,192,207708,1,0,0:0:0:0:
448,192,207708,1,0,0:0:0:0:
192,192,207791,1,0,0:0:0:0:
64,192,207791,1,0,0:0:0:0:
448,192,207875,1,0,0:0:0:0:
320,192,207875,1,0,0:0:0:0:
64,192,208041,1,0,0:0:0:0:
192,192,208041,1,0,0:0:0:0:
320,192,208041,1,0,0:0:0:0:
64,192,208208,1,0,0:0:0:0:
192,192,208291,1,0,0:0:0:0:
320,192,208375,1,0,0:0:0:0:
448,192,208375,1,0,0:0:0:0:
64,192,208625,1,0,0:0:0:0:
192,192,208625,1,0,0:0:0:0:
320,192,208625,1,0,0:0:0:0:
64,192,208875,1,0,0:0:0:0:
192,192,208875,1,0,0:0:0:0:
448,192,208875,1,0,0:0:0:0:
320,192,209041,1,0,0:0:0:0:
448,192,209041,1,0,0:0:0:0:
192,192,209125,1,0,0:0:0:0:
64,192,209208,1,0,0:0:0:0:
448,192,209291,1,0,0:0:0:0:
320,192,209375,1,0,0:0:0:0:
192,192,209375,1,0,0:0:0:0:
64,192,209458,1,0,0:0:0:0:
448,192,209541,1,0,0:0:0:0:
320,192,209625,1,0,0:0:0:0:
192,192,209708,1,0,0:0:0:0:
64,192,209708,1,0,0:0:0:0:
320,192,209875,1,0,0:0:0:0:
64,192,209958,1,0,0:0:0:0:
192,192,209958,1,0,0:0:0:0:
448,192,210125,1,0,0:0:0:0:
192,192,210208,1,0,0:0:0:0:
320,192,210208,1,0,0:0:0:0:
64,192,210375,1,0,0:0:0:0:
192,192,210416,1,0,0:0:0:0:
320,192,210458,1,0,0:0:0:0:
448,192,210541,1,0,0:0:0:0:
64,192,210541,1,0,0:0:0:0:
320,192,210708,1,0,0:0:0:0:
192,192,210708,1,0,0:0:0:0:
448,192,210875,1,0,0:0:0:0:
320,192,210958,1,0,0:0:0:0:
192,192,211041,1,0,0:0:0:0:
64,192,211041,1,0,0:0:0:0:
448,192,211208,1,0,0:0:0:0:
320,192,211291,1,0,0:0:0:0:
64,192,211375,128,0,211708:0:0:0:0:
192,192,211708,1,0,0:0:0:0:
320,192,211708,1,0,0:0:0:0:
448,192,211791,1,0,0:0:0:0:
320,192,211875,1,0,0:0:0:0:
448,192,211958,1,0,0:0:0:0:
192,192,212041,1,0,0:0:0:0:
320,192,212041,1,0,0:0:0:0:
448,192,212208,1,0,0:0:0:0:
320,192,212291,1,0,0:0:0:0:
64,192,212375,1,0,0:0:0:0:
192,192,212375,1,0,0:0:0:0:
448,192,212458,1,0,0:0:0:0:
320,192,212541,1,0,0:0:0:0:
192,192,212625,1,0,0:0:0:0:
64,192,212625,1,0,0:0:0:0:
448,192,212708,1,0,0:0:0:0:
320,192,212791,1,0,0:0:0:0:
192,192,212875,1,0,0:0:0:0:
64,192,212875,1,0,0:0:0:0:
448,192,212958,1,0,0:0:0:0:
320,192,213041,1,0,0:0:0:0:
448,192,213125,1,0,0:0:0:0:
192,192,213208,1,0,0:0:0:0:
64,192,213208,1,0,0:0:0:0:
192,192,213375,1,0,0:0:0:0:
320,192,213375,1,0,0:0:0:0:
448,192,213375,1,0,0:0:0:0:
64,192,213541,1,0,0:0:0:0:
192,192,213625,1,0,0:0:0:0:
448,192,213708,1,0,0:0:0:0:
320,192,213708,1,0,0:0:0:0:
192,192,213875,1,0,0:0:0:0:
320,192,213958,1,0,0:0:0:0:
192,192,214041,1,0,0:0:0:0:
64,192,214041,1,0,0:0:0:0:
448,192,214208,1,0,0:0:0:0:
320,192,214291,1,0,0:0:0:0:
192,192,214375,1,0,0:0:0:0:
64,192,214375,1,0,0:0:0:0:
448,192,214541,1,0,0:0:0:0:
320,192,214625,1,0,0:0:0:0:
192,192,214708,1,0,0:0:0:0:
64,192,214708,1,0,0:0:0:0:
64,192,214875,1,0,0:0:0:0:
192,192,214958,1,0,0:0:0:0:
448,192,215041,1,0,0:0:0:0:
320,192,215041,1,0,0:0:0:0:
320,192,215208,1,0,0:0:0:0:
448,192,215291,1,0,0:0:0:0:
192,192,215375,1,0,0:0:0:0:
64,192,215375,1,0,0:0:0:0:
320,192,215541,1,0,0:0:0:0:
192,192,215625,1,0,0:0:0:0:
320,192,215708,1,0,0:0:0:0:
448,192,215708,1,0,0:0:0:0:
64,192,215875,1,0,0:0:0:0:
192,192,215958,1,0,0:0:0:0:
320,192,216041,1,0,0:0:0:0:
448,192,216041,1,0,0:0:0:0:
64,192,216208,1,0,0:0:0:0:
192,192,216291,1,0,0:0:0:0:
448,192,216375,1,0,0:0:0:0:
320,192,216375,1,0,0:0:0:0:
64,192,216541,1,0,0:0:0:0:
320,192,216708,1,0,0:0:0:0:
64,192,217041,1,0,0:0:0:0:
192,192,217041,1,0,0:0:0:0:
448,192,217041,1,0,0:0:0:0:
