osu file format v14

[General]
AudioFilename: audio.mp3
AudioLeadIn: 0
PreviewTime: 42634
Countdown: 1
SampleSet: None
StackLeniency: 0.7
Mode: 1
LetterboxInBreaks: 0
WidescreenStoryboard: 0

[Editor]
DistanceSpacing: 0.8
BeatDivisor: 4
GridSize: 32
TimelineZoom: 3.599999

[Metadata]
Title:Future Cider
TitleUnicode:Future Cider
Artist:YUC'e
ArtistUnicode:YUC'e
Creator:KinomiCandy
Version:Sweet and Sour
Source:EDP presents ravemania speed
Tags:
BeatmapID:1250904
BeatmapSetID:591058

[Difficulty]
HPDrainRate:6
CircleSize:4
OverallDifficulty:6
ApproachRate:5
SliderMultiplier:1.5
SliderTickRate:1

[Events]
//Background and Video events
0,0,"bg.png",0,80
//Break Periods
//Storyboard Layer 0 (Background)
//Storyboard Layer 1 (Fail)
//Storyboard Layer 2 (Pass)
//Storyboard Layer 3 (Foreground)
//Storyboard Sound Samples

[TimingPoints]
1051,333.333333333333,4,1,0,85,1,0
41050,-99.009900990099,4,1,0,85,0,0
41134,-98.0392156862745,4,1,0,85,0,0
41217,-97.0873786407767,4,1,0,85,0,0
41300,-96.1538461538461,4,1,0,85,0,0
41384,-95.2380952380952,4,1,0,85,0,0
41467,-94.3396226415094,4,1,0,85,0,0
41550,-93.4579439252336,4,1,0,85,0,0
41634,-92.5925925925926,4,1,0,85,0,0
41717,-91.743119266055,4,1,0,85,0,0
41800,-90.9090909090909,4,1,0,85,0,0
41884,-90.0900900900901,4,1,0,85,0,0
41967,-89.2857142857143,4,1,0,85,0,0
42050,-88.4955752212389,4,1,0,85,0,0
42134,-87.719298245614,4,1,0,85,0,0
42217,-86.9565217391304,4,1,0,85,0,0
42300,-86.2068965517241,4,1,0,85,0,0
42384,-85.4700854700855,4,1,0,85,0,0
42467,-83.3333333333333,4,1,0,85,0,0
42800,-76.9230769230769,4,1,0,85,0,0
42967,-71.4285714285714,4,1,0,85,0,0
43550,-33.3333333333333,4,1,0,85,0,0
44050,-83.3333333333333,4,1,0,85,0,1
65050,-83.3333333333333,4,1,0,85,0,0
75800,-100,4,1,0,85,0,0
105050,-99.009900990099,4,1,0,85,0,0
105134,-98.0392156862745,4,1,0,85,0,0
105217,-97.0873786407767,4,1,0,85,0,0
105300,-96.1538461538461,4,1,0,85,0,0
105384,-95.2380952380952,4,1,0,85,0,0
105467,-94.3396226415094,4,1,0,85,0,0
105550,-93.4579439252336,4,1,0,85,0,0
105634,-92.5925925925926,4,1,0,85,0,0
105717,-91.743119266055,4,1,0,85,0,0
105800,-90.9090909090909,4,1,0,85,0,0
105884,-90.0900900900901,4,1,0,85,0,0
105967,-89.2857142857143,4,1,0,85,0,0
106050,-88.4955752212389,4,1,0,85,0,0
106134,-87.719298245614,4,1,0,85,0,0
106217,-86.9565217391304,4,1,0,85,0,0
106300,-86.2068965517241,4,1,0,85,0,0
106384,-85.4700854700855,4,1,0,85,0,0
106467,-83.3333333333333,4,1,0,85,0,0
106800,-76.9230769230769,4,1,0,85,0,0
106967,-71.4285714285714,4,1,0,85,0,0
107384,-33.3333333333333,4,1,0,85,0,0
107717,-83.3333333333333,4,1,0,85,0,1
129050,-83.3333333333333,4,1,0,85,0,0
130384,-86.9565217391304,4,1,0,85,0,0
130717,-90.9090909090909,4,1,0,85,0,0
131050,-95.2380952380952,4,1,0,85,0,0
131384,-100,4,1,0,85,0,0
131717,-105.263157894737,4,1,0,85,0,0
141717,-100,4,1,0,85,0,0
171717,-99.009900990099,4,1,0,85,0,0
171800,-98.0392156862745,4,1,0,85,0,0
171884,-97.0873786407767,4,1,0,85,0,0
171967,-96.1538461538461,4,1,0,85,0,0
172050,-95.2380952380952,4,1,0,85,0,0
172134,-94.3396226415094,4,1,0,85,0,0
172217,-93.4579439252336,4,1,0,85,0,0
172300,-92.5925925925926,4,1,0,85,0,0
172384,-91.743119266055,4,1,0,85,0,0
172467,-90.9090909090909,4,1,0,85,0,0
172550,-90.0900900900901,4,1,0,85,0,0
172634,-89.2857142857143,4,1,0,85,0,0
172717,-88.4955752212389,4,1,0,85,0,0
172800,-87.719298245614,4,1,0,85,0,0
172884,-86.9565217391304,4,1,0,85,0,0
172967,-86.2068965517241,4,1,0,85,0,0
173050,-85.4700854700855,4,1,0,85,0,0
173134,-83.3333333333333,4,1,0,85,0,0
173467,-76.9230769230769,4,1,0,85,0,0
173634,-71.4285714285714,4,1,0,85,0,0
174217,-33.3333333333333,4,1,0,85,0,0
174717,-83.3333333333333,4,1,0,85,0,1
195717,-83.3333333333333,4,1,0,85,0,0
196050,-83.3333333333333,4,1,0,85,0,1
217050,-83.3333333333333,4,1,0,85,0,0
217134,-100,4,1,0,85,0,0
227884,-117.647058823529,4,1,0,85,0,0

[HitObjects]
256,192,1051,5,4,0:0:0:0:
256,192,1384,1,0,0:0:0:0:
256,192,1717,1,8,0:0:0:0:
256,192,2050,1,0,0:0:0:0:
256,192,2217,1,0,0:0:0:0:
256,192,2384,1,8,0:0:0:0:
256,192,2550,1,8,0:0:0:0:
256,192,2717,1,0,0:0:0:0:
256,192,2884,1,0,0:0:0:0:
256,192,3050,1,8,0:0:0:0:
256,192,3384,1,0,0:0:0:0:
256,192,3550,1,8,0:0:0:0:
256,192,3634,1,8,0:0:0:0:
256,192,3717,1,0,0:0:0:0:
256,192,3884,1,8,0:0:0:0:
256,192,4050,1,0,0:0:0:0:
256,192,4217,1,0,0:0:0:0:
256,192,4384,1,8,0:0:0:0:
256,192,4717,1,0,0:0:0:0:
256,192,4884,1,0,0:0:0:0:
256,192,5050,1,8,0:0:0:0:
256,192,5217,1,8,0:0:0:0:
256,192,5384,1,0,0:0:0:0:
256,192,5550,1,0,0:0:0:0:
256,192,5717,1,8,0:0:0:0:
256,192,6050,1,8,0:0:0:0:
256,192,6134,1,8,0:0:0:0:
256,192,6217,1,8,0:0:0:0:
256,192,6300,1,8,0:0:0:0:
256,192,6384,1,0,0:0:0:0:
256,192,6717,1,0,0:0:0:0:
256,192,7050,1,8,0:0:0:0:
256,192,7384,1,0,0:0:0:0:
256,192,7717,1,0,0:0:0:0:
256,192,8050,1,0,0:0:0:0:
256,192,8384,1,8,0:0:0:0:
256,192,8717,1,0,0:0:0:0:
256,192,8884,1,8,0:0:0:0:
256,192,8967,1,8,0:0:0:0:
256,192,9050,1,0,0:0:0:0:
256,192,9384,1,0,0:0:0:0:
256,192,9717,1,8,0:0:0:0:
256,192,10050,1,0,0:0:0:0:
256,192,10384,1,0,0:0:0:0:
256,192,10550,1,0,0:0:0:0:
256,192,10606,1,0,0:0:0:0:
256,192,10662,1,0,0:0:0:0:
256,192,10717,1,8,0:0:0:0:
256,192,10884,1,0,0:0:0:0:
256,192,11050,1,8,0:0:0:0:
256,192,11217,1,0,0:0:0:0:
256,192,11384,1,8,0:0:0:0:
256,192,11439,1,8,0:0:0:0:
256,192,11495,1,8,0:0:0:0:
256,192,11550,1,8,0:0:0:0:
256,192,11606,1,8,0:0:0:0:
256,192,11662,1,8,0:0:0:0:
256,192,11717,1,0,0:0:0:0:
256,192,12050,1,0,0:0:0:0:
256,192,12384,1,8,0:0:0:0:
256,192,12717,1,0,0:0:0:0:
256,192,13050,1,0,0:0:0:0:
256,192,13217,1,8,0:0:0:0:
256,192,13384,1,0,0:0:0:0:
256,192,13550,1,0,0:0:0:0:
256,192,13717,1,8,0:0:0:0:
256,192,14050,1,0,0:0:0:0:
256,192,14384,1,8,0:0:0:0:
256,192,14550,1,8,0:0:0:0:
256,192,14717,1,0,0:0:0:0:
256,192,14884,1,0,0:0:0:0:
256,192,15050,1,8,0:0:0:0:
256,192,15384,1,0,0:0:0:0:
256,192,15550,1,0,0:0:0:0:
256,192,15717,1,8,0:0:0:0:
256,192,15884,1,8,0:0:0:0:
256,192,16050,1,0,0:0:0:0:
256,192,16217,1,0,0:0:0:0:
256,192,16384,1,8,0:0:0:0:
256,192,16717,1,0,0:0:0:0:
256,192,17050,1,0,0:0:0:0:
256,192,17384,1,8,0:0:0:0:
256,192,17717,1,0,0:0:0:0:
256,192,17884,1,0,0:0:0:0:
256,192,18050,1,8,0:0:0:0:
256,192,18384,1,0,0:0:0:0:
256,192,18550,1,0,0:0:0:0:
256,192,18717,1,8,0:0:0:0:
256,192,18884,1,8,0:0:0:0:
256,192,19050,1,0,0:0:0:0:
256,192,19384,1,8,0:0:0:0:
256,192,19717,1,4,0:0:0:0:
256,192,19884,1,0,0:0:0:0:
256,192,20050,1,8,0:0:0:0:
256,192,20217,1,8,0:0:0:0:
256,192,20384,1,0,0:0:0:0:
256,192,20550,1,8,0:0:0:0:
256,192,20717,1,0,0:0:0:0:
256,192,20884,1,0,0:0:0:0:
256,192,21050,1,8,0:0:0:0:
256,192,21384,1,8,0:0:0:0:
256,192,21717,1,8,0:0:0:0:
256,192,21884,1,0,0:0:0:0:
256,192,21967,1,0,0:0:0:0:
256,192,22050,1,8,0:0:0:0:
256,192,22106,1,8,0:0:0:0:
256,192,22162,1,8,0:0:0:0:
256,192,22217,1,0,0:0:0:0:
256,192,22300,1,0,0:0:0:0:
256,192,22384,1,8,0:0:0:0:
256,192,22550,1,0,0:0:0:0:
256,192,22717,1,8,0:0:0:0:
256,192,22884,1,8,0:0:0:0:
256,192,23050,1,0,0:0:0:0:
256,192,23217,1,8,0:0:0:0:
256,192,23384,1,0,0:0:0:0:
256,192,23550,1,4,0:0:0:0:
256,192,24050,1,12,0:0:0:0:
256,192,24384,1,0,0:0:0:0:
256,192,24439,1,0,0:0:0:0:
256,192,24495,1,0,0:0:0:0:
256,192,24550,1,8,0:0:0:0:
256,192,24717,1,8,0:0:0:0:
256,192,24773,1,8,0:0:0:0:
256,192,24828,1,8,0:0:0:0:
256,192,24884,1,0,0:0:0:0:
256,192,24967,1,0,0:0:0:0:
256,192,25050,1,8,0:0:0:0:
256,192,25217,1,0,0:0:0:0:
256,192,25384,1,8,0:0:0:0:
256,192,25550,1,8,0:0:0:0:
256,192,25717,1,0,0:0:0:0:
256,192,25884,1,8,0:0:0:0:
256,192,26050,1,0,0:0:0:0:
256,192,26217,1,4,0:0:0:0:
256,192,26717,1,12,0:0:0:0:
256,192,27050,1,8,0:0:0:0:
256,192,27134,1,8,0:0:0:0:
256,192,27217,1,0,0:0:0:0:
256,192,27273,1,0,0:0:0:0:
256,192,27328,1,0,0:0:0:0:
256,192,27384,1,8,0:0:0:0:
256,192,27717,1,0,0:0:0:0:
256,192,27884,1,8,0:0:0:0:
256,192,28050,1,8,0:0:0:0:
256,192,28217,1,0,0:0:0:0:
256,192,28384,1,8,0:0:0:0:
256,192,28550,1,0,0:0:0:0:
256,192,28717,1,8,0:0:0:0:
256,192,28884,1,4,0:0:0:0:
256,192,29384,1,12,0:0:0:0:
256,192,29717,1,0,0:0:0:0:
256,192,29772,1,0,0:0:0:0:
256,192,29828,1,0,0:0:0:0:
256,192,29883,1,8,0:0:0:0:
256,192,30050,1,8,0:0:0:0:
256,192,30106,1,8,0:0:0:0:
256,192,30161,1,8,0:0:0:0:
256,192,30217,1,0,0:0:0:0:
256,192,30300,1,0,0:0:0:0:
256,192,30383,1,8,0:0:0:0:
256,192,30550,1,0,0:0:0:0:
256,192,30717,1,8,0:0:0:0:
256,192,30800,1,8,0:0:0:0:
256,192,30884,1,0,0:0:0:0:
256,192,30967,1,8,0:0:0:0:
256,192,31050,1,0,0:0:0:0:
256,192,31134,1,0,0:0:0:0:
256,192,31217,1,0,0:0:0:0:
256,192,31300,1,0,0:0:0:0:
256,192,31384,1,8,0:0:0:0:
256,192,31550,1,4,0:0:0:0:
256,192,32050,1,12,0:0:0:0:
256,192,32384,1,8,0:0:0:0:
256,192,32439,1,8,0:0:0:0:
256,192,32495,1,8,0:0:0:0:
256,192,32550,1,0,0:0:0:0:
256,192,32634,1,0,0:0:0:0:
256,192,32717,1,8,0:0:0:0:
256,192,32800,1,8,0:0:0:0:
256,192,32884,1,8,0:0:0:0:
256,192,32967,1,8,0:0:0:0:
256,192,33050,1,0,0:0:0:0:
256,192,33217,1,8,0:0:0:0:
256,192,33300,1,8,0:0:0:0:
256,192,33384,1,0,0:0:0:0:
256,192,33550,1,0,0:0:0:0:
256,192,33634,1,0,0:0:0:0:
256,192,33717,1,8,0:0:0:0:
256,192,33884,1,0,0:0:0:0:
256,192,33967,1,0,0:0:0:0:
256,192,34050,1,8,0:0:0:0:
256,192,34134,1,0,0:0:0:0:
256,192,34217,1,8,0:0:0:0:
256,192,34300,1,8,0:0:0:0:
256,192,34384,1,0,0:0:0:0:
256,192,34550,1,8,0:0:0:0:
256,192,34717,1,0,0:0:0:0:
256,192,34884,1,8,0:0:0:0:
256,192,34939,1,8,0:0:0:0:
256,192,34995,1,8,0:0:0:0:
256,192,35050,1,0,0:0:0:0:
256,192,35134,1,0,0:0:0:0:
256,192,35217,1,0,0:0:0:0:
256,192,35300,1,0,0:0:0:0:
256,192,35384,1,8,0:0:0:0:
256,192,35550,1,8,0:0:0:0:
256,192,35634,1,8,0:0:0:0:
256,192,35717,1,0,0:0:0:0:
256,192,35884,1,8,0:0:0:0:
256,192,35967,1,8,0:0:0:0:
256,192,36050,1,0,0:0:0:0:
256,192,36217,1,0,0:0:0:0:
256,192,36300,1,0,0:0:0:0:
256,192,36384,1,8,0:0:0:0:
256,192,36550,1,0,0:0:0:0:
256,192,36634,1,0,0:0:0:0:
256,192,36717,1,8,0:0:0:0:
256,192,36800,1,0,0:0:0:0:
256,192,36884,1,8,0:0:0:0:
256,192,36967,1,8,0:0:0:0:
256,192,37050,1,0,0:0:0:0:
256,192,37217,1,8,0:0:0:0:
256,192,37384,1,0,0:0:0:0:
256,192,37550,1,8,0:0:0:0:
256,192,37606,1,8,0:0:0:0:
256,192,37662,1,8,0:0:0:0:
256,192,37717,1,0,0:0:0:0:
256,192,37800,1,0,0:0:0:0:
256,192,37884,1,0,0:0:0:0:
256,192,37967,1,0,0:0:0:0:
256,192,38050,1,8,0:0:0:0:
256,192,38384,1,12,0:0:0:0:
256,192,38550,1,8,0:0:0:0:
256,192,38717,1,0,0:0:0:0:
256,192,38884,1,0,0:0:0:0:
256,192,39050,1,8,0:0:0:0:
256,192,39217,1,8,0:0:0:0:
256,192,39384,1,0,0:0:0:0:
256,192,39550,1,0,0:0:0:0:
256,192,39606,1,0,0:0:0:0:
256,192,39662,1,0,0:0:0:0:
256,192,39717,1,8,0:0:0:0:
256,192,39884,1,8,0:0:0:0:
256,192,40050,1,0,0:0:0:0:
256,192,40217,1,0,0:0:0:0:
256,192,40384,1,8,0:0:0:0:
256,192,40550,1,8,0:0:0:0:
256,192,40717,1,0,0:0:0:0:
256,192,40884,1,8,0:0:0:0:
256,192,40967,1,8,0:0:0:0:
256,192,41050,1,0,0:0:0:0:
256,192,41134,1,8,0:0:0:0:
256,192,41217,1,0,0:0:0:0:
256,192,41300,1,0,0:0:0:0:
256,192,41384,1,0,0:0:0:0:
256,192,41467,1,8,0:0:0:0:
256,192,41550,1,0,0:0:0:0:
256,192,41634,1,0,0:0:0:0:
256,192,41717,1,8,0:0:0:0:
256,192,41800,1,8,0:0:0:0:
256,192,41884,1,0,0:0:0:0:
256,192,41967,1,8,0:0:0:0:
256,192,42050,1,0,0:0:0:0:
256,192,42134,1,0,0:0:0:0:
256,192,42217,1,8,0:0:0:0:
256,192,42300,1,8,0:0:0:0:
256,192,42384,1,0,0:0:0:0:
256,192,42550,1,8,0:0:0:0:
256,192,42634,1,8,0:0:0:0:
256,192,42717,1,0,0:0:0:0:
256,192,42884,1,8,0:0:0:0:
256,192,43050,1,0,0:0:0:0:
256,192,43384,1,8,0:0:0:0:
256,192,43717,1,12,0:0:0:0:
256,192,44050,1,4,0:0:0:0:
256,192,44217,1,8,0:0:0:0:
256,192,44384,1,0,0:0:0:0:
256,192,44467,1,8,0:0:0:0:
256,192,44550,1,8,0:0:0:0:
256,192,44634,1,0,0:0:0:0:
256,192,44717,1,8,0:0:0:0:
256,192,44800,1,8,0:0:0:0:
256,192,44884,1,0,0:0:0:0:
256,192,44967,1,0,0:0:0:0:
256,192,45050,1,8,0:0:0:0:
256,192,45217,1,0,0:0:0:0:
256,192,45273,1,0,0:0:0:0:
256,192,45328,1,0,0:0:0:0:
256,192,45384,1,8,0:0:0:0:
256,192,45550,1,0,0:0:0:0:
256,192,45717,1,0,0:0:0:0:
256,192,45800,1,8,0:0:0:0:
256,192,45884,1,8,0:0:0:0:
256,192,45967,1,0,0:0:0:0:
256,192,46050,1,8,0:0:0:0:
256,192,46134,1,0,0:0:0:0:
256,192,46217,1,0,0:0:0:0:
256,192,46300,1,0,0:0:0:0:
256,192,46384,1,8,0:0:0:0:
256,192,46550,1,8,0:0:0:0:
256,192,46634,1,8,0:0:0:0:
256,192,46717,1,0,0:0:0:0:
256,192,46884,1,8,0:0:0:0:
256,192,47050,1,0,0:0:0:0:
256,192,47134,1,0,0:0:0:0:
256,192,47217,1,0,0:0:0:0:
256,192,47300,1,8,0:0:0:0:
256,192,47384,1,0,0:0:0:0:
256,192,47467,1,0,0:0:0:0:
256,192,47550,1,8,0:0:0:0:
256,192,47634,1,8,0:0:0:0:
256,192,47717,1,0,0:0:0:0:
256,192,47884,1,8,0:0:0:0:
256,192,47939,1,8,0:0:0:0:
256,192,47995,1,8,0:0:0:0:
256,192,48050,1,0,0:0:0:0:
256,192,48134,1,8,0:0:0:0:
256,192,48217,1,0,0:0:0:0:
256,192,48300,1,0,0:0:0:0:
256,192,48384,1,0,0:0:0:0:
256,192,48467,1,0,0:0:0:0:
256,192,48550,1,8,0:0:0:0:
256,192,48606,1,8,0:0:0:0:
256,192,48662,1,8,0:0:0:0:
256,192,48717,1,0,0:0:0:0:
256,192,48800,1,0,0:0:0:0:
256,192,48884,1,8,0:0:0:0:
256,192,48967,1,8,0:0:0:0:
256,192,49050,1,0,0:0:0:0:
256,192,49217,1,8,0:0:0:0:
256,192,49300,1,8,0:0:0:0:
256,192,49384,1,0,0:0:0:0:
256,192,49550,1,8,0:0:0:0:
256,192,49634,1,8,0:0:0:0:
256,192,49717,1,0,0:0:0:0:
256,192,49800,1,8,0:0:0:0:
256,192,49884,1,8,0:0:0:0:
256,192,49967,1,0,0:0:0:0:
256,192,50050,1,8,0:0:0:0:
256,192,50134,1,8,0:0:0:0:
256,192,50217,1,0,0:0:0:0:
256,192,50300,1,0,0:0:0:0:
256,192,50384,1,8,0:0:0:0:
256,192,50550,1,0,0:0:0:0:
256,192,50606,1,0,0:0:0:0:
256,192,50662,1,0,0:0:0:0:
256,192,50717,1,8,0:0:0:0:
256,192,50884,1,0,0:0:0:0:
256,192,51050,1,8,0:0:0:0:
256,192,51134,1,8,0:0:0:0:
256,192,51217,1,0,0:0:0:0:
256,192,51300,1,8,0:0:0:0:
256,192,51384,1,0,0:0:0:0:
256,192,51467,1,0,0:0:0:0:
256,192,51550,1,8,0:0:0:0:
256,192,51634,1,8,0:0:0:0:
256,192,51717,1,0,0:0:0:0:
256,192,51884,1,0,0:0:0:0:
256,192,51967,1,0,0:0:0:0:
256,192,52050,1,8,0:0:0:0:
256,192,52217,1,8,0:0:0:0:
256,192,52300,1,8,0:0:0:0:
256,192,52384,1,0,0:0:0:0:
256,192,52550,1,8,0:0:0:0:
256,192,52634,1,0,0:0:0:0:
256,192,52800,1,0,0:0:0:0:
256,192,52884,1,8,0:0:0:0:
256,192,53050,1,0,0:0:0:0:
256,192,53217,1,0,0:0:0:0:
256,192,53273,1,0,0:0:0:0:
256,192,53328,1,0,0:0:0:0:
256,192,53384,1,8,0:0:0:0:
256,192,53550,1,8,0:0:0:0:
256,192,53634,1,8,0:0:0:0:
256,192,53717,1,0,0:0:0:0:
256,192,53884,1,8,0:0:0:0:
256,192,53967,1,8,0:0:0:0:
256,192,54050,1,0,0:0:0:0:
256,192,54134,1,0,0:0:0:0:
256,192,54217,1,0,0:0:0:0:
256,192,54300,1,0,0:0:0:0:
256,192,54384,1,8,0:0:0:0:
256,192,54717,1,8,0:0:0:0:
256,192,54800,1,8,0:0:0:0:
256,192,54884,1,8,0:0:0:0:
256,192,54967,1,8,0:0:0:0:
256,192,55050,1,0,0:0:0:0:
256,192,55217,1,8,0:0:0:0:
256,192,55300,1,0,0:0:0:0:
256,192,55467,1,0,0:0:0:0:
256,192,55550,1,8,0:0:0:0:
256,192,55717,1,0,0:0:0:0:
256,192,55773,1,0,0:0:0:0:
256,192,55828,1,0,0:0:0:0:
256,192,55884,1,8,0:0:0:0:
256,192,56050,1,0,0:0:0:0:
256,192,56217,1,0,0:0:0:0:
256,192,56300,1,0,0:0:0:0:
256,192,56384,1,8,0:0:0:0:
256,192,56467,1,0,0:0:0:0:
256,192,56550,1,8,0:0:0:0:
256,192,56634,1,8,0:0:0:0:
256,192,56717,1,0,0:0:0:0:
256,192,56800,1,0,0:0:0:0:
256,192,56884,1,8,0:0:0:0:
256,192,56967,1,8,0:0:0:0:
256,192,57050,1,0,0:0:0:0:
256,192,57217,1,0,0:0:0:0:
256,192,57300,1,0,0:0:0:0:
256,192,57384,1,0,0:0:0:0:
256,192,57550,1,0,0:0:0:0:
256,192,57634,1,8,0:0:0:0:
256,192,57717,1,8,0:0:0:0:
256,192,57800,1,8,0:0:0:0:
256,192,57884,1,0,0:0:0:0:
256,192,57967,1,0,0:0:0:0:
256,192,58050,1,8,0:0:0:0:
256,192,58134,1,8,0:0:0:0:
256,192,58217,1,0,0:0:0:0:
256,192,58300,1,0,0:0:0:0:
256,192,58384,1,8,0:0:0:0:
256,192,58439,1,8,0:0:0:0:
256,192,58495,1,8,0:0:0:0:
256,192,58550,1,0,0:0:0:0:
256,192,58717,1,0,0:0:0:0:
256,192,58884,1,8,0:0:0:0:
256,192,58967,1,8,0:0:0:0:
256,192,59050,1,0,0:0:0:0:
256,192,59217,1,0,0:0:0:0:
256,192,59384,1,8,0:0:0:0:
256,192,59439,1,8,0:0:0:0:
256,192,59495,1,8,0:0:0:0:
256,192,59550,1,8,0:0:0:0:
256,192,59606,1,8,0:0:0:0:
256,192,59662,1,8,0:0:0:0:
256,192,59717,1,0,0:0:0:0:
256,192,59884,1,8,0:0:0:0:
256,192,59967,1,8,0:0:0:0:
256,192,60050,1,0,0:0:0:0:
256,192,60217,1,0,0:0:0:0:
256,192,60300,1,0,0:0:0:0:
256,192,60384,1,8,0:0:0:0:
256,192,60550,1,0,0:0:0:0:
256,192,60634,1,8,0:0:0:0:
256,192,60800,1,8,0:0:0:0:
256,192,60884,1,0,0:0:0:0:
256,192,61050,1,0,0:0:0:0:
256,192,61106,1,0,0:0:0:0:
256,192,61162,1,0,0:0:0:0:
256,192,61217,1,8,0:0:0:0:
256,192,61384,1,0,0:0:0:0:
256,192,61550,1,0,0:0:0:0:
256,192,61634,1,0,0:0:0:0:
256,192,61717,1,8,0:0:0:0:
256,192,61884,1,8,0:0:0:0:
256,192,61967,1,8,0:0:0:0:
256,192,62050,1,0,0:0:0:0:
256,192,62217,1,8,0:0:0:0:
256,192,62300,1,8,0:0:0:0:
256,192,62384,1,0,0:0:0:0:
256,192,62550,1,0,0:0:0:0:
256,192,62634,1,0,0:0:0:0:
256,192,62717,1,8,0:0:0:0:
256,192,62884,1,0,0:0:0:0:
256,192,62967,1,0,0:0:0:0:
256,192,63050,1,8,0:0:0:0:
256,192,63134,1,8,0:0:0:0:
256,192,63217,1,0,0:0:0:0:
256,192,63384,1,8,0:0:0:0:
256,192,63467,1,8,0:0:0:0:
256,192,63550,1,0,0:0:0:0:
256,192,63717,1,8,0:0:0:0:
256,192,63773,1,8,0:0:0:0:
256,192,63828,1,8,0:0:0:0:
256,192,63884,1,0,0:0:0:0:
256,192,63967,1,0,0:0:0:0:
256,192,64050,1,8,0:0:0:0:
256,192,64134,1,8,0:0:0:0:
256,192,64217,1,8,0:0:0:0:
256,192,64300,1,8,0:0:0:0:
256,192,64384,1,0,0:0:0:0:
256,192,64550,1,0,0:0:0:0:
256,192,64717,1,8,0:0:0:0:
256,192,64884,1,8,0:0:0:0:
256,192,65050,1,4,0:0:0:0:
256,192,65384,1,12,0:0:0:0:
256,192,65717,1,4,0:0:0:0:
256,192,65967,1,4,0:0:0:0:
256,192,66217,1,12,0:0:0:0:
256,192,66384,1,0,0:0:0:0:
256,192,66467,1,0,0:0:0:0:
256,192,66550,1,0,0:0:0:0:
256,192,66717,1,8,0:0:0:0:
256,192,66884,1,0,0:0:0:0:
256,192,66967,1,0,0:0:0:0:
256,192,67050,1,0,0:0:0:0:
256,192,67217,1,0,0:0:0:0:
256,192,67384,1,8,0:0:0:0:
256,192,67439,1,8,0:0:0:0:
256,192,67495,1,8,0:0:0:0:
256,192,67550,1,8,0:0:0:0:
256,192,67717,1,4,0:0:0:0:
256,192,68050,1,12,0:0:0:0:
256,192,68384,1,0,0:0:0:0:
256,192,68467,1,0,0:0:0:0:
256,192,68550,1,8,0:0:0:0:
256,192,68634,1,8,0:0:0:0:
256,192,68717,1,8,0:0:0:0:
256,192,68884,1,0,0:0:0:0:
256,192,68967,1,8,0:0:0:0:
256,192,69050,1,0,0:0:0:0:
256,192,69134,1,0,0:0:0:0:
256,192,69217,1,8,0:0:0:0:
256,192,69384,1,8,0:0:0:0:
256,192,69550,1,0,0:0:0:0:
256,192,69634,1,0,0:0:0:0:
256,192,69717,1,8,0:0:0:0:
256,192,69800,1,8,0:0:0:0:
256,192,69884,1,8,0:0:0:0:
256,192,69967,1,8,0:0:0:0:
256,192,70050,1,0,0:0:0:0:
256,192,70384,1,4,0:0:0:0:
256,192,70717,1,4,0:0:0:0:
256,192,71050,1,12,0:0:0:0:
256,192,71384,1,12,0:0:0:0:
256,192,71550,1,0,0:0:0:0:
256,192,71606,1,0,0:0:0:0:
256,192,71662,1,0,0:0:0:0:
256,192,71717,1,0,0:0:0:0:
256,192,72050,1,4,0:0:0:0:
256,192,72384,1,12,0:0:0:0:
256,192,72717,1,12,0:0:0:0:
256,192,72884,1,0,0:0:0:0:
256,192,72939,1,0,0:0:0:0:
256,192,72995,1,0,0:0:0:0:
256,192,73050,1,0,0:0:0:0:
256,192,73217,1,0,0:0:0:0:
256,192,73384,1,8,0:0:0:0:
256,192,73550,1,8,0:0:0:0:
256,192,73717,1,0,0:0:0:0:
256,192,73884,1,0,0:0:0:0:
256,192,74050,1,8,0:0:0:0:
256,192,74217,1,8,0:0:0:0:
256,192,74384,1,0,0:0:0:0:
256,192,74550,1,8,0:0:0:0:
256,192,74717,1,0,0:0:0:0:
256,192,74884,1,8,0:0:0:0:
256,192,75050,1,0,0:0:0:0:
256,192,75134,1,0,0:0:0:0:
256,192,75217,1,8,0:0:0:0:
256,192,75300,1,8,0:0:0:0:
256,192,75384,1,8,0:0:0:0:
256,192,75467,1,8,0:0:0:0:
256,192,75550,1,8,0:0:0:0:
256,192,75634,1,8,0:0:0:0:
256,192,75717,1,0,0:0:0:0:
256,192,75884,1,0,0:0:0:0:
256,192,76050,1,8,0:0:0:0:
256,192,76217,1,8,0:0:0:0:
256,192,76550,1,0,0:0:0:0:
256,192,76717,1,8,0:0:0:0:
256,192,76884,1,0,0:0:0:0:
256,192,77050,1,0,0:0:0:0:
256,192,77217,1,8,0:0:0:0:
256,192,77384,1,8,0:0:0:0:
256,192,77717,1,0,0:0:0:0:
256,192,77884,1,8,0:0:0:0:
256,192,78050,1,0,0:0:0:0:
256,192,78217,1,8,0:0:0:0:
256,192,78300,1,8,0:0:0:0:
256,192,78384,1,0,0:0:0:0:
256,192,78550,1,0,0:0:0:0:
256,192,78717,1,8,0:0:0:0:
256,192,78884,1,8,0:0:0:0:
256,192,79217,1,0,0:0:0:0:
256,192,79384,1,8,0:0:0:0:
256,192,79550,1,8,0:0:0:0:
256,192,79717,1,0,0:0:0:0:
256,192,79884,1,0,0:0:0:0:
256,192,80050,1,8,0:0:0:0:
256,192,80384,1,0,0:0:0:0:
256,192,80550,1,0,0:0:0:0:
256,192,80717,1,8,0:0:0:0:
256,192,80884,1,8,0:0:0:0:
256,192,80967,1,8,0:0:0:0:
256,192,81050,1,0,0:0:0:0:
256,192,81217,1,0,0:0:0:0:
256,192,81384,1,8,0:0:0:0:
256,192,81550,1,8,0:0:0:0:
256,192,81884,1,0,0:0:0:0:
256,192,82050,1,8,0:0:0:0:
256,192,82217,1,8,0:0:0:0:
256,192,82384,1,0,0:0:0:0:
256,192,82550,1,0,0:0:0:0:
256,192,82717,1,8,0:0:0:0:
256,192,83050,1,0,0:0:0:0:
256,192,83217,1,0,0:0:0:0:
256,192,83384,1,8,0:0:0:0:
256,192,83550,1,8,0:0:0:0:
256,192,83634,1,8,0:0:0:0:
256,192,83717,1,0,0:0:0:0:
256,192,83884,1,0,0:0:0:0:
256,192,84050,1,8,0:0:0:0:
256,192,84217,1,8,0:0:0:0:
256,192,84550,1,0,0:0:0:0:
256,192,84717,1,8,0:0:0:0:
256,192,84884,1,0,0:0:0:0:
256,192,85217,1,0,0:0:0:0:
256,192,85384,1,8,0:0:0:0:
256,192,85717,1,0,0:0:0:0:
256,192,85884,1,0,0:0:0:0:
256,192,86050,1,8,0:0:0:0:
256,192,86217,1,8,0:0:0:0:
256,192,86384,5,4,0:0:0:0:
256,192,86550,1,0,0:0:0:0:
256,192,86717,1,8,0:0:0:0:
256,192,86884,1,0,0:0:0:0:
256,192,86967,1,8,0:0:0:0:
256,192,87050,1,0,0:0:0:0:
256,192,87134,1,0,0:0:0:0:
256,192,87217,1,0,0:0:0:0:
256,192,87300,1,0,0:0:0:0:
256,192,87384,1,8,0:0:0:0:
256,192,87550,1,8,0:0:0:0:
256,192,87634,1,8,0:0:0:0:
256,192,87717,1,0,0:0:0:0:
256,192,87884,1,0,0:0:0:0:
256,192,88050,1,8,0:0:0:0:
256,192,88217,1,0,0:0:0:0:
256,192,88300,1,8,0:0:0:0:
256,192,88384,1,0,0:0:0:0:
256,192,88550,1,0,0:0:0:0:
256,192,88717,1,8,0:0:0:0:
256,192,88884,1,8,0:0:0:0:
256,192,88967,1,8,0:0:0:0:
256,192,89050,1,0,0:0:0:0:
256,192,89217,1,0,0:0:0:0:
256,192,89384,1,8,0:0:0:0:
256,192,89550,1,0,0:0:0:0:
256,192,89634,1,0,0:0:0:0:
256,192,89717,1,0,0:0:0:0:
256,192,89884,1,0,0:0:0:0:
256,192,90050,1,8,0:0:0:0:
256,192,90134,1,8,0:0:0:0:
256,192,90217,1,0,0:0:0:0:
256,192,90300,1,0,0:0:0:0:
256,192,90384,1,0,0:0:0:0:
256,192,90550,1,0,0:0:0:0:
256,192,90717,1,8,0:0:0:0:
256,192,90884,1,8,0:0:0:0:
256,192,90967,1,8,0:0:0:0:
256,192,91050,1,0,0:0:0:0:
256,192,91217,1,0,0:0:0:0:
256,192,91300,1,0,0:0:0:0:
256,192,91384,1,8,0:0:0:0:
256,192,91550,1,8,0:0:0:0:
256,192,91717,1,4,0:0:0:0:
256,192,91884,1,0,0:0:0:0:
256,192,92050,1,8,0:0:0:0:
256,192,92217,1,0,0:0:0:0:
256,192,92300,1,8,0:0:0:0:
256,192,92384,1,8,0:0:0:0:
256,192,92467,1,8,0:0:0:0:
256,192,92550,1,0,0:0:0:0:
256,192,92634,1,0,0:0:0:0:
256,192,92717,1,8,0:0:0:0:
256,192,92884,1,8,0:0:0:0:
256,192,92967,1,8,0:0:0:0:
256,192,93050,1,0,0:0:0:0:
256,192,93217,1,0,0:0:0:0:
256,192,93384,1,8,0:0:0:0:
256,192,93550,1,0,0:0:0:0:
256,192,93634,1,0,0:0:0:0:
256,192,93717,1,0,0:0:0:0:
256,192,93884,1,0,0:0:0:0:
256,192,94050,1,8,0:0:0:0:
256,192,94217,1,8,0:0:0:0:
256,192,94384,1,0,0:0:0:0:
256,192,94550,1,0,0:0:0:0:
256,192,94717,1,8,0:0:0:0:
256,192,94884,1,0,0:0:0:0:
256,192,94967,1,0,0:0:0:0:
256,192,95050,1,0,0:0:0:0:
256,192,95134,1,8,0:0:0:0:
256,192,95217,1,0,0:0:0:0:
256,192,95384,1,8,0:0:0:0:
256,192,95550,1,8,0:0:0:0:
256,192,95634,1,8,0:0:0:0:
256,192,95717,1,0,0:0:0:0:
256,192,95884,1,0,0:0:0:0:
256,192,96050,1,8,0:0:0:0:
256,192,96217,1,0,0:0:0:0:
256,192,96384,1,8,0:0:0:0:
256,192,96439,1,8,0:0:0:0:
256,192,96495,1,8,0:0:0:0:
256,192,96550,1,0,0:0:0:0:
256,192,96634,1,0,0:0:0:0:
256,192,96717,1,8,0:0:0:0:
256,192,96773,1,8,0:0:0:0:
256,192,96828,1,8,0:0:0:0:
256,192,96884,1,0,0:0:0:0:
256,192,96967,1,0,0:0:0:0:
256,192,97050,1,8,0:0:0:0:
256,192,97384,1,8,0:0:0:0:
256,192,97717,1,8,0:0:0:0:
256,192,98050,1,8,0:0:0:0:
256,192,98384,1,8,0:0:0:0:
256,192,98717,1,8,0:0:0:0:
256,192,99050,1,8,0:0:0:0:
256,192,99384,1,8,0:0:0:0:
256,192,99550,1,0,0:0:0:0:
256,192,99717,1,8,0:0:0:0:
256,192,100050,1,8,0:0:0:0:
256,192,100384,1,8,0:0:0:0:
256,192,100717,1,8,0:0:0:0:
256,192,101050,1,8,0:0:0:0:
256,192,101384,1,8,0:0:0:0:
256,192,101717,1,8,0:0:0:0:
256,192,102050,1,12,0:0:0:0:
256,192,102217,1,8,0:0:0:0:
256,192,102384,1,0,0:0:0:0:
256,192,102550,1,0,0:0:0:0:
256,192,102717,1,8,0:0:0:0:
256,192,102884,1,8,0:0:0:0:
256,192,103050,1,0,0:0:0:0:
256,192,103217,1,0,0:0:0:0:
256,192,103384,1,8,0:0:0:0:
256,192,103550,1,8,0:0:0:0:
256,192,103717,1,0,0:0:0:0:
256,192,103884,1,8,0:0:0:0:
256,192,104050,1,0,0:0:0:0:
256,192,104217,1,0,0:0:0:0:
256,192,104384,1,8,0:0:0:0:
256,192,104550,1,8,0:0:0:0:
256,192,104717,1,0,0:0:0:0:
256,192,104884,1,0,0:0:0:0:
256,192,105050,1,8,0:0:0:0:
256,192,105134,1,8,0:0:0:0:
256,192,105217,1,8,0:0:0:0:
256,192,105300,1,8,0:0:0:0:
256,192,105384,1,0,0:0:0:0:
256,192,105467,1,0,0:0:0:0:
256,192,105550,1,0,0:0:0:0:
256,192,105634,1,0,0:0:0:0:
256,192,105717,1,8,0:0:0:0:
256,192,105800,1,8,0:0:0:0:
256,192,105884,1,0,0:0:0:0:
256,192,105967,1,8,0:0:0:0:
256,192,106050,1,0,0:0:0:0:
256,192,106134,1,0,0:0:0:0:
256,192,106217,1,8,0:0:0:0:
256,192,106300,1,8,0:0:0:0:
256,192,106384,1,0,0:0:0:0:
256,192,106550,1,8,0:0:0:0:
256,192,106634,1,8,0:0:0:0:
256,192,106717,1,0,0:0:0:0:
256,192,106884,1,8,0:0:0:0:
256,192,107050,1,0,0:0:0:0:
256,192,107384,1,12,0:0:0:0:
256,192,107717,5,0,0:0:0:0:
256,192,107800,1,0,0:0:0:0:
256,192,107884,1,8,0:0:0:0:
256,192,107967,1,8,0:0:0:0:
256,192,108050,1,0,0:0:0:0:
256,192,108134,1,8,0:0:0:0:
256,192,108217,1,0,0:0:0:0:
256,192,108300,1,0,0:0:0:0:
256,192,108384,1,8,0:0:0:0:
256,192,108467,1,8,0:0:0:0:
256,192,108550,1,0,0:0:0:0:
256,192,108634,1,8,0:0:0:0:
256,192,108717,1,0,0:0:0:0:
256,192,108800,1,0,0:0:0:0:
256,192,108884,1,8,0:0:0:0:
256,192,108939,1,8,0:0:0:0:
256,192,108995,1,8,0:0:0:0:
256,192,109050,1,0,0:0:0:0:
256,192,109134,1,8,0:0:0:0:
256,192,109217,1,0,0:0:0:0:
256,192,109300,1,0,0:0:0:0:
256,192,109384,1,8,0:0:0:0:
256,192,109439,1,8,0:0:0:0:
256,192,109495,1,8,0:0:0:0:
256,192,109550,1,0,0:0:0:0:
256,192,109634,1,0,0:0:0:0:
256,192,109717,1,8,0:0:0:0:
256,192,109884,1,0,0:0:0:0:
256,192,109939,1,0,0:0:0:0:
256,192,109995,1,0,0:0:0:0:
256,192,110050,1,8,0:0:0:0:
256,192,110217,1,8,0:0:0:0:
256,192,110273,1,8,0:0:0:0:
256,192,110328,1,8,0:0:0:0:
256,192,110384,1,0,0:0:0:0:
256,192,110467,1,0,0:0:0:0:
256,192,110550,1,8,0:0:0:0:
256,192,110634,1,8,0:0:0:0:
256,192,110717,1,0,0:0:0:0:
256,192,110800,1,8,0:0:0:0:
256,192,110884,1,0,0:0:0:0:
256,192,110967,1,0,0:0:0:0:
256,192,111050,1,8,0:0:0:0:
256,192,111134,1,8,0:0:0:0:
256,192,111217,1,8,0:0:0:0:
256,192,111300,1,8,0:0:0:0:
256,192,111384,1,0,0:0:0:0:
256,192,111467,1,0,0:0:0:0:
256,192,111550,1,8,0:0:0:0:
256,192,111634,1,8,0:0:0:0:
256,192,111717,1,0,0:0:0:0:
256,192,111800,1,8,0:0:0:0:
256,192,111884,1,0,0:0:0:0:
256,192,111967,1,0,0:0:0:0:
256,192,112050,1,8,0:0:0:0:
256,192,112134,1,8,0:0:0:0:
256,192,112217,1,0,0:0:0:0:
256,192,112300,1,0,0:0:0:0:
256,192,112384,1,8,0:0:0:0:
256,192,112550,1,4,0:0:0:0:
256,192,112717,1,8,0:0:0:0:
256,192,112800,1,8,0:0:0:0:
256,192,112884,1,8,0:0:0:0:
256,192,112967,1,8,0:0:0:0:
256,192,113050,1,0,0:0:0:0:
256,192,113134,1,0,0:0:0:0:
256,192,113217,1,8,0:0:0:0:
256,192,113300,1,8,0:0:0:0:
256,192,113384,1,0,0:0:0:0:
256,192,113467,1,8,0:0:0:0:
256,192,113550,1,0,0:0:0:0:
256,192,113634,1,0,0:0:0:0:
256,192,113717,1,8,0:0:0:0:
256,192,113800,1,8,0:0:0:0:
256,192,113884,1,0,0:0:0:0:
256,192,113967,1,8,0:0:0:0:
256,192,114050,1,0,0:0:0:0:
256,192,114134,1,0,0:0:0:0:
256,192,114217,1,8,0:0:0:0:
256,192,114273,1,8,0:0:0:0:
256,192,114328,1,8,0:0:0:0:
256,192,114384,1,0,0:0:0:0:
256,192,114467,1,8,0:0:0:0:
256,192,114550,1,0,0:0:0:0:
256,192,114634,1,0,0:0:0:0:
256,192,114717,1,8,0:0:0:0:
256,192,114773,1,8,0:0:0:0:
256,192,114828,1,8,0:0:0:0:
256,192,114884,1,0,0:0:0:0:
256,192,114967,1,0,0:0:0:0:
256,192,115050,1,8,0:0:0:0:
256,192,115217,1,0,0:0:0:0:
256,192,115273,1,0,0:0:0:0:
256,192,115328,1,0,0:0:0:0:
256,192,115384,1,8,0:0:0:0:
256,192,115550,1,8,0:0:0:0:
256,192,115606,1,8,0:0:0:0:
256,192,115662,1,8,0:0:0:0:
256,192,115717,1,0,0:0:0:0:
256,192,115800,1,0,0:0:0:0:
256,192,115884,1,8,0:0:0:0:
256,192,115967,1,8,0:0:0:0:
256,192,116050,1,0,0:0:0:0:
256,192,116134,1,8,0:0:0:0:
256,192,116217,1,0,0:0:0:0:
256,192,116300,1,0,0:0:0:0:
256,192,116384,1,8,0:0:0:0:
256,192,116467,1,8,0:0:0:0:
256,192,116550,1,8,0:0:0:0:
256,192,116634,1,8,0:0:0:0:
256,192,116717,1,0,0:0:0:0:
256,192,116800,1,0,0:0:0:0:
256,192,116884,1,8,0:0:0:0:
256,192,116967,1,8,0:0:0:0:
256,192,117050,1,0,0:0:0:0:
256,192,117134,1,8,0:0:0:0:
256,192,117217,1,0,0:0:0:0:
256,192,117300,1,0,0:0:0:0:
256,192,117384,1,8,0:0:0:0:
256,192,117467,1,8,0:0:0:0:
256,192,117550,1,8,0:0:0:0:
256,192,117634,1,8,0:0:0:0:
256,192,117717,1,0,0:0:0:0:
256,192,117884,1,4,0:0:0:0:
256,192,118050,1,12,0:0:0:0:
256,192,118217,1,12,0:0:0:0:
256,192,118384,1,4,0:0:0:0:
256,192,118550,1,8,0:0:0:0:
256,192,118634,1,8,0:0:0:0:
256,192,118717,1,0,0:0:0:0:
256,192,118884,1,8,0:0:0:0:
256,192,119050,1,0,0:0:0:0:
256,192,119134,1,8,0:0:0:0:
256,192,119217,1,8,0:0:0:0:
256,192,119300,1,0,0:0:0:0:
256,192,119384,1,8,0:0:0:0:
256,192,119467,1,8,0:0:0:0:
256,192,119550,1,0,0:0:0:0:
256,192,119634,1,8,0:0:0:0:
256,192,119717,1,8,0:0:0:0:
256,192,119800,1,8,0:0:0:0:
256,192,119884,1,0,0:0:0:0:
256,192,120050,1,8,0:0:0:0:
256,192,120217,1,0,0:0:0:0:
256,192,120300,1,0,0:0:0:0:
256,192,120384,1,0,0:0:0:0:
256,192,120550,1,0,0:0:0:0:
256,192,120717,1,8,0:0:0:0:
256,192,120773,1,8,0:0:0:0:
256,192,120828,1,8,0:0:0:0:
256,192,120884,1,8,0:0:0:0:
256,192,120939,1,8,0:0:0:0:
256,192,120995,1,8,0:0:0:0:
256,192,121050,1,0,0:0:0:0:
256,192,121217,1,8,0:0:0:0:
256,192,121300,1,8,0:0:0:0:
256,192,121384,1,0,0:0:0:0:
256,192,121550,1,8,0:0:0:0:
256,192,121717,1,8,0:0:0:0:
256,192,121800,1,8,0:0:0:0:
256,192,121884,1,8,0:0:0:0:
256,192,121967,1,8,0:0:0:0:
256,192,122050,1,0,0:0:0:0:
256,192,122134,1,0,0:0:0:0:
256,192,122217,1,8,0:0:0:0:
256,192,122300,1,8,0:0:0:0:
256,192,122384,1,0,0:0:0:0:
256,192,122467,1,8,0:0:0:0:
256,192,122550,1,0,0:0:0:0:
256,192,122606,1,0,0:0:0:0:
256,192,122662,1,0,0:0:0:0:
256,192,122717,1,8,0:0:0:0:
256,192,122884,1,0,0:0:0:0:
256,192,123050,1,8,0:0:0:0:
256,192,123134,1,8,0:0:0:0:
256,192,123217,1,8,0:0:0:0:
256,192,123300,1,8,0:0:0:0:
256,192,123384,1,0,0:0:0:0:
256,192,123717,1,0,0:0:0:0:
256,192,123800,1,8,0:0:0:0:
256,192,123884,1,8,0:0:0:0:
256,192,123967,1,8,0:0:0:0:
256,192,124050,1,0,0:0:0:0:
256,192,124134,1,8,0:0:0:0:
256,192,124217,1,8,0:0:0:0:
256,192,124300,1,8,0:0:0:0:
256,192,124384,1,0,0:0:0:0:
256,192,124467,1,0,0:0:0:0:
256,192,124550,1,8,0:0:0:0:
256,192,124634,1,8,0:0:0:0:
256,192,124717,1,0,0:0:0:0:
256,192,124800,1,0,0:0:0:0:
256,192,124884,1,8,0:0:0:0:
256,192,124939,1,8,0:0:0:0:
256,192,124995,1,8,0:0:0:0:
256,192,125050,1,0,0:0:0:0:
256,192,125217,1,8,0:0:0:0:
256,192,125384,1,0,0:0:0:0:
256,192,125467,1,0,0:0:0:0:
256,192,125550,1,0,0:0:0:0:
256,192,125634,1,8,0:0:0:0:
256,192,125717,1,0,0:0:0:0:
256,192,125800,1,0,0:0:0:0:
256,192,125884,1,8,0:0:0:0:
256,192,125967,1,8,0:0:0:0:
256,192,126050,1,0,0:0:0:0:
256,192,126134,1,0,0:0:0:0:
256,192,126217,1,8,0:0:0:0:
256,192,126273,1,8,0:0:0:0:
256,192,126328,1,8,0:0:0:0:
256,192,126384,1,0,0:0:0:0:
256,192,126550,1,0,0:0:0:0:
256,192,126717,1,8,0:0:0:0:
256,192,126884,1,8,0:0:0:0:
256,192,127050,1,0,0:0:0:0:
256,192,127217,1,0,0:0:0:0:
256,192,127384,1,8,0:0:0:0:
256,192,127550,1,0,0:0:0:0:
256,192,127606,1,0,0:0:0:0:
256,192,127662,1,0,0:0:0:0:
256,192,127717,1,0,0:0:0:0:
256,192,127884,1,0,0:0:0:0:
256,192,128050,1,8,0:0:0:0:
256,192,128217,1,8,0:0:0:0:
256,192,128384,1,0,0:0:0:0:
256,192,128467,1,0,0:0:0:0:
256,192,128550,1,8,0:0:0:0:
256,192,128634,1,8,0:0:0:0:
256,192,128717,1,8,0:0:0:0:
256,192,128800,1,8,0:0:0:0:
256,192,128884,1,8,0:0:0:0:
256,192,128967,1,8,0:0:0:0:
256,192,129050,1,4,0:0:0:0:
256,192,130384,1,8,0:0:0:0:
256,192,130717,1,8,0:0:0:0:
256,192,131050,1,8,0:0:0:0:
256,192,131384,1,8,0:0:0:0:
256,192,131717,1,0,0:0:0:0:
256,192,132050,1,8,0:0:0:0:
256,192,132384,1,8,0:0:0:0:
256,192,132717,1,8,0:0:0:0:
256,192,133050,1,0,0:0:0:0:
256,192,133217,1,8,0:0:0:0:
256,192,133384,1,8,0:0:0:0:
256,192,133550,1,8,0:0:0:0:
256,192,133717,1,8,0:0:0:0:
256,192,134050,1,8,0:0:0:0:
256,192,134384,1,0,0:0:0:0:
256,192,134550,1,8,0:0:0:0:
256,192,134717,1,8,0:0:0:0:
256,192,134884,1,8,0:0:0:0:
256,192,135050,1,8,0:0:0:0:
256,192,135384,1,8,0:0:0:0:
256,192,135550,1,8,0:0:0:0:
256,192,135717,1,0,0:0:0:0:
256,192,135884,1,8,0:0:0:0:
256,192,136050,1,8,0:0:0:0:
256,192,136217,1,8,0:0:0:0:
256,192,136384,1,8,0:0:0:0:
256,192,136717,1,8,0:0:0:0:
256,192,137050,1,0,0:0:0:0:
256,192,137384,1,8,0:0:0:0:
256,192,137717,1,8,0:0:0:0:
256,192,138050,1,8,0:0:0:0:
256,192,138384,1,0,0:0:0:0:
256,192,138717,1,8,0:0:0:0:
256,192,139050,1,8,0:0:0:0:
256,192,139384,1,8,0:0:0:0:
256,192,139717,1,0,0:0:0:0:
256,192,140050,1,8,0:0:0:0:
256,192,140384,1,8,0:0:0:0:
256,192,140717,1,8,0:0:0:0:
256,192,141050,1,0,0:0:0:0:
256,192,141384,1,8,0:0:0:0:
256,192,141717,1,8,0:0:0:0:
256,192,141884,1,0,0:0:0:0:
256,192,142051,1,8,0:0:0:0:
256,192,142106,1,8,0:0:0:0:
256,192,142162,1,8,0:0:0:0:
256,192,142217,1,8,0:0:0:0:
256,192,142273,1,8,0:0:0:0:
256,192,142329,1,8,0:0:0:0:
256,192,142384,1,0,0:0:0:0:
256,192,142717,1,0,0:0:0:0:
256,192,143051,1,8,0:0:0:0:
256,192,143384,1,0,0:0:0:0:
256,192,143717,1,0,0:0:0:0:
256,192,143884,1,8,0:0:0:0:
256,192,144051,1,0,0:0:0:0:
256,192,144217,1,0,0:0:0:0:
256,192,144384,1,8,0:0:0:0:
256,192,144717,1,0,0:0:0:0:
256,192,145051,1,8,0:0:0:0:
256,192,145217,1,8,0:0:0:0:
256,192,145384,1,0,0:0:0:0:
256,192,145551,1,0,0:0:0:0:
256,192,145717,1,8,0:0:0:0:
256,192,146051,1,0,0:0:0:0:
256,192,146217,1,0,0:0:0:0:
256,192,146384,1,8,0:0:0:0:
256,192,146551,1,8,0:0:0:0:
256,192,146717,1,0,0:0:0:0:
256,192,146884,1,0,0:0:0:0:
256,192,147051,1,8,0:0:0:0:
256,192,147384,1,0,0:0:0:0:
256,192,147717,1,0,0:0:0:0:
256,192,148051,1,8,0:0:0:0:
256,192,148384,1,0,0:0:0:0:
256,192,148551,1,0,0:0:0:0:
256,192,148717,1,8,0:0:0:0:
256,192,149051,1,0,0:0:0:0:
256,192,149217,1,0,0:0:0:0:
256,192,149384,1,8,0:0:0:0:
256,192,149551,1,8,0:0:0:0:
256,192,149717,1,0,0:0:0:0:
256,192,150051,1,8,0:0:0:0:
256,192,150384,1,4,0:0:0:0:
256,192,150551,1,0,0:0:0:0:
256,192,150717,1,8,0:0:0:0:
256,192,150884,1,8,0:0:0:0:
256,192,151051,1,0,0:0:0:0:
256,192,151217,1,8,0:0:0:0:
256,192,151384,1,0,0:0:0:0:
256,192,151551,1,0,0:0:0:0:
256,192,151717,1,8,0:0:0:0:
256,192,152051,1,8,0:0:0:0:
256,192,152384,1,8,0:0:0:0:
256,192,152551,1,0,0:0:0:0:
256,192,152634,1,0,0:0:0:0:
256,192,152717,1,8,0:0:0:0:
256,192,152773,1,8,0:0:0:0:
256,192,152829,1,8,0:0:0:0:
256,192,152884,1,0,0:0:0:0:
256,192,152967,1,0,0:0:0:0:
256,192,153051,1,8,0:0:0:0:
256,192,153217,1,0,0:0:0:0:
256,192,153384,1,8,0:0:0:0:
256,192,153551,1,8,0:0:0:0:
256,192,153717,1,0,0:0:0:0:
256,192,153884,1,8,0:0:0:0:
256,192,154051,1,0,0:0:0:0:
256,192,154217,1,4,0:0:0:0:
256,192,154717,1,12,0:0:0:0:
256,192,155051,1,0,0:0:0:0:
256,192,155106,1,0,0:0:0:0:
256,192,155162,1,0,0:0:0:0:
256,192,155217,1,8,0:0:0:0:
256,192,155384,1,8,0:0:0:0:
256,192,155440,1,8,0:0:0:0:
256,192,155495,1,8,0:0:0:0:
256,192,155551,1,0,0:0:0:0:
256,192,155634,1,0,0:0:0:0:
256,192,155717,1,8,0:0:0:0:
256,192,155884,1,0,0:0:0:0:
256,192,156051,1,8,0:0:0:0:
256,192,156217,1,8,0:0:0:0:
256,192,156384,1,0,0:0:0:0:
256,192,156551,1,8,0:0:0:0:
256,192,156717,1,0,0:0:0:0:
256,192,156884,1,4,0:0:0:0:
256,192,157384,1,12,0:0:0:0:
256,192,157717,1,8,0:0:0:0:
256,192,157801,1,8,0:0:0:0:
256,192,157884,1,0,0:0:0:0:
256,192,157940,1,0,0:0:0:0:
256,192,157995,1,0,0:0:0:0:
256,192,158051,1,8,0:0:0:0:
256,192,158384,1,0,0:0:0:0:
256,192,158551,1,8,0:0:0:0:
256,192,158717,1,8,0:0:0:0:
256,192,158884,1,0,0:0:0:0:
256,192,159051,1,8,0:0:0:0:
256,192,159217,1,0,0:0:0:0:
256,192,159384,1,8,0:0:0:0:
256,192,159551,1,4,0:0:0:0:
256,192,160051,1,12,0:0:0:0:
256,192,160384,1,0,0:0:0:0:
256,192,160439,1,0,0:0:0:0:
256,192,160495,1,0,0:0:0:0:
256,192,160550,1,8,0:0:0:0:
256,192,160717,1,8,0:0:0:0:
256,192,160773,1,8,0:0:0:0:
256,192,160828,1,8,0:0:0:0:
256,192,160884,1,0,0:0:0:0:
256,192,160967,1,0,0:0:0:0:
256,192,161050,1,8,0:0:0:0:
256,192,161217,1,0,0:0:0:0:
256,192,161384,1,8,0:0:0:0:
256,192,161467,1,8,0:0:0:0:
256,192,161551,1,0,0:0:0:0:
256,192,161634,1,8,0:0:0:0:
256,192,161717,1,0,0:0:0:0:
256,192,161801,1,0,0:0:0:0:
256,192,161884,1,0,0:0:0:0:
256,192,161967,1,0,0:0:0:0:
256,192,162051,1,8,0:0:0:0:
256,192,162217,1,4,0:0:0:0:
256,192,162717,1,12,0:0:0:0:
256,192,163051,1,8,0:0:0:0:
256,192,163106,1,8,0:0:0:0:
256,192,163162,1,8,0:0:0:0:
256,192,163217,1,0,0:0:0:0:
256,192,163301,1,0,0:0:0:0:
256,192,163384,1,8,0:0:0:0:
256,192,163467,1,8,0:0:0:0:
256,192,163551,1,8,0:0:0:0:
256,192,163634,1,8,0:0:0:0:
256,192,163717,1,0,0:0:0:0:
256,192,163884,1,8,0:0:0:0:
256,192,163967,1,8,0:0:0:0:
256,192,164051,1,0,0:0:0:0:
256,192,164217,1,0,0:0:0:0:
256,192,164301,1,0,0:0:0:0:
256,192,164384,1,8,0:0:0:0:
256,192,164551,1,0,0:0:0:0:
256,192,164634,1,0,0:0:0:0:
256,192,164717,1,8,0:0:0:0:
256,192,164801,1,0,0:0:0:0:
256,192,164884,1,8,0:0:0:0:
256,192,164967,1,8,0:0:0:0:
256,192,165051,1,0,0:0:0:0:
256,192,165217,1,8,0:0:0:0:
256,192,165384,1,0,0:0:0:0:
256,192,165551,1,8,0:0:0:0:
256,192,165606,1,8,0:0:0:0:
256,192,165662,1,8,0:0:0:0:
256,192,165717,1,0,0:0:0:0:
256,192,165801,1,0,0:0:0:0:
256,192,165884,1,0,0:0:0:0:
256,192,165967,1,0,0:0:0:0:
256,192,166051,1,8,0:0:0:0:
256,192,166217,1,8,0:0:0:0:
256,192,166301,1,8,0:0:0:0:
256,192,166384,1,0,0:0:0:0:
256,192,166551,1,8,0:0:0:0:
256,192,166634,1,8,0:0:0:0:
256,192,166717,1,0,0:0:0:0:
256,192,166884,1,0,0:0:0:0:
256,192,166967,1,0,0:0:0:0:
256,192,167051,1,8,0:0:0:0:
256,192,167217,1,0,0:0:0:0:
256,192,167301,1,0,0:0:0:0:
256,192,167384,1,8,0:0:0:0:
256,192,167467,1,0,0:0:0:0:
256,192,167551,1,8,0:0:0:0:
256,192,167634,1,8,0:0:0:0:
256,192,167717,1,0,0:0:0:0:
256,192,167884,1,8,0:0:0:0:
256,192,168051,1,0,0:0:0:0:
256,192,168217,1,8,0:0:0:0:
256,192,168273,1,8,0:0:0:0:
256,192,168329,1,8,0:0:0:0:
256,192,168384,1,0,0:0:0:0:
256,192,168467,1,0,0:0:0:0:
256,192,168551,1,0,0:0:0:0:
256,192,168634,1,0,0:0:0:0:
256,192,168717,1,8,0:0:0:0:
256,192,169051,1,12,0:0:0:0:
256,192,169217,1,8,0:0:0:0:
256,192,169384,1,0,0:0:0:0:
256,192,169551,1,0,0:0:0:0:
256,192,169717,1,8,0:0:0:0:
256,192,169884,1,8,0:0:0:0:
256,192,170051,1,0,0:0:0:0:
256,192,170217,1,0,0:0:0:0:
256,192,170273,1,0,0:0:0:0:
256,192,170329,1,0,0:0:0:0:
256,192,170384,1,8,0:0:0:0:
256,192,170551,1,8,0:0:0:0:
256,192,170717,1,0,0:0:0:0:
256,192,170884,1,0,0:0:0:0:
256,192,171051,1,8,0:0:0:0:
256,192,171217,1,8,0:0:0:0:
256,192,171384,1,0,0:0:0:0:
256,192,171551,1,8,0:0:0:0:
256,192,171634,1,8,0:0:0:0:
256,192,171717,1,0,0:0:0:0:
256,192,171801,1,8,0:0:0:0:
256,192,171884,1,0,0:0:0:0:
256,192,171967,1,0,0:0:0:0:
256,192,172051,1,0,0:0:0:0:
256,192,172134,1,8,0:0:0:0:
256,192,172217,1,0,0:0:0:0:
256,192,172301,1,0,0:0:0:0:
256,192,172384,1,8,0:0:0:0:
256,192,172467,1,8,0:0:0:0:
256,192,172551,1,0,0:0:0:0:
256,192,172634,1,8,0:0:0:0:
256,192,172717,1,0,0:0:0:0:
256,192,172801,1,0,0:0:0:0:
256,192,172884,1,8,0:0:0:0:
256,192,172967,1,8,0:0:0:0:
256,192,173051,1,0,0:0:0:0:
256,192,173217,1,8,0:0:0:0:
256,192,173301,1,8,0:0:0:0:
256,192,173384,1,0,0:0:0:0:
256,192,173551,1,8,0:0:0:0:
256,192,173717,1,0,0:0:0:0:
256,192,174051,1,8,0:0:0:0:
256,192,174384,1,12,0:0:0:0:
256,192,174717,1,4,0:0:0:0:
256,192,174884,1,8,0:0:0:0:
256,192,175051,1,0,0:0:0:0:
256,192,175134,1,8,0:0:0:0:
256,192,175217,1,8,0:0:0:0:
256,192,175301,1,0,0:0:0:0:
256,192,175384,1,8,0:0:0:0:
256,192,175467,1,8,0:0:0:0:
256,192,175551,1,0,0:0:0:0:
256,192,175634,1,0,0:0:0:0:
256,192,175717,1,8,0:0:0:0:
256,192,175884,1,0,0:0:0:0:
256,192,175940,1,0,0:0:0:0:
256,192,175995,1,0,0:0:0:0:
256,192,176051,1,8,0:0:0:0:
256,192,176217,1,0,0:0:0:0:
256,192,176384,1,0,0:0:0:0:
256,192,176467,1,8,0:0:0:0:
256,192,176551,1,8,0:0:0:0:
256,192,176634,1,0,0:0:0:0:
256,192,176717,1,8,0:0:0:0:
256,192,176801,1,0,0:0:0:0:
256,192,176884,1,0,0:0:0:0:
256,192,176967,1,0,0:0:0:0:
256,192,177051,1,8,0:0:0:0:
256,192,177217,1,8,0:0:0:0:
256,192,177301,1,8,0:0:0:0:
256,192,177384,1,0,0:0:0:0:
256,192,177551,1,8,0:0:0:0:
256,192,177717,1,0,0:0:0:0:
256,192,177801,1,0,0:0:0:0:
256,192,177884,1,0,0:0:0:0:
256,192,177967,1,8,0:0:0:0:
256,192,178051,1,0,0:0:0:0:
256,192,178134,1,0,0:0:0:0:
256,192,178217,1,8,0:0:0:0:
256,192,178301,1,8,0:0:0:0:
256,192,178384,1,0,0:0:0:0:
256,192,178551,1,8,0:0:0:0:
256,192,178606,1,8,0:0:0:0:
256,192,178662,1,8,0:0:0:0:
256,192,178717,1,0,0:0:0:0:
256,192,178801,1,8,0:0:0:0:
256,192,178884,1,0,0:0:0:0:
256,192,178967,1,0,0:0:0:0:
256,192,179051,1,0,0:0:0:0:
256,192,179134,1,0,0:0:0:0:
256,192,179217,1,8,0:0:0:0:
256,192,179273,1,8,0:0:0:0:
256,192,179329,1,8,0:0:0:0:
256,192,179384,1,0,0:0:0:0:
256,192,179467,1,0,0:0:0:0:
256,192,179551,1,8,0:0:0:0:
256,192,179634,1,8,0:0:0:0:
256,192,179717,1,0,0:0:0:0:
256,192,179884,1,8,0:0:0:0:
256,192,179967,1,8,0:0:0:0:
256,192,180051,1,0,0:0:0:0:
256,192,180217,1,8,0:0:0:0:
256,192,180301,1,8,0:0:0:0:
256,192,180384,1,0,0:0:0:0:
256,192,180467,1,8,0:0:0:0:
256,192,180551,1,8,0:0:0:0:
256,192,180634,1,0,0:0:0:0:
256,192,180717,1,8,0:0:0:0:
256,192,180801,1,8,0:0:0:0:
256,192,180884,1,0,0:0:0:0:
256,192,180967,1,0,0:0:0:0:
256,192,181051,1,8,0:0:0:0:
256,192,181217,1,0,0:0:0:0:
256,192,181273,1,0,0:0:0:0:
256,192,181329,1,0,0:0:0:0:
256,192,181384,1,8,0:0:0:0:
256,192,181551,1,0,0:0:0:0:
256,192,181717,1,8,0:0:0:0:
256,192,181801,1,8,0:0:0:0:
256,192,181884,1,0,0:0:0:0:
256,192,181967,1,8,0:0:0:0:
256,192,182051,1,0,0:0:0:0:
256,192,182134,1,0,0:0:0:0:
256,192,182217,1,8,0:0:0:0:
256,192,182301,1,8,0:0:0:0:
256,192,182384,1,0,0:0:0:0:
256,192,182551,1,0,0:0:0:0:
256,192,182634,1,0,0:0:0:0:
256,192,182717,1,8,0:0:0:0:
256,192,182884,1,8,0:0:0:0:
256,192,182967,1,8,0:0:0:0:
256,192,183051,1,0,0:0:0:0:
256,192,183217,1,8,0:0:0:0:
256,192,183301,1,0,0:0:0:0:
256,192,183467,1,0,0:0:0:0:
256,192,183551,1,8,0:0:0:0:
256,192,183717,1,0,0:0:0:0:
256,192,183884,1,0,0:0:0:0:
256,192,183940,1,0,0:0:0:0:
256,192,183995,1,0,0:0:0:0:
256,192,184051,1,8,0:0:0:0:
256,192,184217,1,8,0:0:0:0:
256,192,184301,1,8,0:0:0:0:
256,192,184384,1,0,0:0:0:0:
256,192,184551,1,8,0:0:0:0:
256,192,184634,1,8,0:0:0:0:
256,192,184717,1,0,0:0:0:0:
256,192,184801,1,0,0:0:0:0:
256,192,184884,1,0,0:0:0:0:
256,192,184967,1,0,0:0:0:0:
256,192,185051,1,8,0:0:0:0:
256,192,185384,1,8,0:0:0:0:
256,192,185467,1,8,0:0:0:0:
256,192,185551,1,8,0:0:0:0:
256,192,185634,1,8,0:0:0:0:
256,192,185717,1,0,0:0:0:0:
256,192,185884,1,8,0:0:0:0:
256,192,185967,1,0,0:0:0:0:
256,192,186134,1,0,0:0:0:0:
256,192,186217,1,8,0:0:0:0:
256,192,186384,1,0,0:0:0:0:
256,192,186440,1,0,0:0:0:0:
256,192,186495,1,0,0:0:0:0:
256,192,186551,1,8,0:0:0:0:
256,192,186717,1,0,0:0:0:0:
256,192,186884,1,0,0:0:0:0:
256,192,186967,1,0,0:0:0:0:
256,192,187051,1,8,0:0:0:0:
256,192,187134,1,0,0:0:0:0:
256,192,187217,1,8,0:0:0:0:
256,192,187301,1,8,0:0:0:0:
256,192,187384,1,0,0:0:0:0:
256,192,187467,1,0,0:0:0:0:
256,192,187551,1,8,0:0:0:0:
256,192,187634,1,8,0:0:0:0:
256,192,187717,1,0,0:0:0:0:
256,192,187884,1,0,0:0:0:0:
256,192,187967,1,0,0:0:0:0:
256,192,188051,1,0,0:0:0:0:
256,192,188217,1,0,0:0:0:0:
256,192,188301,1,8,0:0:0:0:
256,192,188384,1,8,0:0:0:0:
256,192,188467,1,8,0:0:0:0:
256,192,188551,1,0,0:0:0:0:
256,192,188634,1,0,0:0:0:0:
256,192,188717,1,8,0:0:0:0:
256,192,188801,1,8,0:0:0:0:
256,192,188884,1,0,0:0:0:0:
256,192,188967,1,0,0:0:0:0:
256,192,189051,1,8,0:0:0:0:
256,192,189106,1,8,0:0:0:0:
256,192,189162,1,8,0:0:0:0:
256,192,189217,1,0,0:0:0:0:
256,192,189384,1,0,0:0:0:0:
256,192,189551,1,8,0:0:0:0:
256,192,189634,1,8,0:0:0:0:
256,192,189717,1,0,0:0:0:0:
256,192,189884,1,0,0:0:0:0:
256,192,190051,1,8,0:0:0:0:
256,192,190106,1,8,0:0:0:0:
256,192,190162,1,8,0:0:0:0:
256,192,190217,1,8,0:0:0:0:
256,192,190273,1,8,0:0:0:0:
256,192,190329,1,8,0:0:0:0:
256,192,190384,1,0,0:0:0:0:
256,192,190551,1,8,0:0:0:0:
256,192,190634,1,8,0:0:0:0:
256,192,190717,1,0,0:0:0:0:
256,192,190884,1,0,0:0:0:0:
256,192,190967,1,0,0:0:0:0:
256,192,191051,1,8,0:0:0:0:
256,192,191217,1,0,0:0:0:0:
256,192,191301,1,8,0:0:0:0:
256,192,191467,1,8,0:0:0:0:
256,192,191551,1,0,0:0:0:0:
256,192,191717,1,0,0:0:0:0:
256,192,191773,1,0,0:0:0:0:
256,192,191829,1,0,0:0:0:0:
256,192,191884,1,8,0:0:0:0:
256,192,192051,1,0,0:0:0:0:
256,192,192217,1,0,0:0:0:0:
256,192,192301,1,0,0:0:0:0:
256,192,192384,1,8,0:0:0:0:
256,192,192551,1,8,0:0:0:0:
256,192,192634,1,8,0:0:0:0:
256,192,192717,1,0,0:0:0:0:
256,192,192884,1,8,0:0:0:0:
256,192,192967,1,8,0:0:0:0:
256,192,193051,1,0,0:0:0:0:
256,192,193217,1,0,0:0:0:0:
256,192,193301,1,0,0:0:0:0:
256,192,193384,1,8,0:0:0:0:
256,192,193551,1,0,0:0:0:0:
256,192,193634,1,0,0:0:0:0:
256,192,193717,1,8,0:0:0:0:
256,192,193801,1,8,0:0:0:0:
256,192,193884,1,0,0:0:0:0:
256,192,194051,1,8,0:0:0:0:
256,192,194134,1,8,0:0:0:0:
256,192,194217,1,0,0:0:0:0:
256,192,194384,1,8,0:0:0:0:
256,192,194440,1,8,0:0:0:0:
256,192,194495,1,8,0:0:0:0:
256,192,194551,1,0,0:0:0:0:
256,192,194634,1,0,0:0:0:0:
256,192,194717,1,8,0:0:0:0:
256,192,194801,1,8,0:0:0:0:
256,192,194884,1,8,0:0:0:0:
256,192,194967,1,8,0:0:0:0:
256,192,195051,1,0,0:0:0:0:
256,192,195217,1,8,0:0:0:0:
256,192,195384,1,8,0:0:0:0:
256,192,195550,1,0,0:0:0:0:
256,192,195717,1,12,0:0:0:0:
256,192,196050,1,0,0:0:0:0:
256,192,196134,1,8,0:0:0:0:
256,192,196217,1,0,0:0:0:0:
256,192,196300,1,0,0:0:0:0:
256,192,196384,1,8,0:0:0:0:
256,192,196467,1,8,0:0:0:0:
256,192,196550,1,0,0:0:0:0:
256,192,196634,1,8,0:0:0:0:
256,192,196800,1,8,0:0:0:0:
256,192,196884,1,0,0:0:0:0:
256,192,197050,1,8,0:0:0:0:
256,192,197217,1,0,0:0:0:0:
256,192,197273,1,0,0:0:0:0:
256,192,197328,1,0,0:0:0:0:
256,192,197384,1,8,0:0:0:0:
256,192,197550,1,0,0:0:0:0:
256,192,197634,1,0,0:0:0:0:
256,192,197717,1,0,0:0:0:0:
256,192,197800,1,8,0:0:0:0:
256,192,197884,1,0,0:0:0:0:
256,192,197967,1,0,0:0:0:0:
256,192,198050,1,8,0:0:0:0:
256,192,198134,1,8,0:0:0:0:
256,192,198217,1,0,0:0:0:0:
256,192,198300,1,0,0:0:0:0:
256,192,198384,1,8,0:0:0:0:
256,192,198550,1,8,0:0:0:0:
256,192,198634,1,8,0:0:0:0:
256,192,198717,1,0,0:0:0:0:
256,192,198884,1,8,0:0:0:0:
256,192,198967,1,8,0:0:0:0:
256,192,199050,1,0,0:0:0:0:
256,192,199134,1,8,0:0:0:0:
256,192,199217,1,0,0:0:0:0:
256,192,199300,1,0,0:0:0:0:
256,192,199384,1,8,0:0:0:0:
256,192,199467,1,8,0:0:0:0:
256,192,199550,1,8,0:0:0:0:
256,192,199634,1,8,0:0:0:0:
256,192,199717,1,0,0:0:0:0:
256,192,199884,1,8,0:0:0:0:
256,192,199939,1,8,0:0:0:0:
256,192,199995,1,8,0:0:0:0:
256,192,200050,1,8,0:0:0:0:
256,192,200217,1,0,0:0:0:0:
256,192,200300,1,0,0:0:0:0:
256,192,200384,1,0,0:0:0:0:
256,192,200467,1,0,0:0:0:0:
256,192,200550,1,8,0:0:0:0:
256,192,200606,1,8,0:0:0:0:
256,192,200662,1,8,0:0:0:0:
256,192,200717,1,0,0:0:0:0:
256,192,200800,1,0,0:0:0:0:
256,192,200884,1,8,0:0:0:0:
256,192,200967,1,8,0:0:0:0:
256,192,201050,1,0,0:0:0:0:
256,192,201217,1,8,0:0:0:0:
256,192,201300,1,8,0:0:0:0:
256,192,201384,1,0,0:0:0:0:
256,192,201550,1,8,0:0:0:0:
256,192,201717,1,0,0:0:0:0:
256,192,201800,1,8,0:0:0:0:
256,192,201884,1,8,0:0:0:0:
256,192,201967,1,8,0:0:0:0:
256,192,202050,1,0,0:0:0:0:
256,192,202134,1,0,0:0:0:0:
256,192,202217,1,8,0:0:0:0:
256,192,202300,1,8,0:0:0:0:
256,192,202384,1,0,0:0:0:0:
256,192,202550,1,0,0:0:0:0:
256,192,202606,1,0,0:0:0:0:
256,192,202662,1,0,0:0:0:0:
256,192,202717,1,8,0:0:0:0:
256,192,202884,1,0,0:0:0:0:
256,192,202967,1,0,0:0:0:0:
256,192,203050,1,8,0:0:0:0:
256,192,203134,1,8,0:0:0:0:
256,192,203217,1,0,0:0:0:0:
256,192,203300,1,8,0:0:0:0:
256,192,203384,1,0,0:0:0:0:
256,192,203467,1,0,0:0:0:0:
256,192,203550,1,8,0:0:0:0:
256,192,203634,1,8,0:0:0:0:
256,192,203717,1,0,0:0:0:0:
256,192,203884,1,8,0:0:0:0:
256,192,203967,1,8,0:0:0:0:
256,192,204050,1,0,0:0:0:0:
256,192,204217,1,8,0:0:0:0:
256,192,204384,1,0,0:0:0:0:
256,192,204467,1,0,0:0:0:0:
256,192,204550,1,8,0:0:0:0:
256,192,204634,1,8,0:0:0:0:
256,192,204800,1,8,0:0:0:0:
256,192,204884,1,0,0:0:0:0:
256,192,205050,1,8,0:0:0:0:
256,192,205217,1,0,0:0:0:0:
256,192,205273,1,0,0:0:0:0:
256,192,205328,1,0,0:0:0:0:
256,192,205384,1,8,0:0:0:0:
256,192,205550,1,0,0:0:0:0:
256,192,205634,1,0,0:0:0:0:
256,192,205717,1,0,0:0:0:0:
256,192,205884,1,8,0:0:0:0:
256,192,205967,1,8,0:0:0:0:
256,192,206050,1,0,0:0:0:0:
256,192,206134,1,0,0:0:0:0:
256,192,206217,1,0,0:0:0:0:
256,192,206300,1,0,0:0:0:0:
256,192,206384,1,8,0:0:0:0:
256,192,206550,1,0,0:0:0:0:
256,192,206717,1,8,0:0:0:0:
256,192,206884,1,8,0:0:0:0:
256,192,207050,1,4,0:0:0:0:
256,192,207217,1,8,0:0:0:0:
256,192,207300,1,0,0:0:0:0:
256,192,207384,1,8,0:0:0:0:
256,192,207550,1,0,0:0:0:0:
256,192,207717,1,8,0:0:0:0:
256,192,207773,1,8,0:0:0:0:
256,192,207828,1,8,0:0:0:0:
256,192,207884,1,8,0:0:0:0:
256,192,208050,1,8,0:0:0:0:
256,192,208217,1,0,0:0:0:0:
256,192,208384,1,8,0:0:0:0:
256,192,208467,1,8,0:0:0:0:
256,192,208550,1,0,0:0:0:0:
256,192,208634,1,8,0:0:0:0:
256,192,208717,1,0,0:0:0:0:
256,192,208800,1,8,0:0:0:0:
256,192,208884,1,8,0:0:0:0:
256,192,208967,1,8,0:0:0:0:
256,192,209050,1,0,0:0:0:0:
256,192,209217,1,8,0:0:0:0:
256,192,209300,1,8,0:0:0:0:
256,192,209384,1,0,0:0:0:0:
256,192,209550,1,8,0:0:0:0:
256,192,209717,1,8,0:0:0:0:
256,192,209884,1,0,0:0:0:0:
256,192,209967,1,8,0:0:0:0:
256,192,210134,1,8,0:0:0:0:
256,192,210217,1,0,0:0:0:0:
256,192,210384,1,8,0:0:0:0:
256,192,210439,1,8,0:0:0:0:
256,192,210495,1,8,0:0:0:0:
256,192,210550,1,8,0:0:0:0:
256,192,210717,1,0,0:0:0:0:
256,192,210884,1,8,0:0:0:0:
256,192,210967,1,8,0:0:0:0:
256,192,211050,1,0,0:0:0:0:
256,192,211217,1,8,0:0:0:0:
256,192,211384,1,8,0:0:0:0:
256,192,211439,1,8,0:0:0:0:
256,192,211495,1,8,0:0:0:0:
256,192,211550,1,8,0:0:0:0:
256,192,211606,1,8,0:0:0:0:
256,192,211662,1,8,0:0:0:0:
256,192,211717,1,0,0:0:0:0:
256,192,211884,1,8,0:0:0:0:
256,192,211967,1,8,0:0:0:0:
256,192,212050,1,0,0:0:0:0:
256,192,212217,1,8,0:0:0:0:
256,192,212384,1,8,0:0:0:0:
256,192,212467,1,8,0:0:0:0:
256,192,212550,1,0,0:0:0:0:
256,192,212634,1,8,0:0:0:0:
256,192,212717,1,0,0:0:0:0:
256,192,212800,1,0,0:0:0:0:
256,192,212884,1,8,0:0:0:0:
256,192,212967,1,8,0:0:0:0:
256,192,213050,1,0,0:0:0:0:
256,192,213106,1,0,0:0:0:0:
256,192,213162,1,0,0:0:0:0:
256,192,213217,1,8,0:0:0:0:
256,192,213384,1,0,0:0:0:0:
256,192,213550,1,0,0:0:0:0:
256,192,213634,1,0,0:0:0:0:
256,192,213717,1,8,0:0:0:0:
256,192,213884,1,0,0:0:0:0:
256,192,213967,1,8,0:0:0:0:
256,192,214050,1,8,0:0:0:0:
256,192,214134,1,8,0:0:0:0:
256,192,214217,1,0,0:0:0:0:
256,192,214300,1,0,0:0:0:0:
256,192,214384,1,8,0:0:0:0:
256,192,214550,1,8,0:0:0:0:
256,192,214634,1,8,0:0:0:0:
256,192,214717,1,0,0:0:0:0:
256,192,214884,1,8,0:0:0:0:
256,192,214967,1,8,0:0:0:0:
256,192,215050,1,0,0:0:0:0:
256,192,215217,1,8,0:0:0:0:
256,192,215300,1,8,0:0:0:0:
256,192,215384,1,0,0:0:0:0:
256,192,215467,1,8,0:0:0:0:
256,192,215550,1,0,0:0:0:0:
256,192,215634,1,0,0:0:0:0:
256,192,215717,1,8,0:0:0:0:
256,192,215773,1,8,0:0:0:0:
256,192,215828,1,8,0:0:0:0:
256,192,215884,1,0,0:0:0:0:
256,192,215967,1,0,0:0:0:0:
256,192,216050,1,8,0:0:0:0:
256,192,216134,1,8,0:0:0:0:
256,192,216217,1,8,0:0:0:0:
256,192,216300,1,8,0:0:0:0:
256,192,216384,1,0,0:0:0:0:
256,192,216550,1,0,0:0:0:0:
256,192,216717,1,8,0:0:0:0:
256,192,216884,1,8,0:0:0:0:
256,192,217050,1,4,0:0:0:0:
256,192,217217,1,8,0:0:0:0:
256,192,217384,1,8,0:0:0:0:
256,192,217550,1,8,0:0:0:0:
256,192,217884,1,8,0:0:0:0:
256,192,218050,1,8,0:0:0:0:
256,192,218217,1,8,0:0:0:0:
256,192,218384,1,0,0:0:0:0:
256,192,218550,1,8,0:0:0:0:
256,192,218717,1,8,0:0:0:0:
256,192,219050,1,8,0:0:0:0:
256,192,219217,1,8,0:0:0:0:
256,192,219384,1,8,0:0:0:0:
256,192,219550,1,8,0:0:0:0:
256,192,219717,1,0,0:0:0:0:
256,192,219884,1,8,0:0:0:0:
256,192,220050,1,8,0:0:0:0:
256,192,220217,1,8,0:0:0:0:
256,192,220550,1,8,0:0:0:0:
256,192,220717,1,8,0:0:0:0:
256,192,220884,1,0,0:0:0:0:
256,192,221217,1,8,0:0:0:0:
256,192,221384,1,8,0:0:0:0:
256,192,221550,1,8,0:0:0:0:
256,192,221717,1,0,0:0:0:0:
256,192,221884,1,8,0:0:0:0:
256,192,222050,1,8,0:0:0:0:
256,192,222217,1,0,0:0:0:0:
256,192,222384,1,0,0:0:0:0:
256,192,222550,1,8,0:0:0:0:
256,192,222717,1,8,0:0:0:0:
256,192,222884,1,8,0:0:0:0:
256,192,223050,1,0,0:0:0:0:
256,192,223217,1,8,0:0:0:0:
256,192,223384,1,8,0:0:0:0:
256,192,223550,1,8,0:0:0:0:
256,192,223717,1,0,0:0:0:0:
256,192,223884,1,8,0:0:0:0:
256,192,224050,1,8,0:0:0:0:
256,192,224384,1,0,0:0:0:0:
256,192,224550,1,8,0:0:0:0:
256,192,224717,1,8,0:0:0:0:
256,192,224884,1,8,0:0:0:0:
256,192,225050,1,0,0:0:0:0:
256,192,225217,1,8,0:0:0:0:
256,192,225384,1,8,0:0:0:0:
256,192,225550,1,8,0:0:0:0:
256,192,225717,1,0,0:0:0:0:
256,192,225884,1,8,0:0:0:0:
256,192,226050,1,8,0:0:0:0:
256,192,226217,1,8,0:0:0:0:
256,192,226384,1,0,0:0:0:0:
256,192,226550,1,8,0:0:0:0:
256,192,226717,1,8,0:0:0:0:
256,192,227050,1,8,0:0:0:0:
256,192,227217,1,8,0:0:0:0:
256,192,227384,1,8,0:0:0:0:
256,192,227550,1,8,0:0:0:0:
256,192,227717,1,12,0:0:0:0:
256,192,227884,1,8,0:0:0:0:
256,192,228051,1,8,0:0:0:0:
256,192,228217,1,8,0:0:0:0:
256,192,228551,1,8,0:0:0:0:
256,192,228717,1,8,0:0:0:0:
256,192,228884,1,8,0:0:0:0:
256,192,229051,1,0,0:0:0:0:
256,192,229217,1,8,0:0:0:0:
256,192,229384,1,8,0:0:0:0:
256,192,229717,1,8,0:0:0:0:
256,192,229884,1,8,0:0:0:0:
256,192,230051,1,8,0:0:0:0:
256,192,230217,1,8,0:0:0:0:
256,192,230384,1,0,0:0:0:0:
256,192,230551,1,8,0:0:0:0:
256,192,230717,1,8,0:0:0:0:
256,192,230884,1,8,0:0:0:0:
256,192,231217,1,8,0:0:0:0:
256,192,231384,1,8,0:0:0:0:
256,192,231551,1,0,0:0:0:0:
256,192,231884,1,8,0:0:0:0:
256,192,232051,1,8,0:0:0:0:
256,192,232217,1,8,0:0:0:0:
256,192,232384,1,0,0:0:0:0:
256,192,232551,1,8,0:0:0:0:
256,192,232717,1,8,0:0:0:0:
256,192,232884,1,0,0:0:0:0:
256,192,233051,1,0,0:0:0:0:
256,192,233217,1,8,0:0:0:0:
256,192,233384,1,8,0:0:0:0:
256,192,233551,1,8,0:0:0:0:
256,192,233717,1,0,0:0:0:0:
256,192,233884,1,8,0:0:0:0:
256,192,234051,1,8,0:0:0:0:
256,192,234217,1,8,0:0:0:0:
256,192,234384,1,0,0:0:0:0:
256,192,234551,1,8,0:0:0:0:
256,192,234717,1,8,0:0:0:0:
256,192,235051,1,0,0:0:0:0:
256,192,235217,1,8,0:0:0:0:
256,192,235384,1,8,0:0:0:0:
256,192,235551,1,8,0:0:0:0:
256,192,235717,1,0,0:0:0:0:
256,192,235884,1,8,0:0:0:0:
256,192,236051,1,8,0:0:0:0:
256,192,236217,1,8,0:0:0:0:
256,192,236384,1,0,0:0:0:0:
256,192,236551,1,8,0:0:0:0:
256,192,236717,1,8,0:0:0:0:
256,192,236884,1,8,0:0:0:0:
256,192,237051,1,0,0:0:0:0:
256,192,237217,1,8,0:0:0:0:
256,192,237384,1,8,0:0:0:0:
256,192,237717,1,8,0:0:0:0:
256,192,237884,1,8,0:0:0:0:
256,192,238051,1,8,0:0:0:0:
256,192,238217,1,8,0:0:0:0:
