osu file format v14

[General]
AudioFilename: c.mp3
AudioLeadIn: 0
PreviewTime: 45711
Countdown: 0
SampleSet: Soft
StackLeniency: 0.3
Mode: 0
LetterboxInBreaks: 0
WidescreenStoryboard: 1

[Editor]
Bookmarks: 41169,77669,96865,136335
DistanceSpacing: 0.1
BeatDivisor: 4
GridSize: 32
TimelineZoom: 2.699999

[Metadata]
Title:Future Candy (Xignality Remix) (Cut Ver.)
TitleUnicode:Future Cαndy (Xignality Remix) (Cut Ver.)
Artist:YUC'e
ArtistUnicode:YUC'e
Creator:Regou
Version:Extra
Source:
Tags:ゆーしえ corsace open 2020 no mod nm3 round of 32 ro32 acyl digidrake dnb drumstep drum & and bass neurofunk ultrafunk electronic Japanese Acylica
BeatmapID:2603702
BeatmapSetID:1252827

[Difficulty]
HPDrainRate:6
CircleSize:4.2
OverallDifficulty:8.4
ApproachRate:9.2
SliderMultiplier:2
SliderTickRate:1

[Events]
//Background and Video events
0,0,"BG4.jpg",0,0
//Break Periods
//Storyboard Layer 0 (Background)
//Storyboard Layer 1 (Fail)
//Storyboard Layer 2 (Pass)
//Storyboard Layer 3 (Foreground)
//Storyboard Layer 4 (Overlay)
//Storyboard Sound Samples

[TimingPoints]
353,333.333333333333,4,2,1,40,1,0
3019,-125,4,2,1,40,0,0
35019,-125,4,2,1,50,0,0
39269,-83.3333333333333,4,2,1,50,0,0
39686,-100,4,2,1,50,0,0
40019,-83.3333333333333,4,2,1,50,0,0
44686,-500,4,2,1,50,0,0
45686,-62.5,4,2,1,70,0,0
48352,-50,4,2,1,70,0,0
48686,-62.5,4,2,1,70,0,0
51019,-44.4444444444445,4,2,1,70,0,0
51519,-62.5,4,2,1,70,0,0
53686,-50,4,2,1,70,0,0
54019,-62.5,4,2,1,70,0,0
56352,-50,4,2,1,70,0,0
56852,-62.5,4,2,1,70,0,0
59019,-50,4,2,1,70,0,0
59352,-62.5,4,2,1,70,0,0
61686,-44.4444444444445,4,2,1,70,0,0
62186,-62.5,4,2,1,70,0,0
64352,-50,4,2,1,70,0,0
64686,-100,4,2,1,70,0,0
65686,-454.545454545455,4,2,1,70,0,0
67019,-44.4444444444445,4,2,1,70,0,0
67352,-62.5,4,2,1,70,0,0
67519,-50,4,2,1,70,0,0
69352,-62.5,4,2,1,70,0,0
69686,-50,4,2,1,70,0,0
70019,-62.5,4,2,1,70,0,0
70852,-50,4,2,1,70,0,0
71852,-62.5,4,2,1,70,0,0
72352,-44.4444444444445,4,2,1,70,0,0
72852,-62.5,4,2,1,70,0,0
75019,-50,4,2,1,70,0,0
75352,-62.5,4,2,1,70,0,0
76186,-50,4,2,1,70,0,0
77186,-62.5,4,2,1,70,0,0
77352,-50,4,2,1,70,0,0
77686,-500,4,2,1,70,0,0
78019,-50,4,2,1,70,0,0
79519,-62.5,4,2,1,70,0,0
80352,-500,4,2,1,70,0,0
81019,-62.5,4,2,1,70,0,0
83019,-500,4,2,1,70,0,0
83352,-50,4,2,1,70,0,0
85686,-500,4,2,1,70,0,0
86019,-50,4,2,1,70,0,0
87019,-44.4444444444445,4,2,1,70,0,0
87519,-62.5,4,2,1,70,0,0
88352,-500,4,2,1,70,0,0
88686,-62.5,4,2,1,70,0,0
91019,-125,4,2,1,70,0,0
91519,-62.5,4,2,1,70,0,0
93352,-50,4,2,1,70,0,0
94019,-125,4,2,1,50,0,0
114686,-285.714285714286,4,2,1,30,0,0
114769,-285.714285714286,4,2,2,10,0,0

[Colours]
Combo1 : 251,167,83
Combo2 : 117,255,117
Combo3 : 14,228,197
Combo4 : 211,133,254
Combo5 : 255,249,119
Combo6 : 254,133,136

[HitObjects]
256,192,353,12,0,2936,0:0:0:0:
243,324,3019,6,0,P|209:353|169:354,1,80,4|0,1:0|0:0,0:0:0:0:
114,214,3352,2,0,B|105:178|138:151|138:151|234:174,1,160,2|0,0:0|0:0,0:0:0:0:
305,190,3852,1,2,0:0:0:0:
316,201,4186,1,2,0:0:0:0:
316,201,4269,1,2,0:0:0:0:
316,201,4352,6,0,P|336:237|330:286,1,80
331,115,4686,1,2,0:0:0:0:
470,201,4852,1,0,0:0:0:0:
470,201,5186,2,0,P|493:147|433:71,1,160
417,36,5602,1,0,0:0:0:0:
419,38,5686,6,0,L|249:58,1,160,0|2,0:0|0:0,0:0:0:0:
224,233,6186,2,0,B|258:265|297:249|297:249|313:150,1,160
320,143,6602,1,0,0:0:0:0:
320,143,6686,2,0,P|363:147|389:182,1,80,2|0,0:0|0:0,0:0:0:0:
435,324,7019,6,0,B|380:315|380:315|342:349|342:349|267:339,1,160,0|2,0:0|0:0,0:0:0:0:
224,233,7519,2,0,P|147:221|104:286,1,160
71,354,8019,2,0,P|41:375|-3:368,1,80,2|0,0:0|0:0,0:0:0:0:
32,218,8352,5,0,0:0:0:0:
194,312,8686,1,2,0:0:0:0:
194,312,8852,2,0,L|209:146,1,160
212,117,9269,1,0,0:0:0:0:
212,117,9352,2,0,P|252:114|278:75,1,80,2|0,0:0|0:0,0:0:0:0:
73,28,9686,5,0,0:0:0:0:
73,28,9852,2,0,L|89:120,1,80,0|2,0:0|0:0,0:0:0:0:
20,193,10186,1,0,0:0:0:0:
20,193,10519,2,0,P|59:198|97:241,1,80,0|2,0:0|0:0,0:0:0:0:
159,371,10852,5,0,0:0:0:0:
159,371,10936,1,0,0:0:0:0:
159,371,11019,2,0,B|140:292|207:309|185:215,1,160,0|2,0:0|0:0,0:0:0:0:
195,65,11519,2,0,B|193:102|226:133|226:133|325:118,1,160
341,139,11936,1,0,0:0:0:0:
341,139,12019,2,0,P|319:172|329:215,1,80,2|0,0:0|0:0,0:0:0:0:
336,362,12352,6,0,B|374:342|374:342|418:357,1,80,0|2,0:0|0:0,0:0:0:0:
286,287,12686,1,0,0:0:0:0:
453,209,12852,1,2,0:0:0:0:
491,295,13019,5,0,0:0:0:0:
491,295,13352,1,2,0:0:0:0:
366,378,13686,6,0,B|356:324|356:324|376:291|376:291|364:221,1,160,0|2,0:0|0:0,0:0:0:0:
308,123,14186,2,0,P|375:135|404:58,1,160
395,22,14602,1,0,0:0:0:0:
395,22,14686,2,0,L|488:31,1,80,2|0,0:0|0:0,0:0:0:0:
505,115,15019,5,0,0:0:0:0:
495,195,15186,1,0,0:0:0:0:
512,275,15352,1,2,0:0:0:0:
503,355,15519,1,0,0:0:0:0:
503,355,15852,2,0,L|410:346,1,80,0|2,0:0|0:0,0:0:0:0:
340,257,16186,5,0,0:0:0:0:
340,257,16269,1,0,0:0:0:0:
340,257,16352,2,0,P|266:258|240:336,1,160,0|2,0:0|0:0,0:0:0:0:
374,337,16852,2,0,L|386:167,1,160
374,137,17269,1,0,0:0:0:0:
378,141,17352,2,0,P|422:139|449:112,1,80,2|0,0:0|0:0,0:0:0:0:
291,21,17686,6,0,L|200:4,1,80,0|2,0:0|0:0,0:0:0:0:
241,219,18019,1,0,0:0:0:0:
243,107,18186,1,2,0:0:0:0:
241,219,18352,6,0,B|220:160|220:160|248:96,1,120
243,107,18686,2,0,L|158:90,1,80
109,174,18936,1,0,0:0:0:0:
109,174,19019,6,0,P|83:238|0:233,1,160,0|2,0:0|0:0,0:0:0:0:
148,313,19519,2,0,B|232:303|202:378|293:365,1,160
307,324,19936,1,0,0:0:0:0:
307,324,20019,2,0,P|352:327|383:296,1,80,2|0,0:0|0:0,0:0:0:0:
456,359,20352,5,0,0:0:0:0:
469,278,20519,1,0,0:0:0:0:
434,200,20686,1,2,0:0:0:0:
438,118,20852,1,0,0:0:0:0:
438,118,21186,2,0,L|349:110,1,80,0|2,0:0|0:0,0:0:0:0:
292,197,21519,5,0,0:0:0:0:
292,197,21602,1,0,0:0:0:0:
292,197,21686,2,0,B|258:229|217:208|217:208|200:127,1,160,0|2,0:0|0:0,0:0:0:0:
395,30,22186,2,0,B|336:78|336:78|379:161,1,160
412,174,22602,1,0,0:0:0:0:
412,174,22686,2,0,P|392:213|401:261,1,80,2|0,0:0|0:0,0:0:0:0:
266,355,23019,6,0,L|361:368,1,80,0|2,0:0|0:0,0:0:0:0:
281,180,23352,2,0,L|275:269,1,80,0|2,0:0|0:0,0:0:0:0:
183,304,23686,2,0,B|128:295|128:295|90:329|90:329|15:319,1,160,0|2,0:0|0:0,0:0:0:0:
5,119,24352,6,0,P|77:113|107:197,1,160,4|2,0:0|0:0,0:0:0:0:
185,89,24852,1,0,0:0:0:0:
185,89,24936,1,0,0:0:0:0:
185,89,25019,2,0,L|194:0,1,80
228,0,25269,1,0,0:0:0:0:
228,0,25352,1,2,0:0:0:0:
360,137,25519,1,0,0:0:0:0:
308,215,25686,5,0,0:0:0:0:
283,86,25852,1,0,0:0:0:0:
412,63,26019,1,2,0:0:0:0:
440,191,26186,2,0,B|477:211|489:249|489:249|460:338,1,160
453,370,26686,1,2,0:0:0:0:
230,268,26852,1,0,0:0:0:0:
230,268,26936,1,0,0:0:0:0:
230,268,27019,6,0,B|285:259|285:259|323:293|323:293|398:283,1,160,0|2,0:0|0:0,0:0:0:0:
255,373,27519,1,0,0:0:0:0:
258,173,27686,2,0,P|253:134|233:100,1,80,0|0,0:0|0:0,0:0:0:0:
232,99,27936,1,0,0:0:0:0:
232,99,28019,1,2,0:0:0:0:
96,209,28186,1,0,0:0:0:0:
173,17,28352,5,0,0:0:0:0:
162,149,28519,1,2,0:0:0:0:
314,33,28686,1,0,0:0:0:0:
303,168,28853,1,2,0:0:0:0:
286,255,29019,2,0,P|344:256|381:212,2,120
155,348,29686,6,0,B|71:360|71:360|34:334|42:290,1,160,0|2,0:0|0:0,0:0:0:0:
166,171,30186,2,0,L|159:250,1,80
91,118,30519,1,0,0:0:0:0:
91,118,30602,1,0,0:0:0:0:
91,118,30686,1,2,0:0:0:0:
0,216,30852,1,0,0:0:0:0:
0,24,31019,6,0,P|43:25|74:-5,1,80
307,225,31352,2,0,B|218:235|252:163|166:171,1,160,2|0,0:0|0:0,0:0:0:0:
170,261,31852,1,0,0:0:0:0:
301,136,32019,2,0,P|316:98|304:57,1,80,2|0,0:0|0:0,0:0:0:0:
290,35,32269,1,0,0:0:0:0:
290,35,32352,6,0,L|453:10,1,160,0|2,0:0|0:0,0:0:0:0:
500,131,32852,1,0,0:0:0:0:
403,245,33019,2,0,P|373:220|334:221,1,80,0|0,0:0|0:0,0:0:0:0:
333,220,33269,1,0,0:0:0:0:
333,220,33352,1,2,0:0:0:0:
390,124,33519,1,0,0:0:0:0:
350,310,33686,6,0,L|343:231,1,80,0|2,0:0|0:0,0:0:0:0:
196,357,34019,2,0,P|158:379|115:372,1,80
115,202,34352,2,0,P|190:198|225:295,1,160,0|2,0:0|0:0,0:0:0:0:
231,263,35019,6,0,B|237:198|237:198|263:175|263:175|269:107,1,160,0|8,1:0|0:0,0:0:0:0:
90,14,35519,1,0,0:0:0:0:
90,14,35686,2,0,B|75:51|75:51|88:90,1,80,8|0,0:0|0:0,0:0:0:0:
41,241,36019,2,0,P|10:272|-43:268,1,80,8|0,0:0|0:0,0:0:0:0:
188,359,36352,6,0,B|263:381|263:381|304:371|319:328,1,160,8|8,0:0|0:0,0:0:0:0:
193,226,36852,1,0,0:0:0:0:
193,226,37019,2,0,L|182:132,1,80,8|0,0:0|0:0,0:0:0:0:
327,34,37352,2,0,P|340:77|326:108,1,80,8|0,0:0|0:0,0:0:0:0:
311,142,37602,1,0,0:0:0:0:
311,142,37686,6,0,B|367:159|367:159|388:201|388:201|454:218,1,160,8|8,0:0|0:0,0:0:0:0:
469,47,38186,1,0,0:0:0:0:
469,47,38352,2,0,B|452:88|452:88|473:134,1,80,8|0,0:0|0:0,0:0:0:0:
499,297,38686,2,0,L|485:387,1,80,8|0,0:0|0:0,0:0:0:0:
300,231,39019,6,0,P|273:261|215:254,1,80,8|0,0:0|0:0,0:0:0:0:
35,208,39352,2,0,B|17:286|17:286|77:303|80:360,1,179.999994506836,8|0,0:0|0:0,0:0:0:0:
79,355,39686,6,0,P|135:364|162:320,1,100,8|0,0:0|0:0,0:0:0:0:
266,124,40019,2,0,B|205:157|205:157|238:277,1,179.999994506836,8|0,0:0|0:0,0:0:0:0:
245,247,40352,6,0,L|319:257,1,59.9999981689454,0|0,1:0|0:0,0:0:0:0:
332,233,40519,2,0,L|406:243,1,59.9999981689454,0|0,1:0|0:0,0:0:0:0:
417,221,40686,2,0,L|491:231,1,59.9999981689454,0|0,1:0|0:0,0:0:0:0:
398,80,40852,5,0,1:0:0:0:
383,88,40936,1,0,1:0:0:0:
368,96,41019,2,0,L|383:21,1,59.9999981689454,0|0,1:0|0:0,0:0:0:0:
292,196,41186,2,0,L|307:271,1,59.9999981689454,0|0,1:0|0:0,0:0:0:0:
217,75,41352,2,0,L|232:0,1,59.9999981689454,0|0,1:0|0:0,0:0:0:0:
141,175,41519,2,0,L|156:250,1,59.9999981689454,0|0,1:0|0:0,0:0:0:0:
42,183,41686,6,0,P|22:201|-17:207,1,59.9999981689454,0|0,1:0|0:0,0:0:0:0:
87,151,41852,2,0,P|60:149|28:126,1,59.9999981689454,0|0,1:0|0:0,0:0:0:0:
141,148,42019,2,0,P|123:128|117:89,1,59.9999981689454,0|0,1:0|0:0,0:0:0:0:
210,262,42186,6,0,P|190:244|151:238,1,59.9999981689454,0|0,1:0|0:0,0:0:0:0:
255,294,42352,2,0,P|228:296|196:319,1,59.9999981689454,0|0,1:0|0:0,0:0:0:0:
309,297,42519,2,0,P|291:317|285:356,1,59.9999981689454,0|0,1:0|0:0,0:0:0:0:
362,191,42686,6,0,L|352:129,1,59.9999981689454,0|0,1:0|0:0,0:0:0:0:
378,183,42852,2,0,L|368:121,1,59.9999981689454,0|0,1:0|0:0,0:0:0:0:
393,187,43019,5,2,0:0:0:0:
432,217,43102,1,2,0:0:0:0:
445,270,43186,1,2,0:0:0:0:
429,321,43269,1,2,0:0:0:0:
389,350,43352,1,2,0:0:0:0:
338,348,43436,1,2,0:0:0:0:
294,326,43519,1,2,0:0:0:0:
273,273,43602,1,2,0:0:0:0:
292,228,43686,5,2,0:0:0:0:
294,202,43769,1,2,0:0:0:0:
296,175,43852,1,2,0:0:0:0:
299,148,43935,1,2,0:0:0:0:
282,120,44019,6,0,L|232:121,1,29.9999990844727,2|2,0:0|0:0,0:0:0:0:
279,105,44102,2,0,L|229:106,1,29.9999990844727
301,78,44186,6,0,L|349:88,1,29.9999990844727,2|2,0:0|0:0,0:0:0:0:
306,64,44269,2,0,L|354:74,1,29.9999990844727
282,23,44352,5,0,3:1:0:0:
384,181,44519,1,0,0:0:0:0:
384,181,44686,2,0,L|405:175,1,20,0|2,0:0|0:0,0:0:0:0:
433,255,45019,2,0,L|479:248,1,40,0|2,0:0|0:0,0:0:0:0:
396,354,45519,5,0,0:0:0:0:
396,354,45686,2,0,B|334:308|359:238|359:238|338:303|278:320,1,240,2|0,3:1|2:0,0:0:0:0:
256,240,46019,2,0,P|257:197|238:157,1,80,8|0,0:2|0:0,0:0:0:0:
433,101,46186,6,0,B|454:70|419:23|419:23|348:39|326:122|413:200,1,240,4|0,3:2|0:0,0:1:0:0:
362,241,46519,1,2,0:0:0:0:
362,241,46602,1,2,0:0:0:0:
362,241,46686,2,0,P|407:246|445:226,1,80,8|0,0:2|0:0,0:0:0:0:
512,114,46852,2,0,P|472:107|436:122,1,80,2|0,0:0|0:0,0:0:0:0:
422,333,47019,5,2,0:1:0:0:
266,160,47186,2,0,L|256:240,1,80,0|0,3:0|0:0,0:0:0:0:
33,293,47352,2,0,L|43:213,1,80,8|0,0:0|0:0,0:0:0:0:
209,83,47519,6,0,B|251:40|170:-58|82:45|152:141,1,240,2|0,3:1|0:0,0:0:0:0:
43,214,47852,2,0,P|84:215|120:244,1,80,2|0,3:1|0:0,0:0:0:0:
307,257,48019,2,0,B|244:223|185:262|221:309|164:354|93:325,1,240,8|0,0:2|0:0,0:0:0:0:
24,321,48352,6,0,B|27:275|-4:247|-4:247|49:200|49:200|118:248|101:340,1,300,4|0,3:2|0:0,0:0:0:0:
243,383,48686,2,0,P|265:349|265:305,1,80,8|0,0:0|0:0,0:0:0:0:
219,101,48852,6,0,B|157:147|182:217|182:217|161:152|101:135,1,240,2|0,3:1|2:0,0:0:0:0:
27,132,49186,1,2,0:0:0:0:
27,132,49269,1,2,0:0:0:0:
27,132,49352,2,0,P|22:92|38:56,1,80,8|0,0:0|0:0,0:0:0:0:
191,30,49519,2,0,P|214:61|219:100,1,80,0|0,3:0|0:0,0:0:0:0:
155,236,49686,5,2,0:2:0:0:
120,6,49852,2,0,P|159:31|196:28,1,80,0|0,3:0|0:0,0:0:0:0:
247,205,50019,2,0,P|286:180|323:183,1,80,8|0,0:0|0:0,0:0:0:0:
510,78,50186,6,0,B|455:16|455:16|497:192,1,240,0|0,3:0|0:0,0:0:0:0:
494,190,50519,1,0,3:0:0:0:
316,173,50686,2,0,B|380:159|425:211|395:254|446:295|525:270,1,240,8|0,0:0|0:0,0:1:0:0:
512,274,51019,6,2,B|493:191|493:191|231:226|231:226|211:121,1,450.000017166138,4|8,3:1|0:2,0:0:0:0:
108,343,51519,6,0,B|25:405|-78:317|20:236|63:278,1,240,2|0,3:1|0:0,0:0:0:0:
183,52,51852,1,2,0:0:0:0:
183,52,51936,1,0,0:0:0:0:
183,52,52019,2,0,P|196:98|179:140,1,80,8|0,0:0|0:0,0:0:0:0:
56,199,52186,2,0,P|47:238|60:275,1,80,2|0,3:2|0:0,0:0:0:0:
210,363,52352,5,2,0:1:0:0:
153,222,52519,2,0,L|232:234,1,80,0|0,3:0|0:0,0:0:0:0:
294,68,52686,2,0,L|373:81,1,80,8|0,0:0|0:0,0:0:0:0:
512,307,52852,6,0,B|488:262|509:203|509:203|485:274|399:280,1,240,2|0,3:1|0:3,0:3:0:0:
316,365,53186,2,0,P|325:321|304:269,1,80,0|0,3:0|0:0,0:0:0:0:
403,183,53352,1,8,0:0:0:0:
403,183,53436,1,2,0:0:0:0:
403,183,53519,2,0,P|394:139|415:87,1,80,2|2,0:0|0:0,0:0:0:0:
117,143,53686,6,2,B|84:81|105:24|105:24|180:2|180:2|165:67|191:112,1,300,4|0,3:0|0:0,0:0:0:0:
255,215,54019,2,0,P|210:218|172:249,1,80,8|0,0:0|0:0,0:0:0:0:
20,325,54186,6,0,B|68:312|89:247|89:247|64:317|126:363,1,240,2|0,3:1|2:0,0:0:0:0:
245,311,54519,1,2,0:0:0:0:
245,311,54602,1,2,0:0:0:0:
245,311,54686,1,8,0:0:0:0:
130,139,54852,1,0,3:0:0:0:
321,27,55019,5,2,0:1:0:0:
481,226,55186,2,0,P|503:192|501:148,1,80,0|0,3:0|0:0,0:0:0:0:
414,126,55352,2,0,P|393:159|394:199,1,80,8|0,0:0|0:0,0:0:0:0:
406,365,55519,6,0,P|331:353|388:284,1,240,0|0,3:0|0:0,0:0:0:0:
415,126,55852,2,0,P|385:161|344:162,1,80,0|0,3:0|0:0,0:0:0:0:
273,217,56019,2,0,B|214:174|239:106|239:106|218:169|161:185,1,240,8|0,0:0|0:0,0:0:0:0:
1,275,56352,6,0,B|46:268|76:234|63:191|63:191|86:227|58:231|48:297|101:347|137:344|137:344|169:297|137:259,1,400,4|8,3:1|0:0,3:1:0:0:
240,106,56852,2,0,B|230:61|230:61|219:7|168:1|140:35|154:82|154:82|172:152,1,240,0|0,3:0|0:0,0:0:0:0:
160,257,57186,1,2,0:0:0:0:
160,257,57269,1,0,0:0:0:0:
160,257,57352,2,0,P|194:234|238:242,1,80,8|0,0:0|0:0,0:0:0:0:
246,348,57519,2,0,P|214:369|175:366,1,80,0|0,3:0|0:0,0:0:0:0:
286,164,57686,5,2,0:1:0:0:
478,278,57852,2,0,P|501:312|493:356,1,80,0|0,3:0|0:0,0:0:0:0:
356,377,58019,2,0,P|335:345|338:306,1,80,8|0,0:0|0:0,0:0:0:0:
454,122,58186,6,0,B|430:190|430:190|324:211|324:211|284:162,1,240,2|0,3:1|0:0,0:0:0:0:
142,10,58519,2,0,P|164:48|152:94,1,80,2|0,3:1|0:0,0:0:0:0:
0,75,58686,2,0,B|47:80|49:131|49:131|81:179|131:165|131:165|91:159|83:127,1,240,8|0,0:0|0:0,0:0:0:0:
84,131,59019,6,2,B|-16:175|-31:287|33:337|134:296|73:223,1,300,4|0,3:2|0:0,0:1:0:0:
142,10,59352,2,0,P|163:29|223:23,1,80,8|0,0:0|0:0,0:0:0:0:
169,208,59519,6,0,B|217:195|238:130|238:130|213:200|275:246,1,240,0|0,3:1|2:0,0:0:0:0:
261,349,59852,1,2,0:0:0:0:
261,349,59936,1,2,0:0:0:0:
261,349,60019,2,0,P|305:352|338:327,1,80,8|0,0:0|0:0,0:0:0:0:
406,182,60186,2,0,P|362:185|329:160,1,80,0|0,3:0|0:0,0:0:0:0:
434,371,60352,5,2,0:1:0:0:
496,207,60519,2,0,L|486:292,1,80,0|0,3:0|0:0,0:0:0:0:
342,86,60686,2,0,L|332:171,1,80,8|0,0:0|0:0,0:0:0:0:
266,253,60852,6,0,B|332:261|359:343|305:387|305:387|259:362|276:325,1,240,0|0,3:0|0:0,0:0:0:0:
261,349,61186,1,0,3:0:0:0:
310,173,61352,2,0,B|285:149|229:147|195:181|195:181|186:138|143:110|109:119,1,240,8|0,0:0|0:0,0:0:0:0:
112,118,61686,6,2,B|92:-1|92:-1|9:59|9:59|39:234|39:234|54:318,1,450.000017166138,6|8,3:1|0:0,0:0:0:0:
422,294,62186,6,0,B|443:325|408:372|408:372|337:356|315:273|402:195,1,240,4|0,3:2|0:0,0:1:0:0:
208,172,62519,1,2,0:0:0:0:
208,172,62602,1,2,0:0:0:0:
208,172,62686,2,0,P|243:195|284:184,1,80,8|0,0:0|0:0,0:0:0:0:
302,44,62852,2,0,P|267:21|226:32,1,80
309,57,63019,5,2,0:0:0:0:
379,131,63186,2,0,P|403:105|401:59,1,80,0|0,3:0|0:0,0:0:0:0:
422,294,63352,2,0,P|398:320|400:366,1,80,8|0,0:0|0:0,0:0:0:0:
509,258,63519,6,8,B|451:206|482:139|482:139|455:202|394:213,1,240,2|0,3:1|2:0,0:0:0:0:
208,172,63852,2,0,P|243:149|284:160,1,80,0|0,3:0|0:0,0:0:0:0:
303,287,64019,2,0,P|268:310|227:299,1,80,8|2,0:2|0:0,0:0:0:0:
23,289,64186,5,2,0:0:0:0:
23,289,64269,1,2,0:0:0:0:
23,289,64352,2,2,P|84:377|119:285,1,400,4|8,3:2|0:0,1:1:0:0:
40,161,64852,6,0,P|57:95|143:96,1,150,0|0,3:0|0:0,0:0:0:0:
144,97,65186,2,0,L|138:149,1,50,0|0,3:0|0:0,0:0:0:0:
222,106,65352,2,0,L|216:158,1,50,8|0,0:0|0:0,0:0:0:0:
301,116,65519,2,0,L|295:168,1,50,0|0,1:0|0:0,0:0:0:0:
409,31,65686,5,4,0:2:0:0:
409,31,65852,1,2,0:0:0:0:
428,135,66019,5,2,0:0:0:0:
428,135,66185,1,2,0:0:0:0:
446,238,66352,5,2,0:0:0:0:
446,238,66518,1,2,0:0:0:0:
464,341,66686,6,0,L|466:336,2,5.50000016784668,2|2|2,0:0|0:0|0:0,0:0:0:0:
321,246,67019,6,2,B|291:287|327:338|327:338|259:375|259:375|205:321|210:255|247:203,1,337.500012874604,4|0,3:2|0:0,0:1:0:0:
280,149,67352,2,0,P|255:117|209:109,1,80,8|0,0:0|0:0,0:0:0:0:
26,160,67519,6,2,B|133:233|272:134|186:-31|86:-13|49:56|94:107,1,400,0|2,3:2|0:0,0:1:0:0:
133,262,67936,1,2,0:0:0:0:
133,262,68019,1,10,0:0:0:0:
280,149,68186,6,2,B|382:129|352:289|471:277|549:191|467:113|389:116|348:206,1,400,0|0,3:0|3:0,0:1:0:0:
379,369,68686,1,8,0:0:0:0:
301,58,68852,6,0,B|210:-5|210:-5|257:211,1,300,4|0,3:2|0:0,0:0:0:0:
266,271,69186,1,0,3:0:0:0:
0,177,69352,1,8,0:0:0:0:
0,177,69436,1,2,0:0:0:0:
0,177,69519,2,0,P|31:201|83:196,1,80,2|2,0:0|0:0,0:0:0:0:
93,293,69686,6,2,B|169:263|171:172|171:172|191:255|271:272,1,300,0|0,3:0|0:0,0:1:0:0:
345,127,70019,2,0,P|324:160|273:173,1,80,8|2,0:0|0:0,0:0:0:0:
259,70,70186,6,0,B|315:19|315:19|410:41|410:41|443:107,1,240,4|0,3:2|0:0,0:0:0:0:
423,200,70519,1,2,3:2:0:0:
423,200,70602,1,0,0:0:0:0:
423,200,70686,2,0,P|463:203|498:178,1,80,8|0,0:0|0:0,0:0:0:0:
434,365,70852,6,2,B|332:385|362:225|243:237|165:323|247:401|325:398|366:308,1,400,0|0,3:0|3:0,0:1:0:0:
259,70,71352,1,8,0:2:0:0:
116,252,71519,6,2,B|57:262|57:262|-10:274|-30:162|48:150|48:150|124:138,1,300,0|0,3:3|0:3,0:1:0:0:
206,150,71852,2,0,P|236:182|272:180,1,80,0|0,3:0|0:0,0:0:0:0:
433,61,72019,2,0,B|388:0|388:0|421:169,1,240,8|0,0:0|0:0,0:0:0:0:
419,161,72352,6,2,B|490:173|490:173|476:258|476:258|341:232|341:232|326:313|326:313|398:327,1,450.000017166138,4|8,3:1|0:0,0:1:0:0:
237,343,72852,6,0,B|187:368|125:323|156:276|95:230|35:257,1,240,4|0,3:2|0:0,0:0:0:0:
58,344,73186,1,2,3:2:0:0:
58,344,73269,1,2,0:0:0:0:
58,344,73352,2,0,P|36:378|-9:380,1,80,8|0,0:0|0:0,0:0:0:0:
54,167,73519,6,0,P|20:145|18:100,1,80,4|0,1:0|0:0,0:0:0:0:
184,247,73686,1,0,0:0:0:0:
233,106,73852,6,0,L|240:27,1,80,0|0,3:0|0:0,0:0:0:0:
387,39,74019,2,0,L|378:129,1,80,8|0,1:2|0:0,0:0:0:0:
271,281,74186,2,0,B|330:238|305:170|305:170|326:233|383:249,1,240,4|0,3:1|0:0,0:0:0:0:
395,340,74519,6,0,P|439:346|476:308,1,80,0|0,3:0|0:0,0:0:0:0:
512,166,74686,1,8,0:0:0:0:
512,166,74769,1,2,0:0:0:0:
512,166,74852,2,0,P|468:160|431:198,1,80,2|2,0:0|0:0,0:0:0:0:
271,281,75019,6,2,B|275:328|251:367|251:367|170:352|170:352|197:293|193:224,1,300,4|0,3:1|0:1,0:1:0:0:
72,73,75352,2,0,P|45:94|-8:93,1,80,8|0,0:0|0:0,0:0:0:0:
99,227,75519,6,0,B|120:258|85:305|85:305|14:289|-8:206|79:128,1,240,4|0,3:2|0:0,0:1:0:0:
164,67,75852,1,2,0:2:0:0:
164,67,75936,1,2,0:0:0:0:
164,67,76019,2,0,P|185:94|184:147,1,80,8|0,0:0|0:0,0:0:0:0:
192,226,76186,6,2,B|288:263|287:100|402:133|464:231|369:293|293:277|268:181,1,400,0|0,3:1|3:0,0:1:0:0:
318,89,76686,1,8,0:0:0:0:
500,367,76852,6,0,B|552:337|529:255|471:233|471:233|476:296|433:341|372:331,1,300,2|0,3:1|0:0,0:0:0:0:
404,330,77186,1,0,3:0:0:0:
229,371,77352,6,0,B|213:285|213:285|279:227|279:227|305:359,1,300,8|0,0:0|0:0,0:0:0:0:
208,349,77686,6,0,L|211:373,1,20,0|0,3:0|0:0,0:0:0:0:
194,180,78019,5,8,0:0:0:0:
194,180,78102,1,0,0:0:0:0:
194,180,78186,2,2,B|157:131|76:141|93:210|32:240|-42:206|-51:99|29:68|138:102|122:228,1,400,4|0,0:2|3:0,0:1:0:0:
79,306,78602,1,0,0:0:0:0:
79,306,78686,1,8,0:2:0:0:
302,268,78852,6,2,B|419:256|417:381|336:421|258:379|272:302|272:302|289:181,1,400,4|0,0:2|3:0,0:1:0:0:
293,114,79269,1,0,0:0:0:0:
293,114,79352,1,8,0:0:0:0:
134,16,79519,1,2,0:0:0:0:
65,227,79686,6,0,L|84:338,1,80,2|0,0:1|0:0,0:0:0:0:
81,124,79852,2,0,L|100:235,1,80,0|0,3:1|0:0,0:0:0:0:
198,258,80019,6,0,L|185:180,1,80,12|0,0:0|0:0,0:0:0:0:
182,360,80185,2,0,L|169:282,1,80,2|0,0:1|0:0,0:0:0:0:
282,370,80352,6,0,L|287:346,1,20,0|0,3:0|0:0,0:0:0:0:
362,104,80686,5,12,0:0:0:0:
403,316,80852,1,0,0:0:0:0:
288,221,81019,1,2,0:1:0:0:
471,191,81186,1,0,3:0:0:0:
479,191,81269,1,0,0:0:0:0:
487,190,81352,1,8,0:0:0:0:
409,360,81519,1,2,0:1:0:0:
150,115,81686,5,2,0:1:0:0:
394,237,81852,1,0,3:0:0:0:
164,19,82019,5,12,0:0:0:0:
117,275,82186,1,2,0:1:0:0:
44,77,82352,6,0,L|54:157,1,80,2|0,0:0|0:0,0:0:0:0:
34,87,82519,2,0,L|44:167,1,80,0|0,3:0|0:0,0:0:0:0:
220,263,82686,6,0,L|229:183,1,80,12|0,0:0|0:0,0:0:0:0:
211,253,82853,2,0,L|220:173,1,80,2|0,0:0|0:0,0:0:0:0:
20,341,83019,6,0,L|26:366,1,20,2|0,3:1|0:0,0:0:0:0:
23,248,83352,1,12,0:0:0:0:
23,248,83436,1,0,0:0:0:0:
23,248,83519,6,2,B|43:233|61:242|61:242|70:277|130:320|215:293|227:216|221:132|123:91|76:162|128:220,1,400,0|0,0:0|3:0,0:1:0:0:
165,360,83936,1,0,0:0:0:0:
165,360,84019,1,8,0:0:0:0:
122,114,84186,1,2,0:0:0:0:
261,302,84352,6,0,B|255:236|313:207|313:207|316:291|417:345|498:260|449:184|402:169|382:224,1,400,4|8,3:1|0:0,1:0:0:0:
373,69,84852,1,2,0:1:0:0:
488,347,85019,5,2,0:0:0:0:
179,247,85186,1,0,3:0:0:0:
373,69,85352,5,8,0:0:0:0:
333,362,85519,1,2,0:1:0:0:
368,161,85686,6,0,L|398:153,1,30,0|0,3:0|0:0,0:0:0:0:
409,155,86019,6,0,P|372:200|318:185,1,100,12|0,0:0|0:0,0:0:0:0:
128,148,86186,6,0,B|146:47|146:47|161:21|182:16|206:27|212:55|212:55|197:160,1,300,2|0,0:1|0:0,0:0:0:0:
171,231,86519,2,0,P|221:237|258:193,1,100,0|0,3:0|0:0,0:0:0:0:
119,143,86686,5,8,0:0:0:0:
147,369,86852,1,2,0:1:0:0:
452,332,87019,6,2,B|526:293|527:182|430:149|351:174|311:252|359:328|359:328|371:373|335:390,1,450.000017166138,4|8,3:2|0:0,0:1:0:0:
344,384,87519,6,0,B|330:273|330:273|341:254|341:254|326:133,1,240,2|0,0:1|0:0,0:0:0:0:
316,69,87852,1,0,3:0:0:0:
96,202,88019,6,0,P|57:202|23:182,1,80,12|0,0:0|0:0,0:0:0:0:
112,122,88186,2,0,P|79:102|40:103,1,80,2|0,0:0|0:0,0:0:0:0:
66,324,88352,6,0,L|72:360,1,30,2|0,3:1|0:0,0:0:0:0:
141,289,88686,6,0,L|158:389,1,80,12|0,0:2|0:0,0:0:0:0:
482,325,88852,2,0,B|398:272|423:182|423:182|399:264|309:284,1,320,2|0,2:1|3:0,0:0:0:0:
318,281,89269,1,0,0:0:0:0:
318,281,89352,5,12,0:0:0:0:
308,121,89519,1,2,0:0:0:0:
333,367,89686,5,2,0:1:0:0:
223,223,89852,1,0,3:0:0:0:
238,218,89936,1,0,0:0:0:0:
254,213,90019,1,12,0:0:0:0:
24,32,90186,6,2,B|137:68|190:196|47:249|-2:180|29:131,1,320,0|0,0:0|3:0,0:1:0:0:
24,138,90686,6,0,L|43:252,1,80,8|0,0:0|0:0,0:0:0:0:
98,118,90852,2,0,L|117:232,1,80,0|0,3:0|0:0,0:0:0:0:
34,366,91019,6,0,P|65:309|156:327,1,160,4|0,3:2|0:0,0:0:0:0:
426,162,91519,5,4,3:2:0:0:
229,364,91686,1,0,0:0:0:0:
239,60,91852,1,2,0:0:0:0:
392,342,92019,5,4,3:2:0:0:
239,60,92186,1,0,0:0:0:0:
392,342,92352,1,2,0:1:0:0:
131,217,92519,5,4,3:2:0:0:
425,162,92686,1,0,0:0:0:0:
131,217,92852,1,2,3:2:0:0:
253,34,93019,5,4,0:0:0:0:
229,364,93186,1,0,3:0:0:0:
15,305,93352,6,2,B|57:282|52:222|52:222|59:303|156:343|223:289|235:205|149:168|128:222,1,400,4|4,3:1|0:1,0:1:0:0:
68,16,94019,5,0,0:0:0:0:
68,16,94186,2,0,P|75:98|161:89,1,160
171,138,94602,1,0,0:0:0:0:
171,138,94686,2,0,L|178:52,1,80,2|0,0:0|0:0,0:0:0:0:
270,15,95019,5,0,0:0:0:0:
289,98,95186,1,0,0:0:0:0:
311,179,95352,1,2,0:0:0:0:
231,254,95519,2,0,P|309:266|401:281,2,160
244,296,96269,1,0,0:0:0:0:
248,300,96352,6,0,P|196:351|118:326,1,160,0|2,0:0|0:0,0:0:0:0:
29,354,96852,2,0,P|40:253|48:177,1,160
28,170,97269,1,0,0:0:0:0:
28,170,97352,1,2,0:0:0:0:
99,116,97519,1,0,0:0:0:0:
185,158,97686,6,0,L|199:256,1,80,0|2,0:0|0:0,0:0:0:0:
182,58,98019,2,0,L|83:71,1,80,0|2,0:0|0:0,0:0:0:0:
288,158,98352,2,0,L|300:23,2,120
276,243,99019,5,0,0:0:0:0:
475,161,99352,1,2,0:0:0:0:
475,161,99519,2,0,P|405:174|387:256,1,160
414,275,99936,1,0,0:0:0:0:
414,275,100019,2,0,L|406:373,1,80,2|0,0:0|0:0,0:0:0:0:
291,375,100352,5,0,0:0:0:0:
283,292,100519,1,0,0:0:0:0:
276,209,100686,1,2,0:0:0:0:
202,116,100852,2,0,P|279:126|366:141,2,160
179,74,101602,1,0,0:0:0:0:
179,74,101686,6,0,P|130:147|55:131,1,160,0|2,0:0|0:0,0:0:0:0:
18,224,102186,2,0,L|35:388,1,160
70,351,102602,1,0,0:0:0:0:
70,351,102686,2,0,P|106:381|162:373,1,80,2|0,0:0|0:0,0:0:0:0:
229,288,103019,6,0,P|237:334|243:384,1,80,0|2,0:0|0:0,0:0:0:0:
235,192,103352,2,0,P|189:200|139:206,1,80,0|2,0:3|0:0,0:3:0:0:
332,307,103686,2,0,L|347:141,1,160,0|2,0:0|0:0,0:0:0:0:
346,147,104352,6,0,P|423:156|460:73,1,160,0|2,0:0|0:0,0:0:0:0:
337,32,104852,2,0,B|279:22|279:22|246:46|246:46|186:39,1,160
152,23,105269,1,0,0:0:0:0:
152,23,105352,2,0,L|165:132,1,80,2|0,0:0|0:0,0:0:0:0:
62,166,105686,5,0,0:0:0:0:
143,189,105852,1,0,0:0:0:0:
224,218,106019,1,2,0:0:0:0:
320,161,106186,2,0,L|301:323,2,160
317,118,106936,1,0,0:0:0:0:
317,118,107019,6,0,P|389:120|416:217,1,160,0|2,0:0|0:0,0:0:0:0:
476,328,107519,2,0,B|416:319|416:319|378:345|378:345|307:334,1,160
287,328,107936,1,0,0:0:0:0:
287,328,108019,2,0,P|248:355|207:348,1,80,2|0,0:0|0:0,0:0:0:0:
10,201,108352,5,0,0:0:0:0:
26,317,108519,1,0,0:0:0:0:
135,185,108686,1,2,0:0:0:0:
153,296,108852,1,0,0:0:0:0:
10,198,109019,2,0,L|27:56,2,120
79,249,109686,5,0,0:0:0:0:
219,136,110019,1,2,0:0:0:0:
219,136,110186,2,0,B|293:168|293:168|265:266,1,160
248,265,110602,1,0,0:0:0:0:
248,265,110686,2,0,P|238:312|263:351,1,80,2|0,0:0|0:0,0:0:0:0:
486,265,111019,5,0,0:0:0:0:
465,377,111186,1,0,0:0:0:0:
348,354,111352,1,2,0:0:0:0:
363,246,111519,2,0,L|341:61,2,160
323,281,112269,1,0,0:0:0:0:
323,281,112352,6,0,P|267:223|194:247,1,160,0|2,0:0|0:0,0:0:0:0:
149,127,112852,2,0,P|93:185|20:161,1,160
42,138,113269,1,0,0:0:0:0:
42,138,113352,2,0,L|49:41,1,80,2|0,0:0|0:0,0:0:0:0:
163,29,113686,5,0,0:0:0:0:
241,177,113852,1,2,0:0:0:0:
265,15,114019,1,0,0:0:0:0:
149,127,114186,1,2,0:0:0:0:
317,97,114352,1,0,0:0:0:0:
31,231,114686,6,0,B|15:181|65:142|120:168|120:168|103:112|154:61|225:85|238:138|238:138|231:121|270:85|359:103|393:190|362:267|306:317|245:291|215:279|215:279|168:264|111:290|104:357|165:404|210:369,1,909.999972229005,4|0,0:0|0:0,0:0:0:0:
