osu file format v14

[General]
AudioFilename: c.mp3
AudioLeadIn: 0
PreviewTime: 45711
Countdown: 0
SampleSet: Soft
StackLeniency: 0.3
Mode: 0
LetterboxInBreaks: 0
WidescreenStoryboard: 1

[Editor]
Bookmarks: 67032,77699,93699,136335
DistanceSpacing: 0.1
BeatDivisor: 4
GridSize: 32
TimelineZoom: 1.8

[Metadata]
Title:Future Candy (Xignality Remix) (Cut Ver.)
TitleUnicode:Future Cαndy (Xignality Remix) (Cut Ver.)
Artist:YUC'e
ArtistUnicode:YUC'e
Creator:Regou
Version:Digi's Hard
Source:
Tags:ゆーしえ corsace open 2020 no mod nm3 round of 32 ro32 acyl digidrake dnb drumstep drum & and bass neurofunk ultrafunk electronic Japanese Acylica
BeatmapID:2603700
BeatmapSetID:1252827

[Difficulty]
HPDrainRate:4
CircleSize:3.8
OverallDifficulty:6.4
ApproachRate:7.8
SliderMultiplier:1.7
SliderTickRate:1

[Events]
//Background and Video events
0,0,"bg4.jpg",0,0
//Break Periods
//Storyboard Layer 0 (Background)
//Storyboard Layer 1 (Fail)
//Storyboard Layer 2 (Pass)
//Storyboard Layer 3 (Foreground)
//Storyboard Layer 4 (Overlay)
//Storyboard Sound Samples

[TimingPoints]
353,333.333333333333,4,2,0,40,1,0
3019,-125,4,2,1,40,0,0
13602,-125,4,2,1,5,0,0
13686,-125,4,2,1,40,0,0
24269,-125,4,2,1,5,0,0
24352,-125,4,2,1,40,0,0
35019,-111.111111111111,4,2,1,50,0,0
41686,-111.111111111111,4,2,1,50,0,0
44019,-83.3333333333333,4,2,1,50,0,0
44352,-111.111111111111,4,2,1,50,0,0
45269,-111.111111111111,4,2,1,5,0,0
45352,-166.666666666667,4,2,1,50,0,0
45686,-83.3333333333333,4,2,1,70,0,0
46186,-100,4,2,1,70,0,0
47186,-83.3333333333333,4,2,1,70,0,0
47852,-100,4,2,1,70,0,0
48352,-83.3333333333333,4,2,1,70,0,0
48852,-100,4,2,1,70,0,0
49852,-83.3333333333333,4,2,1,70,0,0
50352,-100,4,2,0,70,0,0
50519,-100,4,2,1,70,0,0
50936,-100,4,2,1,70,0,0
51019,-83.3333333333333,4,2,1,70,0,0
51519,-100,4,2,1,70,0,0
52519,-83.3333333333333,4,2,1,70,0,0
53186,-100,4,2,1,70,0,0
53686,-83.3333333333333,4,2,1,70,0,0
54186,-100,4,2,1,70,0,0
55186,-83.3333333333333,4,2,1,70,0,0
55686,-100,4,2,0,70,0,0
55852,-100,4,2,1,70,0,0
56269,-100,4,2,1,70,0,0
56352,-83.3333333333333,4,2,1,70,0,0
56852,-100,4,2,1,70,0,0
57852,-83.3333333333333,4,2,1,70,0,0
58519,-100,4,2,1,70,0,0
59019,-83.3333333333333,4,2,1,70,0,0
59519,-100,4,2,1,70,0,0
60519,-83.3333333333333,4,2,1,70,0,0
61019,-100,4,2,0,70,0,0
61186,-100,4,2,1,70,0,0
61602,-100,4,2,1,70,0,0
61686,-83.3333333333333,4,2,1,70,0,0
62186,-100,4,2,1,70,0,0
63186,-83.3333333333333,4,2,1,70,0,0
63852,-100,4,2,1,70,0,0
64352,-83.3333333333333,4,2,1,70,0,0
64852,-100,4,2,1,70,0,0
66186,-142.857142857143,4,2,1,70,0,0
66686,-250,4,2,1,70,0,0
67019,-71.4285714285714,4,2,1,70,0,0
67519,-90.9090909090909,4,2,1,70,0,0
69686,-76.9230769230769,4,2,1,70,0,0
70186,-90.9090909090909,4,2,1,70,0,0
72352,-76.9230769230769,4,2,1,70,0,0
72852,-90.9090909090909,4,2,1,70,0,0
75019,-76.9230769230769,4,2,1,70,0,0
75519,-90.9090909090909,4,2,1,70,0,0
77686,-125,4,2,1,70,0,0
78186,-90.9090909090909,4,2,1,70,0,0
80352,-83.3333333333333,4,2,1,70,0,0
80852,-90.9090909090909,4,2,1,70,0,0
83019,-83.3333333333333,4,2,1,70,0,0
83519,-90.9090909090909,4,2,1,70,0,0
85686,-76.9230769230769,4,2,1,70,0,0
86102,-90.9090909090909,4,2,0,70,0,0
86186,-90.9090909090909,4,2,1,70,0,0
86686,-90.9090909090909,4,2,1,70,0,0
87019,-71.4285714285714,4,2,1,70,0,0
87519,-90.9090909090909,4,2,1,70,0,0
91019,-125,4,2,1,70,0,0
91519,-90.9090909090909,4,2,1,70,0,0
91769,-90.9090909090909,4,2,1,5,0,0
91852,-90.9090909090909,4,2,1,70,0,0
93019,-76.9230769230769,4,2,1,70,0,0
93269,-76.9230769230769,4,2,1,5,0,0
93352,-76.9230769230769,4,2,1,70,0,0
93602,-76.9230769230769,4,2,1,5,0,0
93686,-125,4,2,1,50,0,0
94019,-125,4,2,1,50,0,0
96018,-125,4,2,1,50,0,0
96186,-125,4,2,1,50,0,0
101352,-125,4,2,1,50,0,0
101519,-125,4,2,1,50,0,0
103852,-125,4,2,1,50,0,0
104019,-125,4,2,1,50,0,0
104269,-125,4,2,1,5,0,0
104352,-125,4,2,1,50,0,0
106685,-125,4,2,1,50,0,0
106852,-125,4,2,1,50,0,0
112018,-125,4,2,1,50,0,0
112186,-125,4,2,1,50,0,0
114352,-166.666666666667,4,2,1,50,0,0
114518,-166.666666666667,4,2,1,50,0,0
114686,-166.666666666667,4,2,1,30,0,0
114852,-166.666666666667,4,2,1,10,0,0

[Colours]
Combo1 : 251,167,83
Combo2 : 117,255,117
Combo3 : 14,228,197
Combo4 : 211,133,254
Combo5 : 255,249,119
Combo6 : 254,133,136

[HitObjects]
34,48,3019,6,0,P|98:48|124:106,1,136,4|2,1:0|0:0,0:0:0:0:
54,265,3686,1,0,0:0:0:0:
54,265,3852,2,0,P|53:190|43:123,2,136,2|2|0,0:0|0:0|0:0,0:0:0:0:
118,321,4686,1,2,0:0:0:0:
278,340,5019,1,0,0:0:0:0:
278,340,5186,2,0,P|341:341|361:281,1,136
436,223,5686,6,0,P|398:162|389:87,1,136,0|2,0:0|0:0,0:0:0:0:
427,26,6186,1,0,0:0:0:0:
427,26,6519,2,0,P|453:24|465:21,2,34,0|0|2,0:0|0:0|0:0,0:0:0:0:
388,99,6852,1,0,0:0:0:0:
310,72,7019,6,0,P|250:95|252:163,1,136,0|2,0:0|0:0,0:0:0:0:
309,218,7519,2,0,P|248:206|175:195,1,136
98,232,8019,1,2,0:0:0:0:
98,232,8352,6,0,B|61:239|43:268|43:268|37:236|6:213,1,136,0|2,0:0|0:0,0:0:0:0:
66,153,8852,1,0,0:0:0:0:
66,153,9186,2,0,L|71:113,2,34,0|0|2,0:0|0:0|0:0,0:0:0:0:
6,213,9519,1,0,0:0:0:0:
98,232,9686,6,0,P|157:247|174:320,1,136,0|2,0:0|0:0,0:0:0:0:
235,374,10186,1,0,0:0:0:0:
235,374,10519,2,0,P|268:374|294:352,1,68,0|2,0:0|0:0,0:0:0:0:
377,337,10852,1,0,0:0:0:0:
377,337,10936,1,0,0:0:0:0:
377,337,11019,6,0,P|394:274|398:196,1,136,0|2,0:0|0:0,0:0:0:0:
459,143,11519,1,0,0:0:0:0:
459,143,11852,2,0,P|454:120|445:101,2,34,0|0|2,0:0|0:0|0:0,0:0:0:0:
398,203,12186,1,0,0:0:0:0:
318,172,12352,6,0,P|287:170|251:163,1,68,0|2,0:0|0:0,0:0:0:0:
171,194,12686,2,0,P|204:187|238:184,1,68,0|2,0:0|0:0,0:0:0:0:
330,161,13019,2,0,P|349:122|347:95,1,68
424,61,13352,2,0,P|390:23|339:13,1,102,2|0,0:0|0:0,0:0:0:0:
336,3,13686,6,0,B|256:14|301:51|215:64,1,136,0|2,0:0|0:0,0:0:0:0:
138,34,14186,1,0,0:0:0:0:
138,34,14519,2,0,P|131:18|125:-2,2,34,0|0|2,0:0|0:0|0:0,0:0:0:0:
218,63,14852,1,0,0:0:0:0:
153,118,15019,6,0,P|138:148|134:181,2,68,0|0|2,0:0|0:0|0:0,0:0:0:0:
138,34,15519,1,0,0:0:0:0:
138,34,15852,2,0,P|108:47|83:71,1,68,0|2,0:0|0:0,0:0:0:0:
3,64,16186,1,0,0:0:0:0:
3,64,16269,1,0,0:0:0:0:
3,64,16352,6,0,B|-5:106|26:134|26:134|35:165|16:190,1,136,0|2,0:0|0:0,0:0:0:0:
87,235,16852,1,0,0:0:0:0:
87,235,17186,2,0,P|110:224|138:225,2,34,0|0|2,0:0|0:0|0:0,0:0:0:0:
16,189,17519,1,0,0:0:0:0:
8,273,17686,6,0,P|17:316|21:346,1,68,0|2,0:0|0:0,0:0:0:0:
105,361,18019,2,0,P|135:348|150:318,1,68,0|2,0:0|0:0,0:0:0:0:
176,236,18352,2,0,P|144:178|138:132,2,102
249,283,19019,6,0,B|287:240|342:256|342:256|326:269|321:281,1,136,0|2,0:0|0:0,0:0:0:0:
390,329,19519,1,0,0:0:0:0:
390,329,19852,2,0,L|429:321,2,34,0|0|2,0:0|0:0|0:0,0:0:0:0:
320,281,20186,1,0,0:0:0:0:
237,298,20352,6,0,L|180:260,2,68,0|0|2,0:0|0:0|0:0,0:0:0:0:
320,281,20852,1,0,0:0:0:0:
320,281,21186,2,0,L|335:213,1,68,0|2,0:0|0:0,0:0:0:0:
395,161,21519,1,0,0:0:0:0:
395,161,21602,1,0,0:0:0:0:
395,161,21686,6,0,B|368:136|362:104|362:104|343:131|305:141,1,136,0|2,0:0|0:0,0:0:0:0:
334,214,22186,1,0,0:0:0:0:
334,214,22519,2,0,L|325:250,2,34,0|0|2,0:0|0:0|0:0,0:0:0:0:
395,161,22852,1,0,0:0:0:0:
305,140,23019,6,0,P|265:143|236:159,1,68,0|2,0:0|0:0,0:0:0:0:
163,120,23352,2,0,P|134:149|122:179,1,68,0|2,0:0|0:0,0:0:0:0:
49,215,23686,2,0,P|61:273|63:297,1,68
149,286,24019,2,0,P|202:310|213:351,1,102,2|0,0:0|0:0,0:0:0:0:
207,360,24352,6,0,P|271:360|301:303,1,136,4|2,0:0|0:0,0:0:0:0:
267,223,24852,1,0,0:0:0:0:
301,301,25019,2,0,P|341:310|371:298,1,68
381,313,25269,1,0,0:0:0:0:
381,313,25352,2,0,B|445:289|444:236|444:236|426:226|405:235,2,136,2|0|2,0:0|0:0|0:0,0:0:0:0:
301,162,26352,2,0,B|328:180|339:204|339:204|361:166|403:154,1,136,0|2,0:0|0:0,0:0:0:0:
475,120,26852,1,0,0:0:0:0:
475,120,26936,1,0,0:0:0:0:
475,120,27019,6,0,P|411:109|328:88,1,136,0|2,0:0|0:0,0:0:0:0:
267,50,27519,1,0,0:0:0:0:
342,92,27686,2,0,P|365:118|387:156,1,68
383,163,27936,1,0,0:0:0:0:
383,163,28019,2,0,B|354:176|329:177|329:177|315:196|313:227|337:252,2,136,2|0|0,0:0|0:0|0:0,0:0:0:0:
263,41,29019,2,0,B|247:17|216:11|197:25|197:25|194:44|169:64,2,102
244,122,29686,6,0,P|233:194|235:279,1,136,0|2,0:0|0:0,0:0:0:0:
232,257,30352,2,0,L|154:238,2,68,0|0|2,0:0|0:0|0:0,0:0:0:0:
315,273,30852,1,0,0:0:0:0:
361,201,31019,2,0,P|361:234|347:267,1,68
361,349,31352,2,0,P|265:347|232:257,1,204,2|0,0:0|0:0,0:0:0:0:
147,242,32019,2,0,L|79:252,1,68,2|0,0:0|0:0,0:0:0:0:
75,266,32269,1,0,0:0:0:0:
75,266,32352,6,0,B|56:124,1,136,0|2,0:0|0:0,0:0:0:0:
43,47,32852,1,0,0:0:0:0:
122,77,33019,2,0,P|162:66|185:43,1,68
189,40,33269,1,0,0:0:0:0:
189,40,33352,2,0,P|189:73|205:103,1,68,2|0,0:0|0:0,0:0:0:0:
232,184,33686,2,0,B|269:209|315:197|325:160|325:160|314:155|300:142,2,136
78,258,34686,1,2,0:0:0:0:
78,258,35019,6,0,P|105:314|115:366,1,114.749996498108,0|0,1:0|0:0,0:0:0:0:
105,377,35352,1,8,0:0:0:0:
255,258,35686,2,0,B|294:231|343:244|354:283|354:283|340:300|334:328,3,152.999995330811,8|8|8|8,0:0|0:0|0:0|0:0,0:0:0:0:
339,312,37019,2,0,P|323:275|323:240,1,76.4999976654053,8|0,0:0|0:0,0:0:0:0:
237,196,37352,2,0,P|248:155|270:129,1,76.4999976654053,8|0,0:0|0:0,0:0:0:0:
285,130,37602,1,0,0:0:0:0:
285,130,37686,5,8,0:0:0:0:
453,40,38019,1,8,0:0:0:0:
509,222,38352,2,0,B|482:175|436:167|436:167|418:195|429:227,2,152.999995330811,8|8|8,0:0|0:0|0:0,0:0:0:0:
384,346,39352,1,8,0:0:0:0:
231,258,39686,1,8,0:0:0:0:
271,86,40019,1,8,0:0:0:0:
271,86,40352,6,0,L|194:73,3,76.4999976654053,0|0|0|0,1:0|1:0|1:0|1:0,0:0:0:0:
183,168,41019,2,0,L|264:182,1,76.4999976654053,0|0,1:0|1:0,0:0:0:0:
286,89,41352,2,0,P|280:60|225:30,1,76.4999976654053,0|0,1:0|1:0,0:0:0:0:
148,8,41686,6,0,P|122:39|112:78,1,76.4999976654053,0|0,1:0|1:0,0:0:0:0:
18,54,42019,2,0,P|18:94|36:130,1,76.4999976654053,0|0,1:0|1:0,0:0:0:0:
93,190,42352,5,0,1:0:0:0:
178,169,42519,1,0,1:0:0:0:
257,207,42686,1,0,1:0:0:0:
293,286,42852,1,0,1:0:0:0:
293,286,43019,6,0,P|288:307|279:325,3,38.2499988327027,2|2|2|2,0:0|0:0|0:0|0:0,0:0:0:0:
285,340,43352,2,0,P|268:353|250:361,3,38.2499988327027,2|2|2|2,0:0|0:0|0:0|0:0,0:0:0:0:
242,376,43686,5,2,0:0:0:0:
163,336,43852,1,2,0:0:0:0:
77,360,44019,1,2,0:0:0:0:
77,360,44102,1,0,0:0:0:0:
77,360,44186,2,2,B|63:361|54:364|54:364|53:349|48:335,1,50.9999984436036
82,320,44352,5,0,3:1:0:0:
190,201,44686,1,0,0:0:0:0:
190,201,44852,1,2,0:0:0:0:
104,221,45019,2,0,P|58:188|54:122,1,114.749996498108
63,116,45352,2,0,P|70:153|65:170,1,50.9999984436036,2|0,0:0|0:0,0:0:0:0:
17,44,45686,6,0,B|73:35|73:35|87:24|87:24|208:5|136:22|132:40|133:79,1,203.999993774414,2|8,3:1|0:2,0:0:0:0:
222,76,46186,1,4,3:2:0:0:
222,76,46519,1,2,0:0:0:0:
230,89,46602,1,2,0:0:0:0:
232,104,46686,2,0,P|214:139|163:142,1,85,8|2,0:2|0:0,0:0:0:0:
132,73,47019,1,2,0:1:0:0:
103,198,47186,6,0,B|67:199|49:177|49:177|49:156|63:139,2,101.999996887207,0|8|2,3:0|0:0|3:1,0:0:0:0:
133,363,47852,1,2,3:1:0:0:
203,308,48019,2,0,B|242:304|277:326|277:326|264:294|278:266,1,127.5,8|0,0:2|0:0,0:0:0:0:
311,300,48352,6,0,B|352:297|376:288|376:288|393:301|404:318|404:318|461:300|456:246,1,203.999993774414,4|8,3:2|0:0,0:0:0:0:
388,185,48852,1,2,3:1:0:0:
388,185,49186,1,2,0:0:0:0:
384,197,49269,1,2,0:0:0:0:
388,209,49352,2,0,P|347:202|295:186,1,85,8|0,0:0|3:0,0:0:0:0:
333,112,49686,1,2,0:2:0:0:
225,173,49852,6,0,B|183:183|183:183|174:193|174:193|129:203,2,101.999996887207,0|8|0,3:0|0:0|3:0,0:0:0:0:
397,218,50519,1,0,3:0:0:0:
376,305,50686,2,2,B|342:295|325:271|325:271|314:318|280:340,1,127.5,8|0,0:0|0:0,0:1:0:0:
294,352,51019,6,2,B|296:368|305:380|305:380|253:383|234:352|249:348|223:294|157:308,1,203.999993774414,4|8,3:1|0:2,0:0:0:0:
78,350,51519,1,2,3:1:0:0:
78,350,51852,1,2,0:0:0:0:
68,358,51936,1,0,0:0:0:0:
62,369,52019,2,0,P|20:328|19:289,1,85,8|2,0:0|3:2,0:0:0:0:
20,222,52352,1,2,0:1:0:0:
120,170,52519,6,0,P|102:226|93:271,2,101.999996887207,0|8|2,3:0|0:0|3:1,0:0:0:0:
16,304,53186,1,0,3:0:0:0:
20,222,53352,2,0,B|25:186|16:154|6:169|-12:137|-2:98,1,127.5,8|0,0:0|0:0,0:0:0:0:
3,79,53686,6,2,B|40:17|114:24|130:67|130:67|106:66|82:79,1,203.999993774414,4|8,3:0|0:0,0:1:0:0:
127,155,54186,1,2,3:1:0:0:
127,155,54519,1,2,0:0:0:0:
173,253,54686,2,0,P|208:230|273:206,1,85,8|0,0:0|3:0,0:0:0:0:
303,282,55019,1,2,0:1:0:0:
331,167,55186,6,0,B|323:136|325:114|325:114|302:125|272:125,2,101.999996887207,0|8|0,3:0|0:0|3:0,0:0:0:0:
183,267,55852,1,0,3:0:0:0:
182,349,56019,2,0,B|208:348|225:354|225:354|242:297|203:271,1,127.5,8|0,0:0|0:0,0:0:0:0:
183,267,56352,6,2,B|142:268|118:298|118:298|131:241|81:223|81:223|92:242|92:258,1,203.999993774414,4|8,3:1|0:0,3:1:0:0:
11,315,56852,1,0,3:0:0:0:
11,315,57186,1,2,0:0:0:0:
4,327,57269,1,0,0:0:0:0:
5,341,57352,2,0,P|21:303|9:252,1,85,8|0,0:0|3:0,0:0:0:0:
20,171,57686,1,2,0:1:0:0:
92,217,57852,6,0,B|109:258|150:267|179:253|170:232,2,101.999996887207,0|8|2,3:0|0:0|3:1,0:0:0:0:
9,63,58519,1,2,3:1:0:0:
85,94,58686,2,0,B|123:70|38:59|30:133|45:160,1,127.5,8|0,0:0|0:0,0:0:0:0:
55,181,59019,6,2,B|120:216|175:184|190:131|174:124|174:124|161:146|148:153,1,203.999993774414,4|8,3:2|0:0,0:1:0:0:
194,241,59519,1,0,3:1:0:0:
194,241,59852,1,2,0:0:0:0:
208,333,60019,2,0,P|163:329|124:301,1,85,8|0,0:0|3:0,0:0:0:0:
71,374,60352,1,2,0:1:0:0:
62,260,60519,6,0,B|50:223|60:188|60:188|44:184|28:159,2,101.999996887207,0|8|0,3:0|0:0|3:0,0:0:0:0:
220,354,61186,1,0,3:0:0:0:
281,289,61352,2,0,B|334:271|361:294|337:308|373:324|405:314,1,127.5,8|0,0:0|0:0,3:0:0:0:
402,276,61686,6,0,B|408:232|340:186|299:235|299:235|304:267|282:287,1,203.999993774414,6|8,3:1|0:0,0:0:0:0:
206,238,62186,1,4,3:2:0:0:
206,238,62519,1,2,0:0:0:0:
202,226,62602,1,2,0:0:0:0:
202,214,62686,2,0,P|210:168|212:127,1,85,8|0,0:0|0:0,0:0:0:0:
202,40,63019,1,2,0:0:0:0:
318,67,63186,6,0,B|353:56|378:71|378:71|397:60|403:39,2,101.999996887207,0|8|2,3:0|0:0|3:1,0:0:0:0:
155,137,63852,1,0,3:0:0:0:
180,219,64019,2,0,B|209:213|225:184|225:184|227:224|257:241,1,127.5,8|0,0:0|0:0,0:0:0:0:
282,248,64352,6,2,B|316:222|318:186|318:186|341:195|344:226|332:220|329:269|374:294,1,203.999993774414,4|8,3:2|0:0,1:1:0:0:
427,223,64852,1,0,3:0:0:0:
427,223,65186,1,0,3:0:0:0:
346,185,65352,1,8,0:0:0:0:
282,248,65519,1,0,1:0:0:0:
370,346,65686,6,0,L|357:261,2,85,4|2|2,0:2|0:0|0:0,0:0:0:0:
289,343,66186,6,0,L|280:285,2,59.4999981842042,2|2|2,0:0|0:0|0:0,0:0:0:0:
207,339,66686,6,2,L|202:306,1,34
112,283,67019,6,2,B|82:310|82:310|280:283,1,237.999992736817,4|8,3:2|0:0,0:1:0:0:
358,339,67519,2,2,P|443:321|443:234,1,187.000005706787,0|2,3:2|0:0,0:1:0:0:
432,235,67936,1,2,0:0:0:0:
432,235,68019,1,10,0:0:0:0:
289,207,68186,6,2,B|328:214|349:251|349:251|340:186|399:153,1,187.000005706787,0|0,3:0|3:0,0:1:0:0:
501,78,68686,1,8,0:0:0:0:
485,162,68852,6,0,P|397:141|293:121,1,187.000005706787,4|0,3:2|3:0,0:0:0:0:
228,57,69352,2,0,P|256:16|304:23,1,93.5000028533936,8|0,0:0|0:0,0:0:0:0:
306,37,69602,1,0,0:0:0:0:
306,37,69686,6,2,B|326:86|295:117|272:131|272:131|242:153|230:197|255:231,1,220.999989883423,0|8,3:0|0:0,0:1:0:0:
342,187,70186,2,0,B|366:176|374:167|374:167|375:193|328:229|315:184|271:194|250:235,1,187.000005706787,4|2,3:2|3:2,0:0:0:0:
261,248,70602,1,0,0:0:0:0:
261,248,70686,1,8,0:0:0:0:
154,294,70852,6,2,B|117:308|109:260|160:226|197:289|176:301|195:337|253:336,1,187.000005706787,0|0,3:0|3:0,0:1:0:0:
261,248,71352,1,8,0:2:0:0:
331,357,71519,6,2,B|387:349|429:364|429:364|453:313|414:282,1,187.000005706787,0|0,3:3|3:0,0:1:0:0:
351,211,72019,1,8,0:0:0:0:
351,211,72352,6,2,B|271:258|193:206|249:141|298:166|290:220|260:248,1,220.999989883423,4|8,3:1|0:0,0:1:0:0:
176,297,72852,2,0,P|103:283|83:169,1,187.000005706787,4|2,3:2|3:2,0:0:0:0:
93,182,73269,1,2,0:0:0:0:
93,182,73352,1,8,0:0:0:0:
221,94,73519,6,0,B|218:121|192:142|167:139|167:139|138:86|72:96,1,187.000005706787,4|0,1:0|3:0,0:0:0:0:
139,21,74019,1,8,1:2:0:0:
256,21,74186,6,0,B|292:32|302:77|302:77|319:41|363:41|363:41|345:56|341:86,1,187.000005706787,4|0,3:1|3:0,0:0:0:0:
435,106,74686,2,0,P|419:144|405:209,1,93.5000028533936,8|0,0:0|0:0,0:0:0:0:
417,213,74936,1,0,0:0:0:0:
417,213,75019,6,0,B|361:177|315:225|317:260|317:260|294:268|263:229|281:195,1,220.999989883423,4|8,3:1|0:0,0:1:0:0:
148,181,75519,2,0,B|177:204|191:236|191:236|185:168|237:124,1,187.000005706787,4|2,3:2|0:2,0:1:0:0:
247,131,75936,1,2,0:0:0:0:
247,131,76019,1,8,0:0:0:0:
146,88,76186,6,2,B|93:94|69:51|69:51|9:57|3:116,1,187.000005706787,0|0,3:1|3:0,0:1:0:0:
51,197,76686,1,8,0:0:0:0:
167,187,76852,6,0,B|226:200|272:172|228:145|290:109|331:119,1,187.000005706787,2|0,3:1|3:0,0:0:0:0:
430,170,77352,1,8,0:0:0:0:
430,170,77686,6,0,P|433:203|435:251,1,68,0|2,3:0|0:0,0:0:0:0:
468,319,78019,1,8,0:0:0:0:
356,266,78186,6,2,B|297:254|233:234|233:234|248:269|232:304,1,187.000005706787,4|0,0:2|3:0,0:1:0:0:
312,354,78686,1,8,0:2:0:0:
236,292,78852,2,2,P|151:246|178:164,1,187.000005706787,4|0,0:2|3:0,0:1:0:0:
242,106,79352,1,8,0:0:0:0:
148,75,79519,2,0,P|105:66|51:59,1,93.5000028533936,2|2,0:0|0:1,0:0:0:0:
231,116,79852,5,0,3:1:0:0:
352,94,80019,2,0,P|397:77|411:30,1,93.5000028533936,12|2,0:0|0:1,0:0:0:0:
307,14,80352,6,0,P|322:98|334:238,1,203.999993774414,0|12,3:0|0:0,0:0:0:0:
313,312,80852,1,0,0:0:0:0:
313,312,81186,1,0,3:0:0:0:
218,335,81352,1,8,0:0:0:0:
137,277,81519,2,0,P|89:275|29:266,1,93.5000028533936,2|2,0:1|0:1,0:0:0:0:
224,349,81852,5,0,3:0:0:0:
308,298,82019,1,12,0:0:0:0:
404,316,82186,1,2,0:1:0:0:
404,316,82352,2,0,P|412:253|419:216,1,93.5000028533936,2|0,0:0|3:0,0:0:0:0:
390,128,82686,2,0,P|357:129|320:177,1,93.5000028533936,12|2,0:0|0:0,0:0:0:0:
256,231,83019,6,0,B|222:196|234:149|234:149|181:161|114:170,1,203.999993774414,2|12,3:1|0:0,0:0:0:0:
56,94,83519,2,2,P|137:84|257:55,1,187.000005706787,0|0,0:0|3:0,0:1:0:0:
331,25,84019,1,8,0:0:0:0:
406,87,84186,1,2,0:0:0:0:
381,181,84352,2,0,P|340:160|317:115,1,93.5000028533936,4|0,3:1|0:0,1:0:0:0:
339,11,84686,5,8,0:0:0:0:
396,101,84852,1,2,0:1:0:0:
459,188,85019,2,0,P|448:240|443:294,1,93.5000028533936,2|0,0:0|3:0,0:0:0:0:
347,327,85352,2,0,B|314:340|282:331|282:331|296:314|296:296,1,93.5000028533936,8|2,0:0|0:1,0:0:0:0:
217,267,85686,6,0,B|204:211|113:196|85:250|85:250|107:273|105:306,1,220.999989883423,0|12,3:0|0:0,0:0:0:0:
52,371,86186,2,0,P|62:280|68:184,1,187.000005706787,2|0,0:1|3:0,0:0:0:0:
31,107,86686,1,8,0:0:0:0:
52,197,86852,1,2,0:1:0:0:
146,235,87019,6,2,B|215:261|299:204|252:104|173:143|209:235|249:240,1,237.999992736817,4|8,3:2|0:0,0:1:0:0:
332,286,87519,2,0,P|416:261|422:169,1,187.000005706787,2|0,0:1|3:0,0:0:0:0:
481,92,88019,1,12,0:0:0:0:
481,92,88186,1,2,0:0:0:0:
385,69,88352,6,0,P|329:60|197:30,1,187.000005706787,2|12,3:1|0:2,0:0:0:0:
108,60,88852,2,0,B|126:121|137:180|137:180|162:143|204:145,1,187.000005706787,2|0,2:1|3:0,0:0:0:0:
277,104,89352,1,12,0:0:0:0:
280,202,89519,2,0,P|269:248|262:299,1,93.5000028533936,2|2,0:0|0:1,0:0:0:0:
269,118,89852,5,0,3:0:0:0:
368,189,90019,2,0,P|413:215|441:360,1,187.000005706787,12|0,0:0|0:0,0:0:0:0:
357,373,90519,1,0,3:0:0:0:
314,284,90686,1,8,0:0:0:0:
409,306,90852,1,0,3:0:0:0:
302,296,91019,6,0,P|245:291|152:291,1,136,4|0,3:2|0:0,0:0:0:0:
166,290,91519,2,0,P|111:264|120:182,1,140.25000428009,4|0,3:2|0:0,0:0:0:0:
125,184,91852,1,2,0:0:0:0:
222,200,92019,1,4,3:2:0:0:
222,200,92186,2,0,P|268:173|270:124,1,93.5000028533936,0|2,0:0|0:2,0:0:0:0:
357,238,92519,5,4,3:2:0:0:
357,238,92852,1,0,3:0:0:0:
421,306,93019,6,0,B|379:327|371:371|371:371|355:331|312:321,1,165.749992412568,4|0,0:0|0:0,0:0:0:0:
308,304,93352,2,2,B|349:281|357:238|357:238|373:277|416:288,1,165.749992412568,4|0,3:1|0:0,0:1:0:0:
421,306,93686,6,0,P|465:254|446:167,1,136,4|0,0:1|0:0,0:0:0:0:
400,129,94186,1,0,0:0:0:0:
400,129,94519,2,0,L|408:86,2,34,0|0|2,0:0|0:0|0:0,0:0:0:0:
460,189,94852,1,0,0:0:0:0:
386,145,95019,6,0,P|312:149|230:155,1,136,0|2,0:0|0:0,0:0:0:0:
169,181,95519,1,0,0:0:0:0:
169,181,95852,2,0,P|141:155|142:111,1,68
164,45,96186,1,0,0:0:0:0:
164,45,96269,1,0,0:0:0:0:
164,45,96352,6,0,P|126:96|56:108,1,136,0|2,0:0|0:0,0:0:0:0:
15,34,96852,1,0,0:0:0:0:
15,34,97186,2,0,P|22:13|35:-2,2,34,0|0|2,0:0|0:0|0:0,0:0:0:0:
57,108,97519,1,0,0:0:0:0:
136,126,97686,6,0,P|212:116|232:115,1,68,0|2,0:0|0:0,0:0:0:0:
247,43,98019,2,0,P|288:49|308:97,1,68,0|2,0:0|0:0,0:0:0:0:
357,134,98352,2,0,B|390:154|390:154|401:106|420:76,2,102
273,154,99019,6,0,B|234:150|203:131|203:131|209:169|190:195,1,136,0|2,0:0|0:0,0:0:0:0:
118,151,99519,1,0,0:0:0:0:
118,151,99852,2,0,L|74:146,2,34,0|0|2,0:0|0:0|0:0,0:0:0:0:
194,188,100186,1,0,0:0:0:0:
263,236,100352,6,0,P|271:292|259:325,2,68,0|0|2,0:0|0:0|0:0,0:0:0:0:
187,275,100852,1,0,0:0:0:0:
187,275,101186,2,0,L|111:281,1,68
34,274,101519,1,0,0:0:0:0:
34,274,101602,1,0,0:0:0:0:
34,274,101686,6,0,B|33:227|22:187|22:187|47:211|83:208,1,136,0|2,0:0|0:0,0:0:0:0:
82,124,102186,1,0,0:0:0:0:
82,124,102519,2,0,P|84:100|82:74,2,34,0|0|2,0:0|0:0|0:0,0:0:0:0:
64,207,102852,1,0,0:0:0:0:
137,249,103019,6,0,P|183:239|218:235,1,68,0|2,0:0|0:0,0:0:0:0:
280,272,103352,2,0,P|246:267|213:259,1,68,0|2,0:3|0:0,0:3:0:0:
179,184,103686,2,0,P|194:140|218:127,1,68
161,60,104019,2,0,P|216:44|266:63,1,102,2|0,0:0|0:0,0:0:0:0:
264,67,104352,6,0,B|304:65|320:38|320:38|360:35|379:71,1,136,0|2,0:0|0:0,0:0:0:0:
330,140,104852,1,0,0:0:0:0:
330,140,105186,2,0,P|311:147|285:154,2,34,0|0|2,0:0|0:0|0:0,0:0:0:0:
378,69,105519,1,0,0:0:0:0:
416,144,105686,6,0,P|423:184|426:229,2,68,0|0|2,0:0|0:0|0:0,0:0:0:0:
330,140,106186,1,0,0:0:0:0:
330,140,106519,2,0,P|321:179|317:224,1,68
374,286,106852,1,0,0:0:0:0:
374,286,106936,1,0,0:0:0:0:
374,286,107019,6,0,P|437:276|437:191,1,136,0|2,0:0|0:0,0:0:0:0:
418,134,107519,1,0,0:0:0:0:
418,134,107852,2,0,P|422:106|435:90,2,34,0|0|2,0:0|0:0|0:0,0:0:0:0:
451,213,108186,1,0,0:0:0:0:
415,289,108352,6,0,P|413:331|418:365,1,68
331,370,108686,2,0,P|287:353|280:322,1,68,2|0,0:0|0:0,0:0:0:0:
279,251,109019,2,0,P|306:191|307:155,2,102
197,276,109686,6,0,B|178:250|137:242|113:255|113:255|107:281|125:295,1,136,0|2,0:0|0:0,0:0:0:0:
174,361,110186,1,0,0:0:0:0:
174,361,110519,2,0,P|196:357|216:355,2,34,0|0|2,0:0|0:0|0:0,0:0:0:0:
123,293,110852,1,0,0:0:0:0:
66,356,111019,6,0,P|31:349|0:346,2,68,0|0|2,0:0|0:0|0:0,0:0:0:0:
123,293,111519,1,0,0:0:0:0:
123,293,111852,2,0,L|131:195,1,68
86,158,112186,1,0,0:0:0:0:
86,158,112269,1,0,0:0:0:0:
86,158,112352,6,0,B|121:143|135:114|135:114|145:147|179:163,1,136,0|2,0:0|0:0,0:0:0:0:
216,86,112852,1,0,0:0:0:0:
216,86,113186,2,0,L|211:49,2,34,0|0|2,0:0|0:0|0:0,0:0:0:0:
179,163,113519,1,0,0:0:0:0:
224,234,113686,6,0,P|260:218|289:216,1,68,0|2,0:0|0:0,0:0:0:0:
296,131,114019,2,0,P|333:141|357:158,1,68,0|2,0:0|0:0,0:0:0:0:
288,215,114352,6,0,P|309:231|322:251,1,50.9999984436036
401,227,114686,2,0,P|406:252|403:277,1,50.9999984436036,4|0,0:0|0:0,0:0:0:0:
