osu file format v14

[General]
AudioFilename: audio.mp3
AudioLeadIn: 0
PreviewTime: 79123
Countdown: 0
SampleSet: None
StackLeniency: 0.7
Mode: 3
LetterboxInBreaks: 0
SpecialStyle: 0
WidescreenStoryboard: 1

[Editor]
Bookmarks: 1337,22670,44003,58790,69456,80123,101456,112123,122789,133456,144123,154789,165456,168123,178789,189456,200123,221456,242789
DistanceSpacing: 1
BeatDivisor: 4
GridSize: 32
TimelineZoom: 2.600001

[Metadata]
Title:Future Candy
TitleUnicode:Future Cαndy
Artist:YUC'e
ArtistUnicode:YUC'e
Creator:Worms
Version:Sour Mirai
Source:
Tags:01 - Intro future bass trap
BeatmapID:1465111
BeatmapSetID:691432

[Difficulty]
HPDrainRate:8.5
CircleSize:5
OverallDifficulty:9
ApproachRate:5
SliderMultiplier:1.4
SliderTickRate:1

[Events]
//Background and Video events
0,0,"61930743_p0.png",0,0
//Break Periods
//Storyboard Layer 0 (Background)
//Storyboard Layer 1 (Fail)
//Storyboard Layer 2 (Pass)
//Storyboard Layer 3 (Foreground)
//Storyboard Sound Samples

[TimingPoints]
1337,666.666666666667,4,3,0,20,1,0
1337,-50,4,3,0,20,0,0
44003,659.340659340659,4,3,0,20,1,0
44003,-50.5050505050505,4,3,0,20,0,0
44167,652.173913043478,4,3,0,20,1,0
44167,-51.0204081632653,4,3,0,20,0,0
44656,645.161290322581,4,3,0,20,1,0
44656,-51.5463917525773,4,3,0,20,0,0
45139,638.297872340426,4,3,0,20,1,0
45139,-52.3560209424084,4,3,0,20,0,0
45298,631.578947368421,4,3,0,20,1,0
45298,-52.9100529100529,4,3,0,20,0,0
45613,625,4,3,0,20,1,0
45613,-53.1914893617021,4,3,0,20,0,0
45769,612.244897959184,4,3,0,20,1,0
45769,-54.3478260869565,4,3,0,20,0,0
45922,606.060606060606,4,3,0,20,1,0
45922,-54.9450549450549,4,3,0,20,0,0
46073,600,4,3,0,20,1,0
46073,-55.5555555555556,4,3,0,20,0,0
46223,591.133004926108,4,3,0,20,1,0
46223,-56.4971751412429,4,3,0,20,0,0
46370,585.365853658537,4,3,0,20,1,0
46370,-56.8181818181818,4,3,0,20,0,0
46516,579.710144927536,4,3,0,20,1,0
46516,-57.4712643678161,4,3,0,20,0,0
46805,576.923076923077,4,3,0,20,1,0
46805,-57.8034682080925,4,3,0,20,0,0
46949,574.162679425837,4,3,0,20,1,0
46949,-58.1395348837209,4,3,0,20,0,0
47236,571.428571428571,4,3,0,20,1,0
47236,-58.4795321637427,4,3,0,20,0,0
47521,566.037735849057,4,3,0,20,1,0
47521,-58.8235294117647,4,3,0,20,0,0
47804,560.747663551402,4,3,0,20,1,0
47804,-59.5238095238095,4,3,0,20,0,0
47944,555.555555555556,4,3,0,20,1,0
47944,-59.8802395209581,4,3,0,20,0,0
48221,550.45871559633,4,3,0,20,1,0
48221,-60.6060606060606,4,3,0,20,0,0
48358,542.986425339367,4,3,0,20,1,0
48358,-61.3496932515337,4,3,0,20,0,0
48493,540.540540540541,4,3,0,20,1,0
48493,-61.7283950617284,4,3,0,20,0,0
48628,535.714285714286,4,3,0,20,1,0
48628,-62.111801242236,4,3,0,20,0,0
48761,530.973451327434,4,3,0,20,1,0
48761,-62.8930817610063,4,3,0,20,0,0
49026,524.017467248908,4,3,0,20,1,0
49026,-63.6942675159236,4,3,0,20,0,0
49157,521.739130434783,4,3,0,20,1,0
49157,-63.6942675159236,4,3,0,20,0,0
49287,517.241379310345,4,3,0,20,1,0
49287,-64.5161290322581,4,3,0,20,0,0
49416,512.820512820513,4,3,0,20,1,0
49416,-64.9350649350649,4,3,0,20,0,0
49544,506.329113924051,4,3,0,20,1,0
49544,-65.7894736842105,4,3,0,20,0,0
49670,504.201680672269,4,3,0,20,1,0
49670,-66.2251655629139,4,3,0,20,0,0
49922,500,4,3,0,20,1,0
49922,-66.6666666666667,4,3,0,20,0,0
50172,495.867768595041,4,3,0,20,1,0
50172,-67.1140939597315,4,3,0,20,0,0
50295,491.803278688525,4,3,0,20,1,0
50295,-67.5675675675676,4,3,0,20,0,0
50540,485.82995951417,4,3,0,20,1,0
50540,-68.4931506849315,4,3,0,20,0,0
51025,480,4,3,0,20,1,0
51025,-69.4444444444444,4,3,0,20,0,0
51265,476.190476190476,4,3,0,20,1,0
51265,-69.9300699300699,4,3,0,20,0,0
51503,472.44094488189,4,3,0,20,1,0
51503,-70.4225352112676,4,3,0,20,0,0
51621,468.75,4,3,0,20,1,0
51621,-70.9219858156028,4,3,0,20,0,0
51738,465.116279069767,4,3,0,20,1,0
51738,-71.4285714285714,4,3,0,20,0,0
51970,459.770114942529,4,3,0,20,1,0
51970,-72.463768115942,4,3,0,20,0,0
52084,456.273764258555,4,3,0,20,1,0
52084,-72.992700729927,4,3,0,20,0,0
52198,451.127819548872,4,3,0,20,1,0
52198,-74.0740740740741,4,3,0,20,0,0
52423,447.761194029851,4,3,0,20,1,0
52423,-74.6268656716418,4,3,0,20,0,0
52534,444.444444444444,4,3,0,20,1,0
52534,-75.187969924812,4,3,0,20,0,0
52756,439.56043956044,4,3,0,20,1,0
52756,-75.7575757575758,4,3,0,20,0,0
52865,437.956204379562,4,3,0,20,1,0
52865,-76.3358778625954,4,3,0,20,0,0
52974,434.782608695652,4,3,0,20,1,0
52974,-76.9230769230769,4,3,0,20,0,0
53191,431.654676258993,4,3,0,20,1,0
53191,-77.5193798449612,4,3,0,20,0,0
53406,428.571428571429,4,3,0,20,1,0
53406,-77.5193798449612,4,3,0,20,0,0
53620,425.531914893617,4,3,0,20,1,0
53620,-78.125,4,3,0,20,0,0
53726,422.535211267606,4,3,0,20,1,0
53726,-78.7401574803149,4,3,0,20,0,0
53937,419.58041958042,4,3,0,20,1,0
53937,-79.3650793650794,4,3,0,20,0,0
54146,416.666666666667,4,3,0,20,1,0
54146,-80,4,3,0,20,0,0
54354,413.793103448276,4,3,0,20,1,0
54354,-80.6451612903226,4,3,0,20,0,0
54457,410.958904109589,4,3,0,20,1,0
54457,-81.3008130081301,4,3,0,20,0,0
54559,408.163265306122,4,3,0,20,1,0
54559,-81.9672131147541,4,3,0,20,0,0
54661,405.405405405405,4,3,0,20,1,0
54661,-81.9672131147541,4,3,0,20,0,0
54863,402.684563758389,4,3,0,20,1,0
54863,-82.6446280991736,4,3,0,20,0,0
54963,400,4,3,0,20,1,0
54963,-83.3333333333333,4,3,0,20,0,0
55063,397.350993377483,4,3,0,20,1,0
55063,-84.0336134453781,4,3,0,20,0,0
55162,393.44262295082,4,3,0,20,1,0
55162,-84.7457627118644,4,3,0,20,0,0
55260,392.156862745098,4,3,0,20,1,0
55260,-84.7457627118644,4,3,0,20,0,0
55358,389.61038961039,4,3,0,20,1,0
55358,-85.4700854700855,4,3,0,20,0,0
55552,385.852090032154,4,3,0,20,1,0
55552,-86.2068965517241,4,3,0,20,0,0
55648,379.746835443038,4,3,0,20,1,0
55648,-87.719298245614,4,3,0,20,0,0
56597,372.670807453416,4,3,0,20,1,0
56597,-89.2857142857143,4,3,0,20,0,0
56876,363.636363636364,4,3,0,20,1,0
56876,-91.743119266055,4,3,0,20,0,0
56966,361.44578313253,4,3,0,20,1,0
56966,-92.5925925925926,4,3,0,20,0,0
57056,357.142857142857,4,3,0,20,1,0
57056,-93.4579439252336,4,3,0,20,0,0
57145,348.837209302326,4,3,0,20,1,0
57145,-95.2380952380952,4,3,0,20,0,0
57232,348.634514816967,4,3,0,20,1,0
57232,-95.2380952380952,4,3,0,20,0,0
58190,342.857142857143,4,3,0,20,1,0
58190,-97.0873786407767,4,3,0,20,0,0
58790,333.333333333333,4,3,0,20,1,0
58790,-100,4,3,0,20,0,0
80456,-100,4,3,0,20,0,1
90789,-100,4,3,0,20,0,0
91123,-100,4,3,0,20,0,1
100789,-100,4,3,0,20,0,0
101789,-100,4,3,0,20,0,1
112123,-100,4,3,0,20,0,0
144456,-100,4,3,0,20,0,1
153456,-100,4,3,0,20,0,0
155123,-100,4,3,0,20,0,1
165456,-100,4,3,0,20,0,0
200456,-100,4,3,0,20,0,1
210789,-100,4,3,0,20,0,0
211123,-100,4,3,0,20,0,1
220789,-100,4,3,0,20,0,0
221789,-100,4,3,0,20,0,1
232123,-100,4,3,0,20,0,0
232456,-100,4,3,0,20,0,1
242789,-100,4,3,0,20,0,0

[HitObjects]
460,192,1337,5,0,0:0:0:0:
358,192,1337,1,0,0:0:0:0:
256,192,1337,1,0,0:0:0:0:
358,192,2003,1,0,0:0:0:0:
358,192,2670,1,0,0:0:0:0:
358,192,3337,1,0,0:0:0:0:
256,192,4003,1,0,0:0:0:0:
256,192,4670,1,0,0:0:0:0:
256,192,5337,1,0,0:0:0:0:
460,192,6003,1,0,0:0:0:0:
153,192,6670,1,0,0:0:0:0:
153,192,7337,1,0,0:0:0:0:
153,192,8003,1,0,0:0:0:0:
256,192,8670,1,0,0:0:0:0:
51,192,9337,1,0,0:0:0:0:
51,192,10003,1,0,0:0:0:0:
460,192,10670,1,0,0:0:0:0:
256,192,11337,1,0,0:0:0:0:
153,192,12003,1,0,0:0:0:0:
153,192,12670,1,0,0:0:0:0:
153,192,13337,1,0,0:0:0:0:
153,192,14003,1,0,0:0:0:0:
256,192,14670,1,0,0:0:0:0:
256,192,15337,1,0,0:0:0:0:
256,192,16003,1,0,0:0:0:0:
51,192,16670,1,0,0:0:0:0:
358,192,17337,1,0,0:0:0:0:
153,192,17337,128,0,22670:0:0:0:0:
358,192,18003,1,0,0:0:0:0:
256,192,18670,1,0,0:0:0:0:
51,192,19337,1,0,0:0:0:0:
460,192,20003,1,0,0:0:0:0:
460,192,20670,1,0,0:0:0:0:
51,192,21337,1,0,0:0:0:0:
256,192,22003,1,0,0:0:0:0:
460,192,22670,1,0,0:0:0:0:
51,192,22670,1,0,0:0:0:0:
358,192,22670,1,0,0:0:0:0:
358,192,23003,1,0,0:0:0:0:
358,192,23337,1,0,0:0:0:0:
256,192,23337,1,0,0:0:0:0:
358,192,23670,1,0,0:0:0:0:
358,192,24003,1,0,0:0:0:0:
153,192,24170,1,0,0:0:0:0:
358,192,24337,1,0,0:0:0:0:
460,192,24337,1,0,0:0:0:0:
51,192,24503,1,0,0:0:0:0:
358,192,24670,1,0,0:0:0:0:
256,192,24670,1,0,0:0:0:0:
153,192,24837,1,0,0:0:0:0:
358,192,25003,1,0,0:0:0:0:
460,192,25170,1,0,0:0:0:0:
256,192,25337,1,0,0:0:0:0:
51,192,25337,1,0,0:0:0:0:
358,192,25503,1,0,0:0:0:0:
256,192,25670,1,0,0:0:0:0:
153,192,25837,1,0,0:0:0:0:
256,192,26003,1,0,0:0:0:0:
460,192,26003,1,0,0:0:0:0:
358,192,26170,1,0,0:0:0:0:
256,192,26337,1,0,0:0:0:0:
51,192,26503,1,0,0:0:0:0:
256,192,26670,1,0,0:0:0:0:
460,192,26837,1,0,0:0:0:0:
256,192,27003,1,0,0:0:0:0:
358,192,27003,1,0,0:0:0:0:
153,192,27170,1,0,0:0:0:0:
256,192,27337,1,0,0:0:0:0:
51,192,27337,1,0,0:0:0:0:
460,192,27503,1,0,0:0:0:0:
256,192,27670,1,0,0:0:0:0:
358,192,27837,1,0,0:0:0:0:
153,192,28003,1,0,0:0:0:0:
460,192,28003,1,0,0:0:0:0:
51,192,28170,1,0,0:0:0:0:
153,192,28337,1,0,0:0:0:0:
358,192,28503,1,0,0:0:0:0:
153,192,28670,1,0,0:0:0:0:
256,192,28670,1,0,0:0:0:0:
460,192,28837,1,0,0:0:0:0:
153,192,29003,1,0,0:0:0:0:
51,192,29170,1,0,0:0:0:0:
153,192,29337,1,0,0:0:0:0:
358,192,29503,1,0,0:0:0:0:
153,192,29670,1,0,0:0:0:0:
256,192,29670,1,0,0:0:0:0:
460,192,29837,1,0,0:0:0:0:
153,192,30003,1,0,0:0:0:0:
51,192,30003,1,0,0:0:0:0:
358,192,30170,1,0,0:0:0:0:
153,192,30337,1,0,0:0:0:0:
256,192,30503,1,0,0:0:0:0:
460,192,30670,1,0,0:0:0:0:
358,192,30670,1,0,0:0:0:0:
51,192,30837,1,0,0:0:0:0:
460,192,31003,1,0,0:0:0:0:
256,192,31170,1,0,0:0:0:0:
460,192,31337,1,0,0:0:0:0:
358,192,31337,1,0,0:0:0:0:
153,192,31503,1,0,0:0:0:0:
460,192,31670,1,0,0:0:0:0:
51,192,31837,1,0,0:0:0:0:
358,192,32003,1,0,0:0:0:0:
256,192,32170,1,0,0:0:0:0:
358,192,32337,1,0,0:0:0:0:
460,192,32337,1,0,0:0:0:0:
153,192,32503,1,0,0:0:0:0:
51,192,32670,1,0,0:0:0:0:
256,192,32670,1,0,0:0:0:0:
460,192,32837,1,0,0:0:0:0:
51,192,33003,1,0,0:0:0:0:
358,192,33087,1,0,0:0:0:0:
256,192,33170,1,0,0:0:0:0:
460,192,33253,1,0,0:0:0:0:
153,192,33337,1,0,0:0:0:0:
358,192,33337,1,0,0:0:0:0:
51,192,33503,1,0,0:0:0:0:
153,192,33670,1,0,0:0:0:0:
460,192,33837,1,0,0:0:0:0:
153,192,34003,1,0,0:0:0:0:
256,192,34003,1,0,0:0:0:0:
358,192,34170,1,0,0:0:0:0:
153,192,34337,1,0,0:0:0:0:
51,192,34503,1,0,0:0:0:0:
153,192,34670,1,0,0:0:0:0:
460,192,34837,1,0,0:0:0:0:
153,192,35003,1,0,0:0:0:0:
358,192,35003,1,0,0:0:0:0:
256,192,35170,1,0,0:0:0:0:
153,192,35337,1,0,0:0:0:0:
460,192,35337,1,0,0:0:0:0:
358,192,35503,1,0,0:0:0:0:
153,192,35670,1,0,0:0:0:0:
51,192,35837,1,0,0:0:0:0:
256,192,36003,1,0,0:0:0:0:
358,192,36003,1,0,0:0:0:0:
153,192,36170,1,0,0:0:0:0:
256,192,36337,1,0,0:0:0:0:
460,192,36503,1,0,0:0:0:0:
256,192,36670,1,0,0:0:0:0:
51,192,36670,1,0,0:0:0:0:
358,192,36837,1,0,0:0:0:0:
256,192,37003,1,0,0:0:0:0:
460,192,37170,1,0,0:0:0:0:
256,192,37337,1,0,0:0:0:0:
51,192,37503,1,0,0:0:0:0:
256,192,37670,1,0,0:0:0:0:
153,192,37670,1,0,0:0:0:0:
358,192,37837,1,0,0:0:0:0:
256,192,38003,1,0,0:0:0:0:
460,192,38003,1,0,0:0:0:0:
51,192,38170,1,0,0:0:0:0:
256,192,38337,1,0,0:0:0:0:
460,192,38503,1,0,0:0:0:0:
358,192,38670,1,0,0:0:0:0:
153,192,38670,1,0,0:0:0:0:
256,192,38837,1,0,0:0:0:0:
358,192,39003,1,0,0:0:0:0:
51,192,39170,1,0,0:0:0:0:
358,192,39337,1,0,0:0:0:0:
460,192,39337,1,0,0:0:0:0:
256,192,39503,1,0,0:0:0:0:
358,192,39670,1,0,0:0:0:0:
51,192,39837,1,0,0:0:0:0:
256,192,40003,1,0,0:0:0:0:
460,192,40170,1,0,0:0:0:0:
256,192,40337,1,0,0:0:0:0:
153,192,40337,1,0,0:0:0:0:
358,192,40503,1,0,0:0:0:0:
256,192,40670,1,0,0:0:0:0:
460,192,40670,1,0,0:0:0:0:
51,192,40837,1,0,0:0:0:0:
256,192,41003,1,0,0:0:0:0:
358,192,41170,1,0,0:0:0:0:
51,192,41337,1,0,0:0:0:0:
153,192,41337,1,0,0:0:0:0:
460,192,41503,1,0,0:0:0:0:
51,192,41670,1,0,0:0:0:0:
256,192,41837,1,0,0:0:0:0:
51,192,42003,1,0,0:0:0:0:
358,192,42003,1,0,0:0:0:0:
153,192,42170,1,0,0:0:0:0:
51,192,42337,1,0,0:0:0:0:
460,192,42503,1,0,0:0:0:0:
153,192,42670,1,0,0:0:0:0:
256,192,42837,1,0,0:0:0:0:
153,192,43003,1,0,0:0:0:0:
358,192,43003,1,0,0:0:0:0:
51,192,43170,1,0,0:0:0:0:
460,192,43337,1,0,0:0:0:0:
256,192,43337,1,0,0:0:0:0:
153,192,43503,1,0,0:0:0:0:
460,192,43670,1,0,0:0:0:0:
256,192,43837,1,0,0:0:0:0:
358,192,44003,1,0,0:0:0:0:
51,192,44003,1,0,0:0:0:0:
153,192,44003,1,0,0:0:0:0:
256,192,44167,1,0,0:0:0:0:
460,192,44330,1,0,0:0:0:0:
153,192,44493,1,0,0:0:0:0:
358,192,44656,1,0,0:0:0:0:
256,192,44817,1,0,0:0:0:0:
51,192,44978,1,0,0:0:0:0:
460,192,45139,1,0,0:0:0:0:
153,192,45298,1,0,0:0:0:0:
256,192,45455,1,0,0:0:0:0:
358,192,45613,1,0,0:0:0:0:
51,192,45769,1,0,0:0:0:0:
460,192,45922,1,0,0:0:0:0:
153,192,46073,1,0,0:0:0:0:
358,192,46223,1,0,0:0:0:0:
256,192,46370,1,0,0:0:0:0:
51,192,46516,1,0,0:0:0:0:
460,192,46660,1,0,0:0:0:0:
153,192,46805,1,0,0:0:0:0:
256,192,46949,1,0,0:0:0:0:
358,192,47092,1,0,0:0:0:0:
460,192,47236,1,0,0:0:0:0:
153,192,47378,1,0,0:0:0:0:
256,192,47521,1,0,0:0:0:0:
51,192,47662,1,0,0:0:0:0:
358,192,47804,1,0,0:0:0:0:
153,192,47944,1,0,0:0:0:0:
460,192,48082,1,0,0:0:0:0:
256,192,48221,1,0,0:0:0:0:
153,192,48358,1,0,0:0:0:0:
358,192,48493,1,0,0:0:0:0:
51,192,48628,1,0,0:0:0:0:
153,192,48761,1,0,0:0:0:0:
460,192,48893,1,0,0:0:0:0:
358,192,49026,1,0,0:0:0:0:
153,192,49157,1,0,0:0:0:0:
51,192,49287,1,0,0:0:0:0:
256,192,49416,1,0,0:0:0:0:
153,192,49544,1,0,0:0:0:0:
460,192,49670,1,0,0:0:0:0:
51,192,49796,1,0,0:0:0:0:
153,192,49922,1,0,0:0:0:0:
358,192,50047,1,0,0:0:0:0:
460,192,50172,1,0,0:0:0:0:
256,192,50295,1,0,0:0:0:0:
358,192,50417,1,0,0:0:0:0:
153,192,50540,1,0,0:0:0:0:
51,192,50661,1,0,0:0:0:0:
460,192,50782,1,0,0:0:0:0:
153,192,50904,1,0,0:0:0:0:
358,192,51025,1,0,0:0:0:0:
256,192,51145,1,0,0:0:0:0:
51,192,51265,1,0,0:0:0:0:
460,192,51384,1,0,0:0:0:0:
153,192,51503,1,0,0:0:0:0:
256,192,51621,1,0,0:0:0:0:
358,192,51738,1,0,0:0:0:0:
51,192,51854,1,0,0:0:0:0:
460,192,51970,1,0,0:0:0:0:
153,192,52084,1,0,0:0:0:0:
358,192,52198,1,0,0:0:0:0:
256,192,52310,1,0,0:0:0:0:
153,192,52423,1,0,0:0:0:0:
460,192,52534,1,0,0:0:0:0:
256,192,52645,1,0,0:0:0:0:
51,192,52756,1,0,0:0:0:0:
153,192,52865,1,0,0:0:0:0:
256,192,52974,1,0,0:0:0:0:
460,192,53082,1,0,0:0:0:0:
51,192,53191,1,0,0:0:0:0:
358,192,53298,1,0,0:0:0:0:
153,192,53406,1,0,0:0:0:0:
460,192,53513,1,0,0:0:0:0:
256,192,53620,1,0,0:0:0:0:
153,192,53726,1,0,0:0:0:0:
51,192,53831,1,0,0:0:0:0:
358,192,53937,1,0,0:0:0:0:
460,192,54041,1,0,0:0:0:0:
51,192,54146,1,0,0:0:0:0:
256,192,54250,1,0,0:0:0:0:
153,192,54354,1,0,0:0:0:0:
358,192,54457,1,0,0:0:0:0:
51,192,54559,1,0,0:0:0:0:
460,192,54661,1,0,0:0:0:0:
153,192,54762,1,0,0:0:0:0:
256,192,54863,1,0,0:0:0:0:
358,192,54963,1,0,0:0:0:0:
153,192,55063,1,0,0:0:0:0:
460,192,55162,1,0,0:0:0:0:
256,192,55260,1,0,0:0:0:0:
51,192,55358,1,0,0:0:0:0:
358,192,55455,1,0,0:0:0:0:
153,192,55552,1,0,0:0:0:0:
460,192,55648,1,0,0:0:0:0:
256,192,55742,1,0,0:0:0:0:
358,192,55837,1,0,0:0:0:0:
51,192,55932,1,0,0:0:0:0:
153,192,56027,1,0,0:0:0:0:
460,192,56122,1,0,0:0:0:0:
256,192,56217,1,0,0:0:0:0:
358,192,56312,1,0,0:0:0:0:
153,192,56407,1,0,0:0:0:0:
256,192,56502,1,0,0:0:0:0:
460,192,56597,1,0,0:0:0:0:
358,192,56690,1,0,0:0:0:0:
153,192,56783,1,0,0:0:0:0:
51,192,56876,1,0,0:0:0:0:
358,192,56966,1,0,0:0:0:0:
153,192,57056,1,0,0:0:0:0:
51,192,57145,1,0,0:0:0:0:
460,192,57232,1,0,0:0:0:0:
153,192,57319,1,0,0:0:0:0:
256,192,57406,1,0,0:0:0:0:
358,192,57493,1,0,0:0:0:0:
153,192,57580,1,0,0:0:0:0:
51,192,57667,1,0,0:0:0:0:
460,192,57754,1,0,0:0:0:0:
358,192,57842,1,0,0:0:0:0:
256,192,57929,1,0,0:0:0:0:
153,192,58016,1,0,0:0:0:0:
358,192,58103,1,0,0:0:0:0:
51,192,58190,1,0,0:0:0:0:
153,192,58275,1,0,0:0:0:0:
256,192,58361,1,0,0:0:0:0:
460,192,58447,1,0,0:0:0:0:
358,192,58532,1,0,0:0:0:0:
153,192,58618,1,0,0:0:0:0:
51,192,58704,1,0,0:0:0:0:
256,192,58790,1,0,0:0:0:0:
460,192,58790,1,0,0:0:0:0:
358,192,58790,1,0,0:0:0:0:
153,192,58873,1,0,0:0:0:0:
51,192,58956,1,0,0:0:0:0:
358,192,59040,1,0,0:0:0:0:
256,192,59123,1,0,0:0:0:0:
153,192,59206,1,0,0:0:0:0:
51,192,59290,1,0,0:0:0:0:
358,192,59373,1,0,0:0:0:0:
358,192,59540,1,0,0:0:0:0:
51,192,59623,1,0,0:0:0:0:
153,192,59706,1,0,0:0:0:0:
256,192,59790,1,0,0:0:0:0:
358,192,59873,1,0,0:0:0:0:
51,192,59956,1,0,0:0:0:0:
153,192,60040,1,0,0:0:0:0:
256,192,60123,1,0,0:0:0:0:
460,192,60123,1,0,0:0:0:0:
358,192,60206,1,0,0:0:0:0:
153,192,60290,1,0,0:0:0:0:
256,192,60373,1,0,0:0:0:0:
51,192,60456,1,0,0:0:0:0:
460,192,60540,1,0,0:0:0:0:
358,192,60623,1,0,0:0:0:0:
153,192,60706,1,0,0:0:0:0:
256,192,60790,1,0,0:0:0:0:
51,192,60790,1,0,0:0:0:0:
153,192,60873,1,0,0:0:0:0:
358,192,60956,1,0,0:0:0:0:
460,192,61040,1,0,0:0:0:0:
51,192,61123,1,0,0:0:0:0:
256,192,61206,1,0,0:0:0:0:
153,192,61290,1,0,0:0:0:0:
358,192,61373,1,0,0:0:0:0:
256,192,61456,1,0,0:0:0:0:
51,192,61456,1,0,0:0:0:0:
460,192,61540,1,0,0:0:0:0:
153,192,61623,1,0,0:0:0:0:
358,192,61706,1,0,0:0:0:0:
256,192,61790,1,0,0:0:0:0:
51,192,61873,1,0,0:0:0:0:
358,192,61956,1,0,0:0:0:0:
460,192,62040,1,0,0:0:0:0:
460,192,62206,1,0,0:0:0:0:
358,192,62290,1,0,0:0:0:0:
51,192,62373,1,0,0:0:0:0:
256,192,62456,1,0,0:0:0:0:
358,192,62539,1,0,0:0:0:0:
153,192,62623,1,0,0:0:0:0:
460,192,62706,1,0,0:0:0:0:
358,192,62789,1,0,0:0:0:0:
51,192,62789,1,0,0:0:0:0:
153,192,62873,1,0,0:0:0:0:
460,192,62956,1,0,0:0:0:0:
256,192,63039,1,0,0:0:0:0:
51,192,63123,1,0,0:0:0:0:
358,192,63206,1,0,0:0:0:0:
256,192,63289,1,0,0:0:0:0:
153,192,63373,1,0,0:0:0:0:
460,192,63456,1,0,0:0:0:0:
51,192,63456,1,0,0:0:0:0:
153,192,63539,1,0,0:0:0:0:
256,192,63623,1,0,0:0:0:0:
358,192,63706,1,0,0:0:0:0:
51,192,63789,1,0,0:0:0:0:
256,192,63873,1,0,0:0:0:0:
460,192,63956,1,0,0:0:0:0:
153,192,64039,1,0,0:0:0:0:
358,192,64123,1,0,0:0:0:0:
256,192,64123,1,0,0:0:0:0:
51,192,64206,1,0,0:0:0:0:
460,192,64289,1,0,0:0:0:0:
153,192,64373,1,0,0:0:0:0:
256,192,64456,1,0,0:0:0:0:
358,192,64539,1,0,0:0:0:0:
51,192,64623,1,0,0:0:0:0:
460,192,64706,1,0,0:0:0:0:
460,192,64873,1,0,0:0:0:0:
51,192,64956,1,0,0:0:0:0:
358,192,65039,1,0,0:0:0:0:
256,192,65123,1,0,0:0:0:0:
153,192,65206,1,0,0:0:0:0:
460,192,65289,1,0,0:0:0:0:
51,192,65373,1,0,0:0:0:0:
256,192,65456,1,0,0:0:0:0:
358,192,65456,1,0,0:0:0:0:
153,192,65540,1,0,0:0:0:0:
51,192,65623,1,0,0:0:0:0:
460,192,65706,1,0,0:0:0:0:
256,192,65790,1,0,0:0:0:0:
358,192,65873,1,0,0:0:0:0:
153,192,65956,1,0,0:0:0:0:
460,192,66039,1,0,0:0:0:0:
256,192,66123,1,0,0:0:0:0:
51,192,66123,1,0,0:0:0:0:
460,192,66206,1,0,0:0:0:0:
153,192,66289,1,0,0:0:0:0:
358,192,66373,1,0,0:0:0:0:
256,192,66456,1,0,0:0:0:0:
460,192,66539,1,0,0:0:0:0:
51,192,66623,1,0,0:0:0:0:
153,192,66706,1,0,0:0:0:0:
460,192,66789,1,0,0:0:0:0:
358,192,66789,1,0,0:0:0:0:
51,192,66873,1,0,0:0:0:0:
256,192,66956,1,0,0:0:0:0:
153,192,67039,1,0,0:0:0:0:
358,192,67123,1,0,0:0:0:0:
460,192,67206,1,0,0:0:0:0:
256,192,67289,1,0,0:0:0:0:
51,192,67373,1,0,0:0:0:0:
153,192,67456,1,0,0:0:0:0:
358,192,67456,1,0,0:0:0:0:
51,192,67539,1,0,0:0:0:0:
256,192,67623,1,0,0:0:0:0:
460,192,67706,1,0,0:0:0:0:
358,192,67789,1,0,0:0:0:0:
153,192,67873,1,0,0:0:0:0:
256,192,67956,1,0,0:0:0:0:
51,192,68039,1,0,0:0:0:0:
153,192,68123,1,0,0:0:0:0:
460,192,68123,1,0,0:0:0:0:
358,192,68206,1,0,0:0:0:0:
256,192,68289,1,0,0:0:0:0:
51,192,68373,1,0,0:0:0:0:
358,192,68456,1,0,0:0:0:0:
460,192,68539,1,0,0:0:0:0:
153,192,68623,1,0,0:0:0:0:
256,192,68706,1,0,0:0:0:0:
51,192,68789,128,0,69123:0:0:0:0:
358,192,68789,128,0,69123:0:0:0:0:
256,192,69123,128,0,69164:0:0:0:0:
460,192,69234,128,0,69275:0:0:0:0:
153,192,69289,128,0,69331:0:0:0:0:
153,192,69373,128,0,69414:0:0:0:0:
358,192,69456,1,0,0:0:0:0:
256,192,69456,1,0,0:0:0:0:
51,192,69456,1,0,0:0:0:0:
153,192,69706,1,0,0:0:0:0:
358,192,69706,1,0,0:0:0:0:
256,192,69789,1,0,0:0:0:0:
51,192,69789,1,0,0:0:0:0:
460,192,69789,1,0,0:0:0:0:
153,192,69956,1,0,0:0:0:0:
358,192,69998,1,0,0:0:0:0:
153,192,70039,1,0,0:0:0:0:
358,192,70081,1,0,0:0:0:0:
256,192,70123,1,0,0:0:0:0:
460,192,70123,1,0,0:0:0:0:
153,192,70123,1,0,0:0:0:0:
358,192,70289,1,0,0:0:0:0:
256,192,70289,1,0,0:0:0:0:
153,192,70373,1,0,0:0:0:0:
51,192,70373,1,0,0:0:0:0:
256,192,70456,1,0,0:0:0:0:
460,192,70456,1,0,0:0:0:0:
358,192,70456,1,0,0:0:0:0:
460,192,70623,1,0,0:0:0:0:
51,192,70623,1,0,0:0:0:0:
358,192,70789,1,0,0:0:0:0:
256,192,70789,1,0,0:0:0:0:
51,192,70789,1,0,0:0:0:0:
153,192,71039,1,0,0:0:0:0:
358,192,71039,1,0,0:0:0:0:
256,192,71123,1,0,0:0:0:0:
51,192,71123,1,0,0:0:0:0:
460,192,71123,1,0,0:0:0:0:
358,192,71289,1,0,0:0:0:0:
51,192,71331,1,0,0:0:0:0:
358,192,71373,1,0,0:0:0:0:
51,192,71414,1,0,0:0:0:0:
153,192,71456,1,0,0:0:0:0:
256,192,71456,1,0,0:0:0:0:
358,192,71456,1,0,0:0:0:0:
256,192,71623,1,0,0:0:0:0:
460,192,71623,1,0,0:0:0:0:
51,192,71789,1,0,0:0:0:0:
460,192,71789,1,0,0:0:0:0:
358,192,71789,1,0,0:0:0:0:
153,192,71956,1,0,0:0:0:0:
358,192,71998,1,0,0:0:0:0:
256,192,72039,1,0,0:0:0:0:
153,192,72081,1,0,0:0:0:0:
358,192,72123,1,0,0:0:0:0:
51,192,72123,1,0,0:0:0:0:
460,192,72123,1,0,0:0:0:0:
51,192,72373,1,0,0:0:0:0:
460,192,72373,1,0,0:0:0:0:
153,192,72456,1,0,0:0:0:0:
358,192,72456,1,0,0:0:0:0:
256,192,72456,1,0,0:0:0:0:
460,192,72623,1,0,0:0:0:0:
153,192,72664,1,0,0:0:0:0:
460,192,72706,1,0,0:0:0:0:
153,192,72748,1,0,0:0:0:0:
358,192,72789,1,0,0:0:0:0:
51,192,72789,1,0,0:0:0:0:
460,192,72789,1,0,0:0:0:0:
51,192,72956,1,0,0:0:0:0:
256,192,72956,1,0,0:0:0:0:
153,192,73039,1,0,0:0:0:0:
358,192,73039,1,0,0:0:0:0:
460,192,73123,1,0,0:0:0:0:
51,192,73123,1,0,0:0:0:0:
256,192,73123,1,0,0:0:0:0:
153,192,73289,1,0,0:0:0:0:
460,192,73289,1,0,0:0:0:0:
256,192,73456,1,0,0:0:0:0:
153,192,73456,1,0,0:0:0:0:
358,192,73456,1,0,0:0:0:0:
153,192,73623,1,0,0:0:0:0:
460,192,73623,1,0,0:0:0:0:
51,192,73706,1,0,0:0:0:0:
358,192,73706,1,0,0:0:0:0:
153,192,73789,1,0,0:0:0:0:
256,192,73789,1,0,0:0:0:0:
460,192,73789,1,0,0:0:0:0:
256,192,73956,1,0,0:0:0:0:
358,192,73956,1,0,0:0:0:0:
153,192,74039,1,0,0:0:0:0:
51,192,74039,1,0,0:0:0:0:
256,192,74123,1,0,0:0:0:0:
358,192,74123,1,0,0:0:0:0:
460,192,74123,1,0,0:0:0:0:
153,192,74206,1,0,0:0:0:0:
51,192,74206,1,0,0:0:0:0:
358,192,74289,1,0,0:0:0:0:
460,192,74289,1,0,0:0:0:0:
256,192,74373,1,0,0:0:0:0:
51,192,74373,1,0,0:0:0:0:
460,192,74456,1,0,0:0:0:0:
153,192,74456,1,0,0:0:0:0:
256,192,74539,1,0,0:0:0:0:
358,192,74539,1,0,0:0:0:0:
153,192,74623,1,0,0:0:0:0:
51,192,74623,1,0,0:0:0:0:
460,192,74706,1,0,0:0:0:0:
358,192,74706,1,0,0:0:0:0:
256,192,74789,1,0,0:0:0:0:
51,192,74789,1,0,0:0:0:0:
153,192,74789,1,0,0:0:0:0:
358,192,74956,1,0,0:0:0:0:
256,192,74956,1,0,0:0:0:0:
460,192,75123,1,0,0:0:0:0:
358,192,75123,1,0,0:0:0:0:
153,192,75289,1,0,0:0:0:0:
460,192,75289,1,0,0:0:0:0:
256,192,75456,1,0,0:0:0:0:
153,192,75456,1,0,0:0:0:0:
256,192,75623,1,0,0:0:0:0:
358,192,75623,1,0,0:0:0:0:
51,192,75789,1,0,0:0:0:0:
358,192,75789,1,0,0:0:0:0:
153,192,75956,1,0,0:0:0:0:
358,192,75998,1,0,0:0:0:0:
153,192,76039,1,0,0:0:0:0:
358,192,76081,1,0,0:0:0:0:
51,192,76123,1,0,0:0:0:0:
460,192,76123,1,0,0:0:0:0:
256,192,76289,1,0,0:0:0:0:
460,192,76289,1,0,0:0:0:0:
256,192,76456,1,0,0:0:0:0:
51,192,76456,1,0,0:0:0:0:
51,192,76623,1,0,0:0:0:0:
460,192,76623,1,0,0:0:0:0:
153,192,76789,1,0,0:0:0:0:
460,192,76789,1,0,0:0:0:0:
153,192,76956,1,0,0:0:0:0:
51,192,76956,1,0,0:0:0:0:
460,192,77123,1,0,0:0:0:0:
51,192,77123,128,0,77623:0:0:0:0:
256,192,77123,1,0,0:0:0:0:
358,192,77289,1,0,0:0:0:0:
256,192,77289,1,0,0:0:0:0:
460,192,77373,1,0,0:0:0:0:
153,192,77373,1,0,0:0:0:0:
358,192,77456,1,0,0:0:0:0:
256,192,77456,1,0,0:0:0:0:
153,192,77539,1,0,0:0:0:0:
358,192,77623,1,0,0:0:0:0:
460,192,77623,1,0,0:0:0:0:
256,192,77706,1,0,0:0:0:0:
153,192,77706,1,0,0:0:0:0:
51,192,77789,128,0,77956:0:0:0:0:
460,192,77789,1,0,0:0:0:0:
256,192,77873,1,0,0:0:0:0:
358,192,77873,1,0,0:0:0:0:
153,192,77956,1,0,0:0:0:0:
460,192,77956,1,0,0:0:0:0:
358,192,78039,1,0,0:0:0:0:
256,192,78039,1,0,0:0:0:0:
51,192,78123,128,0,78206:0:0:0:0:
153,192,78123,1,0,0:0:0:0:
358,192,78206,1,0,0:0:0:0:
460,192,78206,1,0,0:0:0:0:
51,192,78289,128,0,78373:0:0:0:0:
256,192,78289,1,0,0:0:0:0:
460,192,78373,1,0,0:0:0:0:
153,192,78373,1,0,0:0:0:0:
51,192,78456,128,0,78498:0:0:0:0:
358,192,78456,1,0,0:0:0:0:
51,192,78539,128,0,78581:0:0:0:0:
256,192,78539,1,0,0:0:0:0:
51,192,78623,128,0,78664:0:0:0:0:
358,192,78623,1,0,0:0:0:0:
51,192,78706,128,0,78748:0:0:0:0:
460,192,78706,1,0,0:0:0:0:
358,192,78789,1,0,0:0:0:0:
256,192,78789,1,0,0:0:0:0:
153,192,78789,1,0,0:0:0:0:
460,192,78956,128,0,79039:0:0:0:0:
256,192,78956,128,0,79039:0:0:0:0:
358,192,79789,1,0,0:0:0:0:
153,192,79789,1,0,0:0:0:0:
256,192,80123,128,0,80456:0:0:0:0:
460,192,80456,1,0,0:0:0:0:
153,192,80456,1,0,0:0:0:0:
51,192,80456,1,0,0:0:0:0:
358,192,80623,1,0,0:0:0:0:
153,192,80706,1,0,0:0:0:0:
51,192,80789,1,0,0:0:0:0:
256,192,80789,1,0,0:0:0:0:
358,192,80789,1,0,0:0:0:0:
460,192,80873,1,0,0:0:0:0:
153,192,80956,1,0,0:0:0:0:
153,192,81039,1,0,0:0:0:0:
256,192,81039,1,0,0:0:0:0:
358,192,81039,1,0,0:0:0:0:
153,192,81123,1,0,0:0:0:0:
51,192,81123,1,0,0:0:0:0:
51,192,81289,1,0,0:0:0:0:
460,192,81289,1,0,0:0:0:0:
256,192,81289,1,0,0:0:0:0:
358,192,81373,1,0,0:0:0:0:
153,192,81456,1,0,0:0:0:0:
256,192,81456,1,0,0:0:0:0:
460,192,81456,1,0,0:0:0:0:
51,192,81539,1,0,0:0:0:0:
358,192,81539,1,0,0:0:0:0:
153,192,81623,1,0,0:0:0:0:
460,192,81623,1,0,0:0:0:0:
358,192,81706,1,0,0:0:0:0:
256,192,81706,1,0,0:0:0:0:
153,192,81789,1,0,0:0:0:0:
51,192,81789,1,0,0:0:0:0:
460,192,81789,1,0,0:0:0:0:
358,192,81873,1,0,0:0:0:0:
256,192,81873,1,0,0:0:0:0:
153,192,81956,1,0,0:0:0:0:
51,192,81956,1,0,0:0:0:0:
460,192,82039,1,0,0:0:0:0:
256,192,82039,1,0,0:0:0:0:
51,192,82123,1,0,0:0:0:0:
358,192,82123,1,0,0:0:0:0:
153,192,82123,1,0,0:0:0:0:
358,192,82289,1,0,0:0:0:0:
153,192,82373,1,0,0:0:0:0:
460,192,82373,1,0,0:0:0:0:
51,192,82373,1,0,0:0:0:0:
358,192,82456,1,0,0:0:0:0:
256,192,82456,1,0,0:0:0:0:
460,192,82498,1,0,0:0:0:0:
153,192,82539,1,0,0:0:0:0:
358,192,82623,1,0,0:0:0:0:
256,192,82623,1,0,0:0:0:0:
51,192,82623,1,0,0:0:0:0:
256,192,82706,1,0,0:0:0:0:
460,192,82789,1,0,0:0:0:0:
153,192,82789,1,0,0:0:0:0:
51,192,82789,1,0,0:0:0:0:
358,192,82831,1,0,0:0:0:0:
256,192,82873,1,0,0:0:0:0:
460,192,82914,1,0,0:0:0:0:
153,192,82956,1,0,0:0:0:0:
358,192,83039,1,0,0:0:0:0:
51,192,83123,1,0,0:0:0:0:
153,192,83123,1,0,0:0:0:0:
460,192,83123,1,0,0:0:0:0:
256,192,83289,1,0,0:0:0:0:
358,192,83373,1,0,0:0:0:0:
460,192,83456,1,0,0:0:0:0:
256,192,83456,1,0,0:0:0:0:
51,192,83456,1,0,0:0:0:0:
153,192,83539,1,0,0:0:0:0:
358,192,83623,1,0,0:0:0:0:
358,192,83706,1,0,0:0:0:0:
256,192,83706,1,0,0:0:0:0:
51,192,83706,1,0,0:0:0:0:
358,192,83789,1,0,0:0:0:0:
460,192,83789,1,0,0:0:0:0:
153,192,83956,1,0,0:0:0:0:
460,192,83956,1,0,0:0:0:0:
256,192,83956,1,0,0:0:0:0:
51,192,84039,1,0,0:0:0:0:
358,192,84123,1,0,0:0:0:0:
460,192,84123,1,0,0:0:0:0:
153,192,84123,1,0,0:0:0:0:
256,192,84206,128,0,84248:0:0:0:0:
51,192,84206,128,0,84248:0:0:0:0:
51,192,84289,128,0,84373:0:0:0:0:
256,192,84289,128,0,84373:0:0:0:0:
153,192,84456,1,0,0:0:0:0:
51,192,84456,1,0,0:0:0:0:
256,192,84456,1,0,0:0:0:0:
460,192,84539,128,0,84581:0:0:0:0:
358,192,84539,128,0,84581:0:0:0:0:
358,192,84623,128,0,84706:0:0:0:0:
460,192,84623,128,0,84706:0:0:0:0:
460,192,84789,1,0,0:0:0:0:
358,192,84789,1,0,0:0:0:0:
153,192,84789,1,0,0:0:0:0:
256,192,84873,1,0,0:0:0:0:
460,192,84956,1,0,0:0:0:0:
153,192,85039,1,0,0:0:0:0:
358,192,85039,1,0,0:0:0:0:
51,192,85039,1,0,0:0:0:0:
256,192,85123,1,0,0:0:0:0:
460,192,85123,1,0,0:0:0:0:
153,192,85206,1,0,0:0:0:0:
358,192,85289,1,0,0:0:0:0:
51,192,85289,1,0,0:0:0:0:
256,192,85331,1,0,0:0:0:0:
153,192,85373,1,0,0:0:0:0:
358,192,85414,1,0,0:0:0:0:
256,192,85456,1,0,0:0:0:0:
51,192,85456,1,0,0:0:0:0:
460,192,85456,1,0,0:0:0:0:
153,192,85498,1,0,0:0:0:0:
358,192,85539,1,0,0:0:0:0:
51,192,85581,1,0,0:0:0:0:
460,192,85623,1,0,0:0:0:0:
256,192,85706,1,0,0:0:0:0:
153,192,85789,1,0,0:0:0:0:
51,192,85789,1,0,0:0:0:0:
460,192,85789,1,0,0:0:0:0:
358,192,85956,1,0,0:0:0:0:
153,192,86039,1,0,0:0:0:0:
256,192,86123,1,0,0:0:0:0:
358,192,86123,1,0,0:0:0:0:
51,192,86123,1,0,0:0:0:0:
460,192,86206,1,0,0:0:0:0:
256,192,86289,1,0,0:0:0:0:
256,192,86373,1,0,0:0:0:0:
153,192,86373,1,0,0:0:0:0:
358,192,86373,1,0,0:0:0:0:
256,192,86456,1,0,0:0:0:0:
51,192,86456,1,0,0:0:0:0:
460,192,86623,1,0,0:0:0:0:
51,192,86623,1,0,0:0:0:0:
358,192,86623,1,0,0:0:0:0:
153,192,86706,1,0,0:0:0:0:
460,192,86789,1,0,0:0:0:0:
256,192,86789,1,0,0:0:0:0:
358,192,86789,1,0,0:0:0:0:
51,192,86873,1,0,0:0:0:0:
153,192,86873,1,0,0:0:0:0:
460,192,86956,1,0,0:0:0:0:
256,192,86956,1,0,0:0:0:0:
51,192,87039,1,0,0:0:0:0:
358,192,87039,1,0,0:0:0:0:
153,192,87123,1,0,0:0:0:0:
460,192,87123,1,0,0:0:0:0:
256,192,87123,1,0,0:0:0:0:
51,192,87206,1,0,0:0:0:0:
358,192,87206,1,0,0:0:0:0:
256,192,87289,1,0,0:0:0:0:
153,192,87289,1,0,0:0:0:0:
358,192,87373,1,0,0:0:0:0:
460,192,87373,1,0,0:0:0:0:
51,192,87456,1,0,0:0:0:0:
256,192,87456,1,0,0:0:0:0:
153,192,87456,1,0,0:0:0:0:
460,192,87623,1,0,0:0:0:0:
358,192,87706,1,0,0:0:0:0:
256,192,87706,1,0,0:0:0:0:
51,192,87706,1,0,0:0:0:0:
460,192,87789,1,0,0:0:0:0:
153,192,87789,1,0,0:0:0:0:
358,192,87831,1,0,0:0:0:0:
256,192,87873,1,0,0:0:0:0:
460,192,87956,1,0,0:0:0:0:
153,192,87956,1,0,0:0:0:0:
51,192,87956,1,0,0:0:0:0:
51,192,88039,1,0,0:0:0:0:
358,192,88123,1,0,0:0:0:0:
460,192,88123,1,0,0:0:0:0:
153,192,88123,1,0,0:0:0:0:
256,192,88164,1,0,0:0:0:0:
51,192,88206,1,0,0:0:0:0:
358,192,88248,1,0,0:0:0:0:
460,192,88289,1,0,0:0:0:0:
256,192,88373,1,0,0:0:0:0:
51,192,88456,1,0,0:0:0:0:
460,192,88456,1,0,0:0:0:0:
153,192,88456,1,0,0:0:0:0:
358,192,88623,1,0,0:0:0:0:
153,192,88706,1,0,0:0:0:0:
256,192,88789,1,0,0:0:0:0:
51,192,88789,1,0,0:0:0:0:
358,192,88789,1,0,0:0:0:0:
460,192,88873,1,0,0:0:0:0:
51,192,88956,1,0,0:0:0:0:
51,192,89039,1,0,0:0:0:0:
153,192,89039,1,0,0:0:0:0:
358,192,89039,1,0,0:0:0:0:
51,192,89123,1,0,0:0:0:0:
460,192,89123,1,0,0:0:0:0:
256,192,89289,1,0,0:0:0:0:
460,192,89289,1,0,0:0:0:0:
153,192,89289,1,0,0:0:0:0:
358,192,89373,1,0,0:0:0:0:
51,192,89373,1,0,0:0:0:0:
256,192,89456,1,0,0:0:0:0:
153,192,89456,1,0,0:0:0:0:
460,192,89456,1,0,0:0:0:0:
51,192,89539,128,0,89581:0:0:0:0:
358,192,89539,128,0,89581:0:0:0:0:
358,192,89623,128,0,89706:0:0:0:0:
51,192,89623,128,0,89706:0:0:0:0:
256,192,89706,1,0,0:0:0:0:
460,192,89706,1,0,0:0:0:0:
153,192,89789,1,0,0:0:0:0:
51,192,89789,1,0,0:0:0:0:
358,192,89789,1,0,0:0:0:0:
256,192,89873,128,0,89914:0:0:0:0:
460,192,89873,128,0,89914:0:0:0:0:
153,192,89956,1,0,0:0:0:0:
460,192,89998,1,0,0:0:0:0:
153,192,90039,1,0,0:0:0:0:
460,192,90081,1,0,0:0:0:0:
358,192,90123,1,0,0:0:0:0:
256,192,90123,1,0,0:0:0:0:
51,192,90206,1,0,0:0:0:0:
153,192,90206,1,0,0:0:0:0:
460,192,90289,1,0,0:0:0:0:
358,192,90289,1,0,0:0:0:0:
51,192,90373,1,0,0:0:0:0:
256,192,90373,1,0,0:0:0:0:
460,192,90456,1,0,0:0:0:0:
153,192,90456,1,0,0:0:0:0:
256,192,90539,1,0,0:0:0:0:
358,192,90539,1,0,0:0:0:0:
51,192,90623,1,0,0:0:0:0:
153,192,90623,1,0,0:0:0:0:
460,192,90706,1,0,0:0:0:0:
358,192,90706,1,0,0:0:0:0:
256,192,90789,128,0,91123:0:0:0:0:
51,192,90789,1,0,0:0:0:0:
153,192,90831,1,0,0:0:0:0:
460,192,90873,1,0,0:0:0:0:
358,192,90914,1,0,0:0:0:0:
51,192,90956,1,0,0:0:0:0:
460,192,90998,1,0,0:0:0:0:
153,192,91081,1,0,0:0:0:0:
358,192,91123,1,0,0:0:0:0:
460,192,91123,1,0,0:0:0:0:
51,192,91123,1,0,0:0:0:0:
256,192,91289,1,0,0:0:0:0:
153,192,91373,1,0,0:0:0:0:
460,192,91456,1,0,0:0:0:0:
358,192,91456,1,0,0:0:0:0:
256,192,91456,1,0,0:0:0:0:
51,192,91456,1,0,0:0:0:0:
153,192,91539,1,0,0:0:0:0:
460,192,91623,1,0,0:0:0:0:
460,192,91706,1,0,0:0:0:0:
358,192,91706,1,0,0:0:0:0:
256,192,91706,1,0,0:0:0:0:
460,192,91789,1,0,0:0:0:0:
153,192,91873,1,0,0:0:0:0:
358,192,91956,1,0,0:0:0:0:
256,192,91956,1,0,0:0:0:0:
51,192,91956,1,0,0:0:0:0:
460,192,92039,1,0,0:0:0:0:
153,192,92123,1,0,0:0:0:0:
358,192,92123,1,0,0:0:0:0:
256,192,92123,1,0,0:0:0:0:
51,192,92206,1,0,0:0:0:0:
460,192,92206,1,0,0:0:0:0:
153,192,92289,1,0,0:0:0:0:
358,192,92289,1,0,0:0:0:0:
51,192,92373,1,0,0:0:0:0:
256,192,92373,1,0,0:0:0:0:
358,192,92456,1,0,0:0:0:0:
460,192,92456,1,0,0:0:0:0:
153,192,92456,1,0,0:0:0:0:
51,192,92539,1,0,0:0:0:0:
256,192,92539,1,0,0:0:0:0:
153,192,92623,1,0,0:0:0:0:
460,192,92623,1,0,0:0:0:0:
256,192,92706,1,0,0:0:0:0:
358,192,92706,1,0,0:0:0:0:
358,192,92789,1,0,0:0:0:0:
153,192,92789,1,0,0:0:0:0:
460,192,92789,1,0,0:0:0:0:
51,192,92789,1,0,0:0:0:0:
256,192,92873,1,0,0:0:0:0:
358,192,92956,1,0,0:0:0:0:
153,192,93039,1,0,0:0:0:0:
51,192,93039,1,0,0:0:0:0:
460,192,93039,1,0,0:0:0:0:
256,192,93123,1,0,0:0:0:0:
358,192,93164,1,0,0:0:0:0:
153,192,93206,1,0,0:0:0:0:
460,192,93289,1,0,0:0:0:0:
256,192,93289,1,0,0:0:0:0:
51,192,93289,1,0,0:0:0:0:
460,192,93373,1,0,0:0:0:0:
358,192,93456,1,0,0:0:0:0:
256,192,93456,1,0,0:0:0:0:
153,192,93456,1,0,0:0:0:0:
51,192,93498,1,0,0:0:0:0:
460,192,93539,1,0,0:0:0:0:
153,192,93581,1,0,0:0:0:0:
358,192,93623,1,0,0:0:0:0:
256,192,93706,1,0,0:0:0:0:
460,192,93789,1,0,0:0:0:0:
51,192,93789,1,0,0:0:0:0:
358,192,93789,1,0,0:0:0:0:
153,192,93873,1,0,0:0:0:0:
256,192,93956,1,0,0:0:0:0:
460,192,94039,1,0,0:0:0:0:
358,192,94123,1,0,0:0:0:0:
256,192,94123,1,0,0:0:0:0:
153,192,94123,1,0,0:0:0:0:
51,192,94123,1,0,0:0:0:0:
460,192,94206,1,0,0:0:0:0:
153,192,94289,1,0,0:0:0:0:
153,192,94373,1,0,0:0:0:0:
358,192,94373,1,0,0:0:0:0:
256,192,94373,1,0,0:0:0:0:
153,192,94456,1,0,0:0:0:0:
460,192,94539,1,0,0:0:0:0:
256,192,94623,1,0,0:0:0:0:
51,192,94623,1,0,0:0:0:0:
358,192,94623,1,0,0:0:0:0:
153,192,94706,1,0,0:0:0:0:
256,192,94789,1,0,0:0:0:0:
51,192,94789,1,0,0:0:0:0:
460,192,94789,1,0,0:0:0:0:
153,192,94873,128,0,94914:0:0:0:0:
358,192,94873,128,0,94914:0:0:0:0:
358,192,94956,128,0,95039:0:0:0:0:
153,192,94956,128,0,95039:0:0:0:0:
460,192,95123,1,0,0:0:0:0:
153,192,95123,1,0,0:0:0:0:
358,192,95123,1,0,0:0:0:0:
256,192,95206,128,0,95248:0:0:0:0:
51,192,95206,128,0,95248:0:0:0:0:
51,192,95289,128,0,95373:0:0:0:0:
256,192,95289,128,0,95373:0:0:0:0:
153,192,95456,1,0,0:0:0:0:
460,192,95456,1,0,0:0:0:0:
256,192,95456,1,0,0:0:0:0:
51,192,95456,1,0,0:0:0:0:
358,192,95539,1,0,0:0:0:0:
153,192,95623,1,0,0:0:0:0:
460,192,95664,1,0,0:0:0:0:
256,192,95706,1,0,0:0:0:0:
153,192,95706,1,0,0:0:0:0:
51,192,95706,1,0,0:0:0:0:
460,192,95748,1,0,0:0:0:0:
358,192,95789,1,0,0:0:0:0:
153,192,95956,1,0,0:0:0:0:
460,192,95956,1,0,0:0:0:0:
358,192,95956,1,0,0:0:0:0:
51,192,96039,1,0,0:0:0:0:
256,192,96039,1,0,0:0:0:0:
153,192,96039,1,0,0:0:0:0:
358,192,96123,1,0,0:0:0:0:
460,192,96123,1,0,0:0:0:0:
256,192,96123,1,0,0:0:0:0:
51,192,96164,1,0,0:0:0:0:
153,192,96206,1,0,0:0:0:0:
460,192,96248,1,0,0:0:0:0:
358,192,96289,1,0,0:0:0:0:
256,192,96373,1,0,0:0:0:0:
153,192,96456,1,0,0:0:0:0:
51,192,96456,1,0,0:0:0:0:
358,192,96456,1,0,0:0:0:0:
460,192,96623,1,0,0:0:0:0:
153,192,96706,1,0,0:0:0:0:
256,192,96789,1,0,0:0:0:0:
358,192,96789,1,0,0:0:0:0:
51,192,96789,1,0,0:0:0:0:
460,192,96789,1,0,0:0:0:0:
153,192,96873,1,0,0:0:0:0:
256,192,96956,1,0,0:0:0:0:
256,192,97039,1,0,0:0:0:0:
460,192,97039,1,0,0:0:0:0:
358,192,97039,1,0,0:0:0:0:
256,192,97123,1,0,0:0:0:0:
51,192,97206,1,0,0:0:0:0:
460,192,97289,1,0,0:0:0:0:
358,192,97289,1,0,0:0:0:0:
153,192,97289,1,0,0:0:0:0:
256,192,97373,1,0,0:0:0:0:
153,192,97456,1,0,0:0:0:0:
51,192,97456,1,0,0:0:0:0:
460,192,97456,1,0,0:0:0:0:
358,192,97539,1,0,0:0:0:0:
256,192,97539,1,0,0:0:0:0:
51,192,97623,1,0,0:0:0:0:
153,192,97623,1,0,0:0:0:0:
358,192,97706,1,0,0:0:0:0:
460,192,97706,1,0,0:0:0:0:
256,192,97789,1,0,0:0:0:0:
153,192,97789,1,0,0:0:0:0:
51,192,97789,1,0,0:0:0:0:
460,192,97873,1,0,0:0:0:0:
358,192,97873,1,0,0:0:0:0:
51,192,97956,1,0,0:0:0:0:
256,192,97956,1,0,0:0:0:0:
358,192,98039,1,0,0:0:0:0:
153,192,98039,1,0,0:0:0:0:
153,192,98123,1,0,0:0:0:0:
256,192,98123,1,0,0:0:0:0:
460,192,98123,1,0,0:0:0:0:
51,192,98123,1,0,0:0:0:0:
358,192,98206,1,0,0:0:0:0:
153,192,98289,1,0,0:0:0:0:
460,192,98373,1,0,0:0:0:0:
256,192,98373,1,0,0:0:0:0:
51,192,98373,1,0,0:0:0:0:
358,192,98456,1,0,0:0:0:0:
153,192,98498,1,0,0:0:0:0:
51,192,98539,1,0,0:0:0:0:
256,192,98623,1,0,0:0:0:0:
460,192,98623,1,0,0:0:0:0:
358,192,98623,1,0,0:0:0:0:
256,192,98706,1,0,0:0:0:0:
460,192,98789,1,0,0:0:0:0:
153,192,98789,1,0,0:0:0:0:
51,192,98789,1,0,0:0:0:0:
358,192,98831,1,0,0:0:0:0:
256,192,98873,1,0,0:0:0:0:
153,192,98914,1,0,0:0:0:0:
460,192,98956,1,0,0:0:0:0:
51,192,98956,1,0,0:0:0:0:
51,192,99039,1,0,0:0:0:0:
460,192,99039,1,0,0:0:0:0:
358,192,99123,1,0,0:0:0:0:
256,192,99123,1,0,0:0:0:0:
153,192,99123,1,0,0:0:0:0:
460,192,99289,1,0,0:0:0:0:
256,192,99289,1,0,0:0:0:0:
256,192,99373,1,0,0:0:0:0:
460,192,99373,1,0,0:0:0:0:
358,192,99456,1,0,0:0:0:0:
153,192,99456,1,0,0:0:0:0:
51,192,99456,1,0,0:0:0:0:
460,192,99539,1,0,0:0:0:0:
256,192,99623,1,0,0:0:0:0:
153,192,99623,1,0,0:0:0:0:
256,192,99706,1,0,0:0:0:0:
153,192,99706,1,0,0:0:0:0:
358,192,99789,1,0,0:0:0:0:
51,192,99789,1,0,0:0:0:0:
460,192,99789,1,0,0:0:0:0:
256,192,99873,1,0,0:0:0:0:
153,192,99956,1,0,0:0:0:0:
358,192,99956,1,0,0:0:0:0:
358,192,100039,1,0,0:0:0:0:
153,192,100039,1,0,0:0:0:0:
51,192,100123,1,0,0:0:0:0:
460,192,100123,1,0,0:0:0:0:
256,192,100206,1,0,0:0:0:0:
358,192,100206,1,0,0:0:0:0:
153,192,100289,1,0,0:0:0:0:
51,192,100289,1,0,0:0:0:0:
256,192,100373,1,0,0:0:0:0:
460,192,100373,1,0,0:0:0:0:
358,192,100456,1,0,0:0:0:0:
153,192,100456,1,0,0:0:0:0:
460,192,100539,1,0,0:0:0:0:
51,192,100539,1,0,0:0:0:0:
256,192,100623,1,0,0:0:0:0:
358,192,100623,1,0,0:0:0:0:
153,192,100706,1,0,0:0:0:0:
51,192,100706,1,0,0:0:0:0:
460,192,100789,128,0,101123:0:0:0:0:
256,192,100789,128,0,100873:0:0:0:0:
358,192,100873,128,0,101123:0:0:0:0:
256,192,101123,128,0,101206:0:0:0:0:
51,192,101123,128,0,101456:0:0:0:0:
153,192,101206,128,0,101456:0:0:0:0:
460,192,101456,128,0,101789:0:0:0:0:
256,192,101789,128,0,102039:0:0:0:0:
358,192,101789,1,0,0:0:0:0:
51,192,101789,1,0,0:0:0:0:
256,192,102123,128,0,102289:0:0:0:0:
51,192,102123,1,0,0:0:0:0:
460,192,102123,1,0,0:0:0:0:
256,192,102373,128,0,102539:0:0:0:0:
358,192,102373,1,0,0:0:0:0:
460,192,102373,1,0,0:0:0:0:
256,192,102623,128,0,102706:0:0:0:0:
153,192,102623,1,0,0:0:0:0:
358,192,102623,1,0,0:0:0:0:
256,192,102789,128,0,102956:0:0:0:0:
51,192,102789,1,0,0:0:0:0:
460,192,102789,1,0,0:0:0:0:
256,192,103039,128,0,103206:0:0:0:0:
358,192,103039,1,0,0:0:0:0:
460,192,103039,1,0,0:0:0:0:
256,192,103289,128,0,103373:0:0:0:0:
358,192,103289,1,0,0:0:0:0:
51,192,103289,1,0,0:0:0:0:
256,192,103456,128,0,103706:0:0:0:0:
51,192,103456,1,0,0:0:0:0:
460,192,103456,1,0,0:0:0:0:
153,192,103789,128,0,103956:0:0:0:0:
358,192,103789,128,0,103873:0:0:0:0:
51,192,103956,128,0,104123:0:0:0:0:
460,192,103956,128,0,104039:0:0:0:0:
256,192,104123,128,0,104206:0:0:0:0:
358,192,104123,1,0,0:0:0:0:
460,192,104123,1,0,0:0:0:0:
256,192,104289,128,0,104331:0:0:0:0:
358,192,104289,1,0,0:0:0:0:
153,192,104289,1,0,0:0:0:0:
256,192,104373,128,0,104456:0:0:0:0:
460,192,104373,1,0,0:0:0:0:
51,192,104373,1,0,0:0:0:0:
256,192,104539,128,0,104581:0:0:0:0:
153,192,104539,1,0,0:0:0:0:
51,192,104539,1,0,0:0:0:0:
256,192,104623,128,0,104706:0:0:0:0:
358,192,104623,1,0,0:0:0:0:
460,192,104623,1,0,0:0:0:0:
256,192,104789,128,0,104873:0:0:0:0:
460,192,104789,1,0,0:0:0:0:
51,192,104789,1,0,0:0:0:0:
256,192,104956,128,0,104998:0:0:0:0:
358,192,104956,1,0,0:0:0:0:
51,192,104956,1,0,0:0:0:0:
256,192,105039,128,0,105123:0:0:0:0:
153,192,105039,1,0,0:0:0:0:
460,192,105039,1,0,0:0:0:0:
256,192,105206,128,0,105248:0:0:0:0:
358,192,105206,1,0,0:0:0:0:
460,192,105206,1,0,0:0:0:0:
256,192,105289,128,0,105373:0:0:0:0:
153,192,105289,1,0,0:0:0:0:
51,192,105289,1,0,0:0:0:0:
256,192,105456,128,0,105539:0:0:0:0:
460,192,105456,1,0,0:0:0:0:
51,192,105456,1,0,0:0:0:0:
256,192,105623,128,0,105664:0:0:0:0:
153,192,105623,1,0,0:0:0:0:
460,192,105623,1,0,0:0:0:0:
256,192,105706,128,0,105789:0:0:0:0:
358,192,105706,1,0,0:0:0:0:
51,192,105706,1,0,0:0:0:0:
256,192,105873,128,0,105914:0:0:0:0:
51,192,105873,1,0,0:0:0:0:
460,192,105873,1,0,0:0:0:0:
256,192,105956,128,0,106039:0:0:0:0:
358,192,105956,1,0,0:0:0:0:
153,192,105956,1,0,0:0:0:0:
256,192,106123,128,0,106373:0:0:0:0:
358,192,106123,1,0,0:0:0:0:
460,192,106123,1,0,0:0:0:0:
51,192,106456,1,0,0:0:0:0:
358,192,106498,1,0,0:0:0:0:
51,192,106539,1,0,0:0:0:0:
358,192,106581,1,0,0:0:0:0:
256,192,106623,1,0,0:0:0:0:
153,192,106623,1,0,0:0:0:0:
153,192,106706,1,0,0:0:0:0:
256,192,106706,1,0,0:0:0:0:
51,192,106789,1,0,0:0:0:0:
460,192,106789,1,0,0:0:0:0:
358,192,106789,128,0,107039:0:0:0:0:
153,192,106831,1,0,0:0:0:0:
256,192,106873,1,0,0:0:0:0:
460,192,106914,1,0,0:0:0:0:
51,192,106956,1,0,0:0:0:0:
153,192,107039,1,0,0:0:0:0:
256,192,107039,1,0,0:0:0:0:
358,192,107123,128,0,107373:0:0:0:0:
460,192,107123,1,0,0:0:0:0:
51,192,107123,1,0,0:0:0:0:
256,192,107206,1,0,0:0:0:0:
153,192,107289,1,0,0:0:0:0:
460,192,107289,1,0,0:0:0:0:
51,192,107373,1,0,0:0:0:0:
358,192,107456,128,0,107623:0:0:0:0:
256,192,107456,1,0,0:0:0:0:
153,192,107456,1,0,0:0:0:0:
460,192,107539,1,0,0:0:0:0:
51,192,107623,1,0,0:0:0:0:
256,192,107623,1,0,0:0:0:0:
358,192,107706,128,0,107873:0:0:0:0:
153,192,107706,1,0,0:0:0:0:
460,192,107706,1,0,0:0:0:0:
51,192,107789,1,0,0:0:0:0:
256,192,107873,1,0,0:0:0:0:
358,192,107956,128,0,108039:0:0:0:0:
460,192,107956,1,0,0:0:0:0:
51,192,107956,1,0,0:0:0:0:
256,192,108039,1,0,0:0:0:0:
153,192,108039,1,0,0:0:0:0:
358,192,108123,128,0,108289:0:0:0:0:
51,192,108123,1,0,0:0:0:0:
460,192,108123,1,0,0:0:0:0:
256,192,108206,1,0,0:0:0:0:
153,192,108289,1,0,0:0:0:0:
358,192,108373,128,0,108539:0:0:0:0:
460,192,108373,1,0,0:0:0:0:
51,192,108373,1,0,0:0:0:0:
256,192,108456,1,0,0:0:0:0:
153,192,108539,1,0,0:0:0:0:
460,192,108539,1,0,0:0:0:0:
358,192,108623,128,0,108706:0:0:0:0:
256,192,108623,1,0,0:0:0:0:
51,192,108623,1,0,0:0:0:0:
460,192,108706,1,0,0:0:0:0:
153,192,108706,1,0,0:0:0:0:
358,192,108789,128,0,109039:0:0:0:0:
51,192,108789,1,0,0:0:0:0:
256,192,108789,1,0,0:0:0:0:
460,192,108873,1,0,0:0:0:0:
51,192,108956,1,0,0:0:0:0:
153,192,108956,1,0,0:0:0:0:
256,192,109039,1,0,0:0:0:0:
460,192,109039,1,0,0:0:0:0:
358,192,109123,128,0,109206:0:0:0:0:
153,192,109123,1,0,0:0:0:0:
51,192,109123,1,0,0:0:0:0:
460,192,109206,1,0,0:0:0:0:
256,192,109206,1,0,0:0:0:0:
358,192,109289,128,0,109373:0:0:0:0:
153,192,109289,1,0,0:0:0:0:
460,192,109373,1,0,0:0:0:0:
51,192,109373,1,0,0:0:0:0:
256,192,109456,1,0,0:0:0:0:
153,192,109456,1,0,0:0:0:0:
358,192,109456,1,0,0:0:0:0:
51,192,109539,1,0,0:0:0:0:
460,192,109539,1,0,0:0:0:0:
256,192,109623,1,0,0:0:0:0:
153,192,109623,1,0,0:0:0:0:
358,192,109623,1,0,0:0:0:0:
460,192,109706,1,0,0:0:0:0:
256,192,109706,1,0,0:0:0:0:
51,192,109706,1,0,0:0:0:0:
153,192,109789,1,0,0:0:0:0:
358,192,109789,1,0,0:0:0:0:
256,192,109873,1,0,0:0:0:0:
460,192,109873,1,0,0:0:0:0:
51,192,109873,1,0,0:0:0:0:
153,192,109956,1,0,0:0:0:0:
358,192,109956,1,0,0:0:0:0:
460,192,109956,1,0,0:0:0:0:
256,192,110039,1,0,0:0:0:0:
51,192,110039,1,0,0:0:0:0:
153,192,110123,1,0,0:0:0:0:
358,192,110123,1,0,0:0:0:0:
460,192,110123,1,0,0:0:0:0:
256,192,110206,1,0,0:0:0:0:
51,192,110206,1,0,0:0:0:0:
358,192,110289,1,0,0:0:0:0:
153,192,110289,1,0,0:0:0:0:
460,192,110289,1,0,0:0:0:0:
256,192,110373,1,0,0:0:0:0:
51,192,110373,1,0,0:0:0:0:
153,192,110373,1,0,0:0:0:0:
460,192,110456,1,0,0:0:0:0:
358,192,110456,1,0,0:0:0:0:
256,192,110539,1,0,0:0:0:0:
153,192,110539,1,0,0:0:0:0:
51,192,110539,1,0,0:0:0:0:
51,192,110623,1,0,0:0:0:0:
358,192,110623,1,0,0:0:0:0:
460,192,110623,1,0,0:0:0:0:
153,192,110706,1,0,0:0:0:0:
256,192,110706,1,0,0:0:0:0:
460,192,110789,1,0,0:0:0:0:
358,192,110789,1,0,0:0:0:0:
51,192,110789,1,0,0:0:0:0:
256,192,110873,1,0,0:0:0:0:
153,192,110873,1,0,0:0:0:0:
460,192,110956,1,0,0:0:0:0:
358,192,110956,1,0,0:0:0:0:
51,192,110956,1,0,0:0:0:0:
153,192,111039,1,0,0:0:0:0:
460,192,111039,1,0,0:0:0:0:
256,192,111039,1,0,0:0:0:0:
358,192,111123,1,0,0:0:0:0:
51,192,111123,1,0,0:0:0:0:
256,192,111206,1,0,0:0:0:0:
153,192,111206,1,0,0:0:0:0:
460,192,111206,1,0,0:0:0:0:
358,192,111289,1,0,0:0:0:0:
256,192,111289,1,0,0:0:0:0:
51,192,111289,1,0,0:0:0:0:
153,192,111373,1,0,0:0:0:0:
460,192,111373,1,0,0:0:0:0:
358,192,111456,1,0,0:0:0:0:
256,192,111456,1,0,0:0:0:0:
153,192,111539,1,0,0:0:0:0:
51,192,111539,1,0,0:0:0:0:
358,192,111623,1,0,0:0:0:0:
460,192,111623,1,0,0:0:0:0:
256,192,111706,1,0,0:0:0:0:
51,192,111706,1,0,0:0:0:0:
153,192,111789,1,0,0:0:0:0:
460,192,111789,1,0,0:0:0:0:
358,192,111873,1,0,0:0:0:0:
256,192,111873,1,0,0:0:0:0:
51,192,111956,1,0,0:0:0:0:
153,192,111956,1,0,0:0:0:0:
460,192,112039,1,0,0:0:0:0:
358,192,112039,1,0,0:0:0:0:
256,192,112123,5,0,0:0:0:0:
153,192,112123,1,0,0:0:0:0:
51,192,112123,1,0,0:0:0:0:
460,192,112206,1,0,0:0:0:0:
358,192,112289,1,0,0:0:0:0:
153,192,112373,1,0,0:0:0:0:
256,192,112456,1,0,0:0:0:0:
460,192,112539,1,0,0:0:0:0:
51,192,112623,1,0,0:0:0:0:
153,192,112706,1,0,0:0:0:0:
153,192,112873,1,0,0:0:0:0:
51,192,112956,1,0,0:0:0:0:
460,192,113039,1,0,0:0:0:0:
256,192,113123,1,0,0:0:0:0:
153,192,113206,1,0,0:0:0:0:
358,192,113289,1,0,0:0:0:0:
460,192,113373,1,0,0:0:0:0:
256,192,113456,1,0,0:0:0:0:
51,192,113456,1,0,0:0:0:0:
153,192,113539,1,0,0:0:0:0:
358,192,113623,1,0,0:0:0:0:
256,192,113706,1,0,0:0:0:0:
460,192,113789,1,0,0:0:0:0:
153,192,113873,1,0,0:0:0:0:
256,192,113956,1,0,0:0:0:0:
358,192,114039,1,0,0:0:0:0:
51,192,114123,1,0,0:0:0:0:
460,192,114123,1,0,0:0:0:0:
358,192,114206,1,0,0:0:0:0:
256,192,114289,1,0,0:0:0:0:
153,192,114373,1,0,0:0:0:0:
460,192,114456,1,0,0:0:0:0:
256,192,114539,1,0,0:0:0:0:
358,192,114623,1,0,0:0:0:0:
153,192,114706,1,0,0:0:0:0:
51,192,114789,1,0,0:0:0:0:
460,192,114789,1,0,0:0:0:0:
256,192,114873,1,0,0:0:0:0:
358,192,114956,1,0,0:0:0:0:
153,192,115039,1,0,0:0:0:0:
256,192,115123,1,0,0:0:0:0:
460,192,115206,1,0,0:0:0:0:
358,192,115289,1,0,0:0:0:0:
153,192,115373,1,0,0:0:0:0:
153,192,115539,1,0,0:0:0:0:
358,192,115623,1,0,0:0:0:0:
460,192,115706,1,0,0:0:0:0:
256,192,115789,1,0,0:0:0:0:
153,192,115873,1,0,0:0:0:0:
358,192,115956,1,0,0:0:0:0:
256,192,116039,1,0,0:0:0:0:
51,192,116123,1,0,0:0:0:0:
460,192,116123,1,0,0:0:0:0:
153,192,116206,1,0,0:0:0:0:
358,192,116289,1,0,0:0:0:0:
256,192,116373,1,0,0:0:0:0:
51,192,116456,1,0,0:0:0:0:
460,192,116539,1,0,0:0:0:0:
153,192,116623,1,0,0:0:0:0:
358,192,116706,1,0,0:0:0:0:
256,192,116789,1,0,0:0:0:0:
51,192,116789,1,0,0:0:0:0:
358,192,116873,1,0,0:0:0:0:
153,192,116956,1,0,0:0:0:0:
460,192,117039,1,0,0:0:0:0:
51,192,117123,1,0,0:0:0:0:
256,192,117206,1,0,0:0:0:0:
358,192,117289,1,0,0:0:0:0:
153,192,117373,1,0,0:0:0:0:
460,192,117456,1,0,0:0:0:0:
51,192,117456,1,0,0:0:0:0:
358,192,117539,1,0,0:0:0:0:
256,192,117623,1,0,0:0:0:0:
153,192,117706,1,0,0:0:0:0:
460,192,117789,1,0,0:0:0:0:
51,192,117873,1,0,0:0:0:0:
153,192,117956,1,0,0:0:0:0:
256,192,118039,1,0,0:0:0:0:
256,192,118206,1,0,0:0:0:0:
153,192,118289,1,0,0:0:0:0:
51,192,118373,1,0,0:0:0:0:
460,192,118456,1,0,0:0:0:0:
153,192,118539,1,0,0:0:0:0:
256,192,118623,1,0,0:0:0:0:
358,192,118706,1,0,0:0:0:0:
51,192,118789,1,0,0:0:0:0:
460,192,118789,1,0,0:0:0:0:
153,192,118873,1,0,0:0:0:0:
358,192,118956,1,0,0:0:0:0:
51,192,119039,1,0,0:0:0:0:
256,192,119123,1,0,0:0:0:0:
460,192,119206,1,0,0:0:0:0:
358,192,119289,1,0,0:0:0:0:
51,192,119373,1,0,0:0:0:0:
153,192,119456,1,0,0:0:0:0:
256,192,119456,1,0,0:0:0:0:
51,192,119539,1,0,0:0:0:0:
358,192,119623,1,0,0:0:0:0:
460,192,119706,1,0,0:0:0:0:
256,192,119789,1,0,0:0:0:0:
51,192,119873,1,0,0:0:0:0:
358,192,119956,1,0,0:0:0:0:
153,192,120039,1,0,0:0:0:0:
256,192,120123,1,0,0:0:0:0:
460,192,120123,1,0,0:0:0:0:
51,192,120206,1,0,0:0:0:0:
358,192,120289,1,0,0:0:0:0:
256,192,120373,1,0,0:0:0:0:
460,192,120456,1,0,0:0:0:0:
153,192,120539,1,0,0:0:0:0:
256,192,120623,1,0,0:0:0:0:
51,192,120706,1,0,0:0:0:0:
358,192,120789,1,0,0:0:0:0:
460,192,120789,1,0,0:0:0:0:
51,192,120873,1,0,0:0:0:0:
256,192,120956,1,0,0:0:0:0:
153,192,121039,1,0,0:0:0:0:
460,192,121123,1,0,0:0:0:0:
256,192,121206,1,0,0:0:0:0:
358,192,121289,1,0,0:0:0:0:
51,192,121373,1,0,0:0:0:0:
153,192,121456,1,0,0:0:0:0:
460,192,121456,1,0,0:0:0:0:
358,192,121539,1,0,0:0:0:0:
256,192,121623,1,0,0:0:0:0:
460,192,121706,1,0,0:0:0:0:
51,192,121789,1,0,0:0:0:0:
256,192,121873,1,0,0:0:0:0:
153,192,121956,1,0,0:0:0:0:
358,192,122039,1,0,0:0:0:0:
51,192,122123,1,0,0:0:0:0:
460,192,122123,1,0,0:0:0:0:
358,192,122206,1,0,0:0:0:0:
153,192,122289,1,0,0:0:0:0:
256,192,122373,1,0,0:0:0:0:
51,192,122456,1,0,0:0:0:0:
460,192,122539,1,0,0:0:0:0:
256,192,122623,1,0,0:0:0:0:
358,192,122706,1,0,0:0:0:0:
153,192,122789,1,0,0:0:0:0:
51,192,122789,1,0,0:0:0:0:
460,192,122789,1,0,0:0:0:0:
256,192,122873,1,0,0:0:0:0:
358,192,122956,1,0,0:0:0:0:
51,192,123039,1,0,0:0:0:0:
460,192,123123,1,0,0:0:0:0:
153,192,123123,1,0,0:0:0:0:
256,192,123123,1,0,0:0:0:0:
358,192,123206,1,0,0:0:0:0:
51,192,123289,1,0,0:0:0:0:
460,192,123373,1,0,0:0:0:0:
51,192,123456,1,0,0:0:0:0:
460,192,123539,1,0,0:0:0:0:
51,192,123623,1,0,0:0:0:0:
358,192,123623,1,0,0:0:0:0:
256,192,123623,1,0,0:0:0:0:
153,192,123706,1,0,0:0:0:0:
256,192,123789,1,0,0:0:0:0:
460,192,123789,1,0,0:0:0:0:
358,192,123789,1,0,0:0:0:0:
51,192,123873,1,0,0:0:0:0:
153,192,123956,1,0,0:0:0:0:
460,192,124039,1,0,0:0:0:0:
358,192,124123,1,0,0:0:0:0:
51,192,124123,1,0,0:0:0:0:
153,192,124123,1,0,0:0:0:0:
460,192,124206,1,0,0:0:0:0:
153,192,124289,1,0,0:0:0:0:
256,192,124373,1,0,0:0:0:0:
358,192,124456,1,0,0:0:0:0:
51,192,124456,1,0,0:0:0:0:
460,192,124456,1,0,0:0:0:0:
153,192,124539,1,0,0:0:0:0:
256,192,124623,1,0,0:0:0:0:
358,192,124706,1,0,0:0:0:0:
256,192,124789,1,0,0:0:0:0:
358,192,124873,1,0,0:0:0:0:
256,192,124956,1,0,0:0:0:0:
51,192,124956,1,0,0:0:0:0:
460,192,124956,1,0,0:0:0:0:
153,192,125039,1,0,0:0:0:0:
358,192,125123,1,0,0:0:0:0:
51,192,125123,1,0,0:0:0:0:
460,192,125123,1,0,0:0:0:0:
256,192,125206,1,0,0:0:0:0:
153,192,125289,1,0,0:0:0:0:
358,192,125373,1,0,0:0:0:0:
51,192,125456,1,0,0:0:0:0:
153,192,125456,1,0,0:0:0:0:
256,192,125456,1,0,0:0:0:0:
358,192,125539,1,0,0:0:0:0:
153,192,125623,1,0,0:0:0:0:
51,192,125706,1,0,0:0:0:0:
256,192,125789,1,0,0:0:0:0:
460,192,125789,1,0,0:0:0:0:
358,192,125789,1,0,0:0:0:0:
153,192,125873,1,0,0:0:0:0:
51,192,125956,1,0,0:0:0:0:
358,192,126039,1,0,0:0:0:0:
51,192,126123,1,0,0:0:0:0:
358,192,126206,1,0,0:0:0:0:
460,192,126289,1,0,0:0:0:0:
51,192,126289,1,0,0:0:0:0:
256,192,126289,1,0,0:0:0:0:
153,192,126373,1,0,0:0:0:0:
358,192,126456,1,0,0:0:0:0:
460,192,126456,1,0,0:0:0:0:
256,192,126456,1,0,0:0:0:0:
51,192,126539,1,0,0:0:0:0:
153,192,126623,1,0,0:0:0:0:
460,192,126706,1,0,0:0:0:0:
358,192,126789,1,0,0:0:0:0:
153,192,126789,1,0,0:0:0:0:
51,192,126789,1,0,0:0:0:0:
460,192,126873,1,0,0:0:0:0:
153,192,126956,1,0,0:0:0:0:
256,192,127039,1,0,0:0:0:0:
358,192,127123,1,0,0:0:0:0:
51,192,127123,1,0,0:0:0:0:
460,192,127123,1,0,0:0:0:0:
153,192,127206,1,0,0:0:0:0:
51,192,127289,1,0,0:0:0:0:
460,192,127289,1,0,0:0:0:0:
256,192,127289,1,0,0:0:0:0:
358,192,127373,1,0,0:0:0:0:
256,192,127456,1,0,0:0:0:0:
358,192,127539,1,0,0:0:0:0:
256,192,127623,1,0,0:0:0:0:
153,192,127623,1,0,0:0:0:0:
51,192,127623,1,0,0:0:0:0:
460,192,127706,1,0,0:0:0:0:
358,192,127789,1,0,0:0:0:0:
153,192,127789,1,0,0:0:0:0:
51,192,127789,1,0,0:0:0:0:
256,192,127873,1,0,0:0:0:0:
460,192,127956,1,0,0:0:0:0:
153,192,128039,1,0,0:0:0:0:
460,192,128123,1,0,0:0:0:0:
358,192,128123,1,0,0:0:0:0:
51,192,128123,1,0,0:0:0:0:
153,192,128206,1,0,0:0:0:0:
460,192,128289,1,0,0:0:0:0:
256,192,128373,1,0,0:0:0:0:
358,192,128456,1,0,0:0:0:0:
153,192,128456,1,0,0:0:0:0:
51,192,128456,1,0,0:0:0:0:
460,192,128539,1,0,0:0:0:0:
256,192,128623,1,0,0:0:0:0:
51,192,128706,1,0,0:0:0:0:
256,192,128789,1,0,0:0:0:0:
51,192,128873,1,0,0:0:0:0:
256,192,128956,1,0,0:0:0:0:
153,192,128956,1,0,0:0:0:0:
460,192,128956,1,0,0:0:0:0:
358,192,129039,1,0,0:0:0:0:
51,192,129123,1,0,0:0:0:0:
153,192,129123,1,0,0:0:0:0:
460,192,129123,1,0,0:0:0:0:
256,192,129206,1,0,0:0:0:0:
358,192,129289,1,0,0:0:0:0:
153,192,129373,1,0,0:0:0:0:
358,192,129456,1,0,0:0:0:0:
256,192,129456,1,0,0:0:0:0:
51,192,129456,1,0,0:0:0:0:
153,192,129539,1,0,0:0:0:0:
358,192,129623,1,0,0:0:0:0:
460,192,129706,1,0,0:0:0:0:
256,192,129789,1,0,0:0:0:0:
153,192,129789,1,0,0:0:0:0:
51,192,129789,1,0,0:0:0:0:
358,192,129873,1,0,0:0:0:0:
460,192,129956,1,0,0:0:0:0:
153,192,130039,1,0,0:0:0:0:
460,192,130123,1,0,0:0:0:0:
153,192,130206,1,0,0:0:0:0:
460,192,130289,1,0,0:0:0:0:
358,192,130289,1,0,0:0:0:0:
51,192,130289,1,0,0:0:0:0:
256,192,130373,1,0,0:0:0:0:
153,192,130456,1,0,0:0:0:0:
51,192,130456,1,0,0:0:0:0:
358,192,130456,1,0,0:0:0:0:
460,192,130539,1,0,0:0:0:0:
256,192,130623,1,0,0:0:0:0:
358,192,130706,1,0,0:0:0:0:
256,192,130789,1,0,0:0:0:0:
153,192,130789,1,0,0:0:0:0:
460,192,130789,1,0,0:0:0:0:
358,192,130873,1,0,0:0:0:0:
256,192,130956,1,0,0:0:0:0:
51,192,131039,1,0,0:0:0:0:
153,192,131123,1,0,0:0:0:0:
460,192,131123,1,0,0:0:0:0:
358,192,131123,1,0,0:0:0:0:
256,192,131206,1,0,0:0:0:0:
51,192,131289,1,0,0:0:0:0:
460,192,131373,1,0,0:0:0:0:
51,192,131456,1,0,0:0:0:0:
460,192,131539,1,0,0:0:0:0:
51,192,131623,1,0,0:0:0:0:
256,192,131623,1,0,0:0:0:0:
358,192,131623,1,0,0:0:0:0:
153,192,131706,1,0,0:0:0:0:
460,192,131789,1,0,0:0:0:0:
256,192,131789,1,0,0:0:0:0:
358,192,131789,1,0,0:0:0:0:
51,192,131873,1,0,0:0:0:0:
153,192,131956,1,0,0:0:0:0:
460,192,132039,1,0,0:0:0:0:
51,192,132123,1,0,0:0:0:0:
153,192,132123,1,0,0:0:0:0:
256,192,132123,1,0,0:0:0:0:
358,192,132164,1,0,0:0:0:0:
51,192,132206,1,0,0:0:0:0:
358,192,132248,1,0,0:0:0:0:
51,192,132289,1,0,0:0:0:0:
460,192,132289,1,0,0:0:0:0:
256,192,132373,1,0,0:0:0:0:
153,192,132373,1,0,0:0:0:0:
358,192,132456,1,0,0:0:0:0:
460,192,132456,1,0,0:0:0:0:
51,192,132456,1,0,0:0:0:0:
153,192,132498,1,0,0:0:0:0:
358,192,132539,1,0,0:0:0:0:
153,192,132581,1,0,0:0:0:0:
358,192,132623,1,0,0:0:0:0:
256,192,132623,1,0,0:0:0:0:
460,192,132706,1,0,0:0:0:0:
51,192,132706,1,0,0:0:0:0:
153,192,132789,1,0,0:0:0:0:
358,192,132789,1,0,0:0:0:0:
256,192,132789,1,0,0:0:0:0:
51,192,132873,1,0,0:0:0:0:
460,192,132873,1,0,0:0:0:0:
153,192,132956,1,0,0:0:0:0:
256,192,132956,1,0,0:0:0:0:
358,192,133039,1,0,0:0:0:0:
460,192,133039,1,0,0:0:0:0:
153,192,133123,1,0,0:0:0:0:
51,192,133123,1,0,0:0:0:0:
256,192,133206,1,0,0:0:0:0:
358,192,133206,1,0,0:0:0:0:
51,192,133289,1,0,0:0:0:0:
460,192,133289,1,0,0:0:0:0:
256,192,133373,1,0,0:0:0:0:
153,192,133373,1,0,0:0:0:0:
358,192,133456,1,0,0:0:0:0:
460,192,133456,1,0,0:0:0:0:
51,192,133456,1,0,0:0:0:0:
153,192,133539,1,0,0:0:0:0:
256,192,133623,1,0,0:0:0:0:
51,192,133706,1,0,0:0:0:0:
358,192,133706,1,0,0:0:0:0:
256,192,133789,1,0,0:0:0:0:
153,192,133789,1,0,0:0:0:0:
460,192,133789,1,0,0:0:0:0:
51,192,133873,1,0,0:0:0:0:
358,192,133956,1,0,0:0:0:0:
460,192,133956,1,0,0:0:0:0:
153,192,134039,1,0,0:0:0:0:
256,192,134123,1,0,0:0:0:0:
358,192,134123,1,0,0:0:0:0:
51,192,134123,1,0,0:0:0:0:
460,192,134206,1,0,0:0:0:0:
153,192,134289,1,0,0:0:0:0:
51,192,134373,1,0,0:0:0:0:
358,192,134373,1,0,0:0:0:0:
256,192,134456,1,0,0:0:0:0:
153,192,134456,1,0,0:0:0:0:
460,192,134456,1,0,0:0:0:0:
51,192,134539,1,0,0:0:0:0:
358,192,134623,1,0,0:0:0:0:
256,192,134623,1,0,0:0:0:0:
153,192,134706,1,0,0:0:0:0:
460,192,134789,1,0,0:0:0:0:
358,192,134789,1,0,0:0:0:0:
51,192,134789,1,0,0:0:0:0:
256,192,134873,1,0,0:0:0:0:
153,192,134956,1,0,0:0:0:0:
460,192,135039,1,0,0:0:0:0:
358,192,135039,1,0,0:0:0:0:
256,192,135123,1,0,0:0:0:0:
153,192,135123,1,0,0:0:0:0:
51,192,135123,1,0,0:0:0:0:
358,192,135206,1,0,0:0:0:0:
460,192,135289,1,0,0:0:0:0:
51,192,135289,1,0,0:0:0:0:
256,192,135373,1,0,0:0:0:0:
153,192,135456,1,0,0:0:0:0:
358,192,135456,1,0,0:0:0:0:
460,192,135456,1,0,0:0:0:0:
51,192,135539,1,0,0:0:0:0:
256,192,135623,1,0,0:0:0:0:
358,192,135623,1,0,0:0:0:0:
153,192,135706,1,0,0:0:0:0:
460,192,135706,1,0,0:0:0:0:
51,192,135789,1,0,0:0:0:0:
256,192,135789,1,0,0:0:0:0:
358,192,135789,1,0,0:0:0:0:
153,192,135873,1,0,0:0:0:0:
460,192,135956,1,0,0:0:0:0:
51,192,135956,1,0,0:0:0:0:
256,192,136039,1,0,0:0:0:0:
358,192,136123,1,0,0:0:0:0:
460,192,136123,1,0,0:0:0:0:
153,192,136123,1,0,0:0:0:0:
51,192,136206,1,0,0:0:0:0:
256,192,136289,1,0,0:0:0:0:
358,192,136373,1,0,0:0:0:0:
153,192,136373,1,0,0:0:0:0:
256,192,136456,1,0,0:0:0:0:
51,192,136456,1,0,0:0:0:0:
460,192,136456,1,0,0:0:0:0:
358,192,136539,1,0,0:0:0:0:
153,192,136623,1,0,0:0:0:0:
51,192,136623,1,0,0:0:0:0:
256,192,136706,1,0,0:0:0:0:
460,192,136789,1,0,0:0:0:0:
358,192,136789,1,0,0:0:0:0:
153,192,136789,1,0,0:0:0:0:
51,192,136873,1,0,0:0:0:0:
256,192,136956,1,0,0:0:0:0:
460,192,137039,1,0,0:0:0:0:
153,192,137039,1,0,0:0:0:0:
256,192,137123,1,0,0:0:0:0:
358,192,137123,1,0,0:0:0:0:
51,192,137123,1,0,0:0:0:0:
460,192,137206,1,0,0:0:0:0:
153,192,137289,1,0,0:0:0:0:
358,192,137289,1,0,0:0:0:0:
51,192,137373,1,0,0:0:0:0:
256,192,137456,1,0,0:0:0:0:
153,192,137456,1,0,0:0:0:0:
460,192,137456,1,0,0:0:0:0:
358,192,137539,1,0,0:0:0:0:
51,192,137623,1,0,0:0:0:0:
256,192,137706,1,0,0:0:0:0:
153,192,137706,1,0,0:0:0:0:
358,192,137789,1,0,0:0:0:0:
460,192,137789,1,0,0:0:0:0:
51,192,137789,1,0,0:0:0:0:
256,192,137873,1,0,0:0:0:0:
153,192,137956,1,0,0:0:0:0:
460,192,137956,1,0,0:0:0:0:
358,192,138039,1,0,0:0:0:0:
256,192,138123,1,0,0:0:0:0:
153,192,138123,1,0,0:0:0:0:
51,192,138123,1,0,0:0:0:0:
460,192,138206,1,0,0:0:0:0:
358,192,138289,1,0,0:0:0:0:
51,192,138289,1,0,0:0:0:0:
153,192,138373,1,0,0:0:0:0:
256,192,138373,1,0,0:0:0:0:
358,192,138456,1,0,0:0:0:0:
460,192,138456,1,0,0:0:0:0:
51,192,138456,1,0,0:0:0:0:
153,192,138539,1,0,0:0:0:0:
256,192,138539,1,0,0:0:0:0:
460,192,138623,1,0,0:0:0:0:
358,192,138623,1,0,0:0:0:0:
51,192,138706,1,0,0:0:0:0:
153,192,138706,1,0,0:0:0:0:
256,192,138789,1,0,0:0:0:0:
358,192,138789,1,0,0:0:0:0:
460,192,138789,1,0,0:0:0:0:
51,192,138873,1,0,0:0:0:0:
153,192,138956,1,0,0:0:0:0:
256,192,138956,1,0,0:0:0:0:
358,192,138956,1,0,0:0:0:0:
460,192,139039,1,0,0:0:0:0:
256,192,139123,1,0,0:0:0:0:
153,192,139123,1,0,0:0:0:0:
51,192,139123,1,0,0:0:0:0:
358,192,139206,1,0,0:0:0:0:
51,192,139289,1,0,0:0:0:0:
153,192,139289,1,0,0:0:0:0:
460,192,139289,1,0,0:0:0:0:
256,192,139373,1,0,0:0:0:0:
358,192,139456,1,0,0:0:0:0:
460,192,139456,1,0,0:0:0:0:
51,192,139456,1,0,0:0:0:0:
153,192,139539,1,0,0:0:0:0:
358,192,139623,1,0,0:0:0:0:
256,192,139623,1,0,0:0:0:0:
460,192,139623,1,0,0:0:0:0:
51,192,139706,1,0,0:0:0:0:
153,192,139789,1,0,0:0:0:0:
256,192,139789,1,0,0:0:0:0:
358,192,139789,1,0,0:0:0:0:
51,192,139873,1,0,0:0:0:0:
153,192,139956,1,0,0:0:0:0:
256,192,139956,1,0,0:0:0:0:
460,192,139956,1,0,0:0:0:0:
358,192,140039,1,0,0:0:0:0:
460,192,140123,1,0,0:0:0:0:
153,192,140123,1,0,0:0:0:0:
51,192,140123,1,0,0:0:0:0:
256,192,140206,1,0,0:0:0:0:
358,192,140289,1,0,0:0:0:0:
460,192,140289,1,0,0:0:0:0:
51,192,140289,1,0,0:0:0:0:
153,192,140373,1,0,0:0:0:0:
358,192,140456,1,0,0:0:0:0:
51,192,140456,1,0,0:0:0:0:
256,192,140456,1,0,0:0:0:0:
460,192,140539,1,0,0:0:0:0:
256,192,140623,1,0,0:0:0:0:
153,192,140623,1,0,0:0:0:0:
51,192,140623,1,0,0:0:0:0:
358,192,140706,1,0,0:0:0:0:
460,192,140789,1,0,0:0:0:0:
153,192,140789,1,0,0:0:0:0:
256,192,140789,1,0,0:0:0:0:
358,192,140873,1,0,0:0:0:0:
51,192,140956,1,0,0:0:0:0:
153,192,140956,1,0,0:0:0:0:
460,192,140956,1,0,0:0:0:0:
256,192,141039,1,0,0:0:0:0:
358,192,141123,1,0,0:0:0:0:
460,192,141123,1,0,0:0:0:0:
51,192,141123,1,0,0:0:0:0:
153,192,141206,1,0,0:0:0:0:
358,192,141289,1,0,0:0:0:0:
256,192,141289,1,0,0:0:0:0:
51,192,141289,1,0,0:0:0:0:
460,192,141373,1,0,0:0:0:0:
256,192,141456,1,0,0:0:0:0:
153,192,141456,1,0,0:0:0:0:
358,192,141456,1,0,0:0:0:0:
51,192,141539,1,0,0:0:0:0:
460,192,141539,1,0,0:0:0:0:
256,192,141623,1,0,0:0:0:0:
153,192,141623,1,0,0:0:0:0:
358,192,141706,1,0,0:0:0:0:
51,192,141706,1,0,0:0:0:0:
460,192,141789,1,0,0:0:0:0:
153,192,141789,1,0,0:0:0:0:
256,192,141873,1,0,0:0:0:0:
358,192,141956,1,0,0:0:0:0:
51,192,142039,1,0,0:0:0:0:
460,192,142123,1,0,0:0:0:0:
153,192,142123,1,0,0:0:0:0:
256,192,142206,1,0,0:0:0:0:
358,192,142289,1,0,0:0:0:0:
153,192,142373,1,0,0:0:0:0:
256,192,142456,1,0,0:0:0:0:
51,192,142539,1,0,0:0:0:0:
460,192,142623,1,0,0:0:0:0:
153,192,142706,1,0,0:0:0:0:
256,192,142789,1,0,0:0:0:0:
358,192,142789,1,0,0:0:0:0:
51,192,142789,1,0,0:0:0:0:
358,192,142956,128,0,143039:0:0:0:0:
153,192,142956,128,0,143039:0:0:0:0:
460,192,143789,1,0,0:0:0:0:
51,192,143789,1,0,0:0:0:0:
358,192,144123,128,0,144373:0:0:0:0:
256,192,144123,128,0,144373:0:0:0:0:
358,192,144456,128,0,144512:0:0:0:0:
153,192,144456,128,0,144512:0:0:0:0:
51,192,144456,1,0,0:0:0:0:
256,192,144567,128,0,144623:0:0:0:0:
153,192,144567,128,0,144623:0:0:0:0:
256,192,144678,128,0,144734:0:0:0:0:
460,192,144678,128,0,144734:0:0:0:0:
460,192,144789,128,0,144845:0:0:0:0:
51,192,144789,128,0,144845:0:0:0:0:
358,192,144789,1,0,0:0:0:0:
153,192,144789,1,0,0:0:0:0:
256,192,144901,128,0,144956:0:0:0:0:
51,192,144901,128,0,144956:0:0:0:0:
153,192,145012,128,0,145067:0:0:0:0:
256,192,145012,128,0,145067:0:0:0:0:
358,192,145123,128,0,145401:0:0:0:0:
153,192,145123,128,0,145401:0:0:0:0:
460,192,145123,1,0,0:0:0:0:
358,192,145456,128,0,145512:0:0:0:0:
460,192,145456,128,0,145512:0:0:0:0:
256,192,145456,1,0,0:0:0:0:
460,192,145567,128,0,145623:0:0:0:0:
51,192,145567,128,0,145623:0:0:0:0:
256,192,145678,128,0,145734:0:0:0:0:
51,192,145678,128,0,145734:0:0:0:0:
153,192,145789,128,0,145845:0:0:0:0:
256,192,145789,128,0,145845:0:0:0:0:
460,192,145789,1,0,0:0:0:0:
358,192,145901,128,0,145956:0:0:0:0:
153,192,145901,128,0,145956:0:0:0:0:
358,192,146012,128,0,146067:0:0:0:0:
51,192,146012,128,0,146067:0:0:0:0:
51,192,146123,128,0,146178:0:0:0:0:
460,192,146123,128,0,146178:0:0:0:0:
153,192,146123,1,0,0:0:0:0:
256,192,146123,1,0,0:0:0:0:
460,192,146234,128,0,146289:0:0:0:0:
358,192,146234,128,0,146289:0:0:0:0:
256,192,146345,128,0,146401:0:0:0:0:
358,192,146345,128,0,146401:0:0:0:0:
256,192,146456,128,0,146734:0:0:0:0:
51,192,146456,128,0,146734:0:0:0:0:
153,192,146456,1,0,0:0:0:0:
51,192,146789,128,0,146845:0:0:0:0:
460,192,146789,128,0,146845:0:0:0:0:
358,192,146789,1,0,0:0:0:0:
460,192,146901,128,0,146956:0:0:0:0:
153,192,146901,128,0,146956:0:0:0:0:
460,192,147012,128,0,147067:0:0:0:0:
256,192,147012,128,0,147067:0:0:0:0:
358,192,147123,128,0,147178:0:0:0:0:
51,192,147123,128,0,147178:0:0:0:0:
153,192,147123,1,0,0:0:0:0:
358,192,147234,128,0,147289:0:0:0:0:
256,192,147234,128,0,147289:0:0:0:0:
358,192,147345,128,0,147401:0:0:0:0:
460,192,147345,128,0,147401:0:0:0:0:
256,192,147456,128,0,147512:0:0:0:0:
51,192,147456,128,0,147512:0:0:0:0:
153,192,147456,1,0,0:0:0:0:
256,192,147567,128,0,147623:0:0:0:0:
460,192,147567,128,0,147623:0:0:0:0:
358,192,147678,128,0,147734:0:0:0:0:
256,192,147678,128,0,147734:0:0:0:0:
153,192,147789,128,0,147845:0:0:0:0:
51,192,147789,128,0,147845:0:0:0:0:
460,192,147789,1,0,0:0:0:0:
153,192,147901,128,0,147956:0:0:0:0:
256,192,147901,128,0,147956:0:0:0:0:
153,192,148012,128,0,148067:0:0:0:0:
358,192,148012,128,0,148067:0:0:0:0:
51,192,148123,128,0,148178:0:0:0:0:
460,192,148123,128,0,148178:0:0:0:0:
256,192,148123,1,0,0:0:0:0:
51,192,148234,128,0,148289:0:0:0:0:
358,192,148234,128,0,148289:0:0:0:0:
51,192,148345,128,0,148401:0:0:0:0:
153,192,148345,128,0,148401:0:0:0:0:
256,192,148456,128,0,148512:0:0:0:0:
460,192,148456,128,0,148512:0:0:0:0:
358,192,148456,1,0,0:0:0:0:
256,192,148567,128,0,148623:0:0:0:0:
153,192,148567,128,0,148623:0:0:0:0:
256,192,148678,128,0,148734:0:0:0:0:
51,192,148678,128,0,148734:0:0:0:0:
153,192,148789,128,0,149123:0:0:0:0:
460,192,148789,128,0,149123:0:0:0:0:
358,192,148789,1,0,0:0:0:0:
256,192,149123,128,0,149456:0:0:0:0:
358,192,149456,1,0,0:0:0:0:
460,192,149456,1,0,0:0:0:0:
51,192,149456,1,0,0:0:0:0:
256,192,149567,1,0,0:0:0:0:
153,192,149567,1,0,0:0:0:0:
51,192,149567,1,0,0:0:0:0:
460,192,149678,1,0,0:0:0:0:
256,192,149678,1,0,0:0:0:0:
358,192,149678,1,0,0:0:0:0:
153,192,149789,1,0,0:0:0:0:
358,192,149789,1,0,0:0:0:0:
51,192,149789,1,0,0:0:0:0:
460,192,149845,1,0,0:0:0:0:
256,192,149901,1,0,0:0:0:0:
153,192,149901,1,0,0:0:0:0:
51,192,149901,1,0,0:0:0:0:
358,192,149956,1,0,0:0:0:0:
256,192,150012,1,0,0:0:0:0:
460,192,150012,1,0,0:0:0:0:
153,192,150012,1,0,0:0:0:0:
51,192,150123,1,0,0:0:0:0:
358,192,150123,1,0,0:0:0:0:
460,192,150123,1,0,0:0:0:0:
256,192,150234,1,0,0:0:0:0:
358,192,150234,1,0,0:0:0:0:
153,192,150234,1,0,0:0:0:0:
51,192,150345,1,0,0:0:0:0:
153,192,150345,1,0,0:0:0:0:
460,192,150345,1,0,0:0:0:0:
256,192,150456,1,0,0:0:0:0:
460,192,150456,1,0,0:0:0:0:
358,192,150456,1,0,0:0:0:0:
51,192,150512,1,0,0:0:0:0:
153,192,150567,1,0,0:0:0:0:
358,192,150567,1,0,0:0:0:0:
256,192,150567,1,0,0:0:0:0:
460,192,150623,1,0,0:0:0:0:
256,192,150678,1,0,0:0:0:0:
153,192,150678,1,0,0:0:0:0:
51,192,150678,1,0,0:0:0:0:
358,192,150789,1,0,0:0:0:0:
460,192,150789,1,0,0:0:0:0:
51,192,150789,1,0,0:0:0:0:
153,192,150901,1,0,0:0:0:0:
358,192,150901,1,0,0:0:0:0:
256,192,150901,1,0,0:0:0:0:
460,192,151012,1,0,0:0:0:0:
256,192,151012,1,0,0:0:0:0:
51,192,151012,1,0,0:0:0:0:
153,192,151123,1,0,0:0:0:0:
51,192,151123,1,0,0:0:0:0:
358,192,151123,1,0,0:0:0:0:
256,192,151178,1,0,0:0:0:0:
460,192,151234,1,0,0:0:0:0:
358,192,151234,1,0,0:0:0:0:
153,192,151234,1,0,0:0:0:0:
51,192,151289,1,0,0:0:0:0:
256,192,151345,1,0,0:0:0:0:
460,192,151345,1,0,0:0:0:0:
358,192,151345,1,0,0:0:0:0:
153,192,151456,128,0,151789:0:0:0:0:
51,192,151456,128,0,151789:0:0:0:0:
256,192,151456,1,0,0:0:0:0:
460,192,151789,1,0,0:0:0:0:
51,192,151831,1,0,0:0:0:0:
460,192,151873,1,0,0:0:0:0:
51,192,151914,1,0,0:0:0:0:
358,192,151956,1,0,0:0:0:0:
153,192,151998,1,0,0:0:0:0:
358,192,152039,1,0,0:0:0:0:
153,192,152081,1,0,0:0:0:0:
460,192,152123,1,0,0:0:0:0:
256,192,152123,1,0,0:0:0:0:
51,192,152123,1,0,0:0:0:0:
256,192,152234,1,0,0:0:0:0:
358,192,152234,1,0,0:0:0:0:
153,192,152234,1,0,0:0:0:0:
153,192,152345,1,0,0:0:0:0:
358,192,152345,1,0,0:0:0:0:
460,192,152345,1,0,0:0:0:0:
460,192,152456,1,0,0:0:0:0:
256,192,152456,1,0,0:0:0:0:
51,192,152456,1,0,0:0:0:0:
358,192,152567,1,0,0:0:0:0:
153,192,152567,1,0,0:0:0:0:
51,192,152567,1,0,0:0:0:0:
256,192,152678,1,0,0:0:0:0:
460,192,152678,1,0,0:0:0:0:
358,192,152678,1,0,0:0:0:0:
256,192,152789,1,0,0:0:0:0:
153,192,152789,1,0,0:0:0:0:
51,192,152789,1,0,0:0:0:0:
358,192,152901,1,0,0:0:0:0:
51,192,152901,1,0,0:0:0:0:
460,192,152901,1,0,0:0:0:0:
256,192,153012,1,0,0:0:0:0:
153,192,153012,1,0,0:0:0:0:
358,192,153012,1,0,0:0:0:0:
460,192,153123,1,0,0:0:0:0:
153,192,153123,1,0,0:0:0:0:
51,192,153123,1,0,0:0:0:0:
256,192,153234,1,0,0:0:0:0:
358,192,153234,1,0,0:0:0:0:
51,192,153234,1,0,0:0:0:0:
358,192,153345,1,0,0:0:0:0:
460,192,153345,1,0,0:0:0:0:
153,192,153345,1,0,0:0:0:0:
153,192,153456,1,0,0:0:0:0:
256,192,153456,1,0,0:0:0:0:
51,192,153456,1,0,0:0:0:0:
460,192,153623,1,0,0:0:0:0:
358,192,153789,128,0,153956:0:0:0:0:
153,192,153789,1,0,0:0:0:0:
51,192,153789,1,0,0:0:0:0:
256,192,153956,1,0,0:0:0:0:
460,192,153956,1,0,0:0:0:0:
153,192,153956,1,0,0:0:0:0:
51,192,154123,1,0,0:0:0:0:
460,192,154289,128,0,154456:0:0:0:0:
358,192,154289,1,0,0:0:0:0:
256,192,154289,1,0,0:0:0:0:
153,192,154456,1,0,0:0:0:0:
358,192,155039,1,0,0:0:0:0:
256,192,155039,1,0,0:0:0:0:
460,192,155123,128,0,155206:0:0:0:0:
153,192,155123,1,0,0:0:0:0:
51,192,155123,1,0,0:0:0:0:
460,192,155289,128,0,155373:0:0:0:0:
256,192,155373,1,0,0:0:0:0:
460,192,155456,128,0,155706:0:0:0:0:
51,192,155456,1,0,0:0:0:0:
358,192,155456,1,0,0:0:0:0:
153,192,155539,1,0,0:0:0:0:
51,192,155623,1,0,0:0:0:0:
358,192,155623,1,0,0:0:0:0:
256,192,155623,1,0,0:0:0:0:
153,192,155706,1,0,0:0:0:0:
460,192,155789,128,0,155831:0:0:0:0:
460,192,155873,128,0,155914:0:0:0:0:
460,192,155956,128,0,155998:0:0:0:0:
460,192,156039,128,0,156081:0:0:0:0:
51,192,156123,128,0,156206:0:0:0:0:
153,192,156123,1,0,0:0:0:0:
256,192,156123,1,0,0:0:0:0:
358,192,156206,1,0,0:0:0:0:
51,192,156289,128,0,156373:0:0:0:0:
51,192,156456,128,0,156539:0:0:0:0:
51,192,156623,128,0,156706:0:0:0:0:
256,192,156623,1,0,0:0:0:0:
153,192,156623,1,0,0:0:0:0:
358,192,156706,1,0,0:0:0:0:
460,192,156706,1,0,0:0:0:0:
51,192,156789,128,0,157039:0:0:0:0:
256,192,156789,1,0,0:0:0:0:
358,192,156873,1,0,0:0:0:0:
153,192,156956,1,0,0:0:0:0:
460,192,157039,1,0,0:0:0:0:
51,192,157123,128,0,157164:0:0:0:0:
153,192,157123,1,0,0:0:0:0:
256,192,157123,1,0,0:0:0:0:
358,192,157164,1,0,0:0:0:0:
51,192,157206,128,0,157248:0:0:0:0:
460,192,157248,1,0,0:0:0:0:
51,192,157289,128,0,157331:0:0:0:0:
51,192,157373,128,0,157414:0:0:0:0:
358,192,157456,128,0,157539:0:0:0:0:
460,192,157456,1,0,0:0:0:0:
256,192,157456,1,0,0:0:0:0:
153,192,157498,1,0,0:0:0:0:
51,192,157539,1,0,0:0:0:0:
256,192,157581,1,0,0:0:0:0:
358,192,157623,128,0,157664:0:0:0:0:
358,192,157706,128,0,157748:0:0:0:0:
358,192,157789,128,0,157873:0:0:0:0:
358,192,157956,128,0,158039:0:0:0:0:
460,192,157956,1,0,0:0:0:0:
153,192,157956,1,0,0:0:0:0:
256,192,158039,1,0,0:0:0:0:
358,192,158123,128,0,158206:0:0:0:0:
51,192,158123,1,0,0:0:0:0:
460,192,158206,1,0,0:0:0:0:
358,192,158289,128,0,158373:0:0:0:0:
256,192,158373,1,0,0:0:0:0:
358,192,158456,128,0,158498:0:0:0:0:
153,192,158456,1,0,0:0:0:0:
460,192,158456,1,0,0:0:0:0:
358,192,158539,128,0,158581:0:0:0:0:
358,192,158623,128,0,158664:0:0:0:0:
358,192,158706,128,0,158748:0:0:0:0:
256,192,158789,128,0,158873:0:0:0:0:
51,192,158789,1,0,0:0:0:0:
460,192,158831,1,0,0:0:0:0:
153,192,158873,1,0,0:0:0:0:
358,192,158914,1,0,0:0:0:0:
51,192,158956,1,0,0:0:0:0:
256,192,158956,1,0,0:0:0:0:
460,192,158956,1,0,0:0:0:0:
153,192,159039,1,0,0:0:0:0:
256,192,159123,128,0,159206:0:0:0:0:
358,192,159123,1,0,0:0:0:0:
256,192,159289,1,0,0:0:0:0:
460,192,159289,1,0,0:0:0:0:
153,192,159373,1,0,0:0:0:0:
256,192,159456,128,0,159706:0:0:0:0:
51,192,159456,1,0,0:0:0:0:
460,192,159456,1,0,0:0:0:0:
358,192,159539,1,0,0:0:0:0:
153,192,159623,1,0,0:0:0:0:
51,192,159706,1,0,0:0:0:0:
460,192,159789,1,0,0:0:0:0:
153,192,159831,1,0,0:0:0:0:
358,192,159873,1,0,0:0:0:0:
460,192,159914,1,0,0:0:0:0:
256,192,159956,1,0,0:0:0:0:
358,192,159998,1,0,0:0:0:0:
153,192,160039,1,0,0:0:0:0:
256,192,160081,1,0,0:0:0:0:
51,192,160123,1,0,0:0:0:0:
460,192,160164,1,0,0:0:0:0:
358,192,160206,1,0,0:0:0:0:
153,192,160248,1,0,0:0:0:0:
256,192,160289,1,0,0:0:0:0:
460,192,160373,1,0,0:0:0:0:
358,192,160373,1,0,0:0:0:0:
256,192,160456,1,0,0:0:0:0:
153,192,160456,1,0,0:0:0:0:
51,192,160456,128,0,160539:0:0:0:0:
51,192,160623,128,0,160706:0:0:0:0:
460,192,160623,1,0,0:0:0:0:
153,192,160706,1,0,0:0:0:0:
358,192,160706,1,0,0:0:0:0:
51,192,160789,128,0,161039:0:0:0:0:
256,192,160789,1,0,0:0:0:0:
460,192,160873,1,0,0:0:0:0:
153,192,160956,1,0,0:0:0:0:
256,192,160956,1,0,0:0:0:0:
358,192,160956,1,0,0:0:0:0:
460,192,161039,1,0,0:0:0:0:
51,192,161123,128,0,161164:0:0:0:0:
358,192,161123,1,0,0:0:0:0:
51,192,161206,128,0,161248:0:0:0:0:
51,192,161289,128,0,161331:0:0:0:0:
51,192,161373,128,0,161414:0:0:0:0:
460,192,161456,128,0,161539:0:0:0:0:
358,192,161456,1,0,0:0:0:0:
153,192,161456,1,0,0:0:0:0:
256,192,161539,1,0,0:0:0:0:
460,192,161623,128,0,161706:0:0:0:0:
51,192,161623,1,0,0:0:0:0:
153,192,161706,1,0,0:0:0:0:
256,192,161706,1,0,0:0:0:0:
460,192,161789,128,0,161873:0:0:0:0:
358,192,161789,1,0,0:0:0:0:
460,192,161956,128,0,162039:0:0:0:0:
358,192,161956,1,0,0:0:0:0:
153,192,161956,1,0,0:0:0:0:
256,192,162039,1,0,0:0:0:0:
51,192,162039,1,0,0:0:0:0:
460,192,162123,128,0,162373:0:0:0:0:
358,192,162123,1,0,0:0:0:0:
153,192,162123,1,0,0:0:0:0:
51,192,162206,1,0,0:0:0:0:
153,192,162289,1,0,0:0:0:0:
256,192,162289,1,0,0:0:0:0:
358,192,162373,1,0,0:0:0:0:
460,192,162456,128,0,162498:0:0:0:0:
256,192,162456,1,0,0:0:0:0:
51,192,162456,1,0,0:0:0:0:
153,192,162498,1,0,0:0:0:0:
460,192,162539,128,0,162581:0:0:0:0:
51,192,162581,1,0,0:0:0:0:
460,192,162623,128,0,162664:0:0:0:0:
460,192,162706,128,0,162748:0:0:0:0:
358,192,162789,128,0,162873:0:0:0:0:
153,192,162789,1,0,0:0:0:0:
256,192,162789,1,0,0:0:0:0:
460,192,162831,1,0,0:0:0:0:
51,192,162873,1,0,0:0:0:0:
153,192,162914,1,0,0:0:0:0:
256,192,162956,128,0,162998:0:0:0:0:
358,192,162956,1,0,0:0:0:0:
256,192,163039,128,0,163081:0:0:0:0:
153,192,163123,128,0,163206:0:0:0:0:
460,192,163123,1,0,0:0:0:0:
51,192,163123,1,0,0:0:0:0:
153,192,163289,128,0,163373:0:0:0:0:
51,192,163289,1,0,0:0:0:0:
358,192,163289,1,0,0:0:0:0:
256,192,163373,1,0,0:0:0:0:
460,192,163373,1,0,0:0:0:0:
153,192,163456,1,0,0:0:0:0:
51,192,163456,128,0,163539:0:0:0:0:
358,192,163456,1,0,0:0:0:0:
256,192,163539,1,0,0:0:0:0:
51,192,163623,128,0,163706:0:0:0:0:
460,192,163623,1,0,0:0:0:0:
153,192,163706,1,0,0:0:0:0:
256,192,163789,128,0,163831:0:0:0:0:
460,192,163789,1,0,0:0:0:0:
358,192,163789,1,0,0:0:0:0:
256,192,163873,128,0,163914:0:0:0:0:
153,192,163956,128,0,163998:0:0:0:0:
358,192,163956,1,0,0:0:0:0:
153,192,164039,128,0,164081:0:0:0:0:
460,192,164123,128,0,164206:0:0:0:0:
256,192,164123,1,0,0:0:0:0:
51,192,164123,1,0,0:0:0:0:
358,192,164164,1,0,0:0:0:0:
153,192,164206,1,0,0:0:0:0:
51,192,164248,1,0,0:0:0:0:
460,192,164289,128,0,164331:0:0:0:0:
256,192,164289,1,0,0:0:0:0:
460,192,164373,128,0,164414:0:0:0:0:
153,192,164373,1,0,0:0:0:0:
358,192,164456,128,0,164539:0:0:0:0:
51,192,164456,1,0,0:0:0:0:
256,192,164456,1,0,0:0:0:0:
460,192,164539,1,0,0:0:0:0:
358,192,164623,128,0,164706:0:0:0:0:
153,192,164623,1,0,0:0:0:0:
460,192,164706,1,0,0:0:0:0:
51,192,164706,1,0,0:0:0:0:
256,192,164789,128,0,164873:0:0:0:0:
358,192,164789,1,0,0:0:0:0:
153,192,164789,1,0,0:0:0:0:
460,192,164873,1,0,0:0:0:0:
256,192,164956,128,0,165039:0:0:0:0:
51,192,164956,1,0,0:0:0:0:
358,192,165039,1,0,0:0:0:0:
51,192,165123,128,0,165164:0:0:0:0:
256,192,165123,1,0,0:0:0:0:
460,192,165123,1,0,0:0:0:0:
51,192,165206,128,0,165248:0:0:0:0:
358,192,165289,128,0,165331:0:0:0:0:
358,192,165373,128,0,165414:0:0:0:0:
256,192,165456,1,0,0:0:0:0:
460,192,165456,1,0,0:0:0:0:
153,192,165456,1,0,0:0:0:0:
256,192,168123,128,0,169456:0:0:0:0:
460,192,168123,128,0,168456:0:0:0:0:
153,192,168456,128,0,168623:0:0:0:0:
358,192,168623,128,0,168873:0:0:0:0:
358,192,168956,128,0,168998:0:0:0:0:
358,192,169039,128,0,169081:0:0:0:0:
358,192,169123,128,0,169289:0:0:0:0:
51,192,169289,128,0,169456:0:0:0:0:
153,192,169456,128,0,170123:0:0:0:0:
358,192,169456,128,0,169560:0:0:0:0:
51,192,169623,128,0,169789:0:0:0:0:
256,192,169789,128,0,169831:0:0:0:0:
460,192,169956,128,0,170206:0:0:0:0:
358,192,170123,128,0,170789:0:0:0:0:
460,192,170289,128,0,170539:0:0:0:0:
256,192,170623,128,0,170664:0:0:0:0:
256,192,170706,128,0,170748:0:0:0:0:
460,192,170789,128,0,172123:0:0:0:0:
51,192,170789,128,0,171123:0:0:0:0:
256,192,171123,128,0,171289:0:0:0:0:
153,192,171289,128,0,171539:0:0:0:0:
153,192,171623,128,0,171664:0:0:0:0:
153,192,171706,128,0,171748:0:0:0:0:
153,192,171789,128,0,171956:0:0:0:0:
256,192,171977,128,0,172123:0:0:0:0:
358,192,172123,128,0,172789:0:0:0:0:
153,192,172123,128,0,172289:0:0:0:0:
460,192,172289,128,0,172331:0:0:0:0:
51,192,172456,128,0,172560:0:0:0:0:
256,192,172623,128,0,172789:0:0:0:0:
51,192,172789,128,0,173456:0:0:0:0:
153,192,172789,128,0,173039:0:0:0:0:
256,192,173039,128,0,173289:0:0:0:0:
460,192,173289,128,0,173456:0:0:0:0:
153,192,173456,128,0,174789:0:0:0:0:
358,192,173456,128,0,173789:0:0:0:0:
51,192,173789,128,0,173956:0:0:0:0:
256,192,173956,128,0,174206:0:0:0:0:
256,192,174289,128,0,174331:0:0:0:0:
256,192,174373,128,0,174414:0:0:0:0:
256,192,174456,128,0,174623:0:0:0:0:
460,192,174644,128,0,174789:0:0:0:0:
51,192,174789,128,0,175456:0:0:0:0:
358,192,174789,128,0,174894:0:0:0:0:
153,192,174956,128,0,175123:0:0:0:0:
256,192,175123,128,0,175164:0:0:0:0:
358,192,175289,128,0,175539:0:0:0:0:
256,192,175456,128,0,176123:0:0:0:0:
358,192,175623,128,0,175873:0:0:0:0:
460,192,175956,128,0,175998:0:0:0:0:
460,192,176039,128,0,176081:0:0:0:0:
358,192,176123,128,0,176789:0:0:0:0:
51,192,176123,128,0,176456:0:0:0:0:
256,192,176456,128,0,176623:0:0:0:0:
153,192,176623,128,0,176873:0:0:0:0:
460,192,176789,128,0,177456:0:0:0:0:
153,192,176956,128,0,176998:0:0:0:0:
153,192,177039,128,0,177081:0:0:0:0:
153,192,177123,128,0,177289:0:0:0:0:
358,192,177310,128,0,177456:0:0:0:0:
51,192,177456,128,0,178123:0:0:0:0:
256,192,177456,128,0,177623:0:0:0:0:
153,192,177623,128,0,177706:0:0:0:0:
256,192,177831,128,0,177956:0:0:0:0:
153,192,177956,128,0,177998:0:0:0:0:
460,192,178123,128,0,178789:0:0:0:0:
358,192,178123,1,0,0:0:0:0:
153,192,178206,1,0,0:0:0:0:
256,192,178289,1,0,0:0:0:0:
51,192,178373,1,0,0:0:0:0:
358,192,178456,1,0,0:0:0:0:
256,192,178539,1,0,0:0:0:0:
153,192,178623,1,0,0:0:0:0:
51,192,178706,1,0,0:0:0:0:
358,192,178789,1,0,0:0:0:0:
256,192,178789,1,0,0:0:0:0:
51,192,178831,1,0,0:0:0:0:
460,192,178873,1,0,0:0:0:0:
153,192,178914,1,0,0:0:0:0:
358,192,178956,1,0,0:0:0:0:
51,192,179039,1,0,0:0:0:0:
256,192,179123,1,0,0:0:0:0:
153,192,179289,1,0,0:0:0:0:
460,192,179373,1,0,0:0:0:0:
358,192,179456,1,0,0:0:0:0:
51,192,179456,1,0,0:0:0:0:
256,192,179456,1,0,0:0:0:0:
153,192,179623,1,0,0:0:0:0:
51,192,179706,1,0,0:0:0:0:
460,192,179956,1,0,0:0:0:0:
358,192,180123,1,0,0:0:0:0:
153,192,180123,1,0,0:0:0:0:
256,192,180164,1,0,0:0:0:0:
51,192,180206,1,0,0:0:0:0:
358,192,180456,1,0,0:0:0:0:
256,192,180623,1,0,0:0:0:0:
460,192,180789,1,0,0:0:0:0:
153,192,180789,1,0,0:0:0:0:
51,192,180789,1,0,0:0:0:0:
358,192,180831,1,0,0:0:0:0:
256,192,180873,1,0,0:0:0:0:
51,192,180914,1,0,0:0:0:0:
153,192,181039,1,0,0:0:0:0:
358,192,181039,1,0,0:0:0:0:
256,192,181123,1,0,0:0:0:0:
460,192,181164,1,0,0:0:0:0:
51,192,181206,1,0,0:0:0:0:
358,192,181248,1,0,0:0:0:0:
256,192,181289,1,0,0:0:0:0:
153,192,181289,1,0,0:0:0:0:
460,192,181456,1,0,0:0:0:0:
153,192,181456,1,0,0:0:0:0:
51,192,181498,1,0,0:0:0:0:
358,192,181539,1,0,0:0:0:0:
256,192,181581,1,0,0:0:0:0:
460,192,181623,1,0,0:0:0:0:
153,192,181706,1,0,0:0:0:0:
358,192,181789,1,0,0:0:0:0:
51,192,181956,1,0,0:0:0:0:
256,192,182039,1,0,0:0:0:0:
153,192,182123,1,0,0:0:0:0:
460,192,182123,1,0,0:0:0:0:
358,192,182123,1,0,0:0:0:0:
51,192,182289,1,0,0:0:0:0:
358,192,182373,1,0,0:0:0:0:
256,192,182623,1,0,0:0:0:0:
460,192,182789,1,0,0:0:0:0:
153,192,182789,1,0,0:0:0:0:
358,192,182831,1,0,0:0:0:0:
256,192,182873,1,0,0:0:0:0:
51,192,183123,1,0,0:0:0:0:
153,192,183123,1,0,0:0:0:0:
358,192,183289,1,0,0:0:0:0:
153,192,183331,1,0,0:0:0:0:
256,192,183373,1,0,0:0:0:0:
358,192,183414,1,0,0:0:0:0:
460,192,183456,1,0,0:0:0:0:
51,192,183456,1,0,0:0:0:0:
153,192,183456,1,0,0:0:0:0:
256,192,183498,1,0,0:0:0:0:
358,192,183539,1,0,0:0:0:0:
51,192,183581,1,0,0:0:0:0:
153,192,183706,1,0,0:0:0:0:
256,192,183706,1,0,0:0:0:0:
460,192,183789,1,0,0:0:0:0:
358,192,183831,1,0,0:0:0:0:
153,192,183873,1,0,0:0:0:0:
256,192,183914,1,0,0:0:0:0:
460,192,183956,1,0,0:0:0:0:
51,192,183956,1,0,0:0:0:0:
358,192,184123,1,0,0:0:0:0:
51,192,184123,1,0,0:0:0:0:
153,192,184164,1,0,0:0:0:0:
256,192,184206,1,0,0:0:0:0:
460,192,184248,1,0,0:0:0:0:
358,192,184289,1,0,0:0:0:0:
153,192,184373,1,0,0:0:0:0:
51,192,184456,1,0,0:0:0:0:
460,192,184623,1,0,0:0:0:0:
256,192,184706,1,0,0:0:0:0:
153,192,184789,1,0,0:0:0:0:
51,192,184789,1,0,0:0:0:0:
358,192,184789,1,0,0:0:0:0:
460,192,184956,1,0,0:0:0:0:
358,192,185039,1,0,0:0:0:0:
153,192,185289,1,0,0:0:0:0:
256,192,185456,1,0,0:0:0:0:
460,192,185456,1,0,0:0:0:0:
51,192,185498,1,0,0:0:0:0:
358,192,185539,1,0,0:0:0:0:
153,192,185789,1,0,0:0:0:0:
460,192,185956,1,0,0:0:0:0:
256,192,186123,1,0,0:0:0:0:
51,192,186123,1,0,0:0:0:0:
153,192,186123,1,0,0:0:0:0:
358,192,186164,1,0,0:0:0:0:
460,192,186206,1,0,0:0:0:0:
153,192,186248,1,0,0:0:0:0:
256,192,186373,1,0,0:0:0:0:
358,192,186373,1,0,0:0:0:0:
51,192,186456,1,0,0:0:0:0:
153,192,186498,1,0,0:0:0:0:
460,192,186539,1,0,0:0:0:0:
358,192,186581,1,0,0:0:0:0:
256,192,186623,1,0,0:0:0:0:
51,192,186623,1,0,0:0:0:0:
153,192,186789,1,0,0:0:0:0:
256,192,186789,1,0,0:0:0:0:
460,192,186831,1,0,0:0:0:0:
51,192,186873,1,0,0:0:0:0:
358,192,186914,1,0,0:0:0:0:
153,192,186956,1,0,0:0:0:0:
460,192,187039,1,0,0:0:0:0:
256,192,187123,1,0,0:0:0:0:
358,192,187289,1,0,0:0:0:0:
51,192,187373,1,0,0:0:0:0:
153,192,187456,1,0,0:0:0:0:
256,192,187456,1,0,0:0:0:0:
460,192,187456,1,0,0:0:0:0:
358,192,187623,1,0,0:0:0:0:
256,192,187706,1,0,0:0:0:0:
153,192,187789,1,0,0:0:0:0:
51,192,187789,1,0,0:0:0:0:
460,192,187956,1,0,0:0:0:0:
358,192,188123,1,0,0:0:0:0:
153,192,188123,1,0,0:0:0:0:
51,192,188123,1,0,0:0:0:0:
256,192,188164,1,0,0:0:0:0:
460,192,188206,1,0,0:0:0:0:
358,192,188289,1,0,0:0:0:0:
51,192,188289,1,0,0:0:0:0:
153,192,188456,1,0,0:0:0:0:
358,192,188456,1,0,0:0:0:0:
256,192,188623,1,0,0:0:0:0:
153,192,188623,1,0,0:0:0:0:
256,192,188789,1,0,0:0:0:0:
460,192,188789,1,0,0:0:0:0:
51,192,188789,1,0,0:0:0:0:
358,192,188873,1,0,0:0:0:0:
153,192,188873,1,0,0:0:0:0:
51,192,188956,1,0,0:0:0:0:
460,192,188956,1,0,0:0:0:0:
256,192,189039,1,0,0:0:0:0:
153,192,189039,1,0,0:0:0:0:
358,192,189123,1,0,0:0:0:0:
51,192,189123,1,0,0:0:0:0:
256,192,189206,1,0,0:0:0:0:
460,192,189206,1,0,0:0:0:0:
358,192,189289,1,0,0:0:0:0:
153,192,189289,1,0,0:0:0:0:
51,192,189373,1,0,0:0:0:0:
460,192,189373,1,0,0:0:0:0:
256,192,189456,1,0,0:0:0:0:
153,192,189456,1,0,0:0:0:0:
358,192,189456,1,0,0:0:0:0:
460,192,189498,1,0,0:0:0:0:
51,192,189539,1,0,0:0:0:0:
153,192,189581,1,0,0:0:0:0:
256,192,189623,1,0,0:0:0:0:
460,192,189706,1,0,0:0:0:0:
358,192,189706,1,0,0:0:0:0:
256,192,189789,1,0,0:0:0:0:
153,192,189789,1,0,0:0:0:0:
51,192,189789,1,0,0:0:0:0:
358,192,189956,1,0,0:0:0:0:
51,192,189998,1,0,0:0:0:0:
358,192,190039,1,0,0:0:0:0:
51,192,190081,1,0,0:0:0:0:
460,192,190123,1,0,0:0:0:0:
153,192,190123,1,0,0:0:0:0:
358,192,190123,1,0,0:0:0:0:
256,192,190289,1,0,0:0:0:0:
460,192,190289,1,0,0:0:0:0:
51,192,190373,1,0,0:0:0:0:
358,192,190373,1,0,0:0:0:0:
153,192,190456,1,0,0:0:0:0:
460,192,190456,1,0,0:0:0:0:
256,192,190456,1,0,0:0:0:0:
51,192,190623,1,0,0:0:0:0:
153,192,190623,1,0,0:0:0:0:
358,192,190789,1,0,0:0:0:0:
51,192,190789,1,0,0:0:0:0:
460,192,190789,1,0,0:0:0:0:
256,192,190831,1,0,0:0:0:0:
153,192,190873,1,0,0:0:0:0:
256,192,191039,1,0,0:0:0:0:
460,192,191039,1,0,0:0:0:0:
153,192,191123,1,0,0:0:0:0:
358,192,191123,1,0,0:0:0:0:
51,192,191123,1,0,0:0:0:0:
460,192,191289,1,0,0:0:0:0:
51,192,191331,1,0,0:0:0:0:
460,192,191373,1,0,0:0:0:0:
51,192,191414,1,0,0:0:0:0:
358,192,191456,1,0,0:0:0:0:
256,192,191456,1,0,0:0:0:0:
460,192,191456,1,0,0:0:0:0:
153,192,191498,1,0,0:0:0:0:
51,192,191539,1,0,0:0:0:0:
256,192,191581,1,0,0:0:0:0:
358,192,191623,1,0,0:0:0:0:
153,192,191623,1,0,0:0:0:0:
256,192,191789,1,0,0:0:0:0:
460,192,191789,1,0,0:0:0:0:
51,192,191789,1,0,0:0:0:0:
153,192,191831,1,0,0:0:0:0:
358,192,191873,1,0,0:0:0:0:
460,192,191914,1,0,0:0:0:0:
256,192,191956,1,0,0:0:0:0:
51,192,191998,1,0,0:0:0:0:
358,192,192039,1,0,0:0:0:0:
256,192,192081,1,0,0:0:0:0:
153,192,192123,1,0,0:0:0:0:
460,192,192123,1,0,0:0:0:0:
51,192,192123,1,0,0:0:0:0:
358,192,192164,1,0,0:0:0:0:
256,192,192206,1,0,0:0:0:0:
153,192,192248,1,0,0:0:0:0:
460,192,192289,1,0,0:0:0:0:
358,192,192373,1,0,0:0:0:0:
51,192,192373,1,0,0:0:0:0:
153,192,192456,1,0,0:0:0:0:
256,192,192456,1,0,0:0:0:0:
460,192,192456,1,0,0:0:0:0:
358,192,192623,1,0,0:0:0:0:
153,192,192664,1,0,0:0:0:0:
358,192,192706,1,0,0:0:0:0:
153,192,192748,1,0,0:0:0:0:
460,192,192789,1,0,0:0:0:0:
51,192,192789,1,0,0:0:0:0:
358,192,192789,1,0,0:0:0:0:
256,192,192956,1,0,0:0:0:0:
460,192,192956,1,0,0:0:0:0:
358,192,193039,1,0,0:0:0:0:
153,192,193039,1,0,0:0:0:0:
256,192,193123,1,0,0:0:0:0:
51,192,193123,1,0,0:0:0:0:
460,192,193123,1,0,0:0:0:0:
153,192,193289,1,0,0:0:0:0:
51,192,193289,1,0,0:0:0:0:
153,192,193456,1,0,0:0:0:0:
358,192,193456,1,0,0:0:0:0:
460,192,193456,1,0,0:0:0:0:
256,192,193498,1,0,0:0:0:0:
51,192,193539,1,0,0:0:0:0:
460,192,193623,1,0,0:0:0:0:
358,192,193623,1,0,0:0:0:0:
256,192,193706,1,0,0:0:0:0:
153,192,193706,1,0,0:0:0:0:
51,192,193789,1,0,0:0:0:0:
358,192,193789,1,0,0:0:0:0:
460,192,193789,1,0,0:0:0:0:
153,192,193956,1,0,0:0:0:0:
51,192,193956,1,0,0:0:0:0:
256,192,194039,1,0,0:0:0:0:
358,192,194039,1,0,0:0:0:0:
153,192,194123,1,0,0:0:0:0:
51,192,194123,1,0,0:0:0:0:
256,192,194164,1,0,0:0:0:0:
460,192,194206,1,0,0:0:0:0:
358,192,194206,1,0,0:0:0:0:
51,192,194248,1,0,0:0:0:0:
153,192,194289,1,0,0:0:0:0:
256,192,194289,1,0,0:0:0:0:
460,192,194373,1,0,0:0:0:0:
51,192,194373,1,0,0:0:0:0:
153,192,194456,1,0,0:0:0:0:
358,192,194456,1,0,0:0:0:0:
256,192,194498,1,0,0:0:0:0:
460,192,194539,1,0,0:0:0:0:
51,192,194539,1,0,0:0:0:0:
358,192,194581,1,0,0:0:0:0:
256,192,194623,1,0,0:0:0:0:
153,192,194623,1,0,0:0:0:0:
460,192,194706,1,0,0:0:0:0:
51,192,194706,1,0,0:0:0:0:
358,192,194789,1,0,0:0:0:0:
256,192,194789,1,0,0:0:0:0:
153,192,194789,1,0,0:0:0:0:
460,192,194831,1,0,0:0:0:0:
51,192,194873,1,0,0:0:0:0:
358,192,194914,1,0,0:0:0:0:
256,192,194956,1,0,0:0:0:0:
153,192,194956,1,0,0:0:0:0:
460,192,195123,1,0,0:0:0:0:
153,192,195123,1,0,0:0:0:0:
51,192,195289,1,0,0:0:0:0:
460,192,195289,1,0,0:0:0:0:
256,192,195373,1,0,0:0:0:0:
358,192,195456,1,0,0:0:0:0:
51,192,195456,1,0,0:0:0:0:
153,192,195623,1,0,0:0:0:0:
358,192,195623,1,0,0:0:0:0:
256,192,195706,1,0,0:0:0:0:
153,192,195789,1,0,0:0:0:0:
460,192,195789,1,0,0:0:0:0:
358,192,195956,1,0,0:0:0:0:
51,192,195956,1,0,0:0:0:0:
460,192,195998,1,0,0:0:0:0:
51,192,196039,1,0,0:0:0:0:
460,192,196081,1,0,0:0:0:0:
256,192,196123,1,0,0:0:0:0:
153,192,196123,1,0,0:0:0:0:
358,192,196164,1,0,0:0:0:0:
51,192,196206,1,0,0:0:0:0:
460,192,196289,1,0,0:0:0:0:
256,192,196289,1,0,0:0:0:0:
460,192,196456,1,0,0:0:0:0:
153,192,196456,1,0,0:0:0:0:
153,192,196623,1,0,0:0:0:0:
51,192,196623,1,0,0:0:0:0:
358,192,196789,1,0,0:0:0:0:
51,192,196789,1,0,0:0:0:0:
256,192,196831,1,0,0:0:0:0:
153,192,196873,1,0,0:0:0:0:
460,192,196914,1,0,0:0:0:0:
358,192,196956,1,0,0:0:0:0:
256,192,196956,1,0,0:0:0:0:
256,192,197123,128,0,197581:0:0:0:0:
460,192,197123,1,0,0:0:0:0:
51,192,197164,1,0,0:0:0:0:
358,192,197206,1,0,0:0:0:0:
153,192,197248,1,0,0:0:0:0:
460,192,197289,1,0,0:0:0:0:
51,192,197289,1,0,0:0:0:0:
358,192,197373,1,0,0:0:0:0:
153,192,197373,1,0,0:0:0:0:
51,192,197456,1,0,0:0:0:0:
460,192,197498,1,0,0:0:0:0:
358,192,197539,1,0,0:0:0:0:
153,192,197581,1,0,0:0:0:0:
256,192,197623,128,0,197664:0:0:0:0:
460,192,197623,1,0,0:0:0:0:
256,192,197706,128,0,197748:0:0:0:0:
153,192,197706,1,0,0:0:0:0:
256,192,197789,128,0,197914:0:0:0:0:
460,192,197789,1,0,0:0:0:0:
51,192,197873,1,0,0:0:0:0:
153,192,197873,1,0,0:0:0:0:
358,192,197956,128,0,197998:0:0:0:0:
460,192,197956,1,0,0:0:0:0:
358,192,198039,128,0,198081:0:0:0:0:
51,192,198039,1,0,0:0:0:0:
153,192,198123,128,0,198164:0:0:0:0:
256,192,198123,1,0,0:0:0:0:
153,192,198206,128,0,198248:0:0:0:0:
358,192,198206,1,0,0:0:0:0:
460,192,198289,128,0,198331:0:0:0:0:
51,192,198289,1,0,0:0:0:0:
460,192,198373,128,0,198414:0:0:0:0:
256,192,198373,1,0,0:0:0:0:
51,192,198456,128,0,198498:0:0:0:0:
153,192,198456,1,0,0:0:0:0:
51,192,198539,128,0,198581:0:0:0:0:
358,192,198539,1,0,0:0:0:0:
256,192,198623,128,0,198664:0:0:0:0:
460,192,198623,1,0,0:0:0:0:
256,192,198706,128,0,198748:0:0:0:0:
153,192,198706,1,0,0:0:0:0:
358,192,198789,1,0,0:0:0:0:
460,192,198789,1,0,0:0:0:0:
51,192,198789,1,0,0:0:0:0:
153,192,198956,128,0,199039:0:0:0:0:
51,192,198956,128,0,199039:0:0:0:0:
256,192,199456,1,0,0:0:0:0:
460,192,199456,1,0,0:0:0:0:
358,192,199623,1,0,0:0:0:0:
153,192,199623,1,0,0:0:0:0:
256,192,199678,1,0,0:0:0:0:
51,192,199678,1,0,0:0:0:0:
460,192,199734,1,0,0:0:0:0:
358,192,199734,1,0,0:0:0:0:
153,192,199789,1,0,0:0:0:0:
51,192,199789,1,0,0:0:0:0:
256,192,199789,1,0,0:0:0:0:
358,192,200123,128,0,200456:0:0:0:0:
256,192,200456,1,0,0:0:0:0:
460,192,200456,1,0,0:0:0:0:
51,192,200456,1,0,0:0:0:0:
153,192,200623,1,0,0:0:0:0:
51,192,200706,1,0,0:0:0:0:
358,192,200789,1,0,0:0:0:0:
153,192,200789,1,0,0:0:0:0:
460,192,200789,1,0,0:0:0:0:
256,192,200873,1,0,0:0:0:0:
51,192,200956,1,0,0:0:0:0:
358,192,201039,1,0,0:0:0:0:
153,192,201039,1,0,0:0:0:0:
51,192,201039,1,0,0:0:0:0:
460,192,201123,1,0,0:0:0:0:
51,192,201123,1,0,0:0:0:0:
256,192,201289,1,0,0:0:0:0:
358,192,201289,1,0,0:0:0:0:
460,192,201289,1,0,0:0:0:0:
153,192,201373,1,0,0:0:0:0:
358,192,201456,1,0,0:0:0:0:
256,192,201456,1,0,0:0:0:0:
51,192,201456,1,0,0:0:0:0:
153,192,201539,1,0,0:0:0:0:
460,192,201539,1,0,0:0:0:0:
256,192,201623,1,0,0:0:0:0:
51,192,201623,1,0,0:0:0:0:
358,192,201706,1,0,0:0:0:0:
153,192,201706,1,0,0:0:0:0:
51,192,201789,1,0,0:0:0:0:
256,192,201789,1,0,0:0:0:0:
460,192,201789,1,0,0:0:0:0:
358,192,201873,1,0,0:0:0:0:
153,192,201873,1,0,0:0:0:0:
51,192,201956,1,0,0:0:0:0:
460,192,201956,1,0,0:0:0:0:
256,192,202039,1,0,0:0:0:0:
358,192,202039,1,0,0:0:0:0:
51,192,202123,1,0,0:0:0:0:
460,192,202123,1,0,0:0:0:0:
153,192,202123,1,0,0:0:0:0:
153,192,202289,1,0,0:0:0:0:
256,192,202373,1,0,0:0:0:0:
460,192,202373,1,0,0:0:0:0:
51,192,202373,1,0,0:0:0:0:
153,192,202456,1,0,0:0:0:0:
358,192,202456,1,0,0:0:0:0:
256,192,202498,1,0,0:0:0:0:
51,192,202539,1,0,0:0:0:0:
153,192,202623,1,0,0:0:0:0:
358,192,202623,1,0,0:0:0:0:
460,192,202623,1,0,0:0:0:0:
358,192,202706,1,0,0:0:0:0:
256,192,202789,1,0,0:0:0:0:
460,192,202789,1,0,0:0:0:0:
51,192,202789,1,0,0:0:0:0:
153,192,202831,1,0,0:0:0:0:
358,192,202873,1,0,0:0:0:0:
256,192,202914,1,0,0:0:0:0:
51,192,202956,1,0,0:0:0:0:
153,192,203039,1,0,0:0:0:0:
256,192,203123,1,0,0:0:0:0:
460,192,203123,1,0,0:0:0:0:
51,192,203123,1,0,0:0:0:0:
358,192,203289,1,0,0:0:0:0:
153,192,203373,1,0,0:0:0:0:
256,192,203456,1,0,0:0:0:0:
358,192,203456,1,0,0:0:0:0:
460,192,203456,1,0,0:0:0:0:
51,192,203539,1,0,0:0:0:0:
153,192,203623,1,0,0:0:0:0:
153,192,203706,1,0,0:0:0:0:
358,192,203706,1,0,0:0:0:0:
460,192,203706,1,0,0:0:0:0:
153,192,203789,1,0,0:0:0:0:
256,192,203789,1,0,0:0:0:0:
256,192,203956,1,0,0:0:0:0:
358,192,203956,1,0,0:0:0:0:
51,192,203956,1,0,0:0:0:0:
460,192,204039,1,0,0:0:0:0:
153,192,204123,1,0,0:0:0:0:
256,192,204123,1,0,0:0:0:0:
51,192,204123,1,0,0:0:0:0:
358,192,204206,128,0,204248:0:0:0:0:
460,192,204206,128,0,204248:0:0:0:0:
358,192,204289,128,0,204373:0:0:0:0:
460,192,204289,128,0,204373:0:0:0:0:
358,192,204456,1,0,0:0:0:0:
460,192,204456,1,0,0:0:0:0:
51,192,204456,1,0,0:0:0:0:
256,192,204539,128,0,204581:0:0:0:0:
153,192,204539,128,0,204581:0:0:0:0:
153,192,204623,128,0,204706:0:0:0:0:
256,192,204623,128,0,204706:0:0:0:0:
256,192,204789,1,0,0:0:0:0:
153,192,204789,1,0,0:0:0:0:
51,192,204789,1,0,0:0:0:0:
358,192,204873,1,0,0:0:0:0:
256,192,204956,1,0,0:0:0:0:
153,192,205039,1,0,0:0:0:0:
460,192,205039,1,0,0:0:0:0:
51,192,205039,1,0,0:0:0:0:
358,192,205123,1,0,0:0:0:0:
256,192,205123,1,0,0:0:0:0:
51,192,205206,1,0,0:0:0:0:
153,192,205289,1,0,0:0:0:0:
460,192,205289,1,0,0:0:0:0:
256,192,205331,1,0,0:0:0:0:
358,192,205373,1,0,0:0:0:0:
153,192,205414,1,0,0:0:0:0:
460,192,205456,1,0,0:0:0:0:
51,192,205456,1,0,0:0:0:0:
256,192,205456,1,0,0:0:0:0:
358,192,205498,1,0,0:0:0:0:
153,192,205539,1,0,0:0:0:0:
51,192,205581,1,0,0:0:0:0:
460,192,205623,1,0,0:0:0:0:
256,192,205706,1,0,0:0:0:0:
153,192,205789,1,0,0:0:0:0:
460,192,205789,1,0,0:0:0:0:
51,192,205789,1,0,0:0:0:0:
256,192,205956,1,0,0:0:0:0:
51,192,206039,1,0,0:0:0:0:
358,192,206123,1,0,0:0:0:0:
153,192,206123,1,0,0:0:0:0:
460,192,206123,1,0,0:0:0:0:
256,192,206206,1,0,0:0:0:0:
358,192,206289,1,0,0:0:0:0:
358,192,206373,1,0,0:0:0:0:
153,192,206373,1,0,0:0:0:0:
51,192,206373,1,0,0:0:0:0:
358,192,206456,1,0,0:0:0:0:
460,192,206456,1,0,0:0:0:0:
256,192,206623,1,0,0:0:0:0:
153,192,206623,1,0,0:0:0:0:
460,192,206623,1,0,0:0:0:0:
51,192,206706,1,0,0:0:0:0:
256,192,206789,1,0,0:0:0:0:
358,192,206789,1,0,0:0:0:0:
153,192,206789,1,0,0:0:0:0:
460,192,206873,1,0,0:0:0:0:
51,192,206873,1,0,0:0:0:0:
256,192,206956,1,0,0:0:0:0:
358,192,206956,1,0,0:0:0:0:
460,192,207039,1,0,0:0:0:0:
153,192,207039,1,0,0:0:0:0:
358,192,207123,1,0,0:0:0:0:
256,192,207123,1,0,0:0:0:0:
51,192,207123,1,0,0:0:0:0:
460,192,207206,1,0,0:0:0:0:
153,192,207206,1,0,0:0:0:0:
358,192,207289,1,0,0:0:0:0:
51,192,207289,1,0,0:0:0:0:
256,192,207373,1,0,0:0:0:0:
460,192,207373,1,0,0:0:0:0:
153,192,207456,1,0,0:0:0:0:
358,192,207456,1,0,0:0:0:0:
51,192,207456,1,0,0:0:0:0:
256,192,207623,1,0,0:0:0:0:
153,192,207706,1,0,0:0:0:0:
358,192,207706,1,0,0:0:0:0:
460,192,207706,1,0,0:0:0:0:
256,192,207789,1,0,0:0:0:0:
51,192,207789,1,0,0:0:0:0:
153,192,207831,1,0,0:0:0:0:
358,192,207873,1,0,0:0:0:0:
256,192,207956,1,0,0:0:0:0:
460,192,207956,1,0,0:0:0:0:
51,192,207956,1,0,0:0:0:0:
460,192,208039,1,0,0:0:0:0:
153,192,208123,1,0,0:0:0:0:
256,192,208123,1,0,0:0:0:0:
51,192,208123,1,0,0:0:0:0:
358,192,208164,1,0,0:0:0:0:
460,192,208206,1,0,0:0:0:0:
153,192,208248,1,0,0:0:0:0:
256,192,208289,1,0,0:0:0:0:
358,192,208373,1,0,0:0:0:0:
153,192,208456,1,0,0:0:0:0:
460,192,208456,1,0,0:0:0:0:
51,192,208456,1,0,0:0:0:0:
256,192,208623,1,0,0:0:0:0:
51,192,208706,1,0,0:0:0:0:
358,192,208789,1,0,0:0:0:0:
153,192,208789,1,0,0:0:0:0:
460,192,208789,1,0,0:0:0:0:
256,192,208873,1,0,0:0:0:0:
460,192,208956,1,0,0:0:0:0:
153,192,209039,1,0,0:0:0:0:
460,192,209039,1,0,0:0:0:0:
51,192,209039,1,0,0:0:0:0:
256,192,209123,1,0,0:0:0:0:
460,192,209123,1,0,0:0:0:0:
358,192,209289,1,0,0:0:0:0:
256,192,209289,1,0,0:0:0:0:
51,192,209289,1,0,0:0:0:0:
153,192,209373,1,0,0:0:0:0:
460,192,209373,1,0,0:0:0:0:
358,192,209456,1,0,0:0:0:0:
256,192,209456,1,0,0:0:0:0:
51,192,209456,1,0,0:0:0:0:
153,192,209539,128,0,209581:0:0:0:0:
460,192,209539,128,0,209581:0:0:0:0:
153,192,209623,128,0,209706:0:0:0:0:
460,192,209623,128,0,209706:0:0:0:0:
358,192,209706,1,0,0:0:0:0:
256,192,209706,1,0,0:0:0:0:
153,192,209789,1,0,0:0:0:0:
460,192,209789,1,0,0:0:0:0:
51,192,209789,1,0,0:0:0:0:
358,192,209873,128,0,209914:0:0:0:0:
256,192,209873,128,0,209914:0:0:0:0:
153,192,209956,1,0,0:0:0:0:
358,192,209998,1,0,0:0:0:0:
153,192,210039,1,0,0:0:0:0:
358,192,210081,1,0,0:0:0:0:
256,192,210123,1,0,0:0:0:0:
51,192,210123,1,0,0:0:0:0:
153,192,210206,1,0,0:0:0:0:
358,192,210206,1,0,0:0:0:0:
460,192,210289,1,0,0:0:0:0:
256,192,210289,1,0,0:0:0:0:
358,192,210373,1,0,0:0:0:0:
51,192,210373,1,0,0:0:0:0:
153,192,210456,1,0,0:0:0:0:
460,192,210456,1,0,0:0:0:0:
256,192,210539,1,0,0:0:0:0:
51,192,210539,1,0,0:0:0:0:
153,192,210623,1,0,0:0:0:0:
358,192,210623,1,0,0:0:0:0:
460,192,210706,1,0,0:0:0:0:
256,192,210706,1,0,0:0:0:0:
358,192,210789,1,0,0:0:0:0:
51,192,210789,128,0,211123:0:0:0:0:
153,192,210831,1,0,0:0:0:0:
256,192,210873,1,0,0:0:0:0:
460,192,210914,1,0,0:0:0:0:
153,192,210956,1,0,0:0:0:0:
358,192,210998,1,0,0:0:0:0:
460,192,211081,1,0,0:0:0:0:
153,192,211123,1,0,0:0:0:0:
358,192,211123,1,0,0:0:0:0:
256,192,211123,1,0,0:0:0:0:
460,192,211289,1,0,0:0:0:0:
51,192,211373,1,0,0:0:0:0:
256,192,211456,1,0,0:0:0:0:
153,192,211456,1,0,0:0:0:0:
358,192,211456,1,0,0:0:0:0:
460,192,211456,1,0,0:0:0:0:
51,192,211539,1,0,0:0:0:0:
256,192,211623,1,0,0:0:0:0:
256,192,211706,1,0,0:0:0:0:
153,192,211706,1,0,0:0:0:0:
358,192,211706,1,0,0:0:0:0:
256,192,211789,1,0,0:0:0:0:
51,192,211873,1,0,0:0:0:0:
153,192,211956,1,0,0:0:0:0:
358,192,211956,1,0,0:0:0:0:
460,192,211956,1,0,0:0:0:0:
256,192,212039,1,0,0:0:0:0:
153,192,212123,1,0,0:0:0:0:
358,192,212123,1,0,0:0:0:0:
51,192,212123,1,0,0:0:0:0:
256,192,212206,1,0,0:0:0:0:
460,192,212206,1,0,0:0:0:0:
153,192,212289,1,0,0:0:0:0:
51,192,212289,1,0,0:0:0:0:
460,192,212373,1,0,0:0:0:0:
358,192,212373,1,0,0:0:0:0:
256,192,212456,1,0,0:0:0:0:
153,192,212456,1,0,0:0:0:0:
51,192,212456,1,0,0:0:0:0:
460,192,212539,1,0,0:0:0:0:
358,192,212539,1,0,0:0:0:0:
256,192,212623,1,0,0:0:0:0:
51,192,212623,1,0,0:0:0:0:
153,192,212706,1,0,0:0:0:0:
358,192,212706,1,0,0:0:0:0:
460,192,212789,1,0,0:0:0:0:
256,192,212789,1,0,0:0:0:0:
153,192,212789,1,0,0:0:0:0:
51,192,212789,1,0,0:0:0:0:
358,192,212873,1,0,0:0:0:0:
153,192,212956,1,0,0:0:0:0:
358,192,213039,1,0,0:0:0:0:
256,192,213039,1,0,0:0:0:0:
51,192,213039,1,0,0:0:0:0:
460,192,213123,1,0,0:0:0:0:
153,192,213164,1,0,0:0:0:0:
51,192,213206,1,0,0:0:0:0:
256,192,213289,1,0,0:0:0:0:
358,192,213289,1,0,0:0:0:0:
460,192,213289,1,0,0:0:0:0:
256,192,213373,1,0,0:0:0:0:
153,192,213456,1,0,0:0:0:0:
358,192,213456,1,0,0:0:0:0:
51,192,213456,1,0,0:0:0:0:
460,192,213498,1,0,0:0:0:0:
256,192,213539,1,0,0:0:0:0:
51,192,213581,1,0,0:0:0:0:
153,192,213623,1,0,0:0:0:0:
358,192,213706,1,0,0:0:0:0:
256,192,213789,1,0,0:0:0:0:
153,192,213789,1,0,0:0:0:0:
460,192,213789,1,0,0:0:0:0:
51,192,213873,1,0,0:0:0:0:
358,192,213956,1,0,0:0:0:0:
256,192,214039,1,0,0:0:0:0:
153,192,214123,1,0,0:0:0:0:
358,192,214123,1,0,0:0:0:0:
460,192,214123,1,0,0:0:0:0:
51,192,214123,1,0,0:0:0:0:
256,192,214206,1,0,0:0:0:0:
51,192,214289,1,0,0:0:0:0:
153,192,214373,1,0,0:0:0:0:
358,192,214373,1,0,0:0:0:0:
51,192,214373,1,0,0:0:0:0:
51,192,214456,1,0,0:0:0:0:
256,192,214539,1,0,0:0:0:0:
358,192,214623,1,0,0:0:0:0:
153,192,214623,1,0,0:0:0:0:
460,192,214623,1,0,0:0:0:0:
51,192,214706,1,0,0:0:0:0:
358,192,214789,1,0,0:0:0:0:
256,192,214789,1,0,0:0:0:0:
460,192,214789,1,0,0:0:0:0:
153,192,214873,128,0,214914:0:0:0:0:
51,192,214873,128,0,214914:0:0:0:0:
153,192,214956,128,0,215039:0:0:0:0:
51,192,214956,128,0,215039:0:0:0:0:
256,192,215123,1,0,0:0:0:0:
153,192,215123,1,0,0:0:0:0:
51,192,215123,1,0,0:0:0:0:
358,192,215206,128,0,215248:0:0:0:0:
460,192,215206,128,0,215248:0:0:0:0:
358,192,215289,128,0,215373:0:0:0:0:
460,192,215289,128,0,215373:0:0:0:0:
256,192,215456,1,0,0:0:0:0:
358,192,215456,1,0,0:0:0:0:
460,192,215456,1,0,0:0:0:0:
51,192,215456,1,0,0:0:0:0:
153,192,215539,1,0,0:0:0:0:
51,192,215623,1,0,0:0:0:0:
358,192,215664,1,0,0:0:0:0:
256,192,215706,1,0,0:0:0:0:
460,192,215706,1,0,0:0:0:0:
51,192,215706,1,0,0:0:0:0:
358,192,215748,1,0,0:0:0:0:
153,192,215789,1,0,0:0:0:0:
256,192,215956,1,0,0:0:0:0:
153,192,215956,1,0,0:0:0:0:
51,192,215956,1,0,0:0:0:0:
358,192,216039,1,0,0:0:0:0:
460,192,216039,1,0,0:0:0:0:
51,192,216039,1,0,0:0:0:0:
153,192,216123,1,0,0:0:0:0:
256,192,216123,1,0,0:0:0:0:
358,192,216123,1,0,0:0:0:0:
460,192,216164,1,0,0:0:0:0:
51,192,216206,1,0,0:0:0:0:
256,192,216248,1,0,0:0:0:0:
153,192,216289,1,0,0:0:0:0:
358,192,216373,1,0,0:0:0:0:
153,192,216456,1,0,0:0:0:0:
460,192,216456,1,0,0:0:0:0:
51,192,216456,1,0,0:0:0:0:
256,192,216623,1,0,0:0:0:0:
51,192,216706,1,0,0:0:0:0:
358,192,216789,1,0,0:0:0:0:
153,192,216789,1,0,0:0:0:0:
256,192,216789,1,0,0:0:0:0:
460,192,216789,1,0,0:0:0:0:
51,192,216873,1,0,0:0:0:0:
358,192,216956,1,0,0:0:0:0:
358,192,217039,1,0,0:0:0:0:
256,192,217039,1,0,0:0:0:0:
153,192,217039,1,0,0:0:0:0:
358,192,217123,1,0,0:0:0:0:
460,192,217206,1,0,0:0:0:0:
256,192,217289,1,0,0:0:0:0:
153,192,217289,1,0,0:0:0:0:
51,192,217289,1,0,0:0:0:0:
358,192,217373,1,0,0:0:0:0:
256,192,217456,1,0,0:0:0:0:
460,192,217456,1,0,0:0:0:0:
51,192,217456,1,0,0:0:0:0:
153,192,217539,1,0,0:0:0:0:
358,192,217539,1,0,0:0:0:0:
460,192,217623,1,0,0:0:0:0:
51,192,217623,1,0,0:0:0:0:
256,192,217706,1,0,0:0:0:0:
153,192,217706,1,0,0:0:0:0:
51,192,217789,1,0,0:0:0:0:
358,192,217789,1,0,0:0:0:0:
460,192,217789,1,0,0:0:0:0:
256,192,217873,1,0,0:0:0:0:
153,192,217873,1,0,0:0:0:0:
460,192,217956,1,0,0:0:0:0:
358,192,217956,1,0,0:0:0:0:
256,192,218039,1,0,0:0:0:0:
51,192,218039,1,0,0:0:0:0:
358,192,218123,1,0,0:0:0:0:
153,192,218123,1,0,0:0:0:0:
460,192,218123,1,0,0:0:0:0:
51,192,218123,1,0,0:0:0:0:
256,192,218206,1,0,0:0:0:0:
51,192,218289,1,0,0:0:0:0:
153,192,218373,1,0,0:0:0:0:
358,192,218373,1,0,0:0:0:0:
460,192,218373,1,0,0:0:0:0:
256,192,218456,1,0,0:0:0:0:
51,192,218498,1,0,0:0:0:0:
460,192,218539,1,0,0:0:0:0:
358,192,218623,1,0,0:0:0:0:
256,192,218623,1,0,0:0:0:0:
153,192,218623,1,0,0:0:0:0:
358,192,218706,1,0,0:0:0:0:
256,192,218789,1,0,0:0:0:0:
460,192,218789,1,0,0:0:0:0:
51,192,218789,1,0,0:0:0:0:
153,192,218831,1,0,0:0:0:0:
358,192,218873,1,0,0:0:0:0:
51,192,218914,1,0,0:0:0:0:
256,192,218956,1,0,0:0:0:0:
460,192,218956,1,0,0:0:0:0:
256,192,219039,1,0,0:0:0:0:
460,192,219039,1,0,0:0:0:0:
153,192,219123,1,0,0:0:0:0:
358,192,219123,1,0,0:0:0:0:
51,192,219123,1,0,0:0:0:0:
256,192,219289,1,0,0:0:0:0:
358,192,219289,1,0,0:0:0:0:
358,192,219373,1,0,0:0:0:0:
256,192,219373,1,0,0:0:0:0:
153,192,219456,1,0,0:0:0:0:
460,192,219456,1,0,0:0:0:0:
51,192,219456,1,0,0:0:0:0:
256,192,219539,1,0,0:0:0:0:
358,192,219623,1,0,0:0:0:0:
51,192,219623,1,0,0:0:0:0:
358,192,219706,1,0,0:0:0:0:
51,192,219706,1,0,0:0:0:0:
153,192,219789,1,0,0:0:0:0:
256,192,219789,1,0,0:0:0:0:
460,192,219789,1,0,0:0:0:0:
358,192,219873,1,0,0:0:0:0:
153,192,219956,1,0,0:0:0:0:
51,192,219956,1,0,0:0:0:0:
153,192,220039,1,0,0:0:0:0:
51,192,220039,1,0,0:0:0:0:
256,192,220123,1,0,0:0:0:0:
460,192,220123,1,0,0:0:0:0:
358,192,220206,1,0,0:0:0:0:
153,192,220206,1,0,0:0:0:0:
460,192,220289,1,0,0:0:0:0:
51,192,220289,1,0,0:0:0:0:
358,192,220373,1,0,0:0:0:0:
256,192,220373,1,0,0:0:0:0:
153,192,220456,1,0,0:0:0:0:
51,192,220456,1,0,0:0:0:0:
256,192,220539,1,0,0:0:0:0:
460,192,220539,1,0,0:0:0:0:
358,192,220623,1,0,0:0:0:0:
153,192,220623,1,0,0:0:0:0:
460,192,220706,1,0,0:0:0:0:
51,192,220706,1,0,0:0:0:0:
256,192,220789,128,0,221123:0:0:0:0:
358,192,220789,128,0,220873:0:0:0:0:
153,192,220873,128,0,221123:0:0:0:0:
358,192,221123,128,0,221206:0:0:0:0:
460,192,221123,128,0,221456:0:0:0:0:
51,192,221206,128,0,221456:0:0:0:0:
358,192,221456,128,0,221789:0:0:0:0:
460,192,221789,1,0,0:0:0:0:
256,192,221789,1,0,0:0:0:0:
51,192,221789,1,0,0:0:0:0:
358,192,221956,1,0,0:0:0:0:
256,192,222039,1,0,0:0:0:0:
51,192,222123,1,0,0:0:0:0:
460,192,222123,1,0,0:0:0:0:
153,192,222123,1,0,0:0:0:0:
358,192,222206,1,0,0:0:0:0:
51,192,222289,1,0,0:0:0:0:
460,192,222373,1,0,0:0:0:0:
256,192,222373,1,0,0:0:0:0:
153,192,222373,1,0,0:0:0:0:
358,192,222456,1,0,0:0:0:0:
51,192,222456,1,0,0:0:0:0:
256,192,222539,1,0,0:0:0:0:
153,192,222623,1,0,0:0:0:0:
358,192,222623,1,0,0:0:0:0:
460,192,222623,1,0,0:0:0:0:
51,192,222706,1,0,0:0:0:0:
460,192,222789,1,0,0:0:0:0:
256,192,222789,1,0,0:0:0:0:
153,192,222789,1,0,0:0:0:0:
358,192,222873,1,0,0:0:0:0:
51,192,222873,1,0,0:0:0:0:
460,192,222956,1,0,0:0:0:0:
256,192,222956,1,0,0:0:0:0:
358,192,223039,1,0,0:0:0:0:
153,192,223039,1,0,0:0:0:0:
460,192,223123,1,0,0:0:0:0:
51,192,223123,1,0,0:0:0:0:
256,192,223123,1,0,0:0:0:0:
358,192,223206,1,0,0:0:0:0:
153,192,223206,1,0,0:0:0:0:
256,192,223289,1,0,0:0:0:0:
51,192,223289,1,0,0:0:0:0:
153,192,223373,1,0,0:0:0:0:
460,192,223373,1,0,0:0:0:0:
256,192,223456,1,0,0:0:0:0:
358,192,223456,1,0,0:0:0:0:
51,192,223456,1,0,0:0:0:0:
460,192,223539,1,0,0:0:0:0:
153,192,223623,1,0,0:0:0:0:
460,192,223706,1,0,0:0:0:0:
51,192,223706,1,0,0:0:0:0:
358,192,223706,1,0,0:0:0:0:
256,192,223789,1,0,0:0:0:0:
153,192,223789,1,0,0:0:0:0:
460,192,223831,1,0,0:0:0:0:
51,192,223873,1,0,0:0:0:0:
358,192,223914,1,0,0:0:0:0:
256,192,223956,1,0,0:0:0:0:
153,192,223956,1,0,0:0:0:0:
460,192,223956,1,0,0:0:0:0:
51,192,224039,1,0,0:0:0:0:
358,192,224123,1,0,0:0:0:0:
256,192,224123,1,0,0:0:0:0:
460,192,224123,1,0,0:0:0:0:
153,192,224164,1,0,0:0:0:0:
51,192,224206,1,0,0:0:0:0:
358,192,224248,1,0,0:0:0:0:
256,192,224289,1,0,0:0:0:0:
460,192,224373,1,0,0:0:0:0:
153,192,224456,1,0,0:0:0:0:
358,192,224456,1,0,0:0:0:0:
51,192,224456,1,0,0:0:0:0:
460,192,224623,1,0,0:0:0:0:
153,192,224706,1,0,0:0:0:0:
256,192,224789,1,0,0:0:0:0:
358,192,224789,1,0,0:0:0:0:
460,192,224789,1,0,0:0:0:0:
51,192,224873,1,0,0:0:0:0:
358,192,224956,1,0,0:0:0:0:
256,192,225039,1,0,0:0:0:0:
153,192,225039,1,0,0:0:0:0:
460,192,225039,1,0,0:0:0:0:
51,192,225123,1,0,0:0:0:0:
358,192,225123,1,0,0:0:0:0:
153,192,225206,1,0,0:0:0:0:
256,192,225289,1,0,0:0:0:0:
51,192,225289,1,0,0:0:0:0:
460,192,225289,1,0,0:0:0:0:
358,192,225373,1,0,0:0:0:0:
256,192,225456,1,0,0:0:0:0:
153,192,225456,1,0,0:0:0:0:
460,192,225456,1,0,0:0:0:0:
51,192,225539,128,0,225581:0:0:0:0:
358,192,225539,128,0,225581:0:0:0:0:
51,192,225623,128,0,225706:0:0:0:0:
358,192,225623,128,0,225706:0:0:0:0:
51,192,225789,1,0,0:0:0:0:
256,192,225789,1,0,0:0:0:0:
358,192,225789,1,0,0:0:0:0:
153,192,225873,128,0,225914:0:0:0:0:
460,192,225873,128,0,225914:0:0:0:0:
153,192,225956,128,0,226039:0:0:0:0:
460,192,225956,128,0,226039:0:0:0:0:
51,192,226123,1,0,0:0:0:0:
358,192,226123,1,0,0:0:0:0:
460,192,226123,1,0,0:0:0:0:
153,192,226206,1,0,0:0:0:0:
256,192,226289,1,0,0:0:0:0:
51,192,226373,1,0,0:0:0:0:
460,192,226373,1,0,0:0:0:0:
358,192,226373,1,0,0:0:0:0:
153,192,226456,1,0,0:0:0:0:
256,192,226456,1,0,0:0:0:0:
460,192,226539,1,0,0:0:0:0:
358,192,226623,1,0,0:0:0:0:
153,192,226623,1,0,0:0:0:0:
51,192,226664,1,0,0:0:0:0:
256,192,226706,1,0,0:0:0:0:
153,192,226748,1,0,0:0:0:0:
358,192,226789,1,0,0:0:0:0:
51,192,226789,1,0,0:0:0:0:
460,192,226789,1,0,0:0:0:0:
256,192,226831,1,0,0:0:0:0:
153,192,226873,1,0,0:0:0:0:
460,192,226914,1,0,0:0:0:0:
51,192,226956,1,0,0:0:0:0:
358,192,227039,1,0,0:0:0:0:
256,192,227123,1,0,0:0:0:0:
460,192,227123,1,0,0:0:0:0:
51,192,227123,1,0,0:0:0:0:
358,192,227289,1,0,0:0:0:0:
256,192,227373,1,0,0:0:0:0:
153,192,227456,1,0,0:0:0:0:
51,192,227456,1,0,0:0:0:0:
358,192,227456,1,0,0:0:0:0:
460,192,227539,1,0,0:0:0:0:
153,192,227623,1,0,0:0:0:0:
256,192,227706,1,0,0:0:0:0:
358,192,227706,1,0,0:0:0:0:
51,192,227706,1,0,0:0:0:0:
460,192,227789,1,0,0:0:0:0:
153,192,227789,1,0,0:0:0:0:
256,192,227873,1,0,0:0:0:0:
358,192,227956,1,0,0:0:0:0:
460,192,227956,1,0,0:0:0:0:
51,192,227956,1,0,0:0:0:0:
153,192,228039,1,0,0:0:0:0:
358,192,228123,1,0,0:0:0:0:
256,192,228123,1,0,0:0:0:0:
51,192,228123,1,0,0:0:0:0:
460,192,228206,1,0,0:0:0:0:
153,192,228206,1,0,0:0:0:0:
256,192,228289,1,0,0:0:0:0:
358,192,228289,1,0,0:0:0:0:
460,192,228373,1,0,0:0:0:0:
51,192,228373,1,0,0:0:0:0:
153,192,228456,1,0,0:0:0:0:
358,192,228456,1,0,0:0:0:0:
256,192,228456,1,0,0:0:0:0:
51,192,228539,1,0,0:0:0:0:
460,192,228539,1,0,0:0:0:0:
153,192,228623,1,0,0:0:0:0:
256,192,228623,1,0,0:0:0:0:
460,192,228706,1,0,0:0:0:0:
358,192,228706,1,0,0:0:0:0:
256,192,228789,1,0,0:0:0:0:
153,192,228789,1,0,0:0:0:0:
51,192,228789,1,0,0:0:0:0:
358,192,228873,1,0,0:0:0:0:
51,192,228956,1,0,0:0:0:0:
256,192,229039,1,0,0:0:0:0:
153,192,229039,1,0,0:0:0:0:
460,192,229039,1,0,0:0:0:0:
358,192,229123,1,0,0:0:0:0:
51,192,229123,1,0,0:0:0:0:
460,192,229164,1,0,0:0:0:0:
256,192,229206,1,0,0:0:0:0:
153,192,229248,1,0,0:0:0:0:
358,192,229289,1,0,0:0:0:0:
51,192,229289,1,0,0:0:0:0:
460,192,229289,1,0,0:0:0:0:
256,192,229373,1,0,0:0:0:0:
153,192,229456,1,0,0:0:0:0:
358,192,229456,1,0,0:0:0:0:
460,192,229456,1,0,0:0:0:0:
51,192,229498,1,0,0:0:0:0:
256,192,229539,1,0,0:0:0:0:
460,192,229581,1,0,0:0:0:0:
358,192,229623,1,0,0:0:0:0:
51,192,229706,1,0,0:0:0:0:
256,192,229789,1,0,0:0:0:0:
460,192,229789,1,0,0:0:0:0:
153,192,229789,1,0,0:0:0:0:
51,192,229956,1,0,0:0:0:0:
460,192,230039,1,0,0:0:0:0:
358,192,230123,1,0,0:0:0:0:
153,192,230123,1,0,0:0:0:0:
51,192,230123,1,0,0:0:0:0:
256,192,230206,1,0,0:0:0:0:
358,192,230289,1,0,0:0:0:0:
460,192,230373,1,0,0:0:0:0:
153,192,230373,1,0,0:0:0:0:
51,192,230373,1,0,0:0:0:0:
256,192,230456,1,0,0:0:0:0:
358,192,230456,1,0,0:0:0:0:
153,192,230539,1,0,0:0:0:0:
460,192,230623,1,0,0:0:0:0:
256,192,230623,1,0,0:0:0:0:
51,192,230706,1,0,0:0:0:0:
358,192,230706,1,0,0:0:0:0:
153,192,230789,1,0,0:0:0:0:
256,192,230789,1,0,0:0:0:0:
460,192,230789,1,0,0:0:0:0:
51,192,230873,128,0,230914:0:0:0:0:
358,192,230873,128,0,230914:0:0:0:0:
358,192,230956,128,0,231039:0:0:0:0:
51,192,230956,128,0,231039:0:0:0:0:
256,192,231039,1,0,0:0:0:0:
153,192,231039,1,0,0:0:0:0:
358,192,231123,1,0,0:0:0:0:
51,192,231123,1,0,0:0:0:0:
460,192,231123,1,0,0:0:0:0:
256,192,231206,128,0,231248:0:0:0:0:
153,192,231206,128,0,231248:0:0:0:0:
460,192,231289,1,0,0:0:0:0:
153,192,231331,1,0,0:0:0:0:
460,192,231373,1,0,0:0:0:0:
153,192,231414,1,0,0:0:0:0:
358,192,231456,128,0,231498:0:0:0:0:
51,192,231456,1,0,0:0:0:0:
460,192,231539,1,0,0:0:0:0:
256,192,231539,128,0,231581:0:0:0:0:
358,192,231623,1,0,0:0:0:0:
153,192,231623,128,0,231664:0:0:0:0:
256,192,231706,1,0,0:0:0:0:
51,192,231706,128,0,231748:0:0:0:0:
460,192,231789,1,0,0:0:0:0:
153,192,231789,128,0,231831:0:0:0:0:
358,192,231873,1,0,0:0:0:0:
51,192,231873,128,0,231914:0:0:0:0:
256,192,231956,1,0,0:0:0:0:
460,192,231956,128,0,231998:0:0:0:0:
153,192,232039,1,0,0:0:0:0:
358,192,232039,128,0,232081:0:0:0:0:
51,192,232123,1,0,0:0:0:0:
460,192,232164,1,0,0:0:0:0:
256,192,232206,1,0,0:0:0:0:
153,192,232248,1,0,0:0:0:0:
51,192,232289,1,0,0:0:0:0:
460,192,232331,1,0,0:0:0:0:
358,192,232373,1,0,0:0:0:0:
256,192,232414,1,0,0:0:0:0:
460,192,232456,1,0,0:0:0:0:
153,192,232456,1,0,0:0:0:0:
51,192,232456,1,0,0:0:0:0:
358,192,232623,1,0,0:0:0:0:
51,192,232706,1,0,0:0:0:0:
256,192,232789,1,0,0:0:0:0:
153,192,232789,1,0,0:0:0:0:
358,192,232789,1,0,0:0:0:0:
460,192,232789,1,0,0:0:0:0:
51,192,232873,1,0,0:0:0:0:
460,192,232956,1,0,0:0:0:0:
358,192,233039,1,0,0:0:0:0:
256,192,233039,1,0,0:0:0:0:
153,192,233039,1,0,0:0:0:0:
51,192,233123,1,0,0:0:0:0:
153,192,233206,1,0,0:0:0:0:
358,192,233289,1,0,0:0:0:0:
256,192,233289,1,0,0:0:0:0:
460,192,233289,1,0,0:0:0:0:
51,192,233373,1,0,0:0:0:0:
256,192,233456,1,0,0:0:0:0:
153,192,233456,1,0,0:0:0:0:
460,192,233456,1,0,0:0:0:0:
358,192,233539,1,0,0:0:0:0:
51,192,233539,1,0,0:0:0:0:
256,192,233623,1,0,0:0:0:0:
153,192,233623,1,0,0:0:0:0:
358,192,233706,1,0,0:0:0:0:
460,192,233706,1,0,0:0:0:0:
256,192,233789,1,0,0:0:0:0:
153,192,233789,1,0,0:0:0:0:
51,192,233789,1,0,0:0:0:0:
358,192,233873,1,0,0:0:0:0:
460,192,233873,1,0,0:0:0:0:
153,192,233956,1,0,0:0:0:0:
51,192,233956,1,0,0:0:0:0:
256,192,234039,1,0,0:0:0:0:
460,192,234039,1,0,0:0:0:0:
256,192,234123,1,0,0:0:0:0:
358,192,234123,1,0,0:0:0:0:
51,192,234123,1,0,0:0:0:0:
153,192,234123,1,0,0:0:0:0:
460,192,234206,1,0,0:0:0:0:
51,192,234289,1,0,0:0:0:0:
256,192,234373,1,0,0:0:0:0:
358,192,234373,1,0,0:0:0:0:
153,192,234373,1,0,0:0:0:0:
51,192,234456,1,0,0:0:0:0:
460,192,234498,1,0,0:0:0:0:
358,192,234539,1,0,0:0:0:0:
256,192,234581,1,0,0:0:0:0:
153,192,234623,1,0,0:0:0:0:
51,192,234623,1,0,0:0:0:0:
460,192,234623,1,0,0:0:0:0:
358,192,234706,1,0,0:0:0:0:
256,192,234789,1,0,0:0:0:0:
153,192,234789,1,0,0:0:0:0:
460,192,234789,1,0,0:0:0:0:
51,192,234831,1,0,0:0:0:0:
358,192,234873,1,0,0:0:0:0:
256,192,234914,1,0,0:0:0:0:
153,192,234956,1,0,0:0:0:0:
460,192,235039,1,0,0:0:0:0:
358,192,235123,1,0,0:0:0:0:
256,192,235123,1,0,0:0:0:0:
51,192,235123,1,0,0:0:0:0:
153,192,235289,1,0,0:0:0:0:
358,192,235373,1,0,0:0:0:0:
256,192,235456,1,0,0:0:0:0:
153,192,235456,1,0,0:0:0:0:
51,192,235456,1,0,0:0:0:0:
460,192,235456,1,0,0:0:0:0:
358,192,235539,1,0,0:0:0:0:
51,192,235623,1,0,0:0:0:0:
460,192,235706,1,0,0:0:0:0:
256,192,235706,1,0,0:0:0:0:
358,192,235706,1,0,0:0:0:0:
153,192,235789,1,0,0:0:0:0:
460,192,235873,1,0,0:0:0:0:
51,192,235956,1,0,0:0:0:0:
256,192,235956,1,0,0:0:0:0:
358,192,235956,1,0,0:0:0:0:
153,192,236039,1,0,0:0:0:0:
51,192,236123,1,0,0:0:0:0:
256,192,236123,1,0,0:0:0:0:
460,192,236123,1,0,0:0:0:0:
358,192,236206,128,0,236248:0:0:0:0:
153,192,236206,128,0,236248:0:0:0:0:
153,192,236289,128,0,236373:0:0:0:0:
358,192,236289,128,0,236373:0:0:0:0:
153,192,236456,1,0,0:0:0:0:
358,192,236456,1,0,0:0:0:0:
51,192,236456,1,0,0:0:0:0:
256,192,236539,128,0,236581:0:0:0:0:
460,192,236539,128,0,236581:0:0:0:0:
460,192,236623,128,0,236706:0:0:0:0:
256,192,236623,128,0,236706:0:0:0:0:
358,192,236789,1,0,0:0:0:0:
153,192,236789,1,0,0:0:0:0:
51,192,236789,1,0,0:0:0:0:
256,192,236789,1,0,0:0:0:0:
460,192,236873,1,0,0:0:0:0:
153,192,236956,1,0,0:0:0:0:
358,192,236998,1,0,0:0:0:0:
51,192,237039,1,0,0:0:0:0:
256,192,237039,1,0,0:0:0:0:
153,192,237039,1,0,0:0:0:0:
358,192,237081,1,0,0:0:0:0:
460,192,237123,1,0,0:0:0:0:
256,192,237206,1,0,0:0:0:0:
51,192,237289,1,0,0:0:0:0:
358,192,237289,1,0,0:0:0:0:
153,192,237289,1,0,0:0:0:0:
256,192,237373,1,0,0:0:0:0:
460,192,237373,1,0,0:0:0:0:
153,192,237373,1,0,0:0:0:0:
51,192,237456,1,0,0:0:0:0:
358,192,237456,1,0,0:0:0:0:
460,192,237456,1,0,0:0:0:0:
256,192,237498,1,0,0:0:0:0:
153,192,237539,1,0,0:0:0:0:
358,192,237581,1,0,0:0:0:0:
51,192,237623,1,0,0:0:0:0:
460,192,237706,1,0,0:0:0:0:
153,192,237789,1,0,0:0:0:0:
358,192,237789,1,0,0:0:0:0:
256,192,237789,1,0,0:0:0:0:
51,192,237956,1,0,0:0:0:0:
256,192,238039,1,0,0:0:0:0:
51,192,238123,1,0,0:0:0:0:
153,192,238123,1,0,0:0:0:0:
460,192,238123,1,0,0:0:0:0:
358,192,238123,1,0,0:0:0:0:
256,192,238206,1,0,0:0:0:0:
460,192,238289,1,0,0:0:0:0:
51,192,238373,1,0,0:0:0:0:
153,192,238373,1,0,0:0:0:0:
358,192,238373,1,0,0:0:0:0:
256,192,238456,1,0,0:0:0:0:
358,192,238539,1,0,0:0:0:0:
153,192,238623,1,0,0:0:0:0:
460,192,238623,1,0,0:0:0:0:
256,192,238623,1,0,0:0:0:0:
51,192,238706,1,0,0:0:0:0:
153,192,238789,1,0,0:0:0:0:
460,192,238789,1,0,0:0:0:0:
358,192,238789,1,0,0:0:0:0:
256,192,238873,1,0,0:0:0:0:
51,192,238873,1,0,0:0:0:0:
358,192,238956,1,0,0:0:0:0:
460,192,238956,1,0,0:0:0:0:
256,192,239039,1,0,0:0:0:0:
153,192,239039,1,0,0:0:0:0:
358,192,239123,1,0,0:0:0:0:
51,192,239123,1,0,0:0:0:0:
460,192,239123,1,0,0:0:0:0:
256,192,239206,1,0,0:0:0:0:
153,192,239206,1,0,0:0:0:0:
358,192,239289,1,0,0:0:0:0:
51,192,239289,1,0,0:0:0:0:
153,192,239373,1,0,0:0:0:0:
460,192,239373,1,0,0:0:0:0:
358,192,239456,1,0,0:0:0:0:
256,192,239456,1,0,0:0:0:0:
51,192,239456,1,0,0:0:0:0:
460,192,239456,1,0,0:0:0:0:
153,192,239539,1,0,0:0:0:0:
358,192,239623,1,0,0:0:0:0:
256,192,239706,1,0,0:0:0:0:
460,192,239706,1,0,0:0:0:0:
51,192,239706,1,0,0:0:0:0:
153,192,239789,1,0,0:0:0:0:
358,192,239831,1,0,0:0:0:0:
256,192,239873,1,0,0:0:0:0:
460,192,239914,1,0,0:0:0:0:
153,192,239956,1,0,0:0:0:0:
51,192,239956,1,0,0:0:0:0:
358,192,239956,1,0,0:0:0:0:
256,192,240039,1,0,0:0:0:0:
358,192,240123,1,0,0:0:0:0:
460,192,240123,1,0,0:0:0:0:
153,192,240123,1,0,0:0:0:0:
51,192,240164,1,0,0:0:0:0:
256,192,240206,1,0,0:0:0:0:
460,192,240248,1,0,0:0:0:0:
358,192,240289,1,0,0:0:0:0:
153,192,240289,1,0,0:0:0:0:
153,192,240373,1,0,0:0:0:0:
358,192,240373,1,0,0:0:0:0:
460,192,240456,1,0,0:0:0:0:
256,192,240456,1,0,0:0:0:0:
51,192,240456,1,0,0:0:0:0:
256,192,240623,1,0,0:0:0:0:
358,192,240623,1,0,0:0:0:0:
358,192,240706,1,0,0:0:0:0:
256,192,240706,1,0,0:0:0:0:
153,192,240789,1,0,0:0:0:0:
51,192,240789,1,0,0:0:0:0:
460,192,240789,1,0,0:0:0:0:
256,192,240956,1,0,0:0:0:0:
51,192,240956,1,0,0:0:0:0:
51,192,241039,1,0,0:0:0:0:
256,192,241039,1,0,0:0:0:0:
153,192,241123,1,0,0:0:0:0:
460,192,241123,1,0,0:0:0:0:
358,192,241123,1,0,0:0:0:0:
51,192,241289,1,0,0:0:0:0:
460,192,241289,1,0,0:0:0:0:
460,192,241373,1,0,0:0:0:0:
51,192,241373,1,0,0:0:0:0:
358,192,241456,1,0,0:0:0:0:
256,192,241456,1,0,0:0:0:0:
153,192,241539,1,0,0:0:0:0:
51,192,241539,1,0,0:0:0:0:
460,192,241623,1,0,0:0:0:0:
256,192,241623,1,0,0:0:0:0:
358,192,241706,1,0,0:0:0:0:
153,192,241706,1,0,0:0:0:0:
460,192,241789,1,0,0:0:0:0:
51,192,241789,1,0,0:0:0:0:
256,192,241873,1,0,0:0:0:0:
358,192,241873,1,0,0:0:0:0:
153,192,241956,1,0,0:0:0:0:
51,192,241956,1,0,0:0:0:0:
256,192,242039,1,0,0:0:0:0:
460,192,242039,1,0,0:0:0:0:
153,192,242123,1,0,0:0:0:0:
358,192,242123,128,0,242164:0:0:0:0:
460,192,242206,1,0,0:0:0:0:
51,192,242206,128,0,242248:0:0:0:0:
358,192,242289,1,0,0:0:0:0:
256,192,242289,128,0,242331:0:0:0:0:
51,192,242373,1,0,0:0:0:0:
153,192,242373,128,0,242414:0:0:0:0:
256,192,242456,1,0,0:0:0:0:
460,192,242456,128,0,242498:0:0:0:0:
153,192,242539,1,0,0:0:0:0:
358,192,242539,128,0,242581:0:0:0:0:
460,192,242623,1,0,0:0:0:0:
51,192,242623,128,0,242664:0:0:0:0:
358,192,242706,1,0,0:0:0:0:
256,192,242706,128,0,242748:0:0:0:0:
460,192,242789,1,0,0:0:0:0:
153,192,242789,1,0,0:0:0:0:
51,192,242789,1,0,0:0:0:0:
256,192,242873,1,0,0:0:0:0:
460,192,242956,1,0,0:0:0:0:
358,192,243039,1,0,0:0:0:0:
51,192,243123,1,0,0:0:0:0:
256,192,243206,1,0,0:0:0:0:
153,192,243289,1,0,0:0:0:0:
460,192,243373,1,0,0:0:0:0:
460,192,243539,1,0,0:0:0:0:
153,192,243623,1,0,0:0:0:0:
256,192,243706,1,0,0:0:0:0:
51,192,243789,1,0,0:0:0:0:
358,192,243873,1,0,0:0:0:0:
460,192,243956,1,0,0:0:0:0:
256,192,244039,1,0,0:0:0:0:
358,192,244123,1,0,0:0:0:0:
51,192,244123,1,0,0:0:0:0:
460,192,244206,1,0,0:0:0:0:
153,192,244289,1,0,0:0:0:0:
358,192,244373,1,0,0:0:0:0:
51,192,244456,1,0,0:0:0:0:
460,192,244539,1,0,0:0:0:0:
256,192,244623,1,0,0:0:0:0:
153,192,244706,1,0,0:0:0:0:
358,192,244789,1,0,0:0:0:0:
51,192,244789,1,0,0:0:0:0:
153,192,244873,1,0,0:0:0:0:
256,192,244956,1,0,0:0:0:0:
460,192,245039,1,0,0:0:0:0:
51,192,245123,1,0,0:0:0:0:
358,192,245206,1,0,0:0:0:0:
153,192,245289,1,0,0:0:0:0:
460,192,245373,1,0,0:0:0:0:
256,192,245456,1,0,0:0:0:0:
51,192,245456,1,0,0:0:0:0:
153,192,245539,1,0,0:0:0:0:
460,192,245623,1,0,0:0:0:0:
358,192,245706,1,0,0:0:0:0:
256,192,245789,1,0,0:0:0:0:
460,192,245873,1,0,0:0:0:0:
51,192,245956,1,0,0:0:0:0:
153,192,246039,1,0,0:0:0:0:
153,192,246206,1,0,0:0:0:0:
51,192,246289,1,0,0:0:0:0:
460,192,246373,1,0,0:0:0:0:
256,192,246456,1,0,0:0:0:0:
358,192,246539,1,0,0:0:0:0:
460,192,246623,1,0,0:0:0:0:
153,192,246706,1,0,0:0:0:0:
256,192,246789,1,0,0:0:0:0:
358,192,246789,1,0,0:0:0:0:
51,192,246873,1,0,0:0:0:0:
460,192,246956,1,0,0:0:0:0:
256,192,247039,1,0,0:0:0:0:
153,192,247123,1,0,0:0:0:0:
358,192,247206,1,0,0:0:0:0:
256,192,247289,1,0,0:0:0:0:
460,192,247373,1,0,0:0:0:0:
51,192,247456,1,0,0:0:0:0:
153,192,247456,1,0,0:0:0:0:
460,192,247539,1,0,0:0:0:0:
256,192,247623,1,0,0:0:0:0:
358,192,247706,1,0,0:0:0:0:
153,192,247789,1,0,0:0:0:0:
256,192,247873,1,0,0:0:0:0:
460,192,247956,1,0,0:0:0:0:
51,192,248039,1,0,0:0:0:0:
358,192,248123,1,0,0:0:0:0:
153,192,248123,1,0,0:0:0:0:
256,192,248206,1,0,0:0:0:0:
460,192,248289,1,0,0:0:0:0:
153,192,248373,1,0,0:0:0:0:
51,192,248456,1,0,0:0:0:0:
256,192,248539,1,0,0:0:0:0:
460,192,248623,1,0,0:0:0:0:
153,192,248706,1,0,0:0:0:0:
153,192,248873,1,0,0:0:0:0:
460,192,248956,1,0,0:0:0:0:
256,192,249039,1,0,0:0:0:0:
51,192,249123,1,0,0:0:0:0:
153,192,249206,1,0,0:0:0:0:
460,192,249289,1,0,0:0:0:0:
256,192,249373,1,0,0:0:0:0:
358,192,249456,1,0,0:0:0:0:
51,192,249456,1,0,0:0:0:0:
153,192,249539,1,0,0:0:0:0:
460,192,249623,1,0,0:0:0:0:
256,192,249706,1,0,0:0:0:0:
358,192,249789,1,0,0:0:0:0:
460,192,249873,1,0,0:0:0:0:
256,192,249956,1,0,0:0:0:0:
153,192,250039,1,0,0:0:0:0:
51,192,250123,1,0,0:0:0:0:
358,192,250123,1,0,0:0:0:0:
153,192,250206,1,0,0:0:0:0:
256,192,250289,1,0,0:0:0:0:
460,192,250373,1,0,0:0:0:0:
358,192,250456,1,0,0:0:0:0:
256,192,250539,1,0,0:0:0:0:
460,192,250623,1,0,0:0:0:0:
153,192,250706,1,0,0:0:0:0:
51,192,250789,1,0,0:0:0:0:
358,192,250789,1,0,0:0:0:0:
256,192,250873,1,0,0:0:0:0:
460,192,250956,1,0,0:0:0:0:
153,192,251039,1,0,0:0:0:0:
256,192,251123,1,0,0:0:0:0:
358,192,251206,1,0,0:0:0:0:
51,192,251289,1,0,0:0:0:0:
460,192,251373,1,0,0:0:0:0:
256,192,251456,1,0,0:0:0:0:
153,192,251456,1,0,0:0:0:0:
460,192,251539,1,0,0:0:0:0:
51,192,251623,1,0,0:0:0:0:
358,192,251706,1,0,0:0:0:0:
256,192,251789,1,0,0:0:0:0:
153,192,251873,1,0,0:0:0:0:
460,192,251956,1,0,0:0:0:0:
256,192,252039,1,0,0:0:0:0:
51,192,252123,1,0,0:0:0:0:
358,192,252123,1,0,0:0:0:0:
153,192,252206,1,0,0:0:0:0:
460,192,252289,1,0,0:0:0:0:
256,192,252373,1,0,0:0:0:0:
358,192,252456,1,0,0:0:0:0:
153,192,252539,1,0,0:0:0:0:
51,192,252623,1,0,0:0:0:0:
460,192,252706,1,0,0:0:0:0:
256,192,252789,1,0,0:0:0:0:
358,192,252789,1,0,0:0:0:0:
460,192,252873,1,0,0:0:0:0:
51,192,252956,1,0,0:0:0:0:
153,192,253039,1,0,0:0:0:0:
358,192,253123,1,0,0:0:0:0:
256,192,253206,1,0,0:0:0:0:
460,192,253289,1,0,0:0:0:0:
153,192,253373,1,0,0:0:0:0:
51,192,253456,1,0,0:0:0:0:
358,192,253456,1,0,0:0:0:0:
460,192,253539,1,0,0:0:0:0:
256,192,253623,1,0,0:0:0:0:
51,192,253706,1,0,0:0:0:0:
153,192,253789,1,0,0:0:0:0:
358,192,253873,1,0,0:0:0:0:
460,192,253956,1,0,0:0:0:0:
51,192,254039,1,0,0:0:0:0:
51,192,254206,1,0,0:0:0:0:
460,192,254289,1,0,0:0:0:0:
358,192,254373,1,0,0:0:0:0:
153,192,254456,1,0,0:0:0:0:
51,192,254539,1,0,0:0:0:0:
256,192,254623,1,0,0:0:0:0:
460,192,254706,1,0,0:0:0:0:
51,192,254789,1,0,0:0:0:0:
153,192,254789,1,0,0:0:0:0:
256,192,254873,1,0,0:0:0:0:
460,192,254956,1,0,0:0:0:0:
358,192,255039,1,0,0:0:0:0:
153,192,255123,1,0,0:0:0:0:
256,192,255206,1,0,0:0:0:0:
51,192,255289,1,0,0:0:0:0:
460,192,255373,1,0,0:0:0:0:
358,192,255456,1,0,0:0:0:0:
153,192,255456,1,0,0:0:0:0:
460,192,255539,1,0,0:0:0:0:
51,192,255623,1,0,0:0:0:0:
256,192,255706,1,0,0:0:0:0:
153,192,255789,1,0,0:0:0:0:
358,192,255873,1,0,0:0:0:0:
460,192,255956,1,0,0:0:0:0:
256,192,256039,1,0,0:0:0:0:
51,192,256123,1,0,0:0:0:0:
153,192,256123,1,0,0:0:0:0:
460,192,256206,1,0,0:0:0:0:
256,192,256289,1,0,0:0:0:0:
358,192,256373,1,0,0:0:0:0:
51,192,256456,1,0,0:0:0:0:
256,192,256539,1,0,0:0:0:0:
153,192,256623,1,0,0:0:0:0:
460,192,256706,1,0,0:0:0:0:
358,192,256789,1,0,0:0:0:0:
460,192,256873,1,0,0:0:0:0:
153,192,256956,1,0,0:0:0:0:
256,192,257039,1,0,0:0:0:0:
51,192,257123,1,0,0:0:0:0:
358,192,257206,1,0,0:0:0:0:
256,192,257289,1,0,0:0:0:0:
460,192,257373,1,0,0:0:0:0:
51,192,257456,1,0,0:0:0:0:
358,192,257456,1,0,0:0:0:0:
153,192,257539,1,0,0:0:0:0:
256,192,257623,1,0,0:0:0:0:
51,192,257706,1,0,0:0:0:0:
460,192,257789,1,0,0:0:0:0:
358,192,257873,1,0,0:0:0:0:
51,192,257956,1,0,0:0:0:0:
256,192,258039,1,0,0:0:0:0:
460,192,258123,1,0,0:0:0:0:
153,192,258123,1,0,0:0:0:0:
256,192,258206,1,0,0:0:0:0:
51,192,258289,1,0,0:0:0:0:
358,192,258373,1,0,0:0:0:0:
460,192,258456,1,0,0:0:0:0:
51,192,258539,1,0,0:0:0:0:
256,192,258623,1,0,0:0:0:0:
153,192,258706,1,0,0:0:0:0:
358,192,258789,1,0,0:0:0:0:
460,192,258789,1,0,0:0:0:0:
51,192,258873,1,0,0:0:0:0:
256,192,258956,1,0,0:0:0:0:
460,192,259039,1,0,0:0:0:0:
153,192,259123,1,0,0:0:0:0:
51,192,259206,1,0,0:0:0:0:
256,192,259289,1,0,0:0:0:0:
460,192,259373,1,0,0:0:0:0:
460,192,259539,1,0,0:0:0:0:
256,192,259623,1,0,0:0:0:0:
51,192,259706,1,0,0:0:0:0:
153,192,259789,1,0,0:0:0:0:
460,192,259873,1,0,0:0:0:0:
256,192,259956,1,0,0:0:0:0:
51,192,260039,1,0,0:0:0:0:
358,192,260123,1,0,0:0:0:0:
153,192,260123,1,0,0:0:0:0:
358,192,260789,1,0,0:0:0:0:
256,192,260789,1,0,0:0:0:0:
460,192,261456,1,0,0:0:0:0:
256,192,261456,1,0,0:0:0:0:
51,192,262123,1,0,0:0:0:0:
460,192,262123,1,0,0:0:0:0:
358,192,262789,1,0,0:0:0:0:
51,192,262789,1,0,0:0:0:0:
153,192,263456,1,0,0:0:0:0:
460,192,263456,1,0,0:0:0:0:
