osu file format v14

[General]
AudioFilename: audio.mp3
AudioLeadIn: 0
PreviewTime: 78812
Countdown: 0
SampleSet: Soft
StackLeniency: 0.2
Mode: 0
LetterboxInBreaks: 0
EpilepsyWarning: 1
WidescreenStoryboard: 1

[Editor]
DistanceSpacing: 0.2
BeatDivisor: 4
GridSize: 16
TimelineZoom: 2.2

[Metadata]
Title:Future Candy
TitleUnicode:Future Cαndy
Artist:YUC'e
ArtistUnicode:YUC'e
Creator:Nathan
Version:Insane
Source:
Tags:future bass sukinathan -tochi ゆーしえ
BeatmapID:1521481
BeatmapSetID:546820

[Difficulty]
HPDrainRate:5
CircleSize:4
OverallDifficulty:8
ApproachRate:9
SliderMultiplier:1.6
SliderTickRate:1

[Events]
//Background and Video events
0,0,"rainbow.jpg",0,0
//Break Periods
2,112346,121879
2,165678,167546
//Storyboard Layer 0 (Background)
Sprite,Background,Centre,"rainbow.jpg",320,240
//Storyboard Layer 1 (Fail)
//Storyboard Layer 2 (Pass)
//Storyboard Layer 3 (Foreground)
//Storyboard Sound Samples

[TimingPoints]
1354,666.666666666667,4,2,1,60,1,0
58813,333.333333333333,4,2,1,60,1,1
58813,-133.333333333333,4,2,1,60,0,0
69479,-100,4,2,1,60,0,0
74479,-100,4,2,2,60,0,0
78812,-500,4,2,1,60,0,0
80479,-66.6666666666667,4,2,1,60,0,1
80812,-76.9230769230769,4,2,1,60,0,1
82812,-66.6666666666667,4,2,1,60,0,1
83146,-76.9230769230769,4,2,1,60,0,1
84146,-66.6666666666667,4,2,1,60,0,1
84812,-66.6666666666667,4,2,1,60,0,1
85479,-76.9230769230769,4,2,1,60,0,1
86146,-76.9230769230769,4,2,1,60,0,1
88146,-66.6666666666667,4,2,1,60,0,1
88479,-76.9230769230769,4,2,1,60,0,1
89479,-66.6666666666667,4,2,1,60,0,1
90146,-66.6666666666667,4,2,1,60,0,0
90812,-500,4,2,1,60,0,0
91146,-66.6666666666667,4,2,1,60,0,1
91479,-76.9230769230769,4,2,1,60,0,1
92146,-76.9230769230769,4,2,1,60,0,1
93479,-76.9230769230769,4,2,1,60,0,1
94146,-76.9230769230769,4,2,1,60,0,1
94812,-66.6666666666667,4,2,1,60,0,1
95479,-66.6666666666667,4,2,1,60,0,1
96146,-76.9230769230769,4,2,1,60,0,1
96812,-76.9230769230769,4,2,1,60,0,1
97062,-100,4,2,1,60,0,1
97479,-76.9230769230769,4,2,1,60,0,1
98979,-76.9230769230769,4,2,2,60,0,1
100812,-133.333333333333,4,2,1,60,0,0
101479,-57.1428571428571,4,2,1,60,0,0
101812,-500,4,2,1,60,0,1
102146,-66.6666666666667,4,2,1,60,0,1
103479,-500,4,2,1,60,0,1
103812,-40,4,2,1,60,0,1
104146,-66.6666666666667,4,2,1,60,0,1
106146,-133.333333333333,4,2,1,60,0,1
106479,-54.054054054054,4,2,1,60,0,1
106646,-62.5,4,2,1,60,0,1
107479,-62.5,4,2,1,60,0,1
108812,-500,4,2,1,60,0,1
109146,-55.5555555555556,4,2,1,60,0,1
109479,-100,4,2,1,60,0,1
110812,-133.333333333333,4,2,2,60,0,1
112146,-50,4,2,1,60,0,0
122479,-200,4,2,1,60,0,0
122812,-100,4,2,1,70,0,0
132146,-100,4,2,1,60,0,0
133479,-83.3333333333333,4,2,1,60,0,0
141479,-83.3333333333333,4,2,1,45,0,0
142812,-500,4,2,1,60,0,0
144146,-66.6666666666667,4,2,1,60,0,0
144479,-76.9230769230769,4,2,1,60,0,1
145146,-500,4,2,1,60,0,1
145479,-76.9230769230769,4,2,1,60,0,1
146479,-500,4,2,1,60,0,1
146812,-100,4,2,1,60,0,1
147479,-76.9230769230769,4,2,1,60,0,1
148146,-62.5,4,2,1,60,0,1
148479,-52.6315789473684,4,2,1,60,0,1
148812,-500,4,2,1,60,0,1
149146,-100,4,2,1,60,0,0
149479,-52.6315789473684,4,2,1,60,0,1
150146,-52.6315789473684,4,2,1,60,0,1
150812,-52.6315789473684,4,2,1,60,0,1
151146,-66.6666666666667,4,2,1,60,0,1
151479,-100,4,2,1,60,0,1
151812,-50,4,2,1,60,0,0
152146,-100,4,2,1,60,0,1
152479,-83.3333333333333,4,2,1,60,0,1
152812,-71.4285714285714,4,2,1,60,0,1
153146,-62.5,4,2,1,60,0,1
153479,-125,4,2,1,60,0,0
154479,-200,4,2,1,60,0,0
155146,-76.9230769230769,4,2,1,60,0,1
155479,-76.9230769230769,4,2,1,60,0,1
155812,-76.9230769230769,4,2,1,60,0,1
156812,-76.9230769230769,4,2,1,60,0,1
157146,-76.9230769230769,4,2,1,60,0,1
159479,-76.9230769230769,4,2,1,60,0,1
159812,-33.3333333333333,4,2,1,60,0,0
160146,-76.9230769230769,4,2,1,60,0,0
160479,-76.9230769230769,4,2,1,60,0,1
160812,-76.9230769230769,4,2,1,60,0,1
161146,-76.9230769230769,4,2,1,60,0,1
162146,-76.9230769230769,4,2,1,60,0,1
162812,-76.9230769230769,4,2,1,60,0,1
165479,-76.9230769230769,4,2,1,60,0,0
168146,-200,4,2,1,60,0,0
178812,-133.333333333333,4,2,1,60,0,0
183312,-66.6666666666667,4,2,1,60,0,0
183479,-133.333333333333,4,2,1,60,0,0
189479,-100,4,2,1,60,0,0
194479,-100,4,2,2,60,0,0
198812,-500,4,2,1,60,0,0
199646,-100,4,2,1,60,0,0
200146,-500,4,2,1,60,0,0
200479,-62.5,4,2,1,60,0,1
200812,-71.4285714285714,4,2,1,60,0,1
204146,-62.5,4,2,1,60,0,1
205479,-62.5,4,2,1,60,0,1
205812,-71.4285714285714,4,2,1,60,0,1
208146,-62.5,4,2,1,60,0,1
208479,-71.4285714285714,4,2,1,60,0,1
209646,-57.1428571428571,4,2,1,60,0,1
210146,-66.6666666666667,4,2,1,60,0,0
210812,-500,4,2,1,60,0,0
211146,-62.5,4,2,1,60,0,1
211479,-71.4285714285714,4,2,1,60,0,1
213479,-71.4285714285714,4,2,1,60,0,1
213812,-71.4285714285714,4,2,1,60,0,1
214812,-62.5,4,2,1,60,0,1
216146,-71.4285714285714,4,2,1,60,0,1
216812,-71.4285714285714,4,2,1,60,0,1
218979,-66.6666666666667,4,2,2,60,0,1
220812,-133.333333333333,4,2,1,60,0,0
221479,-57.1428571428571,4,2,1,60,0,0
221812,-66.6666666666667,4,2,1,60,0,1
222146,-76.9230769230769,4,2,1,60,0,1
232146,-500,4,2,1,60,0,0
232479,-66.6666666666667,4,2,1,60,0,1
232812,-76.9230769230769,4,2,1,60,0,1
240312,-76.9230769230769,4,2,2,60,0,1
242812,-76.9230769230769,4,2,1,60,0,0

[Colours]
Combo1 : 255,94,55
Combo2 : 173,255,95
Combo3 : 17,254,176
Combo4 : 255,88,100

[HitObjects]
135,214,58813,6,0,L|128:260,4,30.0000011444092,6|0|0|0|0,0:0|0:0|0:0|0:0|0:0,0:0:0:0:
49,256,59313,1,0,0:0:0:0:
94,331,59479,2,0,P|131:324|180:324,1,60.0000022888184,0|0,0:0|0:0,0:0:0:0:
271,259,59813,2,0,P|241:256|211:250,1,60.0000022888184,0|0,0:0|0:0,0:0:0:0:
81,113,60146,6,0,P|114:142|132:228,1,120.000004577637,2|0,0:0|0:0,0:0:0:0:
294,339,60813,2,0,P|305:281|347:238,1,120.000004577637,2|0,0:0|0:0,0:0:0:0:
380,320,61313,1,0,0:0:0:0:
256,200,61479,6,0,P|262:140|275:82,1,120.000004577637,2|0,0:0|0:0,0:0:0:0:
275,81,62146,2,0,P|250:58|206:38,1,60.0000022888184,0|0,0:0|0:0,0:0:0:0:
365,167,62479,2,0,P|396:157|436:129,1,60.0000022888184,0|0,0:0|0:0,0:0:0:0:
256,200,62812,6,0,P|208:242|168:297,1,120.000004577637,2|0,0:0|0:0,0:0:0:0:
191,136,63312,1,0,0:0:0:0:
191,136,63396,1,0,0:0:0:0:
191,136,63479,2,0,P|130:115|62:108,1,120.000004577637,2|0,0:0|0:0,0:0:0:0:
365,167,63979,1,0,0:0:0:0:
365,167,64062,1,0,0:0:0:0:
365,167,64146,6,0,P|426:184|485:217,1,120.000004577637,2|0,0:0|0:0,0:0:0:0:
331,248,64646,1,0,0:0:0:0:
381,75,64812,2,0,P|417:60|448:54,2,60.0000022888184,0|0|0,0:0|0:0|0:0,0:0:0:0:
295,104,65312,1,0,0:0:0:0:
417,224,65479,6,0,P|422:176|417:146,1,60.0000022888184,2|0,0:0|0:0,0:0:0:0:
173,67,65813,2,0,L|182:171,1,90.0000034332277,0|0,0:0|0:0,0:0:0:0:
180,156,66146,2,0,P|131:159|103:169,1,60.0000022888184,2|0,0:0|0:0,0:0:0:0:
288,285,66479,2,0,L|279:181,1,90.0000034332277,0|0,0:0|0:0,0:0:0:0:
281,196,66812,2,0,P|329:192|374:118,1,120.000004577637,2|0,0:0|0:0,0:0:0:0:
295,113,67312,1,0,0:0:0:0:
442,63,67479,2,0,P|449:102|459:182,1,120.000004577637,2|0,0:0|0:0,0:0:0:0:
211,317,68146,6,0,P|204:278|194:198,1,120.000004577637,2|0,0:0|0:0,0:0:0:0:
295,113,68646,1,0,0:0:0:0:
211,30,68812,2,0,P|196:58|185:104,1,60.0000022888184,0|0,0:0|0:0,0:0:0:0:
318,211,69146,1,2,0:0:0:0:
341,205,69229,1,0,0:0:0:0:
361,193,69312,1,2,0:0:0:0:
377,175,69396,1,0,0:0:0:0:
387,152,69479,6,0,P|423:158|484:157,1,80,8|0,0:0|0:0,0:0:0:0:
498,158,69729,1,8,0:0:0:0:
498,158,69812,1,8,0:0:0:0:
295,113,69979,1,0,1:0:0:0:
437,288,70146,2,0,P|401:282|340:283,1,80,8|8,0:0|0:0,0:0:0:0:
326,290,70396,1,8,0:0:0:0:
326,290,70479,2,0,L|316:195,1,80,8|0,0:0|0:0,0:0:0:0:
242,22,70812,6,0,P|254:56|286:108,1,80,8|0,0:0|0:0,0:0:0:0:
300,116,71062,1,8,0:0:0:0:
300,116,71146,2,0,L|222:172,1,80,8|0,0:0|1:0,0:0:0:0:
158,230,71479,2,0,L|245:268,1,80,8|8,0:0|0:0,0:0:0:0:
326,290,71812,1,8,0:0:0:0:
97,320,71979,1,0,1:0:0:0:
97,320,72062,1,0,1:0:0:0:
97,320,72146,6,0,P|120:291|149:238,1,80,8|0,0:0|0:0,0:0:0:0:
162,233,72396,1,8,0:0:0:0:
162,233,72479,1,8,0:0:0:0:
123,39,72646,1,0,1:0:0:0:
39,126,72812,2,0,P|105:148|137:153,1,80,8|8,0:0|0:0,0:0:0:0:
145,140,73062,1,8,0:0:0:0:
145,140,73146,6,0,P|198:104|303:125,1,160,8|8,0:0|0:0,0:0:0:0:
244,256,73646,1,8,0:0:0:0:
234,225,73729,1,8,0:0:0:0:
236,193,73812,1,8,0:0:0:0:
354,31,73979,2,0,P|363:50|368:67,1,40,8|8,0:0|0:0,0:0:0:0:
455,114,74146,5,8,0:0:0:0:
428,143,74229,1,8,0:0:0:0:
392,159,74312,1,8,0:0:0:0:
352,160,74395,1,8,0:0:0:0:
315,145,74479,1,8,0:0:0:0:
289,115,74562,1,8,0:0:0:0:
251,99,74646,1,8,0:0:0:0:
211,102,74729,1,8,0:0:0:0:
178,124,74812,6,0,P|121:120|63:102,2,80,4|0|0,1:2|1:2|1:2,0:0:0:0:
368,68,75312,1,0,1:2:0:0:
236,193,75479,1,0,1:0:0:0:
390,229,75646,1,0,1:0:0:0:
267,25,75812,2,0,P|274:64|276:104,1,80,0|0,1:0|1:0,0:0:0:0:
353,149,76062,1,0,1:0:0:0:
353,149,76146,6,0,P|410:153|468:171,1,80,0|0,1:0|1:0,0:0:0:0:
278,298,76479,2,0,P|209:243|270:184,1,160,0|0,1:0|1:0,0:0:0:0:
365,64,76979,1,0,1:0:0:0:
147,155,77146,1,0,1:0:0:0:
370,274,77312,1,8,0:0:0:0:
370,274,77396,1,8,0:0:0:0:
370,274,77479,6,0,P|366:319|367:337,3,40,0|0|0|0,1:0|1:0|1:0|1:0,0:0:0:0:
235,192,77812,2,0,P|239:147|238:129,3,40,0|0|0|0,1:0|1:0|1:0|1:0,0:0:0:0:
98,272,78146,5,0,1:0:0:0:
100,244,78229,1,0,1:0:0:0:
103,216,78312,1,0,1:0:0:0:
106,188,78395,1,0,1:0:0:0:
109,160,78479,1,0,1:0:0:0:
112,132,78562,1,0,1:0:0:0:
115,104,78645,1,0,1:0:0:0:
118,76,78729,1,0,1:0:0:0:
121,48,78812,6,0,L|125:13,2,32,0|0|0,3:0|0:0|0:0,0:0:0:0:
418,110,79812,1,2,0:0:0:0:
418,110,80146,2,0,L|421:133,1,24,2|0,0:0|0:0,0:0:0:0:
430,155,80479,6,0,P|367:129|255:193,1,180.000006866455,4|0,3:2|0:0,0:0:0:0:
217,231,80812,2,0,B|228:179|228:179|188:99,1,103.999995239258,4|0,3:2|0:0,0:0:0:0:
192,104,81062,2,0,P|266:58|290:28,1,103.999995239258,0|0,3:2|0:0,0:0:0:0:
290,17,81312,1,0,3:2:0:0:
118,187,81479,6,0,P|86:173|43:169,3,51.999997619629,4|0|0|0,3:2|0:0|0:0|0:0,0:0:0:0:
102,295,81812,1,4,3:2:0:0:
102,295,81896,1,0,0:0:0:0:
102,295,81979,1,0,0:0:0:0:
102,295,82062,1,0,0:0:0:0:
102,295,82146,6,0,P|190:268|221:269,1,103.999995239258,4|0,3:2|0:0,0:0:0:0:
221,168,82396,2,0,P|288:230|303:258,1,103.999995239258,0|0,3:0|0:0,0:0:0:0:
368,301,82646,1,0,3:0:0:0:
307,100,82812,6,0,P|338:42|357:147,1,240.000009155274,4|4,3:2|3:2,0:0:0:0:
294,240,83312,1,0,0:0:0:0:
486,331,83479,2,0,P|468:273|479:174,2,155.999992858887,4|0|0,3:2|3:0|3:0,0:0:0:0:
388,140,84146,5,4,3:2:0:0:
294,240,84312,1,0,1:0:0:0:
388,140,84479,5,4,3:2:0:0:
294,240,84646,1,0,1:0:0:0:
388,140,84812,6,0,B|299:117|299:117|248:137,1,120.000004577637,4|0,3:2|0:0,0:0:0:0:
95,180,85062,2,0,B|184:203|184:203|235:183,1,120.000004577637,0|0,3:0|0:0,0:0:0:0:
190,52,85312,2,0,P|177:83|181:124,1,60.0000022888184,0|0,1:0|1:0,0:0:0:0:
294,240,85479,6,0,P|305:146|307:18,1,207.999990478516,4|0,3:2|3:0,0:0:0:0:
98,39,85979,1,0,0:0:0:0:
210,192,86146,6,0,P|126:205|78:205,1,103.999995239258,4|0,3:2|0:0,0:0:0:0:
77,217,86396,2,0,P|130:283|154:324,1,103.999995239258,0|0,3:0|0:0,3:0:0:0:
153,327,86646,1,0,3:0:0:0:
0,212,86812,6,0,P|21:162|37:149,3,51.999997619629,4|0|0|0,3:2|0:0|0:0|0:0,0:0:0:0:
94,123,87146,1,4,3:2:0:0:
94,123,87229,1,0,0:0:0:0:
94,123,87312,1,0,0:0:0:0:
94,123,87396,1,0,0:0:0:0:
94,123,87479,6,0,B|163:146|163:146|219:124,1,103.999995239258,4|0,3:2|0:0,0:0:0:0:
320,68,87729,2,0,P|297:104|285:164,1,103.999995239258,0|0,3:0|0:0,0:0:0:0:
232,238,87979,1,0,3:0:0:0:
450,326,88146,6,0,B|446:213|372:194|372:194|363:228|324:249,1,240.000009155274,4|0,3:2|3:0,0:0:0:0:
365,338,88646,1,0,0:0:0:0:
285,163,88812,2,0,P|259:109|178:32,2,155.999992858887,4|0|0,3:2|3:0|0:0,0:0:0:0:
123,325,89479,5,4,3:2:0:0:
154,144,89646,2,0,P|126:157|106:180,1,60.0000022888184,0|0,1:0|1:0,0:0:0:0:
123,325,89812,5,4,3:2:0:0:
154,144,89979,2,0,P|175:167|185:195,1,60.0000022888184,0|0,1:0|1:0,0:0:0:0:
123,325,90146,6,0,L|108:409,3,60.0000022888184,2|0|0|0,1:2|1:0|1:0|1:0,0:0:0:0:
123,325,90479,2,0,L|138:241,3,60.0000022888184,2|0|0|0,1:2|1:0|1:0|1:0,0:0:0:0:
206,338,90812,6,0,L|231:344,1,24,2|0,0:0|0:0,0:0:0:0:
254,346,91146,6,0,P|259:258|199:195,1,180.000006866455,4|0,3:2|0:0,0:0:0:0:
169,185,91479,5,12,0:0:0:0:
401,224,91729,1,0,3:0:0:0:
317,8,91979,1,0,3:0:0:0:
302,100,92146,6,0,L|293:151,3,51.999997619629,4|0|0|0,3:2|0:0|0:0|0:0,0:0:0:0:
232,44,92479,1,4,3:2:0:0:
201,41,92562,1,0,0:0:0:0:
171,51,92646,1,0,0:0:0:0:
148,72,92729,1,0,0:0:0:0:
135,100,92812,2,0,L|153:268,2,155.999992858887,12|0|0,0:0|3:0|3:0,0:0:0:0:
8,159,93479,6,0,P|79:181|129:171,1,103.999995239258,4|0,3:2|0:0,0:0:0:0:
280,72,93812,2,0,P|235:157|250:251,1,155.999992858887,4|0,3:2|0:0,0:0:0:0:
239,251,94146,5,12,0:0:0:0:
17,324,94396,1,0,3:0:0:0:
72,103,94646,1,0,3:0:0:0:
126,174,94812,6,0,L|116:294,1,120.000004577637,4|0,3:0|1:0,0:0:0:0:
379,195,95146,2,0,L|369:75,1,120.000004577637,4|0,3:2|1:0,0:0:0:0:
236,281,95479,6,0,B|208:225|208:225|248:147,1,120.000004577637,8|0,0:0|0:0,0:0:0:0:
256,38,95729,2,0,B|284:94|284:94|244:172,1,120.000004577637,0|0,3:0|0:0,0:0:0:0:
158,107,95979,1,8,0:0:0:0:
158,107,96062,1,8,0:0:0:0:
158,107,96146,6,0,P|114:117|40:105,1,103.999995239258,4|0,3:2|0:0,0:0:0:0:
236,281,96479,2,0,P|198:301|115:237,1,155.999992858887,0|0,3:0|0:0,0:0:0:0:
137,225,96812,5,12,0:0:0:0:
347,249,97062,1,0,3:0:0:0:
259,80,97312,1,0,3:0:0:0:
223,172,97479,6,0,P|248:176|274:177,3,51.999997619629,4|0|0|0,3:2|0:0|0:0|0:0,0:0:0:0:
363,153,97812,1,4,3:2:0:0:
393,160,97896,1,0,0:0:0:0:
417,178,97979,1,0,0:0:0:0:
434,203,98062,1,0,0:0:0:0:
438,234,98146,2,0,P|458:135|470:57,2,155.999992858887,12|0|0,0:0|3:0|3:0,0:0:0:0:
355,33,98812,5,0,3:0:0:0:
347,138,98979,5,8,0:0:0:0:
347,138,99062,1,8,0:0:0:0:
347,138,99146,1,8,0:0:0:0:
262,73,99312,5,8,0:0:0:0:
262,73,99396,1,8,0:0:0:0:
262,73,99479,1,8,0:0:0:0:
448,95,99646,5,8,0:0:0:0:
448,95,99729,1,8,0:0:0:0:
448,95,99812,1,8,0:0:0:0:
339,245,99979,5,8,0:0:0:0:
339,245,100062,1,8,0:0:0:0:
339,245,100146,6,0,L|330:311,1,51.999997619629,0|0,1:0|1:0,0:0:0:0:
321,373,100312,2,0,L|330:307,1,51.999997619629,0|0,1:0|1:0,0:0:0:0:
239,170,100479,6,0,L|230:236,1,51.999997619629,0|0,1:0|1:0,0:0:0:0:
211,367,100645,2,0,L|220:301,1,51.999997619629,0|0,1:0|1:0,0:0:0:0:
125,201,100812,6,0,L|106:331,1,120.000004577637,2|2,0:0|0:0,0:0:0:0:
107,319,101479,6,0,B|35:293|35:293|54:149,1,210.000002002716,2|0,0:1|0:0,0:0:0:0:
83,69,101812,5,4,3:2:0:0:
95,80,102146,2,0,L|251:66,1,120.000004577637,4|0,3:2|0:0,0:0:0:0:
333,141,102396,2,0,L|177:155,1,120.000004577637,4|0,3:2|0:0,0:0:0:0:
146,243,102646,2,0,L|224:235,1,60.0000022888184,4|0,3:2|0:0,0:0:0:0:
414,196,102812,6,0,B|426:128|426:128|403:86|403:86|431:-14,2,180.000006866455,4|4|4,3:2|3:2|3:2,0:0:0:0:
320,368,103479,1,4,3:2:0:0:
303,359,103812,6,0,P|252:308|283:285,1,100,2|0,0:1|0:0,0:0:0:0:
292,211,103979,2,0,P|273:280|237:265,1,100,2|0,0:1|0:0,0:0:0:0:
159,369,104146,6,0,P|156:287|179:230,1,120.000004577637,0|0,3:0|3:0,0:0:0:0:
154,158,104396,2,0,P|106:193|73:243,1,120.000004577637,0|0,3:0|3:0,0:0:0:0:
73,242,104646,1,0,3:0:0:0:
77,27,104812,6,0,P|150:64|211:67,1,120.000004577637,8|0,3:2|3:0,0:0:0:0:
265,120,105062,2,0,P|212:149|153:158,1,120.000004577637,0|0,3:0|3:0,0:0:0:0:
153,158,105312,1,0,3:0:0:0:
396,43,105479,6,0,P|358:116|355:177,1,120.000004577637,0|0,3:0|3:0,0:0:0:0:
303,231,105729,2,0,P|273:178|264:119,1,120.000004577637,0|0,3:0|3:0,0:0:0:0:
264,119,105979,1,0,3:0:0:0:
495,185,106146,6,0,P|436:197|388:232,1,120.000004577637,8|0,3:2|1:0,0:0:0:0:
450,309,106646,1,8,0:0:0:0:
450,309,106729,1,8,0:0:0:0:
450,309,106812,6,0,B|400:254|400:254|234:289,1,192,4|0,3:2|0:0,0:0:0:0:
135,146,107146,2,0,B|185:201|185:201|351:166,1,192,4|0,3:2|0:0,0:0:0:0:
397,50,107479,6,0,B|357:87|357:87|381:191,1,128,4|0,3:2|0:0,0:0:0:0:
436,227,107729,2,0,B|476:190|476:190|452:86,1,128,4|0,3:2|0:0,0:0:0:0:
481,41,107979,2,0,L|388:29,1,64,4|0,3:2|0:0,0:0:0:0:
226,116,108146,6,0,B|266:153|266:153|242:257,1,128,4|0,3:2|0:0,0:0:0:0:
187,293,108396,2,0,B|147:256|147:256|171:152,1,128,4|0,3:2|0:0,0:0:0:0:
142,107,108646,2,0,L|235:95,1,64,4|0,3:2|0:0,0:0:0:0:
344,269,108812,1,4,3:2:0:0:
354,275,109146,6,0,P|401:271|451:252,1,71.9999978027344,4|0,3:2|0:0,0:0:0:0:
153,186,109312,2,0,P|106:190|56:209,1,71.9999978027344,4|0,3:2|0:0,0:0:0:0:
240,319,109479,5,6,3:2:0:0:
251,297,109562,1,0,3:0:0:0:
256,273,109646,1,0,3:0:0:0:
257,249,109729,1,2,3:2:0:0:
251,225,109812,2,0,L|258:161,3,40,0|0|2|0,3:0|3:0|3:2|3:0,0:0:0:0:
193,108,110146,5,6,3:2:0:0:
219,90,110229,1,0,3:0:0:0:
250,85,110313,1,0,3:0:0:0:
281,88,110396,1,2,3:2:0:0:
309,102,110479,2,0,L|373:95,3,40,0|0|2|0,3:0|3:0|3:2|3:0,0:0:0:0:
162,36,110812,5,12,0:0:0:0:
127,57,110896,1,8,0:0:0:0:
111,93,110979,1,8,0:0:0:0:
112,132,111062,1,8,0:0:0:0:
133,166,111146,1,8,0:0:0:0:
167,186,111229,1,8,0:0:0:0:
182,222,111312,1,8,0:0:0:0:
174,261,111396,1,8,0:0:0:0:
144,287,111479,6,0,L|141:331,3,30.0000011444092,4|0|0|0,1:2|1:0|1:0|1:0,0:0:0:0:
54,243,111812,2,0,L|51:199,3,30.0000011444092,0|0|0|0,1:0|1:0|1:0|1:0,0:0:0:0:
4,323,112146,5,2,0:0:0:0:
113,290,122479,6,0,P|117:243|112:224,1,60,2|0,0:0|0:0,0:0:0:0:
115,231,122812,6,0,P|165:244|219:235,1,80,4|0,3:2|0:0,0:0:0:0:
328,219,123146,2,0,P|283:292|266:381,1,160,0|0,1:0|0:0,0:0:0:0:
163,158,123646,1,0,3:0:0:0:
242,147,123812,2,0,P|236:107|219:71,1,80,0|0,1:0|0:0,0:0:0:0:
84,296,124146,6,0,L|98:393,1,80,0|0,3:0|0:0,0:0:0:0:
319,266,124479,2,0,L|340:107,1,160,0|0,1:0|0:0,0:0:0:0:
307,361,124979,1,0,3:0:0:0:
228,305,125146,2,0,L|239:225,1,80,0|0,1:0|0:0,0:0:0:0:
433,181,125479,6,0,P|468:230|479:260,1,80,0|0,3:0|0:0,0:0:0:0:
339,107,125812,2,0,P|263:131|183:125,1,160,0|0,1:0|0:0,0:0:0:0:
441,72,126312,1,0,3:0:0:0:
441,72,126396,1,0,0:0:0:0:
441,72,126479,2,0,P|465:17|486:-7,1,80,0|0,1:0|0:0,0:0:0:0:
230,242,126812,6,0,P|181:210|246:173,1,160,0|0,3:0|1:0,0:0:0:0:
455,297,127312,2,0,P|451:355|387:317,1,160,0|0,3:0|3:0,0:0:0:0:
441,72,127812,2,0,P|488:110|500:147,1,80,0|0,1:0|0:0,0:0:0:0:
305,337,128146,6,0,P|314:277|340:248,1,80,0|0,3:0|0:0,0:0:0:0:
398,218,128479,2,0,L|211:239,1,160,0|0,1:0|0:0,0:0:0:0:
39,163,128979,1,0,3:0:0:0:
130,157,129146,2,0,P|118:118|97:84,1,80,0|0,1:0|0:0,0:0:0:0:
33,306,129479,6,0,P|44:344|65:378,1,80,0|0,3:0|0:0,0:0:0:0:
236,236,129812,2,0,P|264:190|297:74,1,160,0|0,1:0|0:0,0:0:0:0:
159,266,130312,1,0,3:0:0:0:
350,218,130479,2,0,P|388:229|422:250,1,80,0|0,1:0|0:0,0:0:0:0:
437,273,130729,1,0,0:0:0:0:
437,273,130812,6,0,L|425:355,1,80,0|0,3:0|0:0,0:0:0:0:
355,127,131146,1,0,1:0:0:0:
333,306,131312,1,0,0:0:0:0:
236,232,131479,2,0,L|248:150,2,80,0|0|0,0:0|3:0|1:0,0:0:0:0:
452,196,131979,1,0,0:0:0:0:
245,66,132146,6,0,L|296:61,1,40,4|0,1:2|1:0,0:0:0:0:
362,134,132312,1,8,0:0:0:0:
362,134,132396,1,8,0:0:0:0:
362,134,132479,2,0,L|413:129,1,40,0|0,1:0|1:0,0:0:0:0:
408,22,132646,2,0,L|368:25,1,40,8|8,0:0|0:0,0:0:0:0:
265,153,132812,5,4,1:2:0:0:
245,173,132896,1,0,1:0:0:0:
239,200,132979,1,0,1:0:0:0:
244,227,133062,1,0,1:0:0:0:
260,249,133146,1,0,1:0:0:0:
279,269,133229,1,0,1:0:0:0:
288,295,133312,1,0,1:0:0:0:
288,323,133396,1,0,1:0:0:0:
272,350,133479,6,0,L|147:342,1,95.9999970703126,0|0,3:0|0:0,0:0:0:0:
99,352,133729,1,0,1:0:0:0:
99,352,133812,2,0,B|90:310|90:310|128:251,1,95.9999970703126,0|0,3:0|1:0,0:0:0:0:
336,93,134146,6,0,L|211:101,1,95.9999970703126,0|0,3:0|0:0,0:0:0:0:
163,91,134396,1,0,1:0:0:0:
163,91,134479,2,0,B|154:133|154:133|192:192,1,95.9999970703126,0|0,3:0|1:0,0:0:0:0:
426,240,134812,6,0,L|440:60,1,143.999995605469,0|0,3:0|1:0,0:0:0:0:
439,70,135146,1,0,3:0:0:0:
318,221,135312,2,0,L|328:336,1,95.9999970703126,0|0,0:0|3:0,0:0:0:0:
257,125,135646,1,0,1:0:0:0:
258,95,135729,1,0,1:0:0:0:
260,66,135812,1,0,3:0:0:0:
221,262,135979,1,0,1:0:0:0:
39,101,136146,6,0,P|14:183|44:249,1,143.999995605469,0|0,3:0|1:0,0:0:0:0:
57,249,136479,2,0,P|92:196|97:143,1,95.9999970703126,0|0,3:0|1:0,0:0:0:0:
353,59,136812,2,0,P|289:55|241:77,1,95.9999970703126,0|0,3:0|0:0,0:0:0:0:
164,82,137062,1,0,1:0:0:0:
164,82,137146,2,0,P|192:138|235:169,1,95.9999970703126,0|0,3:0|1:0,0:0:0:0:
484,203,137479,6,0,P|399:199|340:234,1,143.999995605469,0|0,3:0|1:0,0:0:0:0:
331,249,137812,1,0,3:0:0:0:
384,376,137979,2,0,P|418:323|423:270,1,95.9999970703126,0|0,1:0|3:0,0:0:0:0:
223,142,138312,1,0,1:0:0:0:
221,161,138396,1,0,1:0:0:0:
219,180,138479,1,0,3:0:0:0:
217,199,138562,1,0,1:0:0:0:
215,218,138646,1,0,1:0:0:0:
213,237,138729,1,0,1:0:0:0:
213,258,138812,6,0,P|155:286|97:293,1,95.9999970703126,4|0,3:2|3:0,0:0:0:0:
310,191,139146,2,0,P|247:175|198:143,1,95.9999970703126,0|0,3:0|3:0,0:0:0:0:
312,294,139479,2,0,P|374:278|423:246,1,95.9999970703126,0|0,3:0|3:0,0:0:0:0:
385,75,139812,2,0,P|402:136|399:195,1,95.9999970703126,0|0,3:0|3:0,0:0:0:0:
126,38,140146,6,0,P|226:3|339:52,1,191.999994140625,0|0,3:0|3:0,0:0:0:0:
401,263,140646,1,0,3:0:0:0:
163,352,140812,2,0,P|82:301|72:281,1,95.9999970703126,0|0,3:0|3:0,0:0:0:0:
404,169,141146,2,0,P|400:264|388:283,1,95.9999970703126,0|0,3:0|3:0,0:0:0:0:
193,159,141479,5,0,3:0:0:0:
206,145,141562,1,0,3:0:0:0:
224,140,141646,1,0,3:0:0:0:
242,142,141729,1,0,3:0:0:0:
259,150,141812,1,0,3:0:0:0:
270,165,141896,1,0,3:0:0:0:
272,183,141979,1,0,3:0:0:0:
265,201,142062,1,0,3:0:0:0:
258,219,142146,6,0,P|250:245|251:275,3,47.9999985351563,0|0|0|0,3:0|3:0|3:0|3:0,0:0:0:0:
193,159,142479,2,0,P|174:139|148:124,3,47.9999985351563,0|0|0|0,3:0|3:0|3:0|3:0,0:0:0:0:
165,242,142812,6,0,P|142:245|130:243,2,32,0|0|0,3:0|0:0|0:0,0:0:0:0:
449,95,143812,1,2,0:0:0:0:
449,95,144146,6,0,P|393:131|474:177,1,180.000006866455,0|0,0:0|0:0,0:0:0:0:
375,25,144479,6,0,P|336:49|314:80,2,69.3333301595054,2|0|0,3:1|0:0|0:0,0:0:0:0:
314,187,144812,2,0,P|338:226|369:247,2,69.3333301595054,2|0|0,3:1|0:0|0:0,0:0:0:0:
437,286,145146,6,0,P|429:293|418:310,1,24,6|0,3:2|0:0,0:0:0:0:
421,303,145479,6,0,P|371:332|342:332,2,69.3333301595054,2|0|0,3:1|0:0|0:0,0:0:0:0:
235,224,145812,2,0,P|185:194|156:194,2,69.3333301595054,2|0|0,3:1|0:0|0:0,0:0:0:0:
259,314,146146,2,0,P|225:322|198:344,2,69.3333301595054,2|0|0,3:1|0:0|0:0,0:0:0:0:
94,305,146479,6,0,L|90:278,1,24,6|0,3:2|0:0,0:0:0:0:
47,205,146812,6,0,L|36:124,1,53.3333333333333,2|0,3:1|1:0,0:0:0:0:
120,77,147035,1,0,1:0:0:0:
124,97,147146,2,0,L|135:178,1,53.3333333333333,2|0,3:1|1:0,0:0:0:0:
242,231,147368,1,0,1:0:0:0:
237,204,147479,6,0,L|226:135,1,69.3333301595054,2|0,3:1|1:0,0:0:0:0:
303,37,147701,1,0,1:0:0:0:
308,64,147812,2,0,L|319:133,1,69.3333301595054,2|0,3:1|1:0,0:0:0:0:
424,272,148035,1,0,1:0:0:0:
415,231,148146,6,0,L|398:133,2,85.3333333333333,2|0|0,3:1|1:0|1:0,0:0:0:0:
477,106,148479,2,0,L|457:-14,2,101.333330627441,2|0|0,3:1|1:0|1:0,0:0:0:0:
315,213,148812,6,0,L|279:209,1,32,6|2,3:2|0:0,0:0:0:0:
283,209,149479,6,0,L|170:219,1,101.333330627441,6|0,3:2|3:0,0:0:0:0:
17,233,149701,1,0,3:0:0:0:
17,233,149812,6,0,L|46:168,2,50.6666653137207,0|0|0,1:0|1:0|1:0,0:0:0:0:
65,338,150035,1,2,0:0:0:0:
65,338,150146,6,0,L|112:235,1,101.333330627441,6|0,3:2|3:0,0:0:0:0:
177,95,150368,1,0,3:0:0:0:
177,95,150479,6,0,L|217:152,2,50.6666653137207,0|0|0,1:0|1:0|1:0,0:0:0:0:
61,81,150701,1,2,0:0:0:0:
61,81,150812,6,0,L|126:173,1,101.333330627441,6|0,3:2|3:0,0:0:0:0:
215,299,151034,1,0,3:0:0:0:
215,299,151145,6,0,L|144:305,2,50.6666653137207,0|0|0,1:0|1:0|1:0,0:0:0:0:
307,222,151368,1,2,0:0:0:0:
307,222,151479,6,0,P|348:177|317:106,1,120,6|0,3:2|0:0,0:0:0:0:
244,76,151812,2,0,L|237:17,6,40,0|0|0|0|0|0|0,1:0|1:0|1:0|1:0|1:0|1:0|1:0,0:0:0:0:
121,163,152146,6,0,L|217:153,1,53.3333333333333,2|0,3:1|0:0,0:0:0:0:
374,200,152368,1,0,3:0:0:0:
370,215,152479,6,0,L|306:221,1,63.9999980468751,2|0,3:1|0:0,0:0:0:0:
127,276,152700,1,0,3:0:0:0:
149,295,152812,6,0,L|223:286,1,74.6666643880209,2|0,3:1|0:0,0:0:0:0:
397,308,153035,1,0,3:0:0:0:
335,362,153146,6,0,L|238:374,1,85.3333333333333,2|0,3:1|0:0,0:0:0:0:
81,368,153368,1,0,3:0:0:0:
81,368,153479,6,0,P|37:318|47:241,1,128,0|0,3:0|1:0,0:0:0:0:
37,259,153979,2,0,P|80:208|158:207,1,128,0|0,3:0|1:0,0:0:0:0:
140,22,154479,6,0,P|166:31|183:46,1,40,2|0,0:0|0:0,0:0:0:0:
196,156,154812,2,0,P|182:180|164:194,1,40,2|0,0:0|0:0,0:0:0:0:
142,204,155062,1,0,1:0:0:0:
142,204,155146,6,0,L|130:86,1,103.999995239258,2|2,3:1|0:1,0:0:0:0:
43,369,155479,2,0,L|59:205,1,155.999992858887,2|0,1:1|0:0,0:0:0:0:
59,198,155812,5,2,0:1:0:0:
57,182,155895,1,0,0:0:0:0:
56,166,155978,1,2,0:1:0:0:
54,151,156062,1,0,0:0:0:0:
54,135,156146,6,0,L|42:17,2,103.999995239258,2|2|2,3:1|0:1|0:1,0:0:0:0:
325,339,156646,1,2,1:1:0:0:
325,339,156729,1,0,1:0:0:0:
325,339,156812,2,0,L|308:175,1,155.999992858887,2|0,1:1|0:0,0:0:0:0:
309,168,157146,5,2,3:1:0:0:
311,152,157229,1,0,0:0:0:0:
312,136,157312,1,2,0:1:0:0:
314,121,157396,1,0,0:0:0:0:
316,105,157480,6,0,L|324:19,1,51.999997619629,2|0,3:1|0:0,0:0:0:0:
426,210,157646,1,2,0:1:0:0:
426,210,157729,1,0,0:0:0:0:
426,210,157812,2,0,L|435:105,1,103.999995239258,2|2,0:1|3:1,0:0:0:0:
144,366,158146,2,0,L|159:215,1,103.999995239258,2|0,1:1|0:0,0:0:0:0:
159,149,158479,5,0,3:1:0:0:
157,133,158562,1,0,0:0:0:0:
156,117,158645,1,2,0:1:0:0:
154,102,158729,1,0,0:0:0:0:
151,86,158813,6,0,L|145:27,1,51.999997619629,2|0,0:1|0:0,0:0:0:0:
76,166,158979,1,0,3:0:0:0:
219,194,159146,2,0,L|213:135,1,51.999997619629,2|0,0:1|0:0,0:0:0:0:
154,262,159312,1,0,1:0:0:0:
355,366,159479,6,0,L|338:202,1,155.999992858887,0|0,3:0|0:0,0:0:0:0:
339,211,159812,6,0,B|341:188|341:188|334:177|334:177|337:151,6,60.0000022888184,0|0|0|0|0|0|0,1:0|1:0|1:0|1:0|1:0|1:0|1:0,0:0:0:0:
276,93,160146,6,0,B|321:66|321:66|375:77,1,103.999995239258,2|0,0:0|0:0,0:0:0:0:
448,127,160396,1,0,1:0:0:0:
448,127,160479,6,0,L|457:22,1,103.999995239258,2|2,3:1|0:1,0:0:0:0:
186,356,160812,2,0,L|200:189,1,155.999992858887,2|0,0:1|0:0,0:0:0:0:
200,184,161146,5,2,0:1:0:0:
198,168,161229,1,0,0:0:0:0:
197,152,161312,1,2,0:1:0:0:
195,137,161396,1,0,0:0:0:0:
193,121,161479,6,0,L|181:-9,2,103.999995239258,0|0|0,3:0|0:0|0:0,0:0:0:0:
402,338,161979,1,2,1:1:0:0:
402,338,162062,1,0,1:0:0:0:
402,338,162146,2,0,L|388:171,1,155.999992858887,2|0,1:1|0:0,0:0:0:0:
390,167,162479,5,0,3:0:0:0:
392,151,162562,1,0,1:0:0:0:
393,135,162645,1,0,1:0:0:0:
395,120,162729,1,0,1:0:0:0:
399,105,162812,6,0,L|405:46,1,51.999997619629,2|0,3:1|0:0,0:0:0:0:
308,185,162979,1,2,1:1:0:0:
308,185,163062,1,0,0:0:0:0:
308,185,163146,2,0,L|314:126,1,51.999997619629,0|0,0:1|0:0,0:0:0:0:
187,52,163312,2,0,L|181:-7,1,51.999997619629,2|0,3:1|0:0,0:0:0:0:
204,185,163479,2,0,L|198:126,1,51.999997619629,2|0,3:1|0:0,0:0:0:0:
325,52,163645,2,0,L|331:-7,1,51.999997619629,2|0,0:1|0:0,0:0:0:0:
113,105,163812,2,0,L|107:46,3,51.999997619629,2|0|2|0,0:1|0:0|0:1|0:0,0:0:0:0:
160,259,164146,6,0,P|118:246|96:241,3,51.999997619629,2|0|2|0,3:1|0:0|0:1|0:0,0:0:0:0:
352,259,164479,2,0,P|394:246|416:241,3,51.999997619629,2|0|2|0,3:1|0:0|0:1|0:0,0:0:0:0:
256,361,164812,5,2,3:1:0:0:
256,330,164895,1,0,0:0:0:0:
256,300,164978,1,2,0:1:0:0:
256,269,165062,1,0,0:0:0:0:
256,238,165145,1,2,3:1:0:0:
256,207,165228,1,0,0:0:0:0:
256,176,165312,1,2,0:1:0:0:
256,145,165395,1,0,0:0:0:0:
256,114,165478,5,6,0:0:0:0:
474,197,168146,6,0,L|383:208,1,80,2|2,0:0|0:0,0:0:0:0:
282,287,168646,2,0,L|373:298,1,80,2|0,0:0|0:0,0:0:0:0:
361,296,169062,1,0,0:0:0:0:
361,296,169146,1,0,0:0:0:0:
452,285,169312,1,0,0:0:0:0:
311,199,169479,6,0,L|304:154,2,40,2|0|0,0:0|0:0|0:0,0:0:0:0:
353,88,169979,2,0,P|315:80|261:87,1,80,2|0,0:0|0:0,0:0:0:0:
31,196,170646,1,2,0:0:0:0:
31,196,170729,1,0,0:0:0:0:
31,196,170812,6,0,P|70:199|109:191,1,80,2|0,0:0|0:0,0:0:0:0:
176,56,171312,2,0,L|192:152,1,80,2|0,0:0|0:0,0:0:0:0:
189,134,171729,1,0,0:0:0:0:
189,134,171812,1,0,0:0:0:0:
205,232,171979,1,0,0:0:0:0:
288,178,172146,6,0,P|317:204|323:221,1,40,2|0,0:0|0:0,0:0:0:0:
391,171,172479,2,0,P|396:209|390:226,1,40,2|0,0:0|0:0,0:0:0:0:
339,342,172812,2,0,P|341:310|352:273,2,60,2|0|0,0:0|0:0|0:0,0:0:0:0:
197,286,173479,6,0,P|152:273|113:275,1,80,2|2,0:0|0:0,0:0:0:0:
9,192,173979,2,0,P|48:191|86:179,1,80,2|0,0:0|0:0,0:0:0:0:
86,179,174396,1,0,0:0:0:0:
86,179,174479,1,0,0:0:0:0:
35,107,174646,1,0,0:0:0:0:
180,178,174812,6,0,P|178:146|180:129,2,40,2|0|0,0:0|0:0|0:0,0:0:0:0:
40,275,175312,2,0,P|53:307|59:354,1,80,2|0,0:0|0:0,0:0:0:0:
268,206,175979,1,2,0:0:0:0:
268,206,176062,1,0,0:0:0:0:
268,206,176146,6,0,P|273:167|288:130,1,80,2|0,0:0|0:0,0:0:0:0:
216,56,176646,2,0,P|252:40|292:34,1,80,2|0,0:0|0:0,0:0:0:0:
371,92,177146,2,0,P|384:91|393:86,3,20,2|0|2|0,0:0|0:0|0:0|0:0,0:0:0:0:
485,39,177479,5,2,0:0:0:0:
477,146,177646,1,0,0:0:0:0:
485,39,177812,5,2,0:0:0:0:
477,146,177979,1,0,0:0:0:0:
371,92,178146,6,0,L|374:174,1,80,2|2,0:0|0:0,0:0:0:0:
331,283,178812,5,0,0:0:0:0:
331,283,179479,2,0,L|260:293,1,60.0000022888184,0|0,1:0|0:0,0:0:0:0:
205,200,179812,2,0,L|133:209,1,60.0000022888184,0|0,0:0|0:0,0:0:0:0:
55,334,180146,5,0,3:0:0:0:
55,334,180812,2,0,P|63:293|62:235,2,90.0000034332277,0|0|0,1:0|1:0|1:0,0:0:0:0:
76,150,181479,5,0,3:0:0:0:
76,150,182146,2,0,L|210:124,1,120.000004577637,0|0,1:0|0:0,0:0:0:0:
193,127,182812,6,0,L|327:101,1,120.000004577637,0|0,3:0|1:0,0:0:0:0:
425,55,183312,1,0,1:0:0:0:
425,55,183396,1,0,1:0:0:0:
425,55,183479,2,0,P|412:92|418:149,2,90.0000034332277,0|0|0,1:0|1:0|1:0,0:0:0:0:
486,204,184146,5,0,3:0:0:0:
486,204,184812,2,0,P|494:236|498:269,2,60.0000022888184,0|0|0,1:0|0:0|0:0,0:0:0:0:
386,244,185312,1,0,0:0:0:0:
441,354,185479,6,0,P|412:345|384:334,1,60.0000022888184,0|0,3:0|0:0,0:0:0:0:
238,234,185812,2,0,P|265:222|294:214,1,60.0000022888184,0|0,0:0|0:0,0:0:0:0:
152,347,186146,2,0,L|135:252,2,90.0000034332277,0|0|0,1:0|1:0|1:0,0:0:0:0:
174,160,186812,5,0,3:0:0:0:
174,160,187312,1,0,0:0:0:0:
136,258,187479,2,0,L|6:249,1,120.000004577637,0|0,1:0|1:0,0:0:0:0:
16,249,188146,2,0,L|12:174,1,60.0000022888184,0|0,1:0|1:0,0:0:0:0:
147,64,188479,2,0,L|222:68,1,60.0000022888184,0|0,1:0|1:0,0:0:0:0:
383,111,188812,5,0,1:0:0:0:
394,129,188896,1,0,1:0:0:0:
396,149,188979,1,0,1:0:0:0:
391,169,189062,1,0,1:0:0:0:
378,186,189146,1,0,1:0:0:0:
371,205,189229,1,0,1:0:0:0:
369,225,189312,1,0,1:0:0:0:
372,245,189396,1,0,1:0:0:0:
381,265,189479,6,0,P|341:257|278:260,1,80,8|0,0:0|0:0,0:0:0:0:
274,264,189729,1,8,0:0:0:0:
274,264,189812,2,0,L|280:168,1,80,8|0,0:0|1:0,0:0:0:0:
66,59,190146,2,0,P|106:67|169:64,1,80,8|8,0:0|0:0,0:0:0:0:
173,60,190396,1,8,0:0:0:0:
173,60,190479,2,0,L|167:156,1,80,8|0,0:0|0:0,0:0:0:0:
164,253,190812,5,8,0:0:0:0:
299,82,190979,1,0,0:0:0:0:
299,82,191062,1,8,0:0:0:0:
299,82,191146,2,0,P|351:107|379:147,1,80,8|0,0:0|1:0,0:0:0:0:
316,327,191479,2,0,P|311:269|332:225,1,80,8|8,0:0|0:0,0:0:0:0:
325,221,191729,1,0,0:0:0:0:
325,221,191812,2,0,P|277:253|228:257,1,80,8|0,0:0|1:0,0:0:0:0:
23,143,192146,6,0,P|60:154|91:180,1,80,8|0,0:0|0:0,0:0:0:0:
88,208,192396,1,8,0:0:0:0:
88,208,192479,2,0,L|72:308,1,80,8|0,0:0|1:0,0:0:0:0:
205,42,192812,2,0,L|221:142,1,80,8|8,0:0|0:0,0:0:0:0:
225,147,193062,1,8,0:0:0:0:
225,147,193146,6,0,B|305:126|290:181|392:168,1,160,8|8,0:0|0:0,0:0:0:0:
262,278,193646,1,8,0:0:0:0:
254,251,193729,1,8,0:0:0:0:
256,223,193812,1,8,0:0:0:0:
406,84,193979,2,0,P|423:92|446:110,1,40,8|8,0:0|0:0,0:0:0:0:
379,169,194146,5,8,0:0:0:0:
344,149,194229,1,8,0:0:0:0:
322,116,194312,1,8,0:0:0:0:
317,77,194396,1,8,0:0:0:0:
330,39,194479,1,8,0:0:0:0:
359,12,194562,1,8,0:0:0:0:
397,1,194646,1,8,0:0:0:0:
436,7,194729,1,8,0:0:0:0:
468,31,194812,6,0,P|464:84|452:117,2,80,12|0|0,1:2|1:0|1:0,0:0:0:0:
468,211,195312,1,0,1:0:0:0:
379,169,195479,2,0,P|335:138|313:111,1,80,0|0,1:0|1:0,0:0:0:0:
237,61,195812,2,0,P|264:32|298:10,1,80,0|0,1:0|1:0,0:0:0:0:
413,0,196062,1,0,1:0:0:0:
413,0,196146,6,0,L|397:95,1,80,0|0,1:0|1:0,0:0:0:0:
127,227,196479,2,0,P|136:160|229:186,1,160,0|0,1:0|1:0,0:0:0:0:
238,266,196979,1,0,1:0:0:0:
40,152,197146,1,0,1:0:0:0:
223,67,197312,1,0,1:0:0:0:
223,67,197396,1,0,1:0:0:0:
223,67,197479,6,0,L|274:75,3,40,0|0|0|0,1:0|1:0|1:0|1:0,0:0:0:0:
331,167,197812,2,0,L|382:175,3,40,0|0|0|0,1:0|1:0|1:0|1:0,0:0:0:0:
410,289,198146,5,0,1:0:0:0:
381,284,198229,1,0,1:0:0:0:
352,280,198312,1,0,1:0:0:0:
323,277,198396,1,0,1:0:0:0:
295,273,198479,1,0,1:0:0:0:
266,269,198562,1,0,1:0:0:0:
238,266,198646,1,0,1:0:0:0:
210,262,198729,1,0,1:0:0:0:
181,259,198812,6,0,L|149:255,2,32,0|0|0,3:0|0:0|1:0,0:0:0:0:
60,88,199646,1,0,1:0:0:0:
60,88,199729,1,0,1:0:0:0:
60,88,199812,1,2,1:2:0:0:
60,88,200146,6,0,P|71:91|83:91,1,24,2|0,0:0|0:0,0:0:0:0:
161,17,200479,6,0,B|107:64|107:64|130:188,1,192,4|0,3:2|0:0,0:0:0:0:
141,278,200812,6,0,P|208:245|262:251,1,111.999996582031,4|0,3:2|0:0,0:0:0:0:
281,257,201062,2,0,B|305:178|305:178|272:129,1,111.999996582031,0|0,3:0|0:0,0:0:0:0:
285,119,201312,1,0,3:0:0:0:
380,293,201479,6,0,P|403:307|429:319,3,55.9999982910157,4|0|0|0,3:2|0:0|0:0|0:0,0:0:0:0:
447,225,201812,1,4,3:2:0:0:
447,225,201896,1,0,0:0:0:0:
447,225,201979,1,0,0:0:0:0:
447,225,202062,1,0,0:0:0:0:
447,225,202146,6,0,P|464:171|460:78,1,111.999996582031,4|0,3:2|0:0,0:0:0:0:
321,33,202396,2,0,P|354:77|376:129,1,111.999996582031,0|0,3:0|0:0,0:0:0:0:
361,212,202646,1,0,3:0:0:0:
127,137,202812,6,0,B|203:155|286:148|286:148|263:173|262:206,1,223.999993164063,4|4,3:2|3:2,0:0:0:0:
361,212,203312,1,0,0:0:0:0:
122,221,203479,2,0,P|112:137|93:55,2,167.999994873047,0|0|0,3:0|3:0|3:0,0:0:0:0:
55,314,204146,5,4,3:2:0:0:
225,229,204312,1,0,1:0:0:0:
55,314,204479,5,4,3:2:0:0:
225,229,204646,1,0,1:0:0:0:
55,314,204812,6,0,B|18:234|18:234|50:170,1,128,4|0,3:2|0:0,0:0:0:0:
134,93,205062,2,0,L|121:224,1,128,0|0,3:0|0:0,0:0:0:0:
224,289,205312,2,0,B|235:265|235:265|222:220,1,64,0|0,1:0|1:0,0:0:0:0:
339,83,205479,6,0,P|240:61|288:159,1,256,4|0,3:2|3:0,0:0:0:0:
387,306,205979,1,0,0:0:0:0:
493,182,206146,6,0,P|427:169|366:164,1,111.999996582031,4|0,3:2|0:0,0:0:0:0:
370,196,206396,2,0,P|375:251|387:306,1,111.999996582031,0|0,3:2|0:0,0:0:0:0:
420,314,206646,1,0,3:0:0:0:
246,271,206812,6,0,P|210:279|170:276,3,55.9999982910157,4|0|0|0,3:2|0:0|0:0|0:0,0:0:0:0:
125,340,207146,1,4,3:2:0:0:
125,340,207229,1,0,0:0:0:0:
125,340,207312,1,0,0:0:0:0:
125,340,207396,1,0,0:0:0:0:
125,340,207479,6,0,B|104:262|104:262|149:195,1,111.999996582031,4|0,3:2|0:0,0:0:0:0:
10,233,207729,2,0,B|44:159|44:159|121:137,1,111.999996582031,4|0,3:2|0:0,0:0:0:0:
69,57,207979,1,0,0:0:0:0:
225,198,208146,6,0,B|289:179|289:179|299:50|299:50|246:21,1,256,4|0,3:2|3:0,0:0:0:0:
74,151,208646,1,0,0:0:0:0:
219,278,208812,2,0,L|207:92,2,167.999994873047,4|0|0,3:2|3:0|3:0,0:0:0:0:
395,183,209479,5,4,3:2:0:0:
387,364,209646,2,0,P|424:339|454:281,1,70.000000667572,0|0,1:0|1:0,0:0:0:0:
395,183,209812,5,4,3:2:0:0:
387,364,209979,2,0,P|353:334|332:272,1,70.000000667572,0|0,1:0|1:0,0:0:0:0:
395,183,210146,6,0,L|318:178,3,60.0000022888184,2|0|0|0,1:2|1:0|1:0|1:0,0:0:0:0:
395,183,210479,2,0,L|454:186,3,60.0000022888184,2|0|0|0,1:2|1:0|1:0|1:0,0:0:0:0:
396,93,210812,6,0,L|396:66,1,24,2|0,0:0|0:0,0:0:0:0:
398,40,211146,6,0,P|296:58|246:143,1,192,4|0,3:2|0:0,0:0:0:0:
236,163,211479,5,12,0:0:0:0:
42,328,211729,1,0,3:0:0:0:
10,77,211979,1,0,3:0:0:0:
26,202,212146,6,0,L|95:194,3,55.9999982910157,4|0|0|0,3:2|0:0|0:0|0:0,0:0:0:0:
150,123,212479,1,4,3:2:0:0:
170,149,212562,1,0,0:0:0:0:
180,180,212645,1,0,0:0:0:0:
179,213,212729,1,0,0:0:0:0:
172,245,212812,2,0,P|244:233|337:297,2,167.999994873047,12|0|0,0:0|3:0|3:0,0:0:0:0:
88,349,213479,6,0,P|55:303|34:251,1,111.999996582031,4|0,3:2|0:0,0:0:0:0:
142,5,213812,2,0,L|109:183,1,167.999994873047,0|0,3:0|0:0,3:0:0:0:
103,203,214146,5,12,0:0:0:0:
321,51,214396,1,0,3:0:0:0:
339,304,214646,1,0,3:0:0:0:
245,184,214812,6,0,L|226:333,1,128,4|0,3:2|1:0,0:0:0:0:
321,51,215146,2,0,L|171:70,1,128,4|0,3:2|1:0,0:0:0:0:
339,304,215479,6,0,B|425:292|425:292|434:239,1,128,12|0,0:0|0:0,0:0:0:0:
337,131,215729,2,0,B|251:143|251:143|242:196,1,128,0|0,3:0|0:0,0:0:0:0:
341,223,215979,1,8,0:0:0:0:
341,223,216062,1,8,0:0:0:0:
341,223,216146,6,0,L|190:205,1,111.999996582031,4|0,3:2|0:0,0:0:0:0:
35,96,216479,2,0,P|70:142|76:273,1,167.999994873047,0|0,3:0|0:0,0:0:0:0:
64,279,216812,5,12,0:0:0:0:
308,131,217062,1,0,3:0:0:0:
46,16,217312,1,0,3:0:0:0:
149,143,217479,6,0,P|172:178|189:195,3,55.9999982910157,4|0|0|0,3:2|0:0|0:0|0:0,0:0:0:0:
227,101,217812,1,4,3:2:0:0:
210,71,217896,1,0,0:0:0:0:
182,52,217979,1,0,0:0:0:0:
148,49,218062,1,0,0:0:0:0:
115,56,218146,2,0,P|60:111|83:212,2,167.999994873047,12|0|0,0:0|3:0|3:0,0:0:0:0:
239,266,218812,5,0,3:0:0:0:
134,298,218979,5,8,0:0:0:0:
134,298,219062,1,8,0:0:0:0:
134,298,219146,1,8,0:0:0:0:
167,192,219312,5,8,0:0:0:0:
167,192,219396,1,8,0:0:0:0:
167,192,219479,1,8,0:0:0:0:
224,377,219646,5,8,0:0:0:0:
224,377,219729,1,8,0:0:0:0:
224,377,219812,1,8,0:0:0:0:
30,328,219979,5,8,0:0:0:0:
30,328,220062,1,8,0:0:0:0:
30,328,220146,6,0,P|54:362|90:389,1,60.0000022888184,0|0,1:0|1:0,0:0:0:0:
192,288,220312,2,0,P|150:291|109:309,1,60.0000022888184,0|0,1:0|1:0,0:0:0:0:
23,228,220479,6,0,P|64:224|105:206,1,60.0000022888184,0|0,1:0|1:0,0:0:0:0:
296,261,220646,2,0,P|272:227|236:200,1,60.0000022888184,0|0,1:0|1:0,0:0:0:0:
159,79,220812,6,0,P|165:144|170:202,1,120.000004577637,2|2,0:0|0:0,0:0:0:0:
169,198,221479,6,0,B|259:181|340:168|340:168|331:203,1,210.000002002716,2|0,0:1|0:0,0:0:0:0:
270,278,221812,6,0,P|238:198|328:109,1,180.000006866455,4|0,3:2|0:0,0:0:0:0:
303,52,222146,2,0,P|258:78|207:90,1,103.999995239258,4|0,3:2|0:0,0:0:0:0:
177,81,222396,2,0,P|132:54|81:42,1,103.999995239258,0|0,3:0|0:0,0:0:0:0:
55,59,222646,1,0,3:0:0:0:
94,204,222812,6,0,L|84:255,3,51.999997619629,4|0|0|0,3:2|0:0|0:0|0:0,0:0:0:0:
31,353,223146,1,4,3:2:0:0:
31,353,223229,1,0,0:0:0:0:
31,353,223312,1,0,0:0:0:0:
31,353,223396,1,0,0:0:0:0:
31,353,223479,6,0,P|89:340|154:350,1,103.999995239258,4|0,3:2|0:0,0:0:0:0:
233,347,223729,2,0,P|210:300|174:263,1,103.999995239258,0|0,3:0|0:0,0:0:0:0:
83,255,223979,1,0,3:0:0:0:
338,154,224146,6,0,B|275:113|201:125|201:125|224:151|224:184,1,207.999990478516,4|0,3:2|3:0,0:0:0:0:
135,182,224646,1,0,0:0:0:0:
220,27,224812,2,0,P|320:41|375:67,2,155.999992858887,4|0|0,3:2|3:0|3:0,0:0:0:0:
25,35,225479,5,4,3:2:0:0:
135,182,225646,1,0,1:0:0:0:
25,35,225812,5,4,3:2:0:0:
135,182,225979,1,0,1:0:0:0:
25,35,226146,6,0,B|-2:83|-2:83|19:175,1,103.999995239258,4|0,3:2|0:0,0:0:0:0:
39,212,226396,2,0,P|97:182|155:186,1,103.999995239258,4|0,3:2|0:0,0:0:0:0:
216,166,226646,2,0,P|217:192|209:217,1,51.999997619629,0|0,1:0|1:0,0:0:0:0:
140,378,226812,6,0,P|72:339|177:291,1,207.999990478516,4|0,3:2|3:0,0:0:0:0:
220,320,227312,1,0,0:0:0:0:
337,153,227479,6,0,L|324:256,1,103.999995239258,4|0,3:2|0:0,0:0:0:0:
321,287,227729,2,0,B|370:271|370:271|426:284,1,103.999995239258,0|0,3:0|0:0,0:0:0:0:
452,288,227979,1,0,3:0:0:0:
431,117,228146,6,0,L|421:43,3,51.999997619629,4|0|0|0,3:2|0:0|0:0|0:0,0:0:0:0:
341,51,228479,1,4,3:2:0:0:
341,51,228562,1,0,0:0:0:0:
341,51,228646,1,0,0:0:0:0:
341,51,228729,1,0,0:0:0:0:
341,51,228812,6,0,P|276:77|229:71,1,103.999995239258,4|0,3:2|0:0,0:0:0:0:
111,58,229062,2,0,P|166:101|184:144,1,103.999995239258,0|0,3:2|0:0,0:0:0:0:
257,164,229312,1,0,3:0:0:0:
16,214,229479,6,0,B|120:174|106:290|259:218,1,207.999990478516,4|0,3:2|3:0,0:0:0:0:
54,310,229979,1,0,0:0:0:0:
244,319,230146,2,0,L|258:151,2,155.999992858887,4|4|0,3:2|3:2|1:0,0:0:0:0:
150,312,230812,5,4,3:2:0:0:
343,331,230979,2,0,P|340:363|324:394,1,51.999997619629,0|0,1:0|1:0,0:0:0:0:
150,312,231146,5,4,3:2:0:0:
343,331,231312,2,0,P|346:298|335:265,1,51.999997619629,0|0,1:0|1:0,0:0:0:0:
150,312,231479,6,0,L|70:306,3,51.999997619629,2|0|0|0,1:2|1:0|1:0|1:0,0:0:0:0:
150,312,231812,2,0,L|230:318,3,51.999997619629,2|0|0|0,1:2|1:0|1:0|1:0,0:0:0:0:
174,216,232146,6,0,L|144:215,1,24,0|0,0:0|0:0,0:0:0:0:
123,215,232479,6,0,B|163:173|163:173|131:48,1,180.000006866455,4|0,3:2|0:0,0:0:0:0:
123,25,232812,5,12,0:0:0:0:
370,17,233062,1,0,3:0:0:0:
276,233,233312,1,0,3:0:0:0:
257,115,233479,6,0,L|250:63,3,51.999997619629,4|0|0|0,3:2|0:0|0:0|0:0,0:0:0:0:
424,83,233812,1,4,3:2:0:0:
420,114,233896,1,0,0:0:0:0:
417,144,233979,1,0,0:0:0:0:
414,174,234062,1,0,0:0:0:0:
411,205,234146,6,0,L|395:378,2,155.999992858887,12|0|0,0:2|3:0|3:0,0:0:0:0:
424,83,234812,2,0,P|365:114|337:171,1,103.999995239258,4|0,3:2|0:0,0:0:0:0:
276,338,235146,2,0,P|244:264|171:230,1,155.999992858887,0|0,3:0|0:0,0:0:0:0:
149,237,235479,5,12,0:0:0:0:
290,53,235729,1,0,3:0:0:0:
58,24,235979,1,0,3:0:0:0:
205,136,236146,6,0,L|84:123,1,103.999995239258,4|0,3:2|1:0,0:0:0:0:
0,327,236479,2,0,L|103:315,1,103.999995239258,4|0,3:2|1:0,0:0:0:0:
366,349,236812,6,0,B|397:281|397:281|366:233,1,103.999995239258,12|0,0:0|0:0,0:0:0:0:
318,130,237062,2,0,B|287:198|287:198|318:246,1,103.999995239258,0|0,3:0|0:0,0:0:0:0:
280,317,237312,1,8,0:0:0:0:
280,317,237396,1,8,0:0:0:0:
280,317,237479,6,0,P|199:310|164:286,1,103.999995239258,4|0,3:2|0:0,0:0:0:0:
21,138,237812,2,0,P|97:146|165:110,1,155.999992858887,0|0,3:0|0:0,0:0:0:0:
178,81,238146,5,12,0:0:0:0:
51,279,238396,1,0,3:0:0:0:
280,317,238646,1,0,3:0:0:0:
178,259,238812,6,0,L|165:186,3,51.999997619629,4|0|0|0,3:2|0:0|0:0|0:0,0:0:0:0:
247,149,239146,1,4,3:2:0:0:
270,128,239229,1,0,0:0:0:0:
300,120,239312,1,0,0:0:0:0:
330,127,239396,1,0,0:0:0:0:
351,148,239479,2,0,B|459:137|459:137|508:184,2,155.999992858887,12|0|0,0:0|3:0|3:0,0:0:0:0:
251,302,240146,5,0,3:2:0:0:
342,249,240312,5,8,0:0:0:0:
342,249,240396,1,8,0:0:0:0:
342,249,240479,1,8,0:0:0:0:
241,199,240646,5,8,0:0:0:0:
241,199,240729,1,8,0:0:0:0:
241,199,240812,1,8,0:0:0:0:
359,356,240979,5,8,0:0:0:0:
359,356,241062,1,8,0:0:0:0:
359,356,241146,1,8,0:0:0:0:
431,178,241312,5,8,0:0:0:0:
431,178,241396,1,8,0:0:0:0:
431,178,241479,6,0,L|423:102,1,51.999997619629,8|8,0:0|0:0,0:0:0:0:
442,41,241646,2,0,L|366:33,1,51.999997619629,8|8,0:0|0:0,0:0:0:0:
339,221,241812,6,0,L|331:145,1,51.999997619629,8|8,0:0|0:0,0:0:0:0:
298,25,241979,2,0,L|222:17,1,51.999997619629,8|8,0:0|0:0,0:0:0:0:
156,12,242146,6,0,L|80:4,3,51.999997619629,0|0|0|0,1:0|1:0|1:0|1:0,0:0:0:0:
198,99,242479,1,0,1:0:0:0:
200,109,242562,1,0,1:0:0:0:
202,119,242646,1,0,1:0:0:0:
204,129,242729,1,0,1:0:0:0:
206,139,242812,5,6,0:0:0:0:
