osu file format v14

[General]
AudioFilename: audio.mp3
AudioLeadIn: 0
PreviewTime: 78812
Countdown: 0
SampleSet: Soft
StackLeniency: 0.2
Mode: 0
LetterboxInBreaks: 0
EpilepsyWarning: 1
WidescreenStoryboard: 1

[Editor]
DistanceSpacing: 0.4
BeatDivisor: 8
GridSize: 8
TimelineZoom: 2.5

[Metadata]
Title:Future Candy
TitleUnicode:Future Cαndy
Artist:YUC'e
ArtistUnicode:YUC'e
Creator:Nathan
Version:Sugar Rush
Source:
Tags:future bass sukinathan -tochi ゆーしえ
BeatmapID:1158221
BeatmapSetID:546820

[Difficulty]
HPDrainRate:5
CircleSize:4
OverallDifficulty:8.7
ApproachRate:9.6
SliderMultiplier:1.92
SliderTickRate:1

[Events]
//Background and Video events
0,0,"rainbow.jpg",0,0
//Break Periods
2,112346,121879
2,165679,167546
//Storyboard Layer 0 (Background)
Sprite,Background,Centre,"rainbow.jpg",320,240
//Storyboard Layer 1 (Fail)
//Storyboard Layer 2 (Pass)
//Storyboard Layer 3 (Foreground)
//Storyboard Sound Samples

[TimingPoints]
1354,666.666666666667,4,2,1,60,1,0
58813,333.333333333333,4,2,1,60,1,1
58813,-133.333333333333,4,2,1,60,0,0
69479,-100,4,2,1,60,0,0
74479,-100,4,2,2,60,0,0
78812,-500,4,2,1,60,0,0
80479,-66.6666666666667,4,2,1,60,0,1
80812,-76.9230769230769,4,2,1,60,0,1
82812,-66.6666666666667,4,2,1,60,0,1
83146,-76.9230769230769,4,2,1,60,0,1
84146,-66.6666666666667,4,2,1,60,0,1
84812,-66.6666666666667,4,2,1,60,0,1
86146,-76.9230769230769,4,2,1,60,0,1
88146,-66.6666666666667,4,2,1,60,0,1
88479,-76.9230769230769,4,2,1,60,0,1
89479,-66.6666666666667,4,2,1,60,0,1
90146,-66.6666666666667,4,2,1,60,0,0
90812,-500,4,2,1,60,0,0
91146,-66.6666666666667,4,2,1,60,0,1
91479,-76.9230769230769,4,2,1,60,0,1
92146,-76.9230769230769,4,2,1,60,0,1
93479,-66.6666666666667,4,2,1,60,0,1
94146,-76.9230769230769,4,2,1,60,0,1
94812,-66.6666666666667,4,2,1,60,0,1
95479,-66.6666666666667,4,2,1,60,0,1
96812,-76.9230769230769,4,2,1,60,0,1
97062,-100,4,2,1,60,0,1
97479,-76.9230769230769,4,2,1,60,0,1
98979,-76.9230769230769,4,2,2,60,0,1
100812,-500,4,2,1,60,0,0
101479,-57.1428571428571,4,2,1,60,0,0
101812,-500,4,2,1,60,0,1
102146,-55.5555555555556,4,2,1,60,0,1
103479,-500,4,2,1,60,0,1
103812,-40,4,2,1,60,0,1
104146,-57.1428571428571,4,2,1,60,0,1
106146,-500,4,2,1,60,0,1
106479,-54.054054054054,4,2,1,60,0,1
106646,-500,4,2,1,60,0,1
107479,-55.5555555555556,4,2,1,60,0,1
108812,-500,4,2,1,60,0,1
109146,-55.5555555555556,4,2,1,60,0,1
109479,-50,4,2,1,60,0,1
110812,-50,4,2,2,60,0,1
112146,-50,4,2,1,60,0,0
122479,-200,4,2,1,60,0,0
122812,-100,4,2,1,70,0,0
132146,-83.3333333333333,4,2,1,60,0,0
133479,-83.3333333333333,4,2,1,60,0,0
141479,-83.3333333333333,4,2,1,45,0,0
142812,-500,4,2,1,60,0,0
144146,-57.1428571428571,4,2,1,60,0,0
144479,-57.1428571428571,4,2,1,60,0,1
145146,-500,4,2,1,60,0,1
145479,-57.1428571428571,4,2,1,60,0,1
146479,-500,4,2,1,60,0,1
146812,-100,4,2,1,60,0,1
147479,-76.9230769230769,4,2,1,60,0,1
148146,-62.5,4,2,1,60,0,1
148479,-52.6315789473684,4,2,1,60,0,1
148812,-500,4,2,1,60,0,1
149146,-100,4,2,1,60,0,0
149479,-52.6315789473684,4,2,1,60,0,1
149812,-66.6666666666667,4,2,1,60,0,1
150146,-52.6315789473684,4,2,1,60,0,1
150479,-66.6666666666667,4,2,1,60,0,1
150812,-52.6315789473684,4,2,1,60,0,1
151146,-66.6666666666667,4,2,1,60,0,1
151479,-500,4,2,1,60,0,1
151812,-50,4,2,1,60,0,0
152146,-57.1428571428571,4,2,1,60,0,1
152479,-46.5116279069767,4,2,1,60,0,1
152812,-40.8163265306122,4,2,1,60,0,1
153146,-36.3636363636364,4,2,1,60,0,1
153479,-125,4,2,1,60,0,0
154479,-200,4,2,1,60,0,0
155146,-66.6666666666667,4,2,1,60,0,1
155479,-500,4,2,1,60,0,1
155812,-66.6666666666667,4,2,1,60,0,1
156812,-500,4,2,1,60,0,1
157146,-66.6666666666667,4,2,1,60,0,1
159479,-500,4,2,1,60,0,1
159812,-33.3333333333333,4,2,1,60,0,0
160146,-200,4,2,1,60,0,0
160479,-62.5,4,2,1,60,0,1
160812,-500,4,2,1,60,0,1
161146,-62.5,4,2,1,60,0,1
162146,-500,4,2,1,60,0,1
162812,-62.5,4,2,1,60,0,1
165479,-62.5,4,2,1,60,0,0
168146,-200,4,2,1,60,0,0
178812,-133.333333333333,4,2,1,60,0,0
183312,-66.6666666666667,4,2,1,60,0,0
183479,-133.333333333333,4,2,1,60,0,0
189479,-100,4,2,1,60,0,0
194479,-100,4,2,2,60,0,0
198812,-500,4,2,1,60,0,0
199646,-100,4,2,1,60,0,0
200146,-500,4,2,1,60,0,0
200479,-58.8235294117647,4,2,1,60,0,1
200812,-66.6666666666667,4,2,1,60,0,1
204146,-57.1428571428571,4,2,1,60,0,1
205479,-58.8235294117647,4,2,1,60,0,1
205812,-66.6666666666667,4,2,1,60,0,1
208146,-58.8235294117647,4,2,1,60,0,1
208479,-66.6666666666667,4,2,1,60,0,1
209646,-57.1428571428571,4,2,1,60,0,1
210146,-66.6666666666667,4,2,1,60,0,0
210812,-500,4,2,1,60,0,0
211146,-57.1428571428571,4,2,1,60,0,1
211479,-66.6666666666667,4,2,1,60,0,1
213479,-57.1428571428571,4,2,1,60,0,1
213812,-66.6666666666667,4,2,1,60,0,1
214812,-57.1428571428571,4,2,1,60,0,1
216146,-58.8235294117647,4,2,1,60,0,1
216812,-66.6666666666667,4,2,1,60,0,1
218979,-66.6666666666667,4,2,2,60,0,1
220812,-500,4,2,1,60,0,0
221479,-57.1428571428571,4,2,1,60,0,0
221812,-66.6666666666667,4,2,1,60,0,1
222146,-76.9230769230769,4,2,1,60,0,1
232146,-500,4,2,1,60,0,0
232479,-66.6666666666667,4,2,1,60,0,1
232812,-76.9230769230769,4,2,1,60,0,1
240312,-76.9230769230769,4,2,2,60,0,1
242812,-76.9230769230769,4,2,1,60,0,0

[Colours]
Combo1 : 255,94,55
Combo2 : 173,255,95
Combo3 : 17,254,176
Combo4 : 255,88,100

[HitObjects]
256,192,56020,12,0,58687,0:0:0:0:
144,257,58813,6,0,L|140:212,3,36.0000013732911,6|0|0|0,0:0|0:0|0:0|0:0,0:0:0:0:
82,158,59146,1,0,0:0:0:0:
99,146,59229,1,0,0:0:0:0:
119,137,59313,1,0,0:0:0:0:
140,134,59396,1,0,0:0:0:0:
161,136,59479,2,0,P|216:153|258:152,1,72.0000027465821
136,41,59813,2,0,P|100:45|66:58,1,72.0000027465821
326,163,60146,6,0,L|330:118,3,36.0000013732911,2|0|0|0,0:0|0:0|0:0|0:0,0:0:0:0:
246,211,60479,1,0,0:0:0:0:
249,232,60563,1,0,0:0:0:0:
252,253,60646,1,0,0:0:0:0:
255,274,60729,1,0,0:0:0:0:
260,296,60813,2,0,L|419:277,1,144.000005493164,2|0,0:0|0:0,0:0:0:0:
403,279,61479,5,2,0:0:0:0:
188,361,61813,1,0,0:0:0:0:
169,350,61896,1,0,0:0:0:0:
147,349,61979,1,0,0:0:0:0:
125,354,62063,1,0,0:0:0:0:
105,363,62146,2,0,P|61:359|27:346,1,72.0000027465821
177,207,62479,2,0,P|187:241|190:277,1,72.0000027465821
43,124,62812,6,0,L|203:136,2,144.000005493164,2|0|2,0:0|0:0|0:0,0:0:0:0:
279,18,63812,1,0,0:0:0:0:
274,39,63896,1,0,0:0:0:0:
275,60,63979,1,0,0:0:0:0:
281,80,64062,1,0,0:0:0:0:
295,96,64146,6,0,L|398:103,1,72.0000027465821,2|0,0:0|0:0,0:0:0:0:
374,278,64479,1,0,0:0:0:0:
379,257,64563,1,0,0:0:0:0:
378,236,64646,1,0,0:0:0:0:
372,216,64729,1,0,0:0:0:0:
356,198,64812,1,0,0:0:0:0:
294,263,64979,1,0,0:0:0:0:
448,188,65146,1,0,0:0:0:0:
295,96,65312,1,0,0:0:0:0:
374,278,65479,5,2,0:0:0:0:
193,90,65813,2,0,L|188:186,1,72.0000027465821
183,250,66146,1,2,0:0:0:0:
100,42,66479,2,0,L|95:138,1,72.0000027465821
51,271,66812,6,0,B|91:238|91:238|182:249,1,144.000005493164,2|0,0:0|0:0,0:0:0:0:
334,191,67312,1,0,0:0:0:0:
275,343,67479,2,0,P|270:304|276:267,1,72.0000027465821,2|0,0:0|0:0,0:0:0:0:
421,160,67812,2,0,P|425:195|420:231,1,72.0000027465821
246,13,68146,6,0,P|233:68|248:162,1,144.000005493164,2|0,0:0|0:0,0:0:0:0:
244,153,68646,1,0,0:0:0:0:
392,73,68812,2,0,L|297:76,1,72.0000027465821
75,193,69146,5,2,0:0:0:0:
75,193,69229,1,0,0:0:0:0:
75,193,69312,1,2,0:0:0:0:
75,193,69396,1,0,0:0:0:0:
75,193,69479,6,0,L|186:188,1,96,8|0,0:0|0:0,0:0:0:0:
249,183,69729,1,8,0:0:0:0:
210,186,69812,1,8,0:0:0:0:
357,200,69979,2,0,L|361:159,2,24,0|0|0,1:0|1:0|1:0,1:0:0:0:
292,282,70146,1,8,0:0:0:0:
395,80,70312,1,8,0:0:0:0:
395,80,70396,1,8,0:0:0:0:
395,80,70479,2,0,P|338:77|297:93,1,96,8|0,0:0|0:0,0:0:0:0:
138,321,70812,6,0,P|183:335|230:331,1,96,8|0,0:0|0:0,0:0:0:0:
292,282,71062,1,8,0:0:0:0:
268,311,71146,1,8,0:0:0:0:
403,193,71312,2,0,P|425:197|444:207,2,24,0|0|0,1:0|1:0|1:0,1:0:0:0:
302,89,71479,2,0,L|309:185,1,96,8|8,0:0|0:0,0:0:0:0:
338,313,71812,1,8,0:0:0:0:
204,171,71979,2,0,P|208:149|218:130,2,24,0|0|0,1:0|1:0|1:0,1:0:0:0:
271,258,72146,6,0,P|224:261|179:287,1,96,8|0,0:0|0:0,0:0:0:0:
108,306,72396,1,8,0:0:0:0:
146,306,72479,1,8,0:0:0:0:
24,357,72646,2,0,L|19:316,2,24,0|0|0,1:0|1:0|1:0,1:0:0:0:
123,228,72812,1,8,0:0:0:0:
8,117,72979,1,8,0:0:0:0:
8,117,73062,1,8,0:0:0:0:
8,117,73146,2,0,L|16:226,1,96,8|0,0:0|0:0,0:0:0:0:
213,317,73479,5,8,0:0:0:0:
130,235,73646,1,8,0:0:0:0:
130,235,73729,1,8,0:0:0:0:
130,235,73812,1,8,0:0:0:0:
287,229,73979,1,8,0:0:0:0:
287,229,74062,1,8,0:0:0:0:
287,229,74146,5,8,0:0:0:0:
329,221,74229,1,8,0:0:0:0:
372,220,74312,1,8,0:0:0:0:
415,216,74396,1,8,0:0:0:0:
467,211,74479,5,8,0:0:0:0:
488,162,74562,1,8,0:0:0:0:
463,114,74646,1,8,0:0:0:0:
411,105,74729,1,8,0:0:0:0:
374,143,74812,5,4,1:2:0:0:
467,211,74979,1,0,1:2:0:0:
266,188,75146,1,0,1:2:0:0:
378,34,75312,1,0,1:2:0:0:
367,237,75479,6,0,P|382:297|380:350,2,96,0|0|0,1:0|1:0|1:0,1:0:0:0:
121,124,75979,2,0,L|84:120,2,24,0|0|0,1:0|1:0|1:0,1:0:0:0:
214,137,76146,5,0,1:0:0:0:
122,23,76312,1,0,1:0:0:0:
101,213,76479,2,0,L|94:319,1,96,0|0,1:0|1:0,1:0:0:0:
21,162,76812,1,0,1:0:0:0:
193,266,76979,1,0,1:0:0:0:
11,348,77146,1,0,1:0:0:0:
143,140,77312,1,8,0:0:0:0:
143,140,77396,1,8,0:0:0:0:
143,140,77479,5,0,1:0:0:0:
178,125,77562,1,0,1:0:0:0:
216,125,77646,1,0,1:0:0:0:
250,141,77729,1,0,1:0:0:0:
279,164,77812,5,0,1:0:0:0:
297,208,77896,1,0,1:0:0:0:
335,236,77979,1,0,1:0:0:0:
382,232,78062,1,0,1:0:0:0:
420,202,78146,1,0,1:0:0:0:
438,158,78229,1,0,1:0:0:0:
422,112,78312,1,0,1:0:0:0:
385,80,78396,1,0,1:0:0:0:
343,103,78479,5,0,1:0:0:0:
348,121,78562,1,0,1:0:0:0:
351,139,78646,1,0,1:0:0:0:
356,157,78729,1,0,1:0:0:0:
420,202,78812,6,0,L|458:208,2,38.4,0|0|0,3:0|0:0|0:0,0:0:0:0:
184,119,79812,1,2,0:0:0:0:
184,119,80146,6,2,L|189:84,1,28.8,2|0,0:0|0:0,0:0:0:0:
101,135,80479,6,0,B|114:189|114:189|219:216|219:216|260:163,1,216.000008239746,4|0,3:2|0:0,0:0:0:0:
307,99,80812,6,0,P|340:165|312:244,1,124.79999428711,4|0,3:2|0:0,0:0:0:0:
306,318,81062,2,0,P|349:274|359:214,1,124.79999428711,0|0,3:2|0:0,0:0:0:0:
439,175,81312,2,0,P|447:204|446:239,1,62.3999971435548,0|0,3:2|0:0,0:0:0:0:
396,364,81479,6,0,L|476:349,3,62.3999971435548,4|0|0|0,3:2|0:0|0:0|0:0,0:0:0:0:
306,318,81812,1,4,3:2:0:0:
287,314,81896,1,0,0:0:0:0:
268,311,81979,1,0,0:0:0:0:
249,307,82062,1,0,0:0:0:0:
192,355,82146,6,0,B|225:308|225:308|215:234,1,124.79999428711,4|0,3:2|0:0,0:0:0:0:
75,222,82396,2,0,B|121:255|121:255|195:245,1,124.79999428711,0|0,3:0|0:0,0:0:0:0:
316,294,82646,2,0,L|308:233,1,62.3999971435548,0|0,3:0|0:0,0:0:0:0:
232,127,82812,6,0,B|285:70|285:70|302:207,1,216.000008239746,4|0,3:2|0:0,0:0:0:0:
217,241,83146,6,0,P|190:240|153:230,1,62.3999971435548,4|0,3:2|0:0,0:0:0:0:
377,131,83312,2,0,P|407:122|438:121,1,62.3999971435548
185,53,83479,5,4,3:2:0:0:
302,207,83646,1,0,0:0:0:0:
305,225,83729,1,0,3:0:0:0:
307,243,83812,1,0,0:0:0:0:
372,39,83979,1,0,3:0:0:0:
307,243,84146,6,0,B|291:209|291:209|297:174,1,72.0000027465821,4|0,3:2|0:0,0:0:0:0:
282,57,84312,1,0,1:0:0:0:
307,243,84479,6,0,B|312:208|312:208|297:174,1,72.0000027465821,4|0,3:2|0:0,0:0:0:0:
282,57,84646,1,0,1:0:0:0:
307,243,84812,6,0,L|286:91,1,144.000005493164,4|0,3:2|0:0,0:0:0:0:
128,92,85062,2,0,P|187:122|287:100,1,144.000005493164,0|0,3:0|0:0,0:0:0:0:
406,171,85312,2,0,P|376:164|344:167,2,36.0000013732911,0|0|0,1:0|1:0|1:0,1:0:0:0:
358,30,85479,6,0,P|287:88|368:131,1,216.000008239746,4|0,3:2|0:0,0:0:0:0:
481,142,85812,2,0,B|384:120|391:227|256:195,1,216.000008239746,0|0,3:0|0:0,0:0:0:0:
173,291,86146,6,0,B|246:268|246:268|306:286,1,124.79999428711,4|0,3:2|0:0,0:0:0:0:
429,278,86396,2,0,B|356:301|356:301|296:283,1,124.79999428711,0|0,3:0|0:0,0:0:0:0:
281,199,86646,2,0,L|291:111,1,62.3999971435548,0|0,3:0|0:0,0:0:0:0:
422,129,86812,6,0,P|453:129|483:122,3,62.3999971435548,4|0|0|0,3:2|0:0|0:0|0:0,0:0:0:0:
273,58,87146,1,4,3:2:0:0:
291,55,87229,1,0,0:0:0:0:
309,58,87312,1,0,0:0:0:0:
325,66,87396,1,0,0:0:0:0:
367,6,87479,6,0,L|355:138,1,124.79999428711,4|0,3:2|0:0,0:0:0:0:
241,178,87729,2,0,B|314:191|314:191|374:137,1,124.79999428711,0|0,3:0|0:0,0:0:0:0:
432,170,87979,2,0,L|441:236,1,62.3999971435548,0|0,3:0|0:0,0:0:0:0:
462,368,88146,6,0,B|440:232|440:232|384:289,1,216.000008239746,4|0,3:2|0:0,0:0:0:0:
318,371,88479,2,0,P|286:370|257:361,1,62.3999971435548,0|0,3:0|0:0,0:0:0:0:
207,195,88646,2,0,P|175:195|146:204,1,62.3999971435548
93,357,88812,5,4,3:2:0:0:
311,241,88979,1,0,0:0:0:0:
307,259,89062,1,0,3:0:0:0:
303,277,89146,1,0,0:0:0:0:
102,136,89312,1,0,0:0:0:0:
200,340,89479,5,4,3:2:0:0:
213,129,89646,2,0,B|197:162|197:162|207:195,1,72.0000027465821,0|0,1:0|1:0,1:0:0:0:
200,340,89812,5,4,3:2:0:0:
213,129,89979,2,0,B|223:162|223:162|207:195,1,72.0000027465821,0|0,1:0|1:0,1:0:0:0:
200,340,90146,6,0,L|206:245,3,72.0000027465821,2|0|0|0,1:2|1:0|1:0|1:0,1:0:0:0:
105,202,90479,1,2,1:2:0:0:
104,187,90562,1,0,1:0:0:0:
103,173,90646,1,0,1:0:0:0:
102,158,90729,1,0,1:0:0:0:
101,144,90812,6,2,L|99:108,1,28.8,2|0,0:0|0:0,0:0:0:0:
254,101,91146,6,0,B|209:79|209:79|219:200|219:200|260:173,1,216.000008239746,4|0,3:2|0:0,0:0:0:0:
372,69,91479,6,0,L|358:255,2,187.199991430664,12|0|0,0:0|3:0|3:0,0:0:0:0:
494,209,92146,5,4,3:2:0:0:
475,212,92229,1,0,0:0:0:0:
456,215,92312,1,0,0:0:0:0:
437,218,92396,1,0,0:0:0:0:
358,255,92479,5,4,3:2:0:0:
339,252,92562,1,0,0:0:0:0:
320,249,92646,1,0,0:0:0:0:
301,246,92729,1,0,0:0:0:0:
252,191,92812,6,0,B|274:250|274:250|234:362,1,124.79999428711,12|0,0:0|0:0,0:0:0:0:
113,304,93062,2,0,B|172:282|172:282|284:322,1,124.79999428711,0|0,3:0|0:0,0:0:0:0:
372,356,93312,2,0,P|341:360|310:357,1,62.3999971435548,0|0,3:0|0:0,0:0:0:0:
252,191,93479,6,0,B|265:28|265:28|311:123,1,216.000008239746,4|0,3:2|0:0,0:0:0:0:
348,213,93812,2,0,L|341:141,1,72.0000027465821,4|0,3:2|0:0,0:0:0:0:
175,97,93979,2,0,L|169:26,1,72.0000027465821
192,262,94146,5,12,0:0:0:0:
368,65,94312,1,0,0:0:0:0:
386,68,94396,1,0,3:0:0:0:
404,70,94479,1,0,0:0:0:0:
169,26,94646,1,0,3:0:0:0:
286,242,94812,6,0,P|258:219|236:190,1,72.0000027465821,4|0,3:0|0:0,0:0:0:0:
273,57,94979,1,0,1:0:0:0:
286,242,95146,6,0,P|309:214|324:182,1,72.0000027465821,4|0,3:2|0:0,0:0:0:0:
273,57,95312,1,0,1:0:0:0:
286,242,95479,6,0,L|276:76,1,144.000005493164,8|0,0:0|0:0,0:0:0:0:
426,53,95729,2,0,B|382:97|382:97|301:103,1,144.000005493164,0|0,3:0|0:0,0:0:0:0:
176,72,95979,1,8,0:0:0:0:
176,72,96062,1,8,0:0:0:0:
176,72,96146,6,0,B|126:21|126:21|274:10,1,216.000008239746,4|0,3:2|0:0,0:0:0:0:
327,148,96479,2,0,B|252:136|252:136|207:171|207:171|124:158,1,216.000008239746,0|0,3:0|0:0,0:0:0:0:
59,292,96812,6,0,L|36:95,2,187.199991430664,12|0|0,0:0|3:0|3:0,0:0:0:0:
315,367,97479,5,4,3:2:0:0:
298,372,97562,1,0,0:0:0:0:
280,370,97646,1,0,0:0:0:0:
263,362,97729,1,0,0:0:0:0:
286,276,97812,5,4,3:2:0:0:
269,271,97895,1,0,0:0:0:0:
251,273,97979,1,0,0:0:0:0:
234,281,98062,1,0,0:0:0:0:
183,350,98146,6,0,P|186:266|164:218,1,124.79999428711,12|0,0:0|0:0,0:0:0:0:
77,150,98396,2,0,P|133:212|147:263,1,124.79999428711,0|0,3:0|0:0,0:0:0:0:
269,271,98646,2,0,P|278:241|280:210,1,62.3999971435548,0|0,3:0|0:0,0:0:0:0:
158,50,98812,5,0,3:0:0:0:
49,254,98979,5,8,0:0:0:0:
49,254,99062,1,8,0:0:0:0:
49,254,99146,1,8,0:0:0:0:
270,117,99312,5,8,0:0:0:0:
270,117,99395,1,8,0:0:0:0:
270,117,99479,1,8,0:0:0:0:
48,4,99646,5,8,0:0:0:0:
48,4,99729,1,8,0:0:0:0:
48,4,99813,1,8,0:0:0:0:
218,284,99979,5,8,0:0:0:0:
218,284,100062,1,8,0:0:0:0:
218,284,100146,5,0,1:0:0:0:
255,316,100229,1,0,1:0:0:0:
304,317,100312,1,0,1:0:0:0:
340,282,100396,1,0,1:0:0:0:
337,232,100479,5,0,1:0:0:0:
296,184,100562,1,0,1:0:0:0:
300,121,100646,1,0,1:0:0:0:
346,80,100729,1,0,1:0:0:0:
401,84,100812,6,2,L|435:80,1,28.8,2|0,0:0|0:0,0:0:0:0:
406,164,101146,2,2,L|377:160,1,28.8,2|0,0:0|0:0,0:0:0:0:
510,189,101479,6,2,P|453:82|536:122,1,252.000002403259,2|0,0:1|0:0,0:1:0:0:
491,273,101812,6,0,L|460:275,1,28.8,4|0,3:2|0:0,0:0:0:0:
337,203,102146,6,0,L|555:185,1,172.799994726563,4|0,3:2|0:0,0:0:0:0:
508,172,102396,2,0,L|290:190,1,172.799994726563,4|0,3:2|0:0,0:0:0:0:
334,168,102646,2,0,L|433:160,1,86.3999973632813,4|0,3:2|0:0,0:0:0:0:
484,346,102812,6,0,L|266:328,1,172.799994726563,4|0,3:2|0:0,0:0:0:0:
313,315,103062,2,0,L|531:333,1,172.799994726563,4|0,3:2|0:0,0:0:0:0:
487,311,103312,2,0,L|388:303,1,86.3999973632813,4|0,3:2|0:0,0:0:0:0:
216,227,103479,6,0,L|213:193,1,28.8,4|0,3:2|0:0,0:0:0:0:
264,124,103812,6,0,B|209:100|209:100|157:128,1,120,2|0,0:1|0:0,0:0:0:0:
156,128,103979,2,0,B|211:152|211:152|263:124,1,120,2|0,0:1|0:0,0:0:0:0:
328,240,104146,5,0,3:0:0:0:
94,31,104312,1,0,3:0:0:0:
94,31,104396,1,0,3:0:0:0:
326,27,104562,1,0,3:0:0:0:
326,27,104646,1,0,3:0:0:0:
111,254,104812,5,8,3:2:0:0:
209,26,104979,1,0,3:0:0:0:
209,26,105062,1,0,3:0:0:0:
332,244,105229,1,0,3:0:0:0:
332,244,105312,1,0,3:0:0:0:
63,141,105479,5,0,3:0:0:0:
358,121,105646,1,0,3:0:0:0:
358,121,105729,1,0,3:0:0:0:
233,321,105896,1,0,3:0:0:0:
233,321,105979,1,0,3:0:0:0:
210,54,106146,6,0,L|209:26,1,28.8,8|0,3:2|0:0,0:0:0:0:
217,146,106479,6,0,L|222:215,2,44.3999998306274,0|0|0,1:0|1:0|1:0,1:0:0:0:
103,105,106646,1,8,0:0:0:0:
103,105,106729,1,8,0:0:0:0:
103,105,106812,6,0,L|131:103,1,28.8,4|0,3:2|0:0,0:0:0:0:
320,91,107146,2,0,L|291:92,1,28.8,4|0,3:2|0:0,0:0:0:0:
136,251,107479,6,0,B|227:288|227:288|322:234,1,172.799994726563,4|0,3:2|0:0,0:0:0:0:
123,259,107729,2,0,B|168:345|168:345|250:359,1,172.799994726563,4|0,3:2|0:0,0:0:0:0:
112,263,107979,2,0,L|105:353,1,86.3999973632813,4|0,3:2|0:0,0:0:0:0:
278,158,108146,6,0,P|169:140|94:174,1,172.799994726563,4|0,3:2|0:0,0:0:0:0:
279,173,108396,2,0,P|207:89|123:65,1,172.799994726563,4|0,3:2|0:0,0:0:0:0:
280,186,108646,2,0,P|312:106|313:68,1,86.3999973632813,4|0,3:2|0:0,0:0:0:0:
273,8,108812,6,0,L|270:39,1,28.8,4|0,3:2|0:0,0:0:0:0:
403,119,109146,6,0,L|312:129,1,86.3999973632813,4|0,3:2|0:0,0:0:0:0:
88,37,109312,2,0,L|179:27,1,86.3999973632813,4|0,3:2|0:0,0:0:0:0:
300,227,109479,6,0,L|204:236,1,96,6|0,3:2|3:0,3:0:0:0:
101,143,109646,1,0,3:0:0:0:
129,140,109729,2,0,L|224:130,1,96,2|0,3:2|3:0,3:0:0:0:
376,318,109896,1,0,3:0:0:0:
348,321,109979,2,0,L|252:330,1,96,2|0,3:2|3:0,3:0:0:0:
117,366,110146,6,0,L|126:270,1,96,6|0,3:2|3:0,3:0:0:0:
311,103,110312,1,0,3:0:0:0:
309,131,110395,2,0,L|299:226,1,96,2|0,3:2|3:0,3:0:0:0:
101,143,110562,1,0,3:0:0:0:
103,115,110645,2,0,L|112:19,1,96,2|0,3:2|3:0,3:0:0:0:
340,30,110812,5,12,0:0:0:0:
378,57,110896,1,8,0:0:0:0:
392,103,110979,1,8,0:0:0:0:
375,147,111062,1,8,0:0:0:0:
337,177,111146,1,8,0:0:0:0:
320,221,111229,1,8,0:0:0:0:
334,267,111312,1,8,0:0:0:0:
372,294,111396,1,8,0:0:0:0:
419,298,111479,5,4,1:2:0:0:
428,296,111562,1,0,1:0:0:0:
437,294,111646,1,0,1:0:0:0:
446,293,111729,1,0,1:0:0:0:
455,292,111812,1,0,1:0:0:0:
464,291,111896,1,0,1:0:0:0:
473,290,111979,1,0,1:0:0:0:
482,289,112062,1,0,1:0:0:0:
491,288,112146,5,2,0:0:0:0:
370,87,122479,6,0,L|361:181,1,72,2|0,0:0|0:0,0:0:0:0:
363,158,122812,6,0,P|315:160|268:172,1,96,4|0,3:2|0:0,0:0:0:0:
149,275,123146,2,0,L|344:299,1,192,0|0,1:0|0:0,0:0:0:0:
363,158,123646,1,0,3:0:0:0:
149,275,123812,2,0,L|138:179,1,96,0|0,1:0|0:0,0:0:0:0:
215,100,124146,5,0,3:0:0:0:
41,240,124312,1,0,0:0:0:0:
41,240,124396,1,0,0:0:0:0:
41,240,124479,1,0,1:0:0:0:
232,338,124646,2,0,P|242:261|225:212,1,96
59,45,124979,2,0,P|49:122|66:171,1,96,0|0,3:0|1:0,0:0:0:0:
259,138,125312,2,0,L|179:134,1,48
100,226,125479,6,0,B|150:251|150:251|241:243,1,144,0|0,3:0|0:0,0:0:0:0:
265,240,125812,1,0,1:0:0:0:
127,98,125979,1,0,0:0:0:0:
342,71,126146,2,0,B|361:106|361:106|351:161,2,96,0|0|0,0:0|3:0|1:0,0:0:0:0:
232,24,126646,1,0,0:0:0:0:
433,189,126812,6,0,P|378:181|291:244,1,144,0|0,3:0|0:0,0:0:0:0:
295,252,127146,1,0,1:0:0:0:
269,101,127312,2,0,P|221:130|195:234,1,144,0|0,3:0|0:0,0:0:0:0:
203,237,127646,1,0,3:0:0:0:
82,152,127812,2,0,P|71:184|95:266,1,96,0|0,1:0|0:0,0:0:0:0:
286,347,128146,6,0,L|297:219,1,96,0|0,3:0|0:0,0:0:0:0:
192,143,128479,2,0,B|258:132|258:132|304:162|304:162|373:155,1,192,0|0,1:0|0:0,0:0:0:0:
286,347,128979,1,0,3:0:0:0:
192,143,129146,2,0,L|181:271,1,96,0|0,1:0|0:0,0:0:0:0:
176,335,129396,1,0,0:0:0:0:
176,335,129479,6,0,P|110:345|55:335,1,96,0|0,3:0|0:0,0:0:0:0:
303,240,129812,1,0,1:0:0:0:
72,217,129979,2,0,L|19:223,2,48
277,89,130312,2,0,P|211:79|156:89,1,96,0|0,3:0|1:0,0:0:0:0:
215,228,130646,2,0,L|222:170,1,48
113,11,130812,6,0,B|80:70|80:70|114:170,1,144,0|0,3:0|0:0,0:0:0:0:
123,172,131146,1,0,1:0:0:0:
14,17,131312,1,0,0:0:0:0:
182,82,131479,2,0,L|259:90,2,48,0|0|0,0:0|0:0|3:0,0:0:0:0:
18,260,131812,2,0,L|146:245,1,96,0|0,1:0|0:0,0:0:0:0:
357,189,132146,6,0,L|353:217,2,28.7999991210938,4|0|0,1:2|1:0|1:0,1:0:0:0:
303,293,132312,1,8,0:0:0:0:
303,293,132396,1,8,0:0:0:0:
303,293,132479,2,0,L|275:272,2,28.7999991210938,0|0|0,1:0|1:0|1:0,1:0:0:0:
229,198,132646,1,8,0:0:0:0:
229,198,132729,1,8,0:0:0:0:
229,198,132812,5,4,1:2:0:0:
261,181,132896,1,0,1:0:0:0:
296,180,132979,1,0,1:0:0:0:
329,191,133062,1,0,1:0:0:0:
353,218,133146,5,0,1:0:0:0:
390,250,133229,1,0,1:0:0:0:
439,260,133312,1,0,1:0:0:0:
485,238,133396,1,0,1:0:0:0:
508,193,133479,6,0,L|499:71,1,115.199996484375,0|0,3:0|0:0,0:0:0:0:
364,70,133729,1,0,1:0:0:0:
360,92,133812,2,0,L|437:99,1,57.5999982421876,0|0,3:0|0:0,0:0:0:0:
445,8,133979,1,0,1:0:0:0:
303,160,134146,2,0,L|168:147,1,115.199996484375,0|0,3:0|0:0,0:0:0:0:
105,261,134396,1,0,1:0:0:0:
127,260,134479,2,0,L|123:202,1,57.5999982421876,0|0,3:0|0:0,0:0:0:0:
113,80,134646,1,0,1:0:0:0:
36,316,134812,6,0,B|137:280|137:280|205:321,1,172.799994726563,0|0,3:0|1:0,0:0:0:0:
224,331,135146,1,0,3:0:0:0:
345,252,135312,2,0,P|261:222|229:225,1,115.199996484375,0|0,0:0|3:0,0:0:0:0:
0,179,135646,1,0,1:0:0:0:
34,179,135729,1,0,1:0:0:0:
68,172,135812,1,0,3:0:0:0:
13,64,135979,1,0,1:0:0:0:
148,227,136146,6,0,L|162:86,1,115.199996484375,0|0,3:0|0:0,0:0:0:0:
265,41,136396,1,0,1:0:0:0:
246,54,136479,2,0,L|238:126,1,57.5999982421876,0|0,3:0|0:0,0:0:0:0:
68,172,136646,1,0,1:0:0:0:
258,289,136812,2,0,P|200:293|140:325,1,115.199996484375,0|0,3:0|0:0,0:0:0:0:
27,244,137062,1,0,1:0:0:0:
46,254,137146,2,0,P|114:248|141:234,1,57.5999982421876,0|0,3:0|0:0,0:0:0:0:
266,198,137312,1,0,1:0:0:0:
179,19,137479,6,0,B|137:86|137:86|166:188,1,172.799994726563,0|0,3:0|1:0,0:0:0:0:
177,209,137812,1,0,3:0:0:0:
356,95,137979,2,0,L|206:107,1,115.199996484375,0|0,1:0|3:0,0:0:0:0:
69,261,138312,1,0,1:0:0:0:
88,289,138395,1,0,1:0:0:0:
115,310,138479,1,0,3:0:0:0:
147,324,138562,1,0,1:0:0:0:
181,330,138645,1,0,1:0:0:0:
215,326,138728,1,0,1:0:0:0:
247,313,138812,5,4,3:2:0:0:
0,341,138979,1,0,3:0:0:0:
177,209,139146,1,0,3:0:0:0:
0,120,139312,1,0,3:0:0:0:
86,312,139479,2,0,L|76:174,1,115.199996484375,0|0,3:0|3:0,3:0:0:0:
161,19,139812,1,0,3:0:0:0:
0,120,139979,1,0,3:0:0:0:
235,132,140146,6,0,P|148:113|88:128,1,115.199996484375,0|0,3:0|3:0,3:0:0:0:
264,317,140479,2,0,P|321:318|375:301,1,115.199996484375,0|0,3:0|3:0,3:0:0:0:
484,109,140812,1,0,3:0:0:0:
495,332,140979,1,0,3:0:0:0:
302,226,141146,1,0,3:0:0:0:
495,332,141312,1,0,3:0:0:0:
400,150,141479,5,0,3:0:0:0:
374,119,141562,1,0,3:0:0:0:
338,100,141645,1,0,3:0:0:0:
298,96,141729,1,0,3:0:0:0:
248,111,141812,5,0,3:0:0:0:
208,107,141896,1,0,3:0:0:0:
172,88,141979,1,0,3:0:0:0:
146,57,142062,1,0,3:0:0:0:
235,18,142146,6,0,P|274:8|316:13,3,57.5999982421876,0|0|0|0,3:0|3:0|3:0|3:0,3:0:0:0:
309,186,142479,2,0,P|270:196|228:191,3,57.5999982421876,0|0|0|0,3:0|3:0|3:0|3:0,3:0:0:0:
259,100,142812,6,0,L|304:95,2,38.4,0|0|0,3:0|0:0|0:0,0:0:0:0:
228,365,143812,1,2,0:0:0:0:
228,365,144146,6,2,P|146:303|244:276,1,252.000002403259,0|0,0:0|0:0,0:1:0:0:
32,374,144479,6,0,L|44:236,1,112.000001068115,2|0,3:1|0:0,0:0:0:0:
114,144,144701,1,0,0:0:0:0:
74,264,144812,2,0,L|86:126,1,112.000001068115,2|0,3:1|0:0,0:0:0:0:
176,29,145035,1,0,0:0:0:0:
114,144,145146,6,0,L|118:109,1,25.6,6|0,3:2|0:0,0:0:0:0:
70,21,145479,6,0,P|124:9|175:28,1,112.000001068115,2|0,3:1|0:0,0:0:0:0:
284,141,145701,1,0,0:0:0:0:
210,21,145812,2,0,P|247:61|256:115,1,112.000001068115,2|0,3:1|0:0,0:0:0:0:
231,269,146035,1,0,0:0:0:0:
284,141,146146,2,0,P|267:193|225:228,1,112.000001068115,2|0,3:1|0:0,0:0:0:0:
100,183,146368,1,0,0:0:0:0:
231,269,146479,6,0,P|212:275|197:275,1,28.8,6|0,3:2|0:0,0:0:0:0:
100,183,146812,6,0,L|87:281,2,64,2|0|0,3:1|1:0|1:0,1:0:0:0:
123,44,147146,5,2,3:1:0:0:
152,116,147257,1,0,1:0:0:0:
75,104,147368,1,0,1:0:0:0:
231,126,147479,6,0,L|244:20,2,83.1999961914064,2|0|0,3:1|1:0|1:0,1:0:0:0:
215,224,147812,5,2,3:1:0:0:
152,116,147923,1,0,1:0:0:0:
308,144,148034,1,0,1:0:0:0:
123,197,148146,6,0,L|108:324,2,102.4,2|0|0,3:1|1:0|1:0,1:0:0:0:
393,128,148479,6,0,L|377:255,1,121.59999675293,2|0,3:1|1:0,1:0:0:0:
254,331,148701,1,0,1:0:0:0:
270,217,148812,6,0,L|239:213,1,28.8,6|0,3:2|1:0,1:0:0:0:
377,248,149146,6,2,L|414:241,6,24,2|0|0|0|0|0|0,0:0|0:0|0:0|0:0|0:0|0:0|0:0,0:0:0:0:
254,331,149479,6,0,L|120:316,1,121.59999675293,6|0,3:2|3:0,0:0:0:0:
21,258,149701,1,0,3:0:0:0:
150,164,149812,6,0,B|146:178|146:178|152:188|152:188|147:209,3,48.0000018310548,0|0|0|0,1:0|1:0|1:0|1:0,1:0:0:0:
93,62,150035,1,2,0:0:0:0:
93,62,150146,6,0,B|149:42|149:42|235:74,1,121.59999675293,6|0,3:2|3:0,3:0:0:0:
392,87,150368,1,0,3:0:0:0:
277,162,150479,6,0,B|256:157|256:157|246:162|246:162|231:159,3,48.0000018310548,0|0|0|0,1:0|1:0|1:0|1:0,1:0:0:0:
280,7,150701,1,2,0:0:0:0:
280,7,150812,6,0,B|300:63|300:63|268:149,1,121.59999675293,6|0,3:2|3:0,3:0:0:0:
284,283,151035,1,0,3:0:0:0:
362,164,151146,6,0,B|365:178|365:178|359:188|359:188|364:209,3,48.0000018310548,0|0|0|0,1:0|1:0|1:0|1:0,1:0:0:0:
362,143,151368,1,2,0:0:0:0:
284,283,151479,6,0,L|250:280,1,28.8,6|0,3:2|0:0,0:0:0:0:
198,213,151812,6,0,P|193:189|195:166,6,48,0|0|0|0|0|0|0,1:0|1:0|1:0|1:0|1:0|1:0|1:0,1:0:0:0:
205,27,152146,6,0,B|152:12|152:12|97:43,1,112.000001068115,2|0,3:1|0:0,0:0:0:0:
42,140,152368,1,0,3:0:0:0:
82,28,152479,6,0,B|34:55|34:55|12:143,1,137.600002099609,2|0,3:1|0:0,0:0:0:0:
103,273,152701,1,0,3:0:0:0:
42,140,152812,6,0,B|28:193|28:193|77:283,1,156.800001495361,2|0,3:1|0:0,0:0:0:0:
256,326,153035,1,0,3:0:0:0:
103,273,153146,6,0,B|130:320|130:320|251:353,1,176.000001678467,2|0,3:1|0:0,0:0:0:0:
396,346,153368,1,0,3:0:0:0:
396,346,153479,6,0,P|419:278|375:193,1,153.6,0|0,3:0|1:0,0:0:0:0:
389,205,153979,2,0,P|458:221|510:309,1,153.6,0|0,3:0|1:0,0:0:0:0:
259,242,154479,6,0,P|245:207|245:186,1,48,2|0,0:0|0:0,0:0:0:0:
244,197,154812,2,0,P|248:159|259:140,1,48,2|0,0:0|0:0,0:0:0:0:
335,197,155062,1,0,1:0:0:0:
334,167,155146,6,0,L|328:69,1,72.0000027465821,2|0,3:1|0:0,0:0:0:0:
430,95,155312,2,0,L|425:23,1,72.0000027465821,2|0,0:1|0:0,0:0:0:0:
448,239,155479,6,0,L|446:268,1,28.8,2|0,1:1|0:0,0:0:0:0:
420,326,155812,5,2,0:1:0:0:
424,267,155896,1,0,0:0:0:0:
428,209,155979,1,2,0:1:0:0:
431,152,156062,1,0,0:0:0:0:
430,95,156146,6,0,L|425:23,1,72.0000027465821,2|0,3:1|0:0,0:0:0:0:
264,239,156312,2,0,L|259:167,1,72.0000027465821,2|0,0:1|0:0,0:0:0:0:
512,290,156479,2,0,L|507:218,1,72.0000027465821,2|0,0:1|0:0,0:0:0:0:
336,158,156646,1,2,1:1:0:0:
342,186,156729,1,0,1:0:0:0:
347,218,156812,6,0,L|344:246,1,28.8,2|0,1:1|0:0,0:0:0:0:
316,318,157146,5,2,3:1:0:0:
319,260,157229,1,0,0:0:0:0:
321,201,157312,1,2,0:1:0:0:
325,145,157396,1,0,0:0:0:0:
325,88,157479,6,0,L|320:16,1,72.0000027465821,2|0,3:1|0:0,0:0:0:0:
191,201,157646,1,2,0:1:0:0:
187,145,157729,1,0,0:0:0:0:
187,88,157812,6,0,L|192:16,1,72.0000027465821,2|0,0:1|0:0,0:0:0:0:
30,117,157979,2,0,L|35:45,1,72.0000027465821,2|0,3:1|0:0,0:0:0:0:
110,236,158146,2,0,L|115:164,1,72.0000027465821,2|0,1:1|0:0,0:0:0:0:
15,326,158312,2,0,L|20:254,1,72.0000027465821,2|0,0:1|0:0,0:0:0:0:
196,318,158479,5,0,3:1:0:0:
193,260,158562,1,0,0:0:0:0:
191,201,158646,1,2,0:1:0:0:
187,145,158729,1,0,0:0:0:0:
187,88,158812,6,0,L|192:16,1,72.0000027465821,2|0,0:1|0:0,0:0:0:0:
312,259,158979,1,0,3:0:0:0:
91,142,159146,2,0,L|96:70,1,72.0000027465821,2|0,0:1|0:0,0:0:0:0:
309,31,159312,1,0,1:0:0:0:
195,232,159479,6,0,L|192:260,1,28.8,0|0,3:0|0:0,0:0:0:0:
310,115,159812,6,0,B|310:135|310:135|318:151|318:151|314:167|314:167|315:184,6,72.0000027465821,0|0|0|0|0|0|0,1:0|1:0|1:0|1:0|1:0|1:0|1:0,1:0:0:0:
388,183,160146,6,0,P|413:189|443:190,1,48,2|0,0:0|0:0,0:0:0:0:
487,122,160396,1,0,1:0:0:0:
487,92,160479,6,0,L|481:14,1,76.8,2|0,3:1|0:0,0:0:0:0:
310,115,160646,2,0,L|304:38,1,76.8,2|0,0:1|0:0,0:0:0:0:
400,261,160812,6,0,L|398:289,1,28.8,2|0,0:1|0:0,0:0:0:0:
375,364,161146,5,2,0:1:0:0:
380,296,161229,1,0,0:0:0:0:
384,227,161312,1,2,0:1:0:0:
389,158,161396,1,0,0:0:0:0:
398,89,161479,6,0,L|392:12,1,76.8,0|0,3:0|0:0,0:0:0:0:
126,214,161646,2,0,L|131:137,1,76.8
380,296,161812,2,0,L|374:219,1,76.8
217,166,161979,1,2,1:1:0:0:
216,197,162062,1,0,1:0:0:0:
213,226,162146,6,0,L|215:254,1,28.8,2|0,1:1|0:0,0:0:0:0:
196,355,162479,5,0,3:0:0:0:
191,287,162562,1,0,1:0:0:0:
187,218,162646,1,0,1:0:0:0:
182,149,162729,1,0,1:0:0:0:
173,80,162812,6,0,L|179:3,1,76.8,2|0,3:1|0:0,0:0:0:0:
100,275,162979,1,2,1:1:0:0:
95,206,163062,1,0,0:0:0:0:
86,137,163146,6,0,L|92:60,1,76.8,0|0,0:1|0:0,0:0:0:0:
191,287,163312,2,0,L|197:210,1,76.8,2|0,3:1|0:0,0:0:0:0:
426,137,163479,6,0,L|420:60,1,76.8,2|0,3:1|0:0,0:0:0:0:
321,287,163646,2,0,L|315:210,1,76.8,2|0,0:1|0:0,0:0:0:0:
256,50,163812,6,0,L|256:127,3,76.8,2|0|2|0,0:1|0:0|0:1|0:0,0:0:0:0:
315,210,164146,5,2,3:1:0:0:
355,207,164229,1,0,0:0:0:0:
393,203,164312,2,0,L|470:197,1,76.8,2|0,0:1|0:0,0:0:0:0:
197,210,164479,5,2,3:1:0:0:
157,207,164562,1,0,0:0:0:0:
119,203,164646,2,0,L|42:197,1,76.8,2|0,0:1|0:0,0:0:0:0:
256,50,164812,5,2,3:1:0:0:
291,89,164896,1,0,0:0:0:0:
291,142,164979,1,2,0:1:0:0:
267,188,165062,1,0,0:0:0:0:
221,217,165146,5,2,3:1:0:0:
186,256,165229,1,0,0:0:0:0:
186,309,165312,1,2,0:1:0:0:
210,355,165396,1,0,0:0:0:0:
256,381,165479,5,6,0:0:0:0:
256,381,168146,5,2,0:0:0:0:
321,314,168479,1,2,0:0:0:0:
321,314,168646,2,0,P|274:291|219:298,1,96,2|0,0:0|0:0,0:0:0:0:
211,302,169062,1,0,0:0:0:0:
194,316,169146,1,0,0:0:0:0:
165,224,169312,1,0,0:0:0:0:
121,376,169479,5,2,0:0:0:0:
93,286,169646,1,0,0:0:0:0:
165,224,169812,1,0,0:0:0:0:
19,327,169979,2,0,P|9:271|27:230,1,96,2|0,0:0|0:0,0:0:0:0:
84,40,170646,1,2,0:0:0:0:
84,40,170729,1,0,0:0:0:0:
84,40,170812,6,0,L|78:140,1,96,2|0,0:0|0:0,0:0:0:0:
165,224,171312,2,0,L|171:124,1,96,2|0,0:0|0:0,0:0:0:0:
172,106,171729,1,0,0:0:0:0:
173,84,171812,1,0,0:0:0:0:
258,142,171979,1,0,0:0:0:0:
78,135,172146,5,2,0:0:0:0:
165,224,172312,1,0,0:0:0:0:
258,142,172479,1,2,0:0:0:0:
350,228,172646,1,0,0:0:0:0:
165,224,172812,6,0,P|129:229|95:241,2,72,2|0|0,0:0|0:0|0:0,0:0:0:0:
350,228,173479,5,2,0:0:0:0:
267,281,173812,1,2,0:0:0:0:
267,281,173979,2,0,P|256:237|267:171,1,96,2|0,0:0|0:0,0:0:0:0:
270,167,174396,1,0,0:0:0:0:
283,150,174479,1,0,0:0:0:0:
350,228,174646,1,0,0:0:0:0:
198,106,174812,5,2,0:0:0:0:
270,167,174979,1,0,0:0:0:0:
186,210,175146,1,0,0:0:0:0:
359,132,175312,2,0,L|348:247,1,96,2|0,0:0|0:0,0:0:0:0:
419,363,175980,1,2,0:0:0:0:
419,363,176063,1,0,0:0:0:0:
419,363,176146,6,0,P|384:344|316:338,1,96,2|0,0:0|0:0,0:0:0:0:
155,291,176646,2,0,P|202:285|245:264,1,96,2|0,0:0|0:0,0:0:0:0:
349,227,177146,2,0,L|353:191,3,24,2|0|2|0,0:0|0:0|0:0|0:0,0:0:0:0:
271,141,177479,5,2,0:0:0:0:
443,158,177646,1,0,0:0:0:0:
271,141,177812,1,2,0:0:0:0:
443,158,177979,1,0,0:0:0:0:
367,53,178146,6,0,L|362:112,1,48,2|0,0:0|0:0,0:0:0:0:
351,203,178479,2,0,L|346:262,1,48,2|0,0:0|0:0,0:0:0:0:
339,345,178812,5,0,3:0:0:0:
267,290,178979,1,0,0:0:0:0:
267,290,179146,2,0,P|220:282|194:282,1,72.0000027465821
1,341,179479,2,0,L|162:354,1,144.000005493164,0|0,1:0|0:0,0:0:0:0:
144,352,179979,1,0,0:0:0:0:
58,211,180146,6,0,L|55:184,2,18.0000006866455,0|0|0,3:0|0:0|0:0,0:0:0:0:
58,211,180479,1,0,0:0:0:0:
52,111,180646,1,0,0:0:0:0:
162,217,180812,2,0,P|163:164|181:98,2,108.000004119873,0|0|0,1:0|1:0|1:0,0:0:0:0:
153,313,181479,5,0,3:0:0:0:
240,276,181646,1,0,0:0:0:0:
240,276,181812,2,0,P|268:276|319:285,1,72.0000027465821
486,155,182146,2,0,P|387:161|340:186,1,144.000005493164,0|0,1:0|0:0,0:0:0:0:
348,181,182646,1,0,0:0:0:0:
448,31,182812,6,0,L|449:64,2,18.0000006866455,0|0|0,3:0|0:0|0:0,0:0:0:0:
448,31,183146,1,0,1:0:0:0:
356,188,183312,1,0,1:0:0:0:
356,188,183396,1,0,1:0:0:0:
356,188,183479,6,0,L|367:69,2,108.000004119873,0|0|0,1:0|1:0|1:0,0:0:0:0:
402,298,184146,5,0,3:0:0:0:
233,279,184312,1,0,0:0:0:0:
233,279,184479,2,0,L|314:266,1,72.0000027465821
429,172,184812,5,0,1:0:0:0:
283,115,184979,1,0,0:0:0:0:
304,267,185146,1,0,0:0:0:0:
429,172,185312,1,0,0:0:0:0:
283,115,185479,6,0,P|281:102|279:86,2,18.0000006866455,0|0|0,3:0|0:0|0:0,0:0:0:0:
283,115,185812,2,0,P|227:129|195:129,1,72.0000027465821
54,216,186146,2,0,P|94:213|171:231,2,108.000004119873,0|0|0,1:0|1:0|1:0,0:0:0:0:
249,237,186812,5,0,3:0:0:0:
148,141,186979,1,0,0:0:0:0:
148,141,187146,2,0,L|143:62,1,72.0000027465821
250,15,187479,5,0,1:0:0:0:
36,124,187812,1,0,1:0:0:0:
249,237,188146,5,0,1:0:0:0:
36,124,188312,1,0,1:0:0:0:
250,15,188479,1,0,1:0:0:0:
249,237,188646,1,0,1:0:0:0:
171,129,188812,5,0,1:0:0:0:
169,147,188896,1,0,1:0:0:0:
167,164,188979,1,0,1:0:0:0:
165,181,189062,1,0,1:0:0:0:
163,199,189146,5,0,1:0:0:0:
152,229,189229,1,0,1:0:0:0:
155,261,189312,1,0,1:0:0:0:
168,290,189396,1,0,1:0:0:0:
193,310,189479,6,0,L|302:322,1,96,8|0,0:0|0:0,0:0:0:0:
367,301,189729,1,8,0:0:0:0:
330,311,189812,1,8,0:0:0:0:
374,216,189979,2,0,L|412:219,2,24,0|0|0,1:0|1:0|1:0,1:0:0:0:
431,352,190146,1,8,0:0:0:0:
278,245,190312,1,8,0:0:0:0:
278,245,190396,1,8,0:0:0:0:
278,245,190479,2,0,P|270:197|291:147,1,96,8|0,0:0|0:0,0:0:0:0:
464,62,190812,6,0,P|480:106|472:153,1,96,8|0,0:0|0:0,0:0:0:0:
415,210,191062,1,8,0:0:0:0:
445,186,191146,1,8,0:0:0:0:
341,18,191312,2,0,L|304:14,2,24,0|0|0,1:0|1:0|1:0,1:0:0:0:
401,115,191479,2,0,L|305:107,1,96,8|8,0:0|0:0,0:0:0:0:
126,14,191812,1,8,0:0:0:0:
126,210,191979,2,0,L|102:212,2,24,0|0|0,1:0|1:0|1:0,1:0:0:0:
212,140,192146,6,0,L|221:260,1,96,8|0,0:0|0:0,0:0:0:0:
228,314,192396,1,8,0:0:0:0:
225,276,192479,1,8,0:0:0:0:
100,310,192646,2,0,L|97:333,2,24,0|0|0,1:0|1:0|1:0,1:0:0:0:
173,382,192812,1,8,0:0:0:0:
134,218,192979,1,8,0:0:0:0:
134,218,193062,1,8,0:0:0:0:
134,218,193146,2,0,P|82:219|15:245,1,96,8|0,0:0|0:0,0:0:0:0:
340,246,193479,5,8,0:0:0:0:
252,99,193646,1,8,0:0:0:0:
252,99,193729,1,8,0:0:0:0:
252,99,193812,1,8,0:0:0:0:
278,300,193979,1,8,0:0:0:0:
278,300,194062,1,8,0:0:0:0:
278,300,194146,5,8,0:0:0:0:
253,264,194229,1,8,0:0:0:0:
256,221,194312,1,8,0:0:0:0:
280,187,194396,1,8,0:0:0:0:
313,159,194479,5,8,0:0:0:0:
337,112,194562,1,8,0:0:0:0:
333,58,194646,1,8,0:0:0:0:
294,21,194729,1,8,0:0:0:0:
241,19,194812,5,12,1:2:0:0:
339,246,194979,1,0,1:0:0:0:
136,97,195146,1,0,1:0:0:0:
337,112,195312,1,0,1:0:0:0:
112,230,195479,2,0,P|64:224|17:231,2,96,0|0|0,1:0|1:0|1:0,1:0:0:0:
344,272,195979,2,0,L|346:295,2,24,0|0|0,1:0|1:0|1:0,1:0:0:0:
260,197,196146,5,0,1:0:0:0:
429,273,196312,1,0,1:0:0:0:
278,371,196479,2,0,L|267:272,1,96,0|0,1:0|1:0,1:0:0:0:
416,194,196812,1,0,1:0:0:0:
257,77,196979,1,0,1:0:0:0:
438,21,197146,2,0,L|427:116,1,96,0|0,1:0|1:0,1:0:0:0:
416,194,197396,1,0,1:0:0:0:
411,217,197479,5,0,1:0:0:0:
379,195,197562,1,0,1:0:0:0:
340,196,197646,1,0,1:0:0:0:
306,213,197729,1,0,1:0:0:0:
287,247,197812,2,0,P|265:255|241:259,1,48,0|0,1:0|1:0,1:0:0:0:
180,328,197979,5,0,1:0:0:0:
157,279,198063,1,0,1:0:0:0:
160,226,198146,1,0,1:0:0:0:
195,187,198229,1,0,1:0:0:0:
240,161,198312,1,0,1:0:0:0:
263,112,198396,1,0,1:0:0:0:
260,59,198479,1,0,1:0:0:0:
225,20,198562,1,0,1:0:0:0:
172,9,198646,1,0,1:0:0:0:
124,32,198729,1,0,1:0:0:0:
148,117,198812,6,0,P|166:106|180:95,1,38.4,0|0,3:0|0:0,0:0:0:0:
85,199,199479,1,0,1:0:0:0:
85,199,199646,6,0,P|70:195|44:181,3,32,0|0|0|2,1:0|1:0|1:0|1:2,1:0:0:0:
121,326,200146,6,2,L|124:289,1,28.8,2|0,0:0|0:0,0:0:0:0:
1,340,200479,6,0,B|75:355|123:298|123:298|140:353|192:377,1,244.80000466919,4|0,3:2|0:0,0:0:0:0:
218,295,200812,6,0,B|302:265|302:265|353:286,1,144.000005493164,4|0,3:2|0:0,0:0:0:0:
472,384,201062,2,0,B|390:350|390:350|366:300,1,144.000005493164,0|0,3:0|0:0,0:0:0:0:
475,278,201312,2,0,B|486:224|486:224|477:209,1,72.0000027465821,0|0,3:0|0:0,0:0:0:0:
320,174,201479,5,4,3:2:0:0:
310,195,201562,1,0,0:0:0:0:
307,216,201646,1,0,0:0:0:0:
313,236,201729,1,0,0:0:0:0:
383,258,201812,5,4,3:2:0:0:
392,277,201895,1,0,0:0:0:0:
395,298,201979,1,0,0:0:0:0:
389,318,202062,1,0,0:0:0:0:
447,366,202146,6,0,P|374:338|298:359,1,144.000005493164,4|0,3:2|0:0,0:0:0:0:
168,288,202396,2,0,P|213:342|281:363,1,144.000005493164,0|0,3:0|0:0,0:0:0:0:
327,195,202646,2,0,P|310:226|306:262,1,72.0000027465821,0|0,3:0|0:0,0:0:0:0:
86,346,202812,6,0,B|81:273|75:184|75:184|149:230,1,216.000008239746,4|0,3:2|0:0,0:0:0:0:
238,296,203146,6,0,P|205:288|166:287,1,72.0000027465821,4|0,3:2|0:0,0:0:0:0:
42,98,203312,2,0,P|74:104|113:105,1,72.0000027465821
326,123,203479,5,0,3:0:0:0:
93,245,203646,1,0,0:0:0:0:
95,223,203729,1,0,3:0:0:0:
98,201,203812,1,0,0:0:0:0:
320,222,203979,1,0,3:0:0:0:
226,84,204146,6,0,B|206:121|206:121|219:160,1,84.0000008010864,4|0,3:2|0:0,0:0:0:0:
208,295,204312,1,0,1:0:0:0:
226,84,204479,6,0,B|239:122|239:122|219:160,1,84.0000008010864,4|0,3:2|0:0,0:0:0:0:
208,295,204646,1,0,1:0:0:0:
226,84,204812,6,0,L|211:271,1,168.000001602173,4|0,3:2|0:0,0:0:0:0:
368,301,205062,2,0,B|258:320|258:320|194:288,1,168.000001602173,0|0,3:0|0:0,0:0:0:0:
85,272,205312,2,0,L|91:337,2,42.0000004005432,0|0|0,1:0|1:0|1:0,1:0:0:0:
88,85,205479,6,0,B|140:58|140:58|134:186|134:186|82:158,1,244.80000466919,4|0,3:2|0:0,0:0:0:0:
0,181,205812,2,0,B|81:172|81:172|140:203|140:203|207:198,1,216.000008239746,0|0,3:0|0:0,0:0:0:0:
341,126,206146,6,0,P|306:183|314:278,1,144.000005493164,4|0,3:2|0:0,0:0:0:0:
311,378,206396,2,0,L|328:225,1,144.000005493164,0|0,3:2|0:0,0:0:0:0:
467,292,206646,2,0,L|389:302,1,72.0000027465821,0|0,3:0|0:0,0:0:0:0:
241,304,206812,5,4,3:2:0:0:
219,306,206896,1,0,0:0:0:0:
197,310,206979,1,0,0:0:0:0:
175,313,207062,1,0,0:0:0:0:
154,236,207146,5,4,3:2:0:0:
132,234,207230,1,0,0:0:0:0:
110,230,207313,1,0,0:0:0:0:
88,227,207396,1,0,0:0:0:0:
40,303,207479,6,0,B|70:225|70:225|23:143,1,144.000005493164,4|0,3:2|0:0,0:0:0:0:
32,34,207729,2,0,P|4:92|21:193,1,144.000005493164,4|0,3:2|0:0,0:0:0:0:
154,236,207979,2,0,L|141:165,1,72.0000027465821
225,42,208146,6,0,P|318:84|227:131,1,244.80000466919,4|0,3:2|0:0,0:0:0:0:
123,19,208479,6,0,L|133:111,1,72.0000027465821,0|0,3:0|0:0,0:0:0:0:
332,209,208646,2,0,L|340:138,1,72.0000027465821
350,36,208812,5,4,3:2:0:0:
167,162,208979,1,0,0:0:0:0:
147,170,209063,1,0,3:0:0:0:
126,170,209146,1,0,0:0:0:0:
364,303,209312,1,0,3:0:0:0:
254,80,209479,5,4,3:2:0:0:
269,293,209646,2,0,P|252:264|201:228,1,84.0000008010864,0|0,1:0|1:0,1:0:0:0:
254,80,209812,5,4,3:2:0:0:
269,293,209979,2,0,P|282:262|329:221,1,84.0000008010864,0|0,1:0|1:0,1:0:0:0:
254,80,210146,6,0,L|257:154,3,72.0000027465821,2|0|0|0,1:2|1:0|1:0|1:0,1:0:0:0:
214,233,210479,1,2,1:2:0:0:
180,229,210562,1,0,1:0:0:0:
146,225,210646,1,0,1:0:0:0:
112,221,210729,1,0,1:0:0:0:
78,216,210812,6,2,L|75:251,1,28.8,2|0,0:0|0:0,0:0:0:0:
64,340,211146,6,0,B|67:280|67:280|90:253|90:253|56:195|56:195|77:164|77:164|84:97,1,252.000002403259,4|0,3:2|0:0,0:0:0:0:
218,79,211479,6,0,L|2:92,2,216.000008239746,12|0|0,0:0|3:0|3:0,3:0:0:0:
420,37,212146,5,4,3:2:0:0:
433,54,212229,1,0,0:0:0:0:
440,74,212312,1,0,0:0:0:0:
436,95,212396,1,0,0:0:0:0:
366,118,212479,5,4,3:2:0:0:
353,135,212562,1,0,0:0:0:0:
346,155,212645,1,0,0:0:0:0:
350,176,212729,1,0,0:0:0:0:
424,239,212812,6,0,B|379:212|379:212|261:258,1,144.000005493164,12|0,0:0|0:0,0:0:0:0:
133,254,213062,2,0,P|213:282|267:260,1,144.000005493164,0|0,3:0|0:0,0:0:0:0:
213,122,213312,2,0,B|192:153|192:153|209:196,1,72.0000027465821,0|0,3:0|0:0,0:0:0:0:
414,324,213479,6,0,B|292:276|314:394|155:357,1,252.000002403259,4|0,3:2|0:0,0:0:0:0:
55,377,213812,6,0,P|49:334|27:276,1,72.0000027465821,0|0,3:0|0:0,0:0:0:0:
190,255,213979,2,0,P|196:212|218:154,1,72.0000027465821
62,100,214146,5,12,0:0:0:0:
277,237,214312,1,0,0:0:0:0:
298,240,214396,1,0,3:0:0:0:
318,245,214479,1,0,0:0:0:0:
40,306,214646,1,0,3:0:0:0:
187,110,214812,6,0,P|174:150|183:206,1,84.0000008010864,4|0,3:2|0:0,0:0:0:0:
162,318,214979,1,0,1:0:0:0:
187,110,215146,6,0,P|190:151|177:191,1,84.0000008010864,4|0,3:2|0:0,0:0:0:0:
162,318,215312,1,0,1:0:0:0:
187,110,215479,6,0,L|165:310,1,168.000001602173,12|0,0:0|0:0,0:0:0:0:
361,272,215729,2,0,P|272:243|186:270,1,168.000001602173,0|0,3:0|0:0,0:0:0:0:
63,335,215979,1,8,0:0:0:0:
63,335,216062,1,8,0:0:0:0:
63,335,216146,6,0,P|156:270|55:241,1,244.80000466919,4|0,3:2|0:0,0:0:0:0:
9,138,216479,2,0,B|105:95|181:142|181:142|167:113|182:62,1,244.80000466919,0|0,3:0|0:0,0:0:0:0:
330,51,216812,6,0,B|285:106|285:106|309:261,2,216.000008239746,12|0|0,0:0|3:0|3:0,0:0:0:0:
469,187,217479,5,4,3:2:0:0:
465,208,217562,1,0,0:0:0:0:
462,229,217646,1,0,0:0:0:0:
459,250,217729,1,0,0:0:0:0:
381,267,217812,5,4,3:2:0:0:
385,288,217895,1,0,0:0:0:0:
388,309,217979,1,0,0:0:0:0:
391,330,218062,1,0,0:0:0:0:
465,350,218146,6,0,L|285:373,1,144.000005493164,12|0,0:0|0:0,0:0:0:0:
151,349,218396,2,0,P|237:328|293:353,1,144.000005493164,0|0,3:0|0:0,0:0:0:0:
385,288,218646,2,0,L|392:215,1,72.0000027465821,0|0,3:0|0:0,0:0:0:0:
316,130,218812,5,0,3:0:0:0:
512,273,218979,5,8,0:0:0:0:
512,273,219062,1,8,0:0:0:0:
512,273,219146,1,8,0:0:0:0:
292,355,219312,5,8,0:0:0:0:
292,355,219396,1,8,0:0:0:0:
292,355,219479,1,8,0:0:0:0:
486,93,219646,5,8,0:0:0:0:
486,93,219729,1,8,0:0:0:0:
486,93,219812,1,8,0:0:0:0:
143,37,219979,5,8,0:0:0:0:
143,37,220062,1,8,0:0:0:0:
143,37,220146,5,0,1:0:0:0:
195,59,220229,1,0,1:0:0:0:
217,111,220312,1,0,1:0:0:0:
196,165,220396,1,0,1:0:0:0:
129,193,220479,5,0,1:0:0:0:
102,259,220562,1,0,1:0:0:0:
119,329,220646,1,0,1:0:0:0:
184,357,220729,1,0,1:0:0:0:
224,258,220812,6,2,L|190:263,1,28.8,2|0,0:0|0:0,0:0:0:0:
105,116,221146,2,2,L|139:111,1,28.8,2|0,0:0|0:0,0:0:0:0:
317,263,221479,6,2,B|128:233|128:233|208:165,1,252.000002403259,2|0,0:1|0:0,0:1:0:0:
291,149,221812,6,0,B|298:216|298:216|268:263|268:263|286:381,1,216.000008239746,4|0,3:2|0:0,0:0:0:0:
416,379,222146,6,0,P|436:297|412:227,1,124.79999428711,4|0,3:2|0:0,0:0:0:0:
415,132,222396,2,0,L|400:278,1,124.79999428711,0|0,3:0|0:0,0:0:0:0:
374,255,222646,1,0,3:0:0:0:
212,201,222812,6,0,L|149:207,3,62.3999971435548,4|0|0|0,3:2|0:0|0:0|0:0,0:0:0:0:
238,74,223146,1,4,3:2:0:0:
218,73,223229,1,0,0:0:0:0:
199,71,223312,1,0,0:0:0:0:
180,70,223396,1,0,0:0:0:0:
122,17,223479,6,0,B|153:73|153:73|137:131,1,124.79999428711,4|0,3:2|0:0,0:0:0:0:
121,262,223729,2,0,L|108:122,1,124.79999428711,0|0,3:0|0:0,0:0:0:0:
80,141,223979,1,0,3:0:0:0:
4,328,224146,6,0,B|124:289|124:289|176:331,1,187.199991430664,4|0,3:2|0:0,0:0:0:0:
227,154,224479,2,0,B|263:181|263:181|253:265|253:265|170:200,1,187.199991430664,0|0,3:0|0:0,0:0:0:0:
150,73,224812,6,0,P|232:46|331:116,2,187.199991430664,4|0|0,3:2|3:0|3:0,0:0:0:0:
43,266,225479,6,0,B|36:297|36:297|43:333,1,62.3999971435548,4|0,3:2|0:0,0:0:0:0:
289,253,225646,1,0,1:0:0:0:
43,266,225812,6,0,B|36:235|36:235|43:199,1,62.3999971435548,4|0,3:2|0:0,0:0:0:0:
289,253,225979,1,0,1:0:0:0:
43,266,226146,6,0,P|105:276|182:260,1,124.79999428711,4|0,3:2|0:0,0:0:0:0:
209,370,226396,2,0,B|180:318|180:318|200:221,1,124.79999428711,4|0,3:2|0:0,0:0:0:0:
215,240,226646,2,0,L|216:208,2,31.1999985717774,0|0|0,1:0|1:0|1:0,1:0:0:0:
188,89,226812,6,0,B|138:52|138:52|127:197,1,187.199991430664,4|0,3:2|0:0,0:0:0:0:
217,209,227146,2,0,B|284:201|284:201|325:231|325:231|412:225,1,187.199991430664,0|0,3:0|0:0,0:0:0:0:
481,240,227479,6,0,P|501:179|470:108,1,124.79999428711,4|0,3:2|0:0,0:0:0:0:
457,0,227729,2,0,L|451:152,1,124.79999428711,0|0,3:0|0:0,0:0:0:0:
420,127,227979,1,0,3:0:0:0:
306,34,228146,6,0,L|373:31,3,62.3999971435548,4|0|0|0,3:2|0:0|0:0|0:0,0:0:0:0:
201,117,228479,1,4,3:2:0:0:
182,116,228562,1,0,0:0:0:0:
163,115,228646,1,0,0:0:0:0:
144,113,228729,1,0,0:0:0:0:
89,56,228812,6,0,B|116:107|116:107|83:209,1,124.79999428711,4|0,3:2|0:0,0:0:0:0:
73,300,229062,2,4,L|61:167,1,124.79999428711,0|0,3:2|0:0,3:2:0:0:
28,179,229312,1,0,3:0:0:0:
158,343,229479,6,0,B|227:323|263:271|263:271|268:302|285:323,1,187.199991430664,4|0,3:2|0:0,0:0:0:0:
408,203,229812,2,0,P|347:249|424:286,1,187.199991430664,0|0,3:0|0:0,0:0:0:0:
497,218,230146,6,0,L|509:69,1,124.79999428711,4|0,3:2|0:0,0:0:0:0:
361,84,230396,2,0,P|434:108|488:89,1,124.79999428711,4|0,3:2|0:0,3:0:0:0:
280,52,230646,1,0,1:0:0:0:
281,70,230729,1,0,1:0:0:0:
282,88,230812,5,4,3:2:0:0:
299,276,230979,2,0,B|309:245|309:245|287:208,1,62.3999971435548,0|0,1:0|1:0,1:0:0:0:
282,88,231146,5,4,3:2:0:0:
299,276,231312,2,0,B|283:250|283:250|293:219,1,62.3999971435548,0|0,1:0|1:0,1:0:0:0:
282,88,231479,6,0,L|276:5,3,62.3999971435548,2|0|0|0,1:2|1:0|1:0|1:0,1:0:0:0:
195,164,231812,1,2,1:2:0:0:
176,166,231896,1,0,1:0:0:0:
157,168,231979,1,0,1:0:0:0:
138,170,232062,1,0,1:0:0:0:
119,172,232146,6,0,L|89:176,1,28.8
0,104,232479,6,0,B|58:138|58:138|66:214|66:214|4:278,1,216.000008239746,4|0,3:2|0:0,0:0:0:0:
195,164,232812,6,0,L|176:350,2,187.199991430664,12|0|0,0:0|3:0|3:0,0:0:0:0:
100,84,233479,5,4,3:2:0:0:
115,93,233562,1,0,0:0:0:0:
133,96,233646,1,0,0:0:0:0:
151,92,233729,1,0,0:0:0:0:
203,34,233812,5,4,3:2:0:0:
221,30,233895,1,0,0:0:0:0:
239,33,233979,1,0,0:0:0:0:
254,42,234062,1,0,0:0:0:0:
328,9,234146,6,0,P|292:59|292:120,1,124.79999428711,12|0,0:2|0:0,0:0:0:0:
399,156,234396,2,0,L|265:142,1,124.79999428711,0|0,3:0|0:0,0:0:0:0:
260,165,234646,1,0,3:0:0:0:
395,270,234812,6,0,B|532:257|532:257|490:310,1,187.199991430664,4|0,3:2|0:0,0:0:0:0:
247,290,235146,2,0,B|110:303|110:303|152:250,1,187.199991430664,0|0,3:0|0:0,0:0:0:0:
309,185,235479,6,0,L|329:381,2,187.199991430664,12|0|0,0:0|3:0|3:0,0:0:0:0:
36,62,236146,6,0,P|54:86|86:105,1,62.3999971435548,4|0,3:2|0:0,0:0:0:0:
279,77,236312,1,0,1:0:0:0:
36,62,236479,6,0,P|57:40|91:23,1,62.3999971435548,4|0,3:2|0:0,0:0:0:0:
279,77,236646,1,0,1:0:0:0:
36,62,236812,6,0,L|186:68,1,124.79999428711,12|0,0:0|0:0,0:0:0:0:
163,209,237062,2,0,B|141:151|141:151|157:90,1,124.79999428711,0|0,3:0|0:0,0:0:0:0:
286,84,237312,1,8,0:0:0:0:
286,84,237396,1,8,0:0:0:0:
286,84,237479,6,0,P|228:129|315:190,1,187.199991430664,4|0,3:2|0:0,0:0:0:0:
461,268,237812,2,0,B|426:245|378:237|378:237|357:282|303:295,1,187.199991430664,0|0,3:0|0:0,0:0:0:0:
180,356,238146,6,0,B|247:329|247:329|396:376,2,187.199991430664,12|0|0,0:0|3:0|3:0,0:0:0:0:
34,90,238812,5,4,3:2:0:0:
36,109,238896,1,0,0:0:0:0:
38,128,238979,1,0,0:0:0:0:
40,147,239062,1,0,0:0:0:0:
130,176,239146,5,4,3:2:0:0:
128,195,239230,1,0,0:0:0:0:
126,214,239313,1,0,0:0:0:0:
124,233,239396,1,0,0:0:0:0:
57,268,239479,6,0,L|197:283,1,124.79999428711,12|0,0:0|0:0,0:0:0:0:
307,304,239729,2,0,B|270:281|270:281|173:307,1,124.79999428711,0|0,3:0|0:0,0:0:0:0:
201,328,239979,1,0,3:0:0:0:
356,216,240146,5,0,3:2:0:0:
184,141,240312,5,8,0:0:0:0:
184,141,240396,1,8,0:0:0:0:
184,141,240479,1,8,0:0:0:0:
355,378,240646,5,8,0:0:0:0:
355,378,240729,1,8,0:0:0:0:
355,378,240812,1,8,0:0:0:0:
324,84,240979,5,8,0:0:0:0:
324,84,241062,1,8,0:0:0:0:
324,84,241146,1,8,0:0:0:0:
76,247,241312,5,8,0:0:0:0:
76,247,241396,1,8,0:0:0:0:
76,247,241479,5,8,0:0:0:0:
106,268,241562,1,8,0:0:0:0:
143,273,241646,1,8,0:0:0:0:
177,259,241729,1,8,0:0:0:0:
199,229,241812,1,8,0:0:0:0:
232,211,241896,1,8,0:0:0:0:
269,207,241979,1,8,0:0:0:0:
302,223,242062,1,8,0:0:0:0:
326,251,242146,5,0,1:0:0:0:
335,266,242229,1,0,1:0:0:0:
350,276,242312,1,0,1:0:0:0:
368,280,242396,1,0,1:0:0:0:
386,280,242479,1,0,1:0:0:0:
403,272,242562,1,0,1:0:0:0:
416,259,242646,1,0,1:0:0:0:
425,243,242729,1,0,1:0:0:0:
426,224,242812,5,6,0:0:0:0:
