osu file format v14

[General]
AudioFilename: audio.mp3
AudioLeadIn: 0
PreviewTime: 78812
Countdown: 0
SampleSet: Soft
StackLeniency: 0.2
Mode: 0
LetterboxInBreaks: 0
EpilepsyWarning: 1
WidescreenStoryboard: 1

[Editor]
DistanceSpacing: 1
BeatDivisor: 4
GridSize: 8
TimelineZoom: 2.7

[Metadata]
Title:Future Candy
TitleUnicode:Future Cαndy
Artist:YUC'e
ArtistUnicode:YUC'e
Creator:Nathan
Version:Normal
Source:
Tags:future bass sukinathan -tochi ゆーしえ
BeatmapID:1521210
BeatmapSetID:546820

[Difficulty]
HPDrainRate:4
CircleSize:3
OverallDifficulty:4
ApproachRate:5
SliderMultiplier:0.999999999999999
SliderTickRate:1

[Events]
//Background and Video events
0,0,"rainbow.jpg",0,0
//Break Periods
2,112346,121039
2,165679,166946
//Storyboard Layer 0 (Background)
Sprite,Background,Centre,"rainbow.jpg",320,240
//Storyboard Layer 1 (Fail)
//Storyboard Layer 2 (Pass)
//Storyboard Layer 3 (Foreground)
//Storyboard Sound Samples

[TimingPoints]
1354,666.666666666667,4,2,1,60,1,0
58813,333.333333333333,4,2,1,60,1,1
58813,-100,4,2,1,60,0,0
69479,-100,4,2,1,60,0,0
74479,-100,4,2,2,60,0,0
78812,-100,4,2,1,60,0,0
80479,-100,4,2,1,60,0,1
80812,-100,4,2,1,60,0,1
82812,-100,4,2,1,60,0,1
83146,-100,4,2,1,60,0,1
84146,-100,4,2,1,60,0,1
84812,-100,4,2,1,60,0,1
86146,-100,4,2,1,60,0,1
88146,-100,4,2,1,60,0,1
88479,-100,4,2,1,60,0,1
89479,-100,4,2,1,60,0,1
90146,-100,4,2,1,60,0,0
90812,-100,4,2,1,60,0,0
91146,-100,4,2,1,60,0,1
91479,-100,4,2,1,60,0,1
92146,-100,4,2,1,60,0,1
93479,-100,4,2,1,60,0,1
94146,-100,4,2,1,60,0,1
94812,-100,4,2,1,60,0,1
95479,-100,4,2,1,60,0,1
96812,-100,4,2,1,60,0,1
97062,-100,4,2,1,60,0,1
97479,-100,4,2,1,60,0,1
98979,-100,4,2,2,60,0,1
100812,-100,4,2,1,60,0,0
101479,-100,4,2,1,60,0,0
101812,-100,4,2,1,60,0,1
102146,-100,4,2,1,60,0,1
103479,-100,4,2,1,60,0,1
103812,-100,4,2,1,60,0,1
104146,-100,4,2,1,60,0,1
106146,-100,4,2,1,60,0,1
106479,-100,4,2,1,60,0,1
106646,-100,4,2,1,60,0,1
107479,-100,4,2,1,60,0,1
108812,-100,4,2,1,60,0,1
109146,-100,4,2,1,60,0,1
109479,-100,4,2,1,60,0,1
110812,-100,4,2,2,60,0,1
112146,-100,4,2,1,60,0,0
122479,-100,4,2,1,60,0,0
122812,-100,4,2,1,70,0,0
132146,-100,4,2,1,60,0,0
133479,-100,4,2,1,60,0,0
141479,-100,4,2,1,45,0,0
142812,-100,4,2,1,60,0,0
144146,-100,4,2,1,60,0,0
144479,-100,4,2,1,60,0,1
145146,-100,4,2,1,60,0,1
145479,-100,4,2,1,60,0,1
146479,-100,4,2,1,60,0,1
146812,-100,4,2,1,60,0,1
147479,-100,4,2,1,60,0,1
148146,-100,4,2,1,60,0,1
148479,-100,4,2,1,60,0,1
148812,-100,4,2,1,60,0,1
149146,-100,4,2,1,60,0,0
149479,-100,4,2,1,60,0,1
149812,-100,4,2,1,60,0,1
150146,-100,4,2,1,60,0,1
150479,-100,4,2,1,60,0,1
150812,-100,4,2,1,60,0,1
151146,-100,4,2,1,60,0,1
151479,-100,4,2,1,60,0,1
151812,-100,4,2,1,60,0,0
152146,-100,4,2,1,60,0,1
152479,-100,4,2,1,60,0,1
152812,-100,4,2,1,60,0,1
153146,-100,4,2,1,60,0,1
153479,-100,4,2,1,60,0,0
154479,-100,4,2,1,60,0,0
155146,-100,4,2,1,60,0,1
155479,-100,4,2,1,60,0,1
155812,-100,4,2,1,60,0,1
156812,-100,4,2,1,60,0,1
157146,-100,4,2,1,60,0,1
159479,-100,4,2,1,60,0,1
159812,-100,4,2,1,60,0,0
160146,-100,4,2,1,60,0,0
160479,-100,4,2,1,60,0,1
160812,-100,4,2,1,60,0,1
161146,-100,4,2,1,60,0,1
162146,-100,4,2,1,60,0,1
162812,-100,4,2,1,60,0,1
165479,-100,4,2,1,60,0,0
168146,-100,4,2,1,60,0,0
178812,-100,4,2,1,60,0,0
183312,-100,4,2,1,60,0,0
183479,-100,4,2,1,60,0,0
189479,-100,4,2,1,60,0,0
194479,-100,4,2,2,60,0,0
198812,-100,4,2,1,60,0,0
199646,-100,4,2,1,60,0,0
200146,-100,4,2,1,60,0,0
200479,-100,4,2,1,60,0,1
200812,-100,4,2,1,60,0,1
204146,-100,4,2,1,60,0,1
205479,-100,4,2,1,60,0,1
205812,-100,4,2,1,60,0,1
208146,-100,4,2,1,60,0,1
208479,-100,4,2,1,60,0,1
209646,-100,4,2,1,60,0,1
210146,-100,4,2,1,60,0,0
210812,-100,4,2,1,60,0,0
211146,-100,4,2,1,60,0,1
211479,-100,4,2,1,60,0,1
213479,-100,4,2,1,60,0,1
213812,-100,4,2,1,60,0,1
214812,-100,4,2,1,60,0,1
216146,-100,4,2,1,60,0,1
216812,-100,4,2,1,60,0,1
218979,-100,4,2,2,60,0,1
220812,-100,4,2,1,60,0,0
221479,-100,4,2,1,60,0,0
221812,-100,4,2,1,60,0,1
222146,-100,4,2,1,60,0,1
232146,-100,4,2,1,60,0,0
232479,-100,4,2,1,60,0,1
232812,-100,4,2,1,60,0,1
240312,-100,4,2,2,60,0,1
242812,-100,4,2,1,60,0,0

[Colours]
Combo1 : 255,94,55
Combo2 : 173,255,95
Combo3 : 17,254,176
Combo4 : 255,88,100

[HitObjects]
344,325,58813,6,0,P|413:332|520:240,2,200,6|0|2,0:0|0:0|0:0,0:0:0:0:
321,126,60813,2,0,P|238:141|118:152,1,200,2|2,0:0|0:0,0:0:0:0:
60,229,61813,5,0,0:0:0:0:
118,310,62146,2,0,P|201:295|321:284,1,200,0|2,0:0|0:0,0:0:0:0:
380,207,63146,2,0,P|391:142|413:90,2,99.9999999999999,0|2|0,0:0|0:0|0:0,0:0:0:0:
409,302,64146,5,2,0:0:0:0:
287,143,64812,2,0,P|240:137|174:130,1,99.9999999999999,0|0,0:0|0:0,0:0:0:0:
147,127,65312,1,0,0:0:0:0:
107,119,65479,6,0,P|52:177|59:298,2,200,2|2|2,0:0|0:0|0:0,0:0:0:0:
178,49,67146,1,0,0:0:0:0:
267,93,67479,2,0,P|255:136|252:192,1,99.9999999999999,2|0,0:0|0:0,0:0:0:0:
250,291,68146,6,0,P|304:285|352:268,1,99.9999999999999,2|0,0:0|0:0,0:0:0:0:
442,240,68812,1,0,0:0:0:0:
366,174,69146,2,0,L|355:125,1,50,2|2,0:0|0:0,0:0:0:0:
373,90,69479,6,0,P|261:105|157:87,1,200,8|8,0:0|0:0,0:0:0:0:
75,83,70479,1,8,0:0:0:0:
20,167,70812,2,0,P|114:199|213:198,1,200,8|8,0:0|0:0,0:0:0:0:
216,292,71812,1,8,0:0:0:0:
303,253,72146,6,0,L|312:154,1,99.9999999999999,8|8,0:0|0:0,0:0:0:0:
250,74,72812,2,0,B|196:80|196:80|144:63,2,99.9999999999999,8|8|8,0:0|0:0|0:0,0:0:0:0:
348,53,73812,2,0,P|390:38|448:33,1,99.9999999999999,8|8,0:0|0:0,0:0:0:0:
494,119,74479,2,0,P|453:140|432:144,1,50,8|8,0:0|0:0,0:0:0:0:
410,151,74812,6,0,L|395:358,2,200,4|0|0,1:2|1:0|1:0,0:0:0:0:
503,111,76479,2,0,B|406:78|410:152|297:124,1,200,0|0,1:0|1:0,0:0:0:0:
213,159,77479,6,0,B|131:185|79:289|79:289|77:229|40:197|40:197|51:172|87:135,1,350,0|0,1:0|1:0,0:0:0:0:
101,124,78812,1,0,3:0:0:0:
463,62,80146,5,2,0:0:0:0:
428,155,80479,1,4,3:2:0:0:
483,238,80812,2,0,B|497:273|497:273|497:318,2,74.9999999999999,4|0|0,3:2|3:2|3:2,0:0:0:0:
443,249,81479,2,0,P|384:264|339:257,1,99.9999999999999,4|4,3:2|3:2,0:0:0:0:
248,237,82146,2,0,L|257:148,2,74.9999999999999,4|0|0,3:2|3:0|3:0,0:0:0:0:
244,273,82812,6,0,B|178:293|178:293|148:283,1,99.9999999999999,4|4,3:2|3:2,0:0:0:0:
57,240,83479,2,0,P|39:281|35:326,2,74.9999999999999,4|0|0,3:2|3:0|3:0,0:0:0:0:
81,207,84146,1,4,3:2:0:0:
102,109,84479,1,4,3:2:0:0:
201,119,84812,2,0,L|185:22,2,74.9999999999999,4|0|0,3:2|3:0|1:0,0:0:0:0:
215,156,85479,6,0,P|265:150|318:106,1,99.9999999999999,4|0,3:2|3:0,0:0:0:0:
395,80,86146,2,0,L|492:96,2,74.9999999999999,4|0|0,3:2|3:0|3:0,0:0:0:0:
389,120,86812,2,0,P|385:164|400:221,1,99.9999999999999,4|4,3:2|3:2,0:0:0:0:
411,317,87479,2,0,B|430:307|430:307|483:315,2,74.9999999999999,4|0|0,3:2|3:0|3:0,0:0:0:0:
371,319,88146,6,0,P|321:317|274:300,1,99.9999999999999,4|0,3:2|3:0,0:0:0:0:
234,208,88812,2,0,P|197:216|162:230,2,74.9999999999999,4|0|0,3:2|3:0|0:0,0:0:0:0:
268,187,89479,1,4,3:2:0:0:
251,90,89812,1,4,3:2:0:0:
347,117,90146,2,0,B|397:111|397:111|450:140,2,99.9999999999999,2|2|2,1:2|1:2|0:0,0:0:0:0:
379,211,91146,5,4,3:2:0:0:
286,248,91479,2,0,L|297:323,2,74.9999999999999,12|0|0,0:0|3:0|3:0,0:0:0:0:
246,250,92146,2,0,L|131:235,1,99.9999999999999,4|4,3:2|3:2,0:0:0:0:
73,168,92812,2,0,L|-2:178,2,74.9999999999999,12|0|0,0:0|3:0|3:0,0:0:0:0:
97,137,93479,6,0,B|85:86|85:86|107:44,1,99.9999999999999,4|4,3:2|3:2,0:0:0:0:
193,94,94146,2,0,L|267:104,2,74.9999999999999,12|0|0,0:0|3:0|3:0,0:0:0:0:
182,131,94812,1,4,3:0:0:0:
238,213,95146,1,4,3:2:0:0:
199,305,95479,2,0,P|190:353|199:379,2,74.9999999999999,8|0|8,0:0|3:0|0:0,0:0:0:0:
237,315,96146,6,0,B|277:329|277:329|343:319,1,99.9999999999999,4|0,3:2|3:0,0:0:0:0:
402,236,96812,2,0,L|414:148,2,74.9999999999999,12|0|0,0:0|3:0|3:0,0:0:0:0:
362,231,97479,2,0,P|293:224|260:208,1,99.9999999999999,4|4,3:2|3:2,0:0:0:0:
167,193,98146,2,0,L|175:267,2,74.9999999999999,12|0|0,0:0|3:0|3:0,0:0:0:0:
162,154,98812,6,0,P|220:127|263:126,1,99.9999999999999,0|8,3:0|0:0,0:0:0:0:
244,25,99479,2,0,P|305:41|339:68,1,99.9999999999999,8|8,0:0|0:0,0:0:0:0:
428,29,100146,2,0,P|435:64|430:100,1,50,0|0,1:0|1:0,0:0:0:0:
424,117,100479,2,0,P|417:152|422:188,1,50,0|0,1:0|1:0,0:0:0:0:
431,202,100812,2,0,B|443:240|443:240|435:267|435:267|445:307,2,99.9999999999999,2|2|2,0:0|0:0|0:1,0:0:0:0:
342,256,101812,5,4,3:2:0:0:
245,228,102146,2,0,L|229:136,2,74.9999999999999,4|4|4,3:2|3:2|3:2,0:0:0:0:
207,241,102812,2,0,L|223:333,2,74.9999999999999,4|4|4,3:2|3:2|3:2,0:0:0:0:
165,237,103479,1,4,3:2:0:0:
72,194,103812,2,0,P|72:164|75:132,1,50,2|2,0:1|0:1,0:0:0:0:
63,105,104146,6,0,P|154:101|178:86,1,99.9999999999999,0|0,3:0|0:0,0:0:0:0:
242,41,104812,2,0,P|333:45|357:60,1,99.9999999999999,8|0,3:2|0:0,0:0:0:0:
424,99,105479,2,0,B|439:59|439:59|429:16,2,74.9999999999999,0|0|0,3:0|3:0|3:0,0:0:0:0:
403,134,106146,1,8,3:2:0:0:
483,192,106479,2,0,P|488:225|486:247,1,50,0|8,1:0|0:0,0:0:0:0:
463,273,106812,5,4,3:2:0:0:
367,236,107146,1,4,3:2:0:0:
273,271,107479,2,0,B|263:235|263:235|270:193,2,74.9999999999999,4|4|4,3:2|3:2|3:2,0:0:0:0:
235,281,108146,2,0,B|245:317|245:317|238:359,2,74.9999999999999,4|4|4,3:2|3:2|3:2,0:0:0:0:
196,271,108812,1,4,3:2:0:0:
115,209,109146,2,0,B|109:181|109:181|114:160,1,50,4|4,3:2|3:2,0:0:0:0:
132,125,109479,5,6,3:2:0:0:
256,192,109562,12,0,112146,3:0:0:0:
419,54,122479,6,0,P|404:88|405:122,1,50,2|0,0:0|0:0,0:0:0:0:
422,136,122812,6,0,P|436:193|435:253,1,99.9999999999999,4|0,3:2|1:0,0:0:0:0:
298,300,123646,1,0,3:0:0:0:
260,285,123812,2,0,L|156:276,1,99.9999999999999,0|0,1:0|3:0,0:0:0:0:
64,304,124479,1,0,1:0:0:0:
63,154,124979,1,0,3:0:0:0:
101,162,125146,6,0,P|144:163|202:145,1,99.9999999999999,0|0,1:0|3:0,0:0:0:0:
274,81,125812,1,0,1:0:0:0:
305,176,126146,2,0,P|345:172|371:162,2,50,0|0|0,0:0|3:0|1:0,0:0:0:0:
234,246,126812,2,0,L|245:361,1,99.9999999999999,0|0,3:0|1:0,0:0:0:0:
211,370,127312,2,0,P|161:361|111:360,1,99.9999999999999,0|0,3:0|3:0,0:0:0:0:
73,365,127812,1,0,1:0:0:0:
0,279,128146,6,0,L|99:268,1,99.9999999999999,0|0,3:0|1:0,0:0:0:0:
248,248,128979,1,0,3:0:0:0:
274,221,129146,2,0,P|288:184|279:105,1,99.9999999999999,0|0,1:0|3:0,0:0:0:0:
212,56,129812,1,0,1:0:0:0:
137,182,130312,1,0,3:0:0:0:
98,176,130479,2,0,L|-8:163,2,99.9999999999999,0|0|0,1:0|3:0|1:0,0:0:0:0:
119,273,131479,2,0,L|129:333,2,50,0|0|0,0:0|3:0|1:0,0:0:0:0:
215,247,132146,6,0,L|337:232,1,99.9999999999999,4|0,1:2|1:0,0:0:0:0:
410,209,132812,1,4,1:2:0:0:
342,132,133146,2,0,P|349:86|359:69,1,50,0|0,1:0|1:0,0:0:0:0:
355,42,133479,6,0,P|311:58|245:66,1,99.9999999999999,0|0,3:0|3:0,0:0:0:0:
221,55,133979,1,0,1:0:0:0:
182,47,134146,2,0,P|132:54|85:70,1,99.9999999999999,0|0,3:0|3:0,0:0:0:0:
69,168,134812,2,0,L|82:274,1,99.9999999999999,0|0,3:0|3:0,0:0:0:0:
180,255,135479,2,0,L|192:354,1,99.9999999999999,0|0,3:0|3:0,0:0:0:0:
291,343,136146,5,0,3:0:0:0:
377,292,136479,2,0,P|450:272|475:273,2,99.9999999999999,0|0|0,3:0|3:0|3:0,0:0:0:0:
303,224,137479,2,0,P|322:162|317:110,1,99.9999999999999,0|0,3:0|3:0,0:0:0:0:
332,27,138146,2,0,P|268:41|226:71,1,99.9999999999999,0|0,3:0|3:0,0:0:0:0:
225,167,138812,5,4,3:2:0:0:
147,103,139146,2,0,B|85:94|85:94|45:117,2,99.9999999999999,0|0|0,3:0|3:0|3:0,0:0:0:0:
128,201,140146,2,0,L|112:318,1,99.9999999999999,0|0,3:0|3:0,0:0:0:0:
213,313,140812,2,0,L|229:196,1,99.9999999999999,0|0,3:0|3:0,0:0:0:0:
256,192,141479,12,0,142812,3:0:0:0:
155,266,144146,6,0,P|202:286|210:286,1,50,0|0,0:0|0:0,0:0:0:0:
242,286,144479,2,0,B|262:331|262:331|249:396,2,99.9999999999999,2|2|6,3:1|3:1|3:2,0:0:0:0:
342,284,145479,2,0,B|322:239|322:239|335:174,2,99.9999999999999,2|2|2,3:1|3:1|3:1,0:0:0:0:
416,219,146479,2,0,P|421:182|410:153,1,50,6|0,3:2|0:0,0:0:0:0:
405,137,146812,6,0,B|362:105|362:105|308:108,1,99.9999999999999,2|2,3:1|3:1,0:0:0:0:
216,118,147479,2,0,L|93:127,1,99.9999999999999,2|2,3:1|3:1,0:0:0:0:
127,224,148146,2,0,L|250:215,1,99.9999999999999,2|2,3:1|3:1,0:0:0:0:
326,208,148812,2,0,B|338:238|338:238|335:271,1,50,6|0,3:2|0:0,0:0:0:0:
330,295,149146,1,2,0:0:0:0:
426,267,149479,6,0,B|430:219|430:219|407:161,1,99.9999999999999,6|0,3:2|1:0,0:0:0:0:
397,134,149979,1,0,1:0:0:0:
383,97,150146,2,0,B|356:81|356:81|281:93,1,99.9999999999999,6|0,3:2|1:0,0:0:0:0:
189,103,150812,2,0,B|185:151|185:151|208:209,1,99.9999999999999,6|0,3:2|1:0,0:0:0:0:
220,237,151312,1,0,1:0:0:0:
237,272,151479,2,0,L|345:252,1,99.9999999999999,6|0,3:2|1:0,0:0:0:0:
404,181,152146,6,0,B|428:205|428:205|427:252|427:252|434:281,2,99.9999999999999,2|2|2,3:1|3:1|3:1,0:0:0:0:
308,150,153146,1,2,3:1:0:0:
311,50,153479,2,0,P|383:46|475:85,2,150,0|0|2,3:0|3:0|0:0,0:0:0:0:
101,60,155146,5,2,3:1:0:0:
136,153,155479,2,0,P|143:209|129:272,1,99.9999999999999,2|2,1:1|0:1,0:0:0:0:
149,288,155979,1,2,0:1:0:0:
135,325,156146,2,0,P|99:322|16:336,2,99.9999999999999,2|2|2,3:1|0:1|1:1,0:0:0:0:
232,347,157146,2,0,P|256:349|281:345,1,50,2|2,3:1|0:1,0:0:0:0:
320,337,157479,6,0,P|311:289|316:228,1,99.9999999999999,2|2,3:1|0:1,0:0:0:0:
275,150,158146,2,0,P|319:127|357:95,2,99.9999999999999,2|0|2,1:1|3:1|0:1,0:0:0:0:
220,234,159146,2,0,P|182:221|160:220,1,50,2|0,0:1|1:0,0:0:0:0:
132,230,159479,1,0,3:0:0:0:
32,258,159812,2,0,B|29:228|29:228|37:200|37:200|32:145,1,99.9999999999999,0|2,1:0|0:0,0:0:0:0:
86,76,160479,6,0,P|145:86|198:75,1,99.9999999999999,2|2,3:1|0:1,0:0:0:0:
277,43,161146,2,0,P|267:82|267:102,1,50,2|2,0:1|0:1,0:0:0:0:
262,133,161479,2,0,P|262:168|243:243,2,99.9999999999999,0|0|2,3:0|0:0|1:1,0:0:0:0:
355,110,162479,2,0,P|379:112|403:120,1,50,0|0,3:0|1:0,0:0:0:0:
437,145,162812,1,2,3:1:0:0:
256,192,162896,12,0,165479,0:0:0:0:
2,310,168146,6,0,L|121:292,1,99.9999999999999,2|2,0:0|0:0,0:0:0:0:
141,289,168646,1,2,0:0:0:0:
368,354,169479,2,0,P|368:283|413:217,1,150,2|2,0:0|0:0,0:0:0:0:
497,169,170312,1,0,0:0:0:0:
357,114,170812,6,0,L|258:128,1,99.9999999999999,2|0,0:0|0:0,0:0:0:0:
217,133,171312,1,2,0:0:0:0:
14,280,172146,2,0,P|101:281|123:268,1,99.9999999999999,2|2,0:0|0:0,0:0:0:0:
62,188,172812,2,0,B|58:145|58:145|79:98,2,74.9999999999999,2|0|0,0:0|0:0|0:0,0:0:0:0:
100,194,173479,5,2,0:0:0:0:
204,301,173979,2,0,L|314:289,1,99.9999999999999,2|0,0:0|0:0,0:0:0:0:
343,285,174479,1,0,0:0:0:0:
425,228,174812,2,0,P|379:194|274:214,1,150,2|2,0:0|0:0,0:0:0:0:
234,120,175646,1,0,0:0:0:0:
94,174,176146,6,0,P|30:65|156:56,1,300,2|2,0:0|0:0,0:0:0:0:
234,121,177479,2,0,B|277:199|246:291|246:291|273:225|337:215,1,300,2|2,0:0|0:0,0:0:0:0:
431,182,178812,5,0,3:0:0:0:
294,35,179479,2,0,P|245:28|179:26,1,99.9999999999999,0|0,1:0|0:0,0:0:0:0:
108,78,180146,1,0,3:0:0:0:
258,209,180812,2,0,P|289:260|294:286,2,74.9999999999999,0|0|0,1:0|1:0|1:0,0:0:0:0:
225,188,181479,5,0,3:0:0:0:
425,189,182146,2,0,P|456:138|465:85,1,99.9999999999999,0|0,1:0|0:0,0:0:0:0:
389,33,182812,2,0,P|329:31|278:50,1,99.9999999999999,0|0,3:0|1:0,0:0:0:0:
198,80,183479,2,0,L|106:64,2,74.9999999999999,0|0|0,1:0|1:0|1:0,0:0:0:0:
214,117,184146,5,0,3:0:0:0:
382,224,184812,1,0,1:0:0:0:
202,312,185479,1,0,3:0:0:0:
310,143,186146,2,0,P|318:109|316:66,2,74.9999999999999,0|0|0,1:0|1:0|1:0,0:0:0:0:
295,181,186812,5,0,3:0:0:0:
319,329,187312,1,0,0:0:0:0:
285,309,187479,2,0,L|164:304,1,99.9999999999999,0|0,1:0|1:0,0:0:0:0:
189,204,188146,2,0,L|89:199,1,99.9999999999999,0|0,1:0|1:0,0:0:0:0:
48,104,188812,2,0,P|103:40|157:87,1,150,0|0,1:0|1:0,0:0:0:0:
186,80,189479,6,0,P|284:92|383:77,1,200,8|8,0:0|0:0,0:0:0:0:
477,112,190479,1,8,0:0:0:0:
465,211,190812,2,0,P|366:200|269:223,1,200,8|8,0:0|0:0,0:0:0:0:
185,166,191812,1,8,0:0:0:0:
101,221,192146,6,0,L|92:320,1,99.9999999999999,8|8,0:0|0:0,0:0:0:0:
191,327,192812,2,0,B|235:341|289:335,2,99.9999999999999,8|8|8,0:0|0:0|0:0,0:0:0:0:
202,227,193812,2,0,B|200:182|200:182|222:131,1,99.9999999999999,8|8,0:0|0:0,0:0:0:0:
233,31,194479,2,0,P|192:52|171:56,1,50,8|8,0:0|0:0,0:0:0:0:
144,76,194812,6,0,P|111:158|129:283,2,200,12|0|0,1:2|1:0|1:0,0:0:0:0:
292,66,196479,2,0,B|346:73|408:31|408:31|426:67|462:83,1,200,0|0,1:0|1:0,0:0:0:0:
387,150,197479,2,0,B|374:230|337:285|337:285|316:236|294:188|294:188|282:237|239:268,1,350,0|0,1:0|1:0,0:0:0:0:
207,291,198812,5,0,3:0:0:0:
49,322,200146,5,2,0:0:0:0:
84,229,200479,1,4,3:2:0:0:
29,146,200812,2,0,P|18:109|15:72,2,74.9999999999999,4|0|0,3:2|3:0|3:0,0:0:0:0:
69,135,201479,2,0,B|115:118|115:118|173:127,1,99.9999999999999,4|4,3:2|3:2,0:0:0:0:
264,147,202146,2,0,L|255:236,2,74.9999999999999,4|0|0,3:2|3:0|3:0,0:0:0:0:
268,111,202812,6,0,P|314:98|375:102,1,99.9999999999999,4|4,3:2|3:2,0:0:0:0:
455,144,203479,2,0,P|473:103|477:58,2,74.9999999999999,0|0|0,3:0|3:0|3:0,0:0:0:0:
431,177,204146,1,4,3:2:0:0:
406,273,204479,1,4,3:2:0:0:
311,265,204812,2,0,L|327:362,2,74.9999999999999,4|0|0,3:2|3:0|1:0,0:0:0:0:
297,225,205479,6,0,B|247:231|247:231|194:275,1,99.9999999999999,4|0,3:2|3:0,0:0:0:0:
117,304,206146,2,0,L|20:288,2,74.9999999999999,4|0|0,3:2|3:2|3:0,0:0:0:0:
123,264,206812,2,0,P|127:220|112:163,1,99.9999999999999,4|4,3:2|3:2,0:0:0:0:
77,73,207479,2,0,B|67:54|67:54|75:1,2,74.9999999999999,4|4|0,3:2|3:2|0:0,0:0:0:0:
117,78,208146,6,0,P|167:80|214:97,1,99.9999999999999,4|0,3:2|3:0,0:0:0:0:
278,176,208812,2,0,P|315:168|350:154,2,74.9999999999999,4|0|0,3:2|3:0|3:0,0:0:0:0:
242,196,209479,1,4,3:2:0:0:
261,294,209812,1,4,3:2:0:0:
165,267,210146,2,0,B|115:273|115:273|62:244,2,99.9999999999999,2|2|2,1:2|1:2|0:0,0:0:0:0:
133,173,211146,5,4,3:2:0:0:
226,136,211479,2,0,L|215:61,2,74.9999999999999,12|0|0,0:0|3:0|3:0,0:0:0:0:
266,134,212146,2,0,P|312:149|381:149,1,99.9999999999999,4|4,3:2|3:2,0:0:0:0:
439,216,212812,2,0,P|474:200|514:206,2,74.9999999999999,12|0|0,0:0|3:0|3:0,0:0:0:0:
415,247,213479,6,0,B|427:298|427:298|405:340,1,99.9999999999999,4|0,3:2|3:0,0:0:0:0:
319,290,214146,2,0,L|245:280,2,74.9999999999999,12|0|0,0:0|3:0|3:0,0:0:0:0:
330,253,214812,1,4,3:2:0:0:
274,171,215146,1,4,3:2:0:0:
313,79,215479,2,0,B|320:49|320:49|313:5,2,74.9999999999999,12|0|8,0:0|3:0|0:0,0:0:0:0:
269,71,216146,6,0,B|229:57|229:57|163:67,1,99.9999999999999,4|0,3:2|3:0,0:0:0:0:
110,148,216812,2,0,L|98:236,2,74.9999999999999,12|0|0,0:0|3:0|3:0,0:0:0:0:
150,153,217479,2,0,P|219:160|252:176,1,99.9999999999999,4|4,3:2|3:2,0:0:0:0:
345,191,218146,2,0,L|337:117,2,74.9999999999999,12|0|0,0:0|3:0|3:0,0:0:0:0:
350,230,218812,6,0,B|307:254|307:254|249:258,1,99.9999999999999,0|8,3:0|0:0,0:0:0:0:
141,273,219479,2,0,B|151:224|151:224|178:183,1,99.9999999999999,8|8,0:0|0:0,0:0:0:0:
136,91,220146,2,0,B|160:85|160:85|185:85,1,50,0|0,1:0|1:0,0:0:0:0:
220,101,220479,2,0,B|244:107|244:107|269:106,1,50,0|0,1:0|1:0,0:0:0:0:
310,102,220812,2,0,B|357:89|366:111|419:95,2,99.9999999999999,2|2|2,0:0|0:0|0:1,0:0:0:0:
349,198,221812,5,4,3:2:0:0:
290,283,222146,2,0,B|301:322|301:322|288:363,2,74.9999999999999,4|0|0,3:2|3:0|3:0,0:0:0:0:
279,243,222812,2,0,P|220:228|175:235,1,99.9999999999999,4|4,3:2|3:2,0:0:0:0:
137,146,223479,2,0,L|128:57,2,74.9999999999999,4|0|0,3:2|3:0|3:0,0:0:0:0:
178,135,224145,6,0,B|244:115|244:115|274:125,1,99.9999999999999,4|0,3:2|3:0,0:0:0:0:
362,170,224812,2,0,P|380:211|384:256,2,74.9999999999999,4|0|0,3:2|3:0|3:0,0:0:0:0:
377,132,225479,1,4,3:2:0:0:
374,32,225812,1,4,3:2:0:0:
461,79,226145,2,0,L|473:4,2,74.9999999999999,4|4|0,3:2|3:2|1:0,0:0:0:0:
485,112,226812,6,0,P|491:154|468:208,1,99.9999999999999,4|0,3:2|3:0,0:0:0:0:
413,289,227479,2,0,L|487:301,2,74.9999999999999,4|0|0,3:2|3:0|3:0,0:0:0:0:
374,283,228146,2,0,P|353:238|358:188,1,99.9999999999999,4|4,3:2|3:2,0:0:0:0:
361,89,228812,2,0,B|414:81|414:81|433:91,2,74.9999999999999,4|0|0,3:2|3:2|3:0,0:0:0:0:
325,106,229479,6,0,P|278:89|228:87,1,99.9999999999999,4|0,3:2|3:0,0:0:0:0:
154,154,230145,2,0,P|119:140|82:132,2,74.9999999999999,4|4|0,3:2|3:2|1:0,0:0:0:0:
179,185,230812,1,4,3:2:0:0:
226,272,231145,1,4,3:2:0:0:
285,193,231479,2,0,B|335:187|335:187|388:216,2,99.9999999999999,2|2|0,1:2|1:2|0:0,0:0:0:0:
239,103,232479,5,4,3:2:0:0:
140,120,232812,2,0,L|151:45,2,74.9999999999999,12|0|0,0:0|3:0|3:0,0:0:0:0:
141,163,233479,2,0,L|26:148,1,99.9999999999999,4|4,3:2|3:2,0:0:0:0:
78,243,234145,2,0,L|3:233,2,74.9999999999999,12|0|0,0:2|3:0|3:0,0:0:0:0:
117,251,234812,6,0,B|105:302|105:302|127:344,1,99.9999999999999,4|0,3:2|3:0,0:0:0:0:
213,294,235479,2,0,P|250:285|287:284,2,74.9999999999999,12|0|0,0:0|3:0|3:0,0:0:0:0:
202,257,236145,1,4,3:2:0:0:
258,175,236479,1,4,3:2:0:0:
219,83,236812,2,0,B|207:51|207:51|219:9,2,74.9999999999999,12|0|8,0:0|3:0|0:0,0:0:0:0:
260,77,237479,6,0,B|300:63|300:63|366:73,1,99.9999999999999,4|0,3:2|3:0,0:0:0:0:
422,152,238145,2,0,P|432:183|434:240,2,74.9999999999999,12|0|0,0:0|3:0|3:0,0:0:0:0:
382,157,238812,2,0,P|313:164|280:180,1,99.9999999999999,4|4,3:2|3:2,0:0:0:0:
187,195,239479,2,0,L|195:121,2,74.9999999999999,12|0|0,0:0|3:0|3:0,0:0:0:0:
182,234,240145,6,0,P|240:261|283:262,1,99.9999999999999,0|8,3:2|0:0,0:0:0:0:
340,186,240812,2,0,P|324:125|297:91,1,99.9999999999999,8|8,0:0|0:0,0:0:0:0:
229,26,241479,2,0,P|194:19|158:24,1,50,8|8,0:0|0:0,0:0:0:0:
142,22,241812,2,0,P|142:46|148:71,1,50,8|8,0:0|0:0,0:0:0:0:
167,105,242146,2,0,P|180:158|135:193,1,99.9999999999999,0|0,1:0|1:0,0:0:0:0:
67,144,242812,1,6,0:0:0:0:
