osu file format v14

[General]
AudioFilename: audio.mp3
AudioLeadIn: 0
PreviewTime: 78812
Countdown: 0
SampleSet: Soft
StackLeniency: 0.2
Mode: 0
LetterboxInBreaks: 0
EpilepsyWarning: 1
WidescreenStoryboard: 1

[Editor]
Bookmarks: 144812
DistanceSpacing: 1.3
BeatDivisor: 4
GridSize: 32
TimelineZoom: 2.7

[Metadata]
Title:Future Candy
TitleUnicode:Future Cαndy
Artist:YUC'e
ArtistUnicode:YUC'e
Creator:Nathan
Version:Hard
Source:
Tags:future bass sukinathan -tochi ゆーしえ
BeatmapID:1521209
BeatmapSetID:546820

[Difficulty]
HPDrainRate:5
CircleSize:3.5
OverallDifficulty:6
ApproachRate:8
SliderMultiplier:1.3
SliderTickRate:1

[Events]
//Background and Video events
0,0,"rainbow.jpg",0,0
//Break Periods
2,112346,121729
2,165679,167396
//Storyboard Layer 0 (Background)
Sprite,Background,Centre,"rainbow.jpg",320,240
//Storyboard Layer 1 (Fail)
//Storyboard Layer 2 (Pass)
//Storyboard Layer 3 (Foreground)
//Storyboard Sound Samples

[TimingPoints]
1354,666.666666666667,4,2,1,60,1,0
58813,333.333333333333,4,2,1,60,1,1
58813,-100,4,2,1,60,0,0
69479,-100,4,2,1,60,0,0
74479,-100,4,2,2,60,0,0
78812,-100,4,2,1,60,0,0
79146,-133.333333333333,4,2,1,60,0,0
80479,-100,4,2,1,60,0,1
80812,-100,4,2,1,60,0,1
82812,-100,4,2,1,60,0,1
83146,-100,4,2,1,60,0,1
84146,-100,4,2,1,60,0,1
84812,-100,4,2,1,60,0,1
86146,-100,4,2,1,60,0,1
88146,-100,4,2,1,60,0,1
88479,-100,4,2,1,60,0,1
89479,-100,4,2,1,60,0,1
90146,-100,4,2,1,60,0,0
90812,-100,4,2,1,60,0,0
91146,-100,4,2,1,60,0,1
91479,-100,4,2,1,60,0,1
92146,-100,4,2,1,60,0,1
93479,-100,4,2,1,60,0,1
94146,-100,4,2,1,60,0,1
94812,-100,4,2,1,60,0,1
95479,-100,4,2,1,60,0,1
96812,-100,4,2,1,60,0,1
97062,-100,4,2,1,60,0,1
97479,-100,4,2,1,60,0,1
98979,-100,4,2,2,60,0,1
100812,-133.333333333333,4,2,1,60,0,0
101479,-100,4,2,1,60,0,0
101812,-100,4,2,1,60,0,1
102146,-100,4,2,1,60,0,1
103479,-100,4,2,1,60,0,1
103812,-100,4,2,1,60,0,1
104146,-100,4,2,1,60,0,1
106146,-100,4,2,1,60,0,1
106479,-100,4,2,1,60,0,1
106646,-100,4,2,1,60,0,1
107479,-100,4,2,1,60,0,1
108812,-100,4,2,1,60,0,1
109146,-100,4,2,1,60,0,1
109479,-100,4,2,1,60,0,1
110812,-100,4,2,2,60,0,1
112146,-100,4,2,1,60,0,0
122479,-133.333333333333,4,2,1,60,0,0
122812,-100,4,2,1,70,0,0
132146,-100,4,2,1,60,0,0
133479,-100,4,2,1,60,0,0
141479,-100,4,2,1,45,0,0
142812,-100,4,2,1,60,0,0
144146,-100,4,2,1,60,0,0
144479,-100,4,2,1,60,0,1
145146,-100,4,2,1,60,0,1
145479,-100,4,2,1,60,0,1
146479,-100,4,2,1,60,0,1
146812,-100,4,2,1,60,0,1
147479,-100,4,2,1,60,0,1
148146,-100,4,2,1,60,0,1
148479,-100,4,2,1,60,0,1
148812,-100,4,2,1,60,0,1
149146,-100,4,2,1,60,0,0
149479,-100,4,2,1,60,0,1
149812,-100,4,2,1,60,0,1
150146,-100,4,2,1,60,0,1
150479,-100,4,2,1,60,0,1
150812,-100,4,2,1,60,0,1
151146,-100,4,2,1,60,0,1
151479,-100,4,2,1,60,0,1
151812,-100,4,2,1,60,0,0
152146,-100,4,2,1,60,0,1
152479,-100,4,2,1,60,0,1
152812,-100,4,2,1,60,0,1
153146,-100,4,2,1,60,0,1
153479,-100,4,2,1,60,0,0
154479,-100,4,2,1,60,0,0
155146,-100,4,2,1,60,0,1
155479,-100,4,2,1,60,0,1
155812,-100,4,2,1,60,0,1
156812,-100,4,2,1,60,0,1
157146,-100,4,2,1,60,0,1
159479,-100,4,2,1,60,0,1
159812,-100,4,2,1,60,0,0
160479,-100,4,2,1,60,0,1
160812,-100,4,2,1,60,0,1
161146,-100,4,2,1,60,0,1
162146,-100,4,2,1,60,0,1
162812,-100,4,2,1,60,0,1
165479,-100,4,2,1,60,0,0
168146,-133.333333333333,4,2,1,60,0,0
178812,-100,4,2,1,60,0,0
183312,-100,4,2,1,60,0,0
183479,-100,4,2,1,60,0,0
189479,-100,4,2,1,60,0,0
194479,-100,4,2,2,60,0,0
198812,-100,4,2,1,60,0,0
199646,-100,4,2,1,60,0,0
200146,-100,4,2,1,60,0,0
200479,-100,4,2,1,60,0,1
200812,-100,4,2,1,60,0,1
204146,-100,4,2,1,60,0,1
205479,-100,4,2,1,60,0,1
205812,-100,4,2,1,60,0,1
208146,-100,4,2,1,60,0,1
208479,-100,4,2,1,60,0,1
209646,-100,4,2,1,60,0,1
210146,-100,4,2,1,60,0,0
210812,-100,4,2,1,60,0,0
211146,-100,4,2,1,60,0,1
211479,-100,4,2,1,60,0,1
213479,-100,4,2,1,60,0,1
213812,-100,4,2,1,60,0,1
214812,-100,4,2,1,60,0,1
216146,-100,4,2,1,60,0,1
216812,-100,4,2,1,60,0,1
218979,-100,4,2,2,60,0,1
220812,-100,4,2,1,60,0,0
221479,-100,4,2,1,60,0,0
221812,-100,4,2,1,60,0,1
222146,-100,4,2,1,60,0,1
232146,-100,4,2,1,60,0,0
232479,-100,4,2,1,60,0,1
232812,-100,4,2,1,60,0,1
240312,-100,4,2,2,60,0,1
242812,-100,4,2,1,60,0,0

[Colours]
Combo1 : 255,94,55
Combo2 : 173,255,95
Combo3 : 17,254,176
Combo4 : 255,88,100

[HitObjects]
0,173,58813,6,0,L|151:151,1,130,6|0,0:0|0:0,0:0:0:0:
294,120,59479,2,0,P|299:78|306:42,1,65,0|0,0:0|0:0,0:0:0:0:
382,24,59813,2,0,P|415:49|443:73,1,65,0|0,0:0|0:0,0:0:0:0:
375,125,60146,5,2,0:0:0:0:
375,125,60813,2,0,L|359:268,1,130,2|0,0:0|0:0,0:0:0:0:
211,332,61479,5,2,0:0:0:0:
211,332,62146,2,0,P|171:317|134:317,1,65,0|0,0:0|0:0,0:0:0:0:
116,237,62479,2,0,P|148:233|177:220,1,65,0|0,0:0|0:0,0:0:0:0:
126,153,62812,6,0,P|69:141|-6:168,2,130,2|0|2,0:0|0:0|0:0,0:0:0:0:
254,43,63812,2,0,L|248:111,1,65,0|0,0:0|0:0,0:0:0:0:
277,187,64146,6,0,L|430:173,1,130,2|0,0:0|0:0,0:0:0:0:
463,112,64646,1,0,0:0:0:0:
489,191,64812,2,0,L|483:255,1,65,0|0,0:0|0:0,0:0:0:0:
393,325,65146,2,0,L|398:260,1,65,0|0,0:0|0:0,0:0:0:0:
305,353,65479,5,2,0:0:0:0:
305,353,65813,2,0,P|258:342|173:382,2,130,0|2|0,0:0|0:0|0:0,0:0:0:0:
210,212,66812,6,0,P|123:214|133:300,1,195,2|0,0:0|0:0,0:0:0:0:
241,303,67479,2,0,P|301:289|384:263,1,130,2|0,0:0|0:0,0:0:0:0:
448,246,67979,1,0,0:0:0:0:
391,182,68146,6,0,P|387:135|393:106,1,65,2|0,0:0|0:0,0:0:0:0:
343,46,68479,1,0,0:0:0:0:
343,46,68812,2,0,P|304:72|276:82,1,65,0|0,0:0|0:0,0:0:0:0:
269,162,69146,2,0,P|299:174|311:185,3,32.5,2|0|2|0,0:0|0:0|0:0|0:0,0:0:0:0:
312,213,69479,6,0,B|324:243|324:243|306:302,1,65,8|0,0:0|0:0,0:0:0:0:
302,320,69729,1,8,0:0:0:0:
302,320,69812,2,0,L|213:314,1,65,8|0,0:0|1:0,0:0:0:0:
186,247,70146,1,8,0:0:0:0:
147,321,70312,2,0,L|152:353,2,32.5,8|8|8,0:0|0:0|0:0,0:0:0:0:
50,140,70812,6,0,B|38:110|38:110|56:51,1,65,8|0,0:0|0:0,0:0:0:0:
60,33,71062,1,8,0:0:0:0:
60,33,71145,2,0,L|149:39,1,65,8|0,0:0|1:0,0:0:0:0:
179,102,71479,1,8,0:0:0:0:
242,47,71645,2,0,L|251:-10,2,32.5,8|0|8,0:0|0:0|0:0,0:0:0:0:
294,114,71979,1,0,1:0:0:0:
360,61,72146,6,0,P|459:67|463:71,1,97.5,8|8,0:0|0:0,0:0:0:0:
480,91,72479,2,0,P|487:133|484:183,1,65,8|0,0:0|1:0,0:0:0:0:
417,202,72812,2,0,L|342:212,1,65,8|8,0:0|0:0,0:0:0:0:
442,292,73146,2,0,L|517:302,1,65,8|0,0:0|0:0,0:0:0:0:
379,352,73479,5,8,0:0:0:0:
300,291,73646,1,8,0:0:0:0:
300,291,73729,1,8,0:0:0:0:
300,291,73812,2,0,P|282:295|237:304,1,65,8|0,0:0|0:0,0:0:0:0:
151,301,74146,2,0,P|133:297|103:292,3,32.5,8|8|8|8,0:0|0:0|0:0|0:0,0:0:0:0:
138,257,74479,2,0,P|142:239|147:209,3,32.5,8|8|8|8,0:0|0:0|0:0|0:0,0:0:0:0:
172,193,74812,6,0,P|177:154|177:126,2,65,4|0|0,1:2|1:2|1:2,0:0:0:0:
257,190,75312,1,0,1:2:0:0:
249,105,75479,2,0,P|281:104|313:99,1,65,0|0,1:0|1:0,0:0:0:0:
406,175,75812,2,0,P|373:175|341:180,1,65,0|0,1:0|1:0,0:0:0:0:
309,277,76146,2,0,P|341:272|373:271,1,65,0|0,1:0|1:0,0:0:0:0:
467,273,76479,2,0,P|408:299|369:351,2,130,0|0|0,1:0|1:0|1:0,0:0:0:0:
499,189,77312,1,8,0:0:0:0:
499,189,77396,1,8,0:0:0:0:
499,189,77479,6,0,L|509:142,7,32.5,0|0|0|0|0|0|0|0,1:0|1:0|1:0|1:0|1:0|1:0|1:0|1:0,0:0:0:0:
497,115,78146,6,0,L|465:121,3,32.5,0|0|0|0,1:0|1:0|1:0|1:0,0:0:0:0:
423,123,78479,2,0,L|391:116,3,32.5,0|0|0|0,1:0|1:0|1:0|1:0,0:0:0:0:
350,106,78812,5,0,3:0:0:0:
355,232,79146,2,0,L|371:328,2,97.50000371933,0|0|2,0:0|0:0|0:0,0:0:0:0:
243,171,80146,2,0,B|202:175|202:175|170:209,1,73.1250027894975,2|0,0:0|0:0,0:0:0:0:
138,206,80479,6,0,P|123:152|126:132,1,65,4|0,3:2|0:0,0:0:0:0:
150,63,80812,2,0,P|235:49|257:36,2,97.5,4|0|0,3:2|3:2|3:2,0:0:0:0:
67,80,81479,6,0,P|48:68|23:63,3,32.5,4|0|0|0,3:2|0:0|0:0|0:0,0:0:0:0:
7,93,81812,2,0,P|6:115|14:139,3,32.5,4|0|0|0,3:2|0:0|0:0|0:0,0:0:0:0:
27,163,82146,5,4,3:2:0:0:
131,234,82396,5,0,3:0:0:0:
18,291,82646,5,0,3:0:0:0:
76,351,82812,6,0,P|148:326|208:324,1,130,4|4,3:2|3:2,0:0:0:0:
283,343,83312,1,0,0:0:0:0:
250,245,83479,2,0,B|239:183|239:183|261:155,2,97.5,4|0|0,3:2|3:0|3:0,0:0:0:0:
353,271,84146,6,0,P|390:251|426:250,1,65,4|0,3:2|1:0,0:0:0:0:
484,204,84479,1,4,3:2:0:0:
409,164,84646,1,0,1:0:0:0:
465,102,84812,2,0,B|461:67|461:67|471:44|471:44|466:6,2,97.5,4|0|0,3:2|3:0|1:0,0:0:0:0:
384,79,85479,6,0,L|297:68,1,65,4|0,3:2|0:0,0:0:0:0:
251,121,85812,2,0,L|164:110,1,65,0|0,3:0|0:0,0:0:0:0:
80,188,86146,2,0,L|189:203,2,97.5,4|0|0,3:2|3:0|3:0,0:0:0:0:
39,290,86812,6,0,P|42:315|52:336,3,32.5,4|0|0|0,3:2|0:0|0:0|0:0,0:0:0:0:
82,341,87146,2,0,P|107:344|128:354,3,32.5,4|0|0|0,3:2|0:0|0:0|0:0,0:0:0:0:
154,358,87479,5,4,3:2:0:0:
266,300,87729,5,0,3:0:0:0:
162,222,87979,5,0,3:0:0:0:
246,212,88146,6,0,B|268:166|268:166|247:60,1,130,4|0,3:2|3:0,0:0:0:0:
186,141,88646,1,0,0:0:0:0:
178,57,88812,2,0,L|69:46,2,97.5,4|0|0,3:2|3:0|0:0,0:0:0:0:
252,88,89479,5,4,3:2:0:0:
347,81,89646,1,0,1:0:0:0:
347,81,89729,1,0,1:0:0:0:
347,81,89812,2,0,P|361:126|357:163,1,65,4|0,3:2|1:0,0:0:0:0:
374,227,90146,2,0,P|365:263|368:276,3,32.5,2|0|0|0,1:2|1:0|1:0|1:0,0:0:0:0:
375,298,90479,2,0,P|384:334|381:347,3,32.5,2|0|0|0,1:2|1:0|1:0|1:0,0:0:0:0:
385,371,90812,5,2,0:0:0:0:
255,262,91146,2,0,L|166:268,1,65,4|0,3:2|0:0,0:0:0:0:
105,274,91479,5,12,0:0:0:0:
6,193,91729,5,0,3:0:0:0:
79,89,91979,5,0,3:0:0:0:
129,156,92146,6,0,P|191:164|256:128,1,130,4|4,3:2|3:2,0:0:0:0:
278,54,92646,1,0,0:0:0:0:
327,122,92812,6,0,B|375:133|375:133|415:127,1,65,12|0,0:0|0:0,0:0:0:0:
432,125,93062,2,0,L|425:200,1,65,0|0,3:0|0:0,0:0:0:0:
427,232,93312,1,0,3:0:0:0:
343,215,93479,6,0,P|287:218|219:249,1,130,4|4,3:2|3:2,0:0:0:0:
181,323,93979,1,0,0:0:0:0:
136,250,94146,5,12,0:0:0:0:
62,353,94396,5,0,3:0:0:0:
4,239,94646,5,0,3:0:0:0:
73,192,94812,6,0,P|81:153|80:111,1,65,4|0,3:0|1:0,0:0:0:0:
86,16,95146,2,0,P|115:42|152:62,1,65,4|0,3:2|1:0,0:0:0:0:
257,28,95479,2,0,B|220:58|220:58|207:109,2,97.5,8|0|8,0:0|3:0|0:0,0:0:0:0:
332,68,96146,6,0,L|419:62,1,65,4|0,3:2|0:0,0:0:0:0:
386,159,96479,2,0,L|473:153,1,65,0|0,3:0|0:0,0:0:0:0:
442,249,96812,5,12,0:0:0:0:
361,346,97062,5,0,3:0:0:0:
307,231,97312,5,0,3:0:0:0:
252,295,97479,6,0,B|217:259|217:259|233:152,1,130,4|4,3:2|3:2,0:0:0:0:
303,139,97979,1,0,0:0:0:0:
230,95,98146,6,0,P|177:86|147:89,1,65,12|0,0:0|0:0,0:0:0:0:
139,120,98396,2,0,L|127:209,1,65,0|0,3:0|0:0,0:0:0:0:
126,226,98646,1,0,3:0:0:0:
53,183,98812,5,0,3:0:0:0:
43,267,98979,2,0,L|37:311,2,32.5,8|8|8,0:0|0:0|0:0,0:0:0:0:
118,306,99312,2,0,L|112:350,2,32.5,8|8|8,0:0|0:0|0:0,0:0:0:0:
200,278,99646,2,0,L|194:322,2,32.5,8|8|8,0:0|0:0|0:0,0:0:0:0:
291,319,99979,1,8,0:0:0:0:
291,319,100062,1,8,0:0:0:0:
291,319,100146,6,0,L|285:363,3,32.5,0|0|0|0,1:0|1:0|1:0|1:0,0:0:0:0:
327,363,100479,2,0,L|359:366,3,32.5,0|0|0|0,1:0|1:0|1:0|1:0,0:0:0:0:
400,372,100812,6,0,B|421:328|421:328|404:267,1,97.50000371933,2|2,0:0|0:0,0:0:0:0:
260,169,101479,6,0,P|248:119|297:91,1,97.5,2|0,0:1|0:0,0:0:0:0:
321,95,101812,2,0,L|400:109,1,65,4|0,3:2|0:0,0:0:0:0:
479,156,102146,2,0,L|463:56,2,97.5,4|4|4,3:2|3:2|3:2,0:0:0:0:
477,240,102812,5,4,3:2:0:0:
355,204,103062,5,4,3:2:0:0:
392,325,103312,5,4,3:2:0:0:
318,282,103479,6,0,P|258:269|173:291,1,130,4|2,3:2|0:1,0:0:0:0:
35,346,104146,6,0,L|16:261,1,65,0|0,3:0|3:0,0:0:0:0:
39,244,104396,2,0,L|20:159,1,65,0|0,3:0|3:0,0:0:0:0:
45,143,104646,1,0,3:0:0:0:
128,190,104812,6,0,L|150:83,2,97.5,8|0|0,3:2|3:0|3:0,0:0:0:0:
255,137,105479,6,0,L|236:222,1,65,0|0,3:0|3:0,0:0:0:0:
259,239,105729,2,0,L|240:324,1,65,0|0,3:0|3:0,0:0:0:0:
265,340,105979,1,0,3:0:0:0:
333,290,106146,6,0,P|440:304|453:329,1,130,8|0,3:2|1:0,0:0:0:0:
435,144,106812,6,0,P|448:108|446:70,1,65,4|0,3:2|0:0,0:0:0:0:
363,91,107146,2,0,P|338:61|304:44,1,65,4|0,3:2|0:0,0:0:0:0:
282,126,107479,5,4,3:2:0:0:
165,76,107729,5,4,3:2:0:0:
186,200,107979,5,4,3:2:0:0:
114,154,108146,6,0,P|52:141|7:146,2,97.5,4|4|4,3:2|3:2|3:2,0:0:0:0:
108,238,108812,1,4,3:2:0:0:
183,293,108979,1,0,0:0:0:0:
183,293,109062,1,0,0:0:0:0:
183,293,109146,2,0,P|234:296|268:281,1,65,4|4,3:2|3:2,0:0:0:0:
323,235,109479,5,6,3:2:0:0:
256,192,109562,12,0,112146,3:0:0:0:
125,294,122479,6,0,P|112:253|110:212,1,73.1250027894975,2|0,0:0|0:0,0:0:0:0:
116,181,122812,5,4,3:2:0:0:
275,238,123146,2,0,P|318:214|403:218,1,130,0|0,1:0|0:0,0:0:0:0:
445,285,123646,1,0,3:0:0:0:
491,214,123812,2,0,P|498:165|491:136,1,65,0|0,1:0|0:0,0:0:0:0:
432,92,124146,5,0,3:0:0:0:
266,124,124479,2,0,L|126:108,1,130,0|0,1:0|0:0,0:0:0:0:
52,97,124979,1,0,3:0:0:0:
88,173,125146,2,0,L|95:241,1,65,0|0,1:0|0:0,0:0:0:0:
138,309,125479,5,0,3:0:0:0:
304,338,125812,2,0,P|312:271|271:209,1,130,0|0,1:0|0:0,0:0:0:0:
198,205,126312,1,0,3:0:0:0:
245,135,126479,2,0,P|239:90|221:64,1,65,0|0,1:0|0:0,0:0:0:0:
182,3,126812,6,0,B|249:40|249:40|327:29,1,130,0|0,3:0|1:0,0:0:0:0:
405,15,127312,2,0,L|399:160,1,130,0|0,3:0|3:0,0:0:0:0:
328,211,127812,2,0,L|241:200,1,65,0|0,1:0|0:0,0:0:0:0:
180,151,128146,5,0,3:0:0:0:
273,291,128479,2,0,L|126:270,1,130,0|0,1:0|0:0,0:0:0:0:
61,254,128979,1,0,3:0:0:0:
83,172,129146,2,0,P|83:135|57:93,1,65,0|0,1:0|0:0,0:0:0:0:
21,41,129479,5,0,3:0:0:0:
167,125,129812,2,0,P|228:141|299:123,1,130,0|0,1:0|0:0,0:0:0:0:
344,59,130312,1,0,3:0:0:0:
378,136,130479,2,0,P|414:154|449:157,1,65,0|0,1:0|0:0,0:0:0:0:
501,101,130812,5,0,3:0:0:0:
399,236,131146,1,0,1:0:0:0:
426,318,131312,1,0,0:0:0:0:
344,296,131479,2,0,P|312:301|283:317,2,65,0|0|0,0:0|3:0|1:0,0:0:0:0:
188,363,132146,5,4,1:2:0:0:
211,271,132312,1,8,0:0:0:0:
211,271,132396,1,8,0:0:0:0:
211,271,132479,2,0,L|216:185,1,65,0|8,1:0|0:0,0:0:0:0:
224,122,132812,2,0,P|238:126|266:126,3,32.5,4|0|0|0,1:2|1:0|1:0|1:0,0:0:0:0:
296,114,133146,2,0,P|306:103|320:79,3,32.5,0|0|0|0,1:0|1:0|1:0|1:0,0:0:0:0:
337,52,133479,6,0,P|397:53|444:77,1,97.5,0|0,3:0|1:0,0:0:0:0:
460,97,133812,2,0,L|466:188,1,65,0|0,3:0|1:0,0:0:0:0:
485,265,134146,6,0,P|425:264|378:240,1,97.5,0|0,3:0|1:0,0:0:0:0:
362,220,134479,2,0,L|356:129,1,65,0|0,3:0|1:0,0:0:0:0:
276,129,134812,6,0,P|216:130|169:154,1,97.5,0|0,3:0|1:0,0:0:0:0:
143,127,135146,2,0,B|154:91|154:91|150:46,1,65,0|0,3:0|0:0,0:0:0:0:
76,24,135479,1,0,3:0:0:0:
47,103,135646,1,0,1:0:0:0:
47,103,135729,1,0,1:0:0:0:
47,103,135812,2,0,L|43:180,1,65,0|0,3:0|1:0,0:0:0:0:
140,213,136146,6,0,L|144:326,1,97.5,0|0,3:0|1:0,0:0:0:0:
168,345,136479,2,0,P|215:332|234:318,1,65,0|0,3:0|1:0,0:0:0:0:
313,263,136812,2,0,P|266:250|212:216,1,97.5,0|0,3:0|1:0,0:0:0:0:
217,183,137146,2,0,L|221:88,1,65,0|0,3:0|1:0,0:0:0:0:
296,25,137479,6,0,B|325:64|325:64|317:138,1,97.5,0|0,3:0|1:0,0:0:0:0:
313,154,137812,1,0,3:0:0:0:
397,143,137979,2,0,P|430:138|479:142,1,65,0|0,1:0|3:0,0:0:0:0:
495,229,138312,1,0,1:0:0:0:
495,229,138396,1,0,1:0:0:0:
495,229,138479,2,0,L|498:270,3,32.5,0|0|0|0,3:0|1:0|1:0|1:0,0:0:0:0:
498,303,138812,6,0,P|454:318|412:321,1,65,4|0,3:2|3:0,0:0:0:0:
353,298,139146,2,0,P|260:266|228:275,2,130,0|0|0,3:0|3:0|3:0,0:0:0:0:
414,239,139979,1,0,3:0:0:0:
443,159,140146,2,0,P|434:105|382:37,1,130,0|0,3:0|3:0,0:0:0:0:
309,22,140646,1,0,3:0:0:0:
249,81,140812,2,0,P|202:89|172:88,1,65,0|0,3:0|3:0,0:0:0:0:
265,173,141146,2,0,P|312:165|342:166,1,65,0|0,3:0|3:0,0:0:0:0:
274,258,141479,5,0,3:0:0:0:
256,192,141562,12,0,142812,3:0:0:0:
80,260,144146,6,0,P|72:211|114:181,1,97.5,0|0,0:0|0:0,0:0:0:0:
146,187,144479,6,0,L|160:113,2,43.3333333333333,2|0|0,3:1|0:0|0:0,0:0:0:0:
201,195,144812,2,0,L|215:269,2,43.3333333333333,2|0|0,3:1|0:0|0:0,0:0:0:0:
256,182,145146,2,0,B|295:168|295:168|361:178,1,86.6666666666667,6|0,3:2|0:0,0:0:0:0:
382,211,145479,6,0,P|422:204|445:190,2,43.3333333333333,2|0|0,3:1|0:0|0:0,0:0:0:0:
368,265,145812,2,0,P|328:258|305:244,2,43.3333333333333,2|0|0,3:1|0:0|0:0,0:0:0:0:
383,319,146146,2,0,P|423:312|446:298,2,43.3333333333333,2|0|0,3:1|0:0|0:0,0:0:0:0:
363,371,146479,2,0,P|304:371|268:358,1,86.6666666666667,6|0,3:2|0:0,0:0:0:0:
256,192,146812,12,2,148812,3:1:0:0:
405,274,149479,6,0,B|386:238|386:238|410:176,1,86.6666666666667,6|0,3:2|3:0,0:0:0:0:
431,146,149812,1,0,1:0:0:0:
344,73,150035,1,2,0:0:0:0:
344,73,150146,2,0,L|223:82,1,86.6666666666667,6|0,3:2|3:0,0:0:0:0:
202,89,150479,1,0,1:0:0:0:
148,187,150701,1,2,0:0:0:0:
148,187,150812,6,0,L|269:178,1,86.6666666666667,6|0,3:2|3:0,0:0:0:0:
290,171,151145,1,0,1:0:0:0:
340,272,151368,1,2,0:0:0:0:
340,272,151479,2,0,L|178:286,1,130,6|0,3:2|1:0,0:0:0:0:
49,232,152146,6,0,L|41:284,2,43.3333333333333,2|0|0,3:1|0:0|3:0,0:0:0:0:
32,178,152479,2,0,L|-7:212,2,43.3333333333333,2|0|0,3:1|0:0|3:0,0:0:0:0:
58,128,152812,2,0,L|-3:121,2,43.3333333333333,2|0|0,3:1|0:0|3:0,0:0:0:0:
109,103,153146,2,0,L|68:70,2,43.3333333333333,2|0|0,3:1|0:0|3:0,0:0:0:0:
162,120,153479,5,0,3:0:0:0:
309,202,153812,1,0,1:0:0:0:
274,124,153979,2,0,P|239:151|239:247,1,130,0|0,3:0|1:0,0:0:0:0:
294,287,154479,1,2,0:0:0:0:
357,130,154812,6,0,P|350:90|323:61,1,65,2|0,0:0|0:0,0:0:0:0:
301,45,155062,1,0,1:0:0:0:
301,45,155146,2,0,P|255:43|212:66,1,65,2|2,3:1|0:1,0:0:0:0:
179,110,155479,2,0,L|89:98,1,65,2|0,1:1|0:0,0:0:0:0:
29,97,155812,2,0,L|39:148,3,32.5,2|0|2|0,0:1|0:0|0:1|0:0,0:0:0:0:
44,170,156146,6,0,B|62:260,1,65,2|2,3:1|0:1,0:0:0:0:
75,316,156479,1,0,0:0:0:0:
156,279,156646,1,2,1:1:0:0:
156,279,156729,1,0,1:0:0:0:
156,279,156812,2,0,L|219:292,1,65,2|0,1:1|0:0,0:0:0:0:
304,298,157146,2,0,P|314:267|314:256,3,32.5,2|0|2|0,3:1|0:0|0:1|0:0,0:0:0:0:
321,225,157479,5,2,3:1:0:0:
262,164,157646,1,2,0:1:0:0:
262,164,157729,1,0,0:0:0:0:
262,164,157812,2,0,P|309:143|340:144,1,65,2|2,0:1|3:1,0:0:0:0:
397,181,158146,2,0,P|406:231|398:261,1,65,2|2,1:1|0:1,0:0:0:0:
381,325,158479,2,0,P|391:354|399:366,3,32.5,0|0|2|0,3:1|0:0|0:1|0:0,0:0:0:0:
432,366,158812,5,2,0:1:0:0:
488,206,159146,1,2,0:1:0:0:
321,225,159479,2,0,L|215:239,1,97.5,0|0,3:0|0:0,0:0:0:0:
182,240,159812,1,0,1:0:0:0:
202,71,160146,6,0,L|298:58,1,97.5,2|0,0:0|1:0,0:0:0:0:
332,83,160479,2,0,P|378:70|410:51,1,65,2|2,3:1|0:1,0:0:0:0:
477,61,160812,2,0,P|465:107|465:144,1,65,2|0,0:1|3:0,3:0:0:0:
411,191,161146,2,0,P|391:178|364:168,3,32.5,2|0|2|0,0:1|0:0|0:1|0:0,0:0:0:0:
341,176,161479,6,0,B|308:165|308:165|250:172,1,65,0|0,3:0|0:0,0:0:0:0:
195,151,161812,1,0,0:0:0:0:
139,220,161979,1,2,1:1:0:0:
139,220,162062,1,0,1:0:0:0:
139,220,162146,2,0,P|92:220|62:206,1,65,2|0,1:1|0:0,0:0:0:0:
41,136,162479,2,0,L|37:99,3,32.5,0|0|0|0,3:0|1:0|1:0|1:0,0:0:0:0:
36,61,162812,5,2,3:1:0:0:
256,192,162896,12,0,165479,0:0:0:0:
6,373,168146,5,2,0:0:0:0:
159,345,168479,1,2,0:0:0:0:
81,333,168646,2,0,P|58:282|69:225,1,97.50000371933,2|0,0:0|0:0,0:0:0:0:
69,203,169062,1,0,0:0:0:0:
69,203,169146,2,0,L|128:207,1,48.750001859665,0|0,0:0|0:0,0:0:0:0:
177,155,169479,6,0,P|169:113|161:98,2,48.750001859665,2|0|0,0:0|0:0|0:0,0:0:0:0:
234,207,169979,2,0,P|278:198|336:206,1,97.50000371933,2|0,0:0|0:0,0:0:0:0:
504,360,170812,5,2,0:0:0:0:
411,234,171146,1,0,0:0:0:0:
477,193,171312,2,0,L|485:77,1,97.50000371933,2|0,0:0|0:0,0:0:0:0:
475,57,171729,1,0,0:0:0:0:
475,57,171812,2,0,L|410:60,1,48.750001859665,0|0,0:0|0:0,0:0:0:0:
359,101,172146,5,2,0:0:0:0:
291,63,172312,1,0,0:0:0:0:
223,103,172479,2,0,L|158:100,1,48.750001859665,2|0,0:0|0:0,0:0:0:0:
105,62,172812,2,0,B|89:97|89:97|106:152,2,73.1250027894975,2|0|0,0:0|0:0|0:0,0:0:0:0:
176,28,173479,5,2,0:0:0:0:
214,179,173812,1,2,0:0:0:0:
140,204,173979,2,0,P|131:248|128:311,1,97.50000371933,2|0,0:0|0:0,0:0:0:0:
137,338,174396,1,0,0:0:0:0:
137,338,174479,2,0,L|192:336,1,48.750001859665,0|0,0:0|0:0,0:0:0:0:
262,323,174812,6,0,L|260:378,2,48.750001859665,2|0|0,0:0|0:0|0:0,0:0:0:0:
292,251,175312,2,0,P|347:274|388:275,1,97.50000371933,2|0,0:0|0:0,0:0:0:0:
214,114,176146,6,0,P|165:117|121:138,1,97.50000371933,2|0,0:0|0:0,0:0:0:0:
85,69,176646,2,0,P|50:103|30:147,1,97.50000371933,2|0,0:0|0:0,0:0:0:0:
79,207,177146,2,0,P|78:219|81:231,3,24.3750009298325,2|0|2|0,0:0|0:0|0:0|0:0,0:0:0:0:
256,192,177479,12,2,178812,0:0:0:0:
27,254,179479,6,0,L|187:235,1,130,0|0,1:0|0:0,0:0:0:0:
314,177,180146,5,0,3:0:0:0:
314,177,180812,2,0,P|321:122|345:67,2,97.5,0|0|0,1:0|1:0|1:0,0:0:0:0:
369,241,181479,1,0,3:0:0:0:
96,40,182146,6,0,P|160:47|220:72,1,130,0|0,1:0|0:0,0:0:0:0:
333,197,182812,2,0,P|268:189|208:164,1,130,0|0,3:0|1:0,0:0:0:0:
145,221,183312,1,0,1:0:0:0:
145,221,183396,1,0,1:0:0:0:
145,221,183479,2,0,P|129:175|132:126,2,97.5,0|0|0,1:0|1:0|1:0,0:0:0:0:
96,290,184146,5,0,3:0:0:0:
444,254,184812,2,0,L|432:318,2,65,0|0|0,1:0|0:0|0:0,0:0:0:0:
370,214,185312,2,0,L|357:150,1,65,0|0,0:0|3:0,0:0:0:0:
465,19,185812,1,0,0:0:0:0:
465,19,186146,2,0,L|483:124,2,97.5,0|0|0,1:0|1:0|1:0,0:0:0:0:
389,55,186812,5,0,3:0:0:0:
135,69,187312,1,0,0:0:0:0:
101,146,187479,2,0,P|162:150|212:96,1,130,0|0,1:0|1:0,0:0:0:0:
364,172,188146,6,0,P|353:204|355:259,1,65,0|0,1:0|1:0,0:0:0:0:
280,281,188479,2,0,P|257:255|209:229,1,65,0|0,1:0|1:0,0:3:0:0:
205,318,188812,2,0,P|195:345|195:359,3,32.5,0|0|0|0,1:0|1:0|1:0|1:0,0:0:0:0:
156,368,189146,2,0,P|129:378|115:378,3,32.5,0|0|0|0,1:0|1:0|1:0|1:0,0:0:0:0:
83,369,189479,6,0,P|71:338|68:280,1,65,8|0,0:0|0:0,0:0:0:0:
69,263,189729,1,8,0:0:0:0:
69,263,189812,2,0,L|157:248,1,65,8|0,0:0|1:0,0:0:0:0:
199,308,190146,1,8,0:0:0:0:
220,227,190312,2,0,L|207:196,2,32.5,8|8|8,0:0|0:0|0:0,0:0:0:0:
386,258,190812,6,0,P|395:289|392:347,1,65,8|0,0:0|0:0,0:0:0:0:
396,365,191062,1,8,0:0:0:0:
396,365,191145,2,0,L|485:359,1,65,8|0,0:0|1:0,0:0:0:0:
480,277,191479,1,8,0:0:0:0:
449,198,191645,2,0,L|458:141,2,32.5,8|0|8,0:0|0:0|0:0,0:0:0:0:
367,172,191979,1,0,1:0:0:0:
410,99,192146,6,0,B|364:84|364:84|290:105,1,97.5,8|8,0:0|0:0,0:0:0:0:
277,112,192479,2,0,L|273:204,1,65,8|0,0:0|1:0,0:0:0:0:
270,261,192812,2,0,P|236:259|195:271,1,65,8|8,0:0|0:0,0:0:0:0:
180,185,193146,2,0,P|147:182|116:174,1,65,8|0,0:0|0:0,0:0:0:0:
62,240,193479,5,8,0:0:0:0:
41,157,193646,1,8,0:0:0:0:
41,157,193729,1,8,0:0:0:0:
41,157,193812,2,0,P|37:139|26:70,1,65,8|8,0:0|0:0,0:0:0:0:
108,62,194146,2,0,P|112:44|117:14,3,32.5,8|8|8|8,0:0|0:0|0:0|0:0,0:0:0:0:
155,22,194479,2,0,P|173:26|203:31,3,32.5,8|8|8|8,0:0|0:0|0:0|0:0,0:0:0:0:
223,50,194812,6,0,P|222:82|217:114,2,65,12|0|0,1:2|1:0|1:0,0:0:0:0:
302,19,195312,1,0,1:0:0:0:
305,103,195479,2,0,P|337:102|369:97,1,65,0|0,1:0|1:0,0:0:0:0:
451,119,195812,2,0,P|446:151|446:183,1,65,0|0,1:0|1:0,0:0:0:0:
388,246,196146,2,0,P|355:246|323:251,1,65,0|0,1:0|1:0,0:0:0:0:
252,204,196479,2,0,P|269:254|264:337,2,130,0|0|0,1:0|1:0|1:0,0:0:0:0:
169,223,197312,1,0,1:0:0:0:
169,223,197396,1,0,1:0:0:0:
169,223,197479,6,0,L|179:176,7,32.5,0|0|0|0|0|0|0|0,1:0|1:0|1:0|1:0|1:0|1:0|1:0|1:0,0:0:0:0:
188,150,198146,6,0,L|156:156,3,32.5,0|0|0|0,1:0|1:0|1:0|1:0,0:0:0:0:
171,116,198479,2,0,L|181:69,3,32.5,0|0|0|0,1:0|1:0|1:0|1:0,0:0:0:0:
192,44,198812,5,0,3:0:0:0:
361,47,199146,2,0,P|439:38|503:15,2,130,0|0|2,0:0|1:0|1:2,0:0:0:0:
230,154,200146,6,0,B|200:138|200:138|131:164,1,97.5,2|0,0:0|0:0,0:0:0:0:
131,201,200479,6,0,L|119:275,1,65,4|0,3:2|0:0,0:0:0:0:
158,340,200812,2,0,L|268:319,2,97.5,4|0|0,3:2|3:0|3:0,0:0:0:0:
62,335,201479,6,0,P|43:347|18:352,3,32.5,4|0|0|0,3:2|0:0|0:0|0:0,0:0:0:0:
1,322,201812,2,0,P|0:300|8:276,3,32.5,4|0|0|0,3:2|0:0|0:0|0:0,0:0:0:0:
11,247,202146,5,4,3:2:0:0:
112,171,202396,5,0,3:0:0:0:
1,108,202646,5,0,3:0:0:0:
83,89,202812,6,0,B|155:80|155:80|215:116,1,130,4|4,3:2|3:2,0:0:0:0:
260,46,203312,1,0,0:0:0:0:
290,125,203479,2,0,P|285:169|311:229,2,97.5,0|0|0,3:0|3:0|3:0,0:0:0:0:
366,89,204146,6,0,P|397:94|425:111,1,65,4|0,3:2|1:0,0:0:0:0:
484,180,204479,1,4,3:2:0:0:
409,219,204646,1,0,1:0:0:0:
476,269,204812,2,0,B|464:313|494:311|477:365,2,97.5,4|0|0,3:2|3:0|1:0,0:0:0:0:
400,309,205479,6,0,B|370:322|370:322|313:320,1,65,4|0,3:2|0:0,0:0:0:0:
263,218,205812,2,0,B|295:216|295:216|325:229,1,65,0|0,3:0|0:0,0:0:0:0:
246,133,206146,2,0,L|342:119,2,97.5,4|0|0,3:2|3:2|3:0,0:0:0:0:
162,125,206812,6,0,P|159:150|149:171,3,32.5,4|0|0|0,3:2|0:0|0:0|0:0,0:0:0:0:
119,176,207146,2,0,P|94:179|73:189,3,32.5,4|0|0|0,3:2|0:0|0:0|0:0,0:0:0:0:
49,200,207479,5,4,3:2:0:0:
145,281,207729,5,4,3:2:0:0:
37,347,207979,5,0,0:0:0:0:
120,362,208146,6,0,B|197:377|197:377|243:355,1,130,4|0,3:2|3:0,0:0:0:0:
293,286,208646,1,0,0:0:0:0:
252,212,208812,2,0,L|349:202,2,97.5,4|0|0,3:2|3:0|3:0,0:0:0:0:
167,202,209479,5,4,3:2:0:0:
94,245,209646,1,0,1:0:0:0:
94,245,209729,1,0,1:0:0:0:
94,245,209812,2,0,P|80:200|84:163,1,65,4|0,3:2|1:0,0:0:0:0:
137,119,210146,2,0,P|128:83|131:70,3,32.5,2|0|0|0,1:2|1:0|1:0|1:0,0:0:0:0:
151,52,210479,2,0,P|167:54|181:61,3,32.5,2|0|0|0,1:2|1:0|1:0|1:0,0:0:0:0:
222,72,210812,5,2,0:0:0:0:
279,231,211146,2,0,L|343:235,1,65,4|0,3:2|0:0,0:0:0:0:
428,235,211479,5,12,0:0:0:0:
371,121,211729,5,0,3:0:0:0:
458,28,211979,5,0,3:0:0:0:
373,37,212146,6,0,P|315:7|252:15,1,130,4|4,3:2|3:2,0:0:0:0:
212,90,212646,1,0,0:0:0:0:
170,163,212812,6,0,P|129:173|82:168,1,65,12|0,0:0|0:0,0:0:0:0:
64,169,213062,2,0,L|70:233,1,65,0|0,3:0|0:0,0:0:0:0:
75,275,213312,1,0,3:0:0:0:
155,250,213479,6,0,P|219:255|277:283,1,130,4|0,3:2|3:0,0:0:0:0:
341,227,213979,1,0,0:0:0:0:
358,309,214146,5,12,0:0:0:0:
420,198,214396,5,0,3:0:0:0:
300,155,214646,5,0,3:0:0:0:
378,124,214812,6,0,P|376:91|369:59,1,65,4|0,3:2|1:0,0:0:0:0:
284,49,215146,2,0,P|256:66|232:88,1,65,4|0,3:2|1:0,0:0:0:0:
221,172,215479,2,0,B|184:202|184:202|171:253,2,97.5,12|0|8,0:0|3:0|0:0,0:0:0:0:
156,117,216146,6,0,L|91:112,1,65,4|0,3:2|0:0,0:0:0:0:
22,161,216479,2,0,L|28:248,1,65,0|0,3:0|0:0,0:0:0:0:
91,279,216812,5,12,0:0:0:0:
201,340,217062,5,0,3:0:0:0:
288,248,217312,5,0,3:0:0:0:
203,252,217479,6,0,B|191:173|191:173|226:137,1,130,4|4,3:2|3:2,0:0:0:0:
287,79,217979,1,0,0:0:0:0:
307,161,218146,6,0,P|360:170|390:167,1,65,12|0,0:0|0:0,0:0:0:0:
398,136,218396,2,0,L|410:47,1,65,0|0,3:0|0:0,0:0:0:0:
411,30,218646,1,0,3:0:0:0:
329,7,218812,5,0,3:0:0:0:
287,79,218979,2,0,L|254:83,2,32.5,8|8|8,0:0|0:0|0:0,0:0:0:0:
307,161,219312,2,0,L|351:155,2,32.5,8|8|8,0:0|0:0|0:0,0:0:0:0:
312,246,219646,2,0,L|279:250,2,32.5,8|8|8,0:0|0:0|0:0,0:0:0:0:
402,237,219979,1,8,0:0:0:0:
402,237,220062,1,8,0:0:0:0:
402,237,220146,6,0,L|396:281,3,32.5,0|0|0|0,1:0|1:0|1:0|1:0,0:0:0:0:
438,281,220479,2,0,L|470:284,3,32.5,0|0|0|0,1:0|1:0|1:0|1:0,0:0:0:0:
512,287,220812,5,2,0:0:0:0:
461,125,221146,1,2,0:0:0:0:
303,199,221479,6,0,P|241:200|229:167,1,97.5,2|0,0:1|0:0,0:0:0:0:
224,133,221812,6,0,L|150:121,1,65,4|0,3:2|0:0,0:0:0:0:
118,48,222145,2,0,L|228:27,2,97.5,4|0|0,3:2|3:0|3:0,0:0:0:0:
37,73,222812,6,0,P|42:88|54:98,3,32.5,4|0|0|0,3:2|0:0|0:0|0:0,0:0:0:0:
58,143,223145,2,0,P|55:159|52:182,3,32.5,4|0|0|0,3:2|0:0|0:0|0:0,0:0:0:0:
54,217,223479,5,4,3:2:0:0:
169,164,223729,5,0,3:0:0:0:
129,284,223979,5,0,3:0:0:0:
204,245,224146,6,0,L|342:236,1,130,4|0,3:2|3:0,0:0:0:0:
398,183,224645,1,0,0:0:0:0:
352,111,224812,2,0,P|347:67|373:7,2,97.5,4|0|0,3:2|3:0|3:0,0:0:0:0:
271,84,225479,6,0,P|239:89|211:106,1,65,4|0,3:2|1:0,0:0:0:0:
269,167,225812,1,4,3:2:0:0:
188,194,225979,1,0,1:0:0:0:
132,130,226145,2,0,B|88:118|88:118|73:127|73:127|28:120,2,97.5,4|4|0,3:2|3:2|1:0,0:0:0:0:
101,209,226812,6,0,B|99:241|99:241|112:271,1,65,4|0,3:2|0:0,0:0:0:0:
160,340,227145,2,0,B|192:342|192:342|222:329,1,65,0|0,3:0|0:0,0:0:0:0:
292,280,227479,2,0,L|388:266,2,97.5,4|0|0,3:2|3:0|3:0,0:0:0:0:
216,242,228145,6,0,P|218:217|228:196,3,32.5,4|0|0|0,3:2|0:0|0:0|0:0,0:0:0:0:
231,168,228479,2,0,P|228:143|218:122,3,32.5,4|0|0|0,3:2|0:0|0:0|0:0,0:0:0:0:
210,96,228812,5,4,3:2:0:0:
301,8,229062,5,0,3:2:0:0:
410,71,229312,5,0,3:0:0:0:
329,97,229479,6,0,B|314:174|314:174|336:219,1,130,4|0,3:2|3:0,0:0:0:0:
320,303,229979,1,0,0:0:0:0:
400,278,230145,2,0,L|505:266,2,97.5,4|4|0,3:2|3:2|1:0,0:0:0:0:
414,194,230812,5,4,3:2:0:0:
467,119,230979,1,0,1:0:0:0:
467,119,231062,1,0,1:0:0:0:
467,119,231145,2,0,P|422:105|385:109,1,65,4|0,3:2|1:0,0:0:0:0:
325,74,231479,2,0,P|316:38|319:25,3,32.5,2|0|0|0,1:2|1:0|1:0|1:0,0:0:0:0:
339,7,231812,2,0,P|355:9|369:16,3,32.5,2|0|0|0,1:2|1:0|1:0|1:0,0:0:0:0:
410,27,232145,5,0,0:0:0:0:
304,159,232479,2,0,L|240:155,1,65,4|0,3:2|0:0,0:0:0:0:
154,147,232812,5,12,0:0:0:0:
50,219,233062,5,0,3:0:0:0:
43,92,233312,5,0,3:0:0:0:
124,68,233479,6,0,P|187:60|244:90,1,130,4|4,3:2|3:2,0:0:0:0:
306,33,233979,1,0,0:0:0:0:
330,113,234145,6,0,P|362:112|393:103,1,65,12|0,0:2|0:0,0:0:0:0:
435,99,234396,2,0,B|428:136|428:136|441:163,1,65,0|0,3:0|0:0,0:0:0:0:
468,191,234645,1,0,3:0:0:0:
406,249,234812,6,0,L|261:230,1,130,4|0,3:2|3:0,0:0:0:0:
207,183,235312,1,0,0:0:0:0:
203,267,235479,5,12,0:0:0:0:
99,194,235729,5,0,3:0:0:0:
184,100,235979,5,0,3:0:0:0:
100,109,236145,6,0,P|93:77|91:44,1,65,4|0,3:2|1:0,0:0:0:0:
165,3,236479,2,0,P|197:4|229:11,1,65,4|0,3:2|1:0,0:0:0:0:
277,81,236812,2,0,B|325:68|325:68|355:31,2,97.5,12|0|8,0:0|3:0|0:0,0:0:0:0:
250,161,237479,6,0,L|185:156,1,65,4|0,3:2|0:0,0:0:0:0:
109,194,237812,2,0,L|115:281,1,65,0|0,3:0|0:0,0:0:0:0:
196,241,238145,5,12,0:0:0:0:
115,339,238395,5,0,3:0:0:0:
240,359,238645,5,0,3:0:0:0:
272,280,238812,6,0,P|347:267|399:288,1,130,4|4,3:2|3:2,0:0:0:0:
466,239,239312,1,0,0:0:0:0:
404,180,239479,6,0,P|351:189|321:186,1,65,12|0,0:0|0:0,0:0:0:0:
297,181,239729,2,0,B|289:149|289:149|309:92,1,65,0|0,3:0|0:0,0:0:0:0:
313,78,239979,1,0,3:0:0:0:
349,1,240145,5,0,3:2:0:0:
244,12,240312,2,0,L|211:16,2,32.5,8|8|8,0:0|0:0|0:0,0:0:0:0:
227,94,240645,2,0,L|194:98,2,32.5,8|8|8,0:0|0:0|0:0,0:0:0:0:
206,176,240979,2,0,L|173:180,2,32.5,8|8|8,0:0|0:0|0:0,0:0:0:0:
192,267,241312,1,8,0:0:0:0:
192,267,241395,1,8,0:0:0:0:
192,267,241479,6,0,L|186:311,3,32.5,8|8|8|8,0:0|0:0|0:0|0:0,0:0:0:0:
182,341,241812,2,0,L|179:373,3,32.5,8|8|8|8,0:0|0:0|0:0|0:0,3:0:0:0:
221,374,242146,6,0,L|253:377,7,32.5,0|0|0|0|0|0|0|0,1:0|1:0|1:0|1:0|1:0|1:0|1:0|1:0,3:0:0:0:
295,382,242812,5,6,0:0:0:0:
