osu file format v14

[General]
AudioFilename: audio.mp3
AudioLeadIn: 0
PreviewTime: -1
Countdown: 1
SampleSet: Normal
StackLeniency: 0.7
Mode: 3
LetterboxInBreaks: 0
SpecialStyle: 0
WidescreenStoryboard: 0

[Editor]
DistanceSpacing: 1
BeatDivisor: 12
GridSize: 8
TimelineZoom: 1

[Metadata]
Title:Cinnamon Symphony
TitleUnicode:Cinnamon Symphony
Artist:YUC'e
ArtistUnicode:YUC'e
Creator:Mirt
Version:Cinnamon Symphony
Source:YUC'e
Tags:
BeatmapID:1656203
BeatmapSetID:789128

[Difficulty]
HPDrainRate:7
CircleSize:4
OverallDifficulty:8
ApproachRate:5
SliderMultiplier:1.4
SliderTickRate:1

[Events]
//Background and Video events
0,0,"IMG_20180530_101551_227.jpg",0,0
//Break Periods
//Storyboard Layer 0 (Background)
//Storyboard Layer 1 (Fail)
//Storyboard Layer 2 (Pass)
//Storyboard Layer 3 (Foreground)
//Storyboard Sound Samples

[TimingPoints]
2,667.066666666667,4,1,0,100,1,0
100,-133.333333333333,4,1,0,100,0,0
21333,-100,4,1,0,100,0,0
42666,-90.9090909090909,4,1,0,100,0,0
63444,-133.333333333333,4,1,0,100,0,0

[HitObjects]
64,192,2,128,0,1335:0:0:0:0:
192,192,1336,128,0,2669:0:0:0:0:
320,192,2670,128,0,4004:0:0:0:0:
448,192,4004,128,0,5337:0:0:0:0:
192,192,5338,128,0,6671:0:0:0:0:
64,192,5338,128,0,6671:0:0:0:0:
320,192,6672,128,0,8006:0:0:0:0:
448,192,6672,128,0,8006:0:0:0:0:
192,192,8006,128,0,9339:0:0:0:0:
448,192,9340,128,0,10673:0:0:0:0:
64,192,10675,128,0,12009:0:0:0:0:
320,192,12009,128,0,13342:0:0:0:0:
64,192,13343,128,0,14676:0:0:0:0:
192,192,14677,128,0,15177:0:0:0:0:
320,192,15344,1,0,0:0:0:0:
448,192,16011,128,0,17344:0:0:0:0:
320,192,16011,128,0,17344:0:0:0:0:
64,192,16678,1,0,0:0:0:0:
192,192,16678,1,0,0:0:0:0:
64,192,17345,1,0,0:0:0:0:
192,192,17345,1,0,0:0:0:0:
64,192,18012,1,0,0:0:0:0:
192,192,18012,1,0,0:0:0:0:
320,192,18012,1,0,0:0:0:0:
448,192,18012,1,0,0:0:0:0:
64,192,18679,128,0,20013:0:0:0:0:
192,192,18679,128,0,20013:0:0:0:0:
320,192,20014,128,0,20680:0:0:0:0:
448,192,20014,128,0,20680:0:0:0:0:
64,192,21348,1,0,0:0:0:0:
448,192,21348,128,0,22348:0:0:0:0:
192,192,21514,1,0,0:0:0:0:
320,192,21598,1,0,0:0:0:0:
192,192,21681,1,0,0:0:0:0:
320,192,21765,1,0,0:0:0:0:
192,192,21848,1,0,0:0:0:0:
64,192,21931,1,0,0:0:0:0:
192,192,22015,1,0,0:0:0:0:
64,192,22348,128,0,23931:0:0:0:0:
320,192,22432,1,0,0:0:0:0:
192,192,22515,1,0,0:0:0:0:
448,192,22598,1,0,0:0:0:0:
192,192,22682,1,0,0:0:0:0:
320,192,22765,1,0,0:0:0:0:
448,192,22849,1,0,0:0:0:0:
320,192,22932,1,0,0:0:0:0:
192,192,23015,1,0,0:0:0:0:
320,192,23099,1,0,0:0:0:0:
448,192,23182,1,0,0:0:0:0:
320,192,23265,1,0,0:0:0:0:
192,192,23349,1,0,0:0:0:0:
448,192,23432,1,0,0:0:0:0:
192,192,23516,1,0,0:0:0:0:
448,192,23599,1,0,0:0:0:0:
320,192,23682,1,0,0:0:0:0:
192,192,23766,1,0,0:0:0:0:
320,192,23849,1,0,0:0:0:0:
192,192,23933,1,0,0:0:0:0:
320,192,24016,1,0,0:0:0:0:
448,192,24016,128,0,25182:0:0:0:0:
192,192,24099,1,0,0:0:0:0:
320,192,24183,1,0,0:0:0:0:
64,192,24266,1,0,0:0:0:0:
320,192,24349,1,0,0:0:0:0:
192,192,24433,1,0,0:0:0:0:
320,192,24516,1,0,0:0:0:0:
64,192,24600,1,0,0:0:0:0:
192,192,24683,1,0,0:0:0:0:
64,192,24766,1,0,0:0:0:0:
320,192,24850,1,0,0:0:0:0:
64,192,24933,1,0,0:0:0:0:
320,192,25017,1,0,0:0:0:0:
192,192,25100,1,0,0:0:0:0:
64,192,25183,128,0,26600:0:0:0:0:
320,192,25183,1,0,0:0:0:0:
192,192,25267,1,0,0:0:0:0:
448,192,25350,1,0,0:0:0:0:
320,192,25433,1,0,0:0:0:0:
192,192,25517,1,0,0:0:0:0:
320,192,25600,1,0,0:0:0:0:
448,192,25684,1,0,0:0:0:0:
192,192,25767,1,0,0:0:0:0:
320,192,25850,1,0,0:0:0:0:
448,192,25934,1,0,0:0:0:0:
320,192,26017,1,0,0:0:0:0:
192,192,26100,1,0,0:0:0:0:
192,192,26267,1,0,0:0:0:0:
320,192,26267,1,0,0:0:0:0:
448,192,26267,1,0,0:0:0:0:
192,192,26434,1,0,0:0:0:0:
320,192,26434,1,0,0:0:0:0:
448,192,26434,1,0,0:0:0:0:
192,192,26601,1,0,0:0:0:0:
320,192,26601,1,0,0:0:0:0:
448,192,26601,1,0,0:0:0:0:
448,192,26851,1,0,0:0:0:0:
320,192,26934,1,0,0:0:0:0:
192,192,27018,1,0,0:0:0:0:
64,192,27101,1,0,0:0:0:0:
192,192,27184,1,0,0:0:0:0:
320,192,27268,1,0,0:0:0:0:
448,192,27351,128,0,28018:0:0:0:0:
192,192,27351,1,0,0:0:0:0:
64,192,27435,1,0,0:0:0:0:
320,192,27518,1,0,0:0:0:0:
192,192,27601,1,0,0:0:0:0:
64,192,27685,1,0,0:0:0:0:
192,192,27768,1,0,0:0:0:0:
64,192,27852,1,0,0:0:0:0:
192,192,27935,1,0,0:0:0:0:
320,192,28018,128,0,28684:0:0:0:0:
64,192,28018,1,0,0:0:0:0:
192,192,28102,1,0,0:0:0:0:
448,192,28185,1,0,0:0:0:0:
192,192,28268,1,0,0:0:0:0:
64,192,28352,1,0,0:0:0:0:
192,192,28435,1,0,0:0:0:0:
448,192,28519,1,0,0:0:0:0:
64,192,28602,1,0,0:0:0:0:
192,192,28685,128,0,29352:0:0:0:0:
448,192,28769,1,0,0:0:0:0:
320,192,28852,1,0,0:0:0:0:
64,192,28936,1,0,0:0:0:0:
448,192,29019,1,0,0:0:0:0:
320,192,29102,1,0,0:0:0:0:
64,192,29186,1,0,0:0:0:0:
448,192,29269,1,0,0:0:0:0:
64,192,29352,128,0,30602:0:0:0:0:
320,192,29436,1,0,0:0:0:0:
448,192,29603,1,0,0:0:0:0:
320,192,29686,1,0,0:0:0:0:
192,192,29769,1,0,0:0:0:0:
448,192,29853,1,0,0:0:0:0:
192,192,29936,1,0,0:0:0:0:
320,192,30020,1,0,0:0:0:0:
448,192,30103,1,0,0:0:0:0:
320,192,30186,1,0,0:0:0:0:
192,192,30270,1,0,0:0:0:0:
448,192,30353,1,0,0:0:0:0:
320,192,30436,1,0,0:0:0:0:
448,192,30520,1,0,0:0:0:0:
320,192,30603,1,0,0:0:0:0:
192,192,30687,128,0,31354:0:0:0:0:
448,192,30687,1,0,0:0:0:0:
64,192,30770,1,0,0:0:0:0:
448,192,30853,1,0,0:0:0:0:
320,192,30937,1,0,0:0:0:0:
64,192,31020,1,0,0:0:0:0:
320,192,31103,1,0,0:0:0:0:
448,192,31187,1,0,0:0:0:0:
64,192,31270,1,0,0:0:0:0:
448,192,31354,1,0,0:0:0:0:
320,192,31437,1,0,0:0:0:0:
192,192,31520,1,0,0:0:0:0:
64,192,31604,1,0,0:0:0:0:
192,192,31687,1,0,0:0:0:0:
320,192,31771,1,0,0:0:0:0:
192,192,31854,1,0,0:0:0:0:
448,192,31937,128,0,33021:0:0:0:0:
64,192,31937,1,0,0:0:0:0:
320,192,32021,1,0,0:0:0:0:
192,192,32104,1,0,0:0:0:0:
64,192,32187,1,0,0:0:0:0:
320,192,32271,1,0,0:0:0:0:
192,192,32354,1,0,0:0:0:0:
320,192,32438,1,0,0:0:0:0:
192,192,32521,1,0,0:0:0:0:
64,192,32604,1,0,0:0:0:0:
320,192,32688,1,0,0:0:0:0:
64,192,32771,1,0,0:0:0:0:
192,192,32855,1,0,0:0:0:0:
320,192,32938,1,0,0:0:0:0:
192,192,33021,1,0,0:0:0:0:
64,192,33105,1,0,0:0:0:0:
320,192,33188,1,0,0:0:0:0:
192,192,33271,128,0,34354:0:0:0:0:
448,192,33271,1,0,0:0:0:0:
320,192,33355,1,0,0:0:0:0:
448,192,33438,1,0,0:0:0:0:
320,192,33522,1,0,0:0:0:0:
64,192,33605,1,0,0:0:0:0:
320,192,33688,1,0,0:0:0:0:
448,192,33772,1,0,0:0:0:0:
64,192,33855,1,0,0:0:0:0:
320,192,33939,1,0,0:0:0:0:
448,192,34022,1,0,0:0:0:0:
320,192,34105,1,0,0:0:0:0:
64,192,34189,1,0,0:0:0:0:
320,192,34272,1,0,0:0:0:0:
64,192,34355,1,0,0:0:0:0:
64,192,34689,128,0,35439:0:0:0:0:
448,192,34689,1,0,0:0:0:0:
192,192,34772,1,0,0:0:0:0:
448,192,34856,1,0,0:0:0:0:
320,192,34939,1,0,0:0:0:0:
448,192,35023,1,0,0:0:0:0:
192,192,35106,1,0,0:0:0:0:
320,192,35189,1,0,0:0:0:0:
448,192,35273,1,0,0:0:0:0:
192,192,35356,1,0,0:0:0:0:
320,192,35439,1,0,0:0:0:0:
448,192,35523,1,0,0:0:0:0:
320,192,35606,1,0,0:0:0:0:
192,192,35690,1,0,0:0:0:0:
320,192,35773,128,0,36439:0:0:0:0:
64,192,35773,1,0,0:0:0:0:
192,192,35856,1,0,0:0:0:0:
448,192,35940,1,0,0:0:0:0:
192,192,36023,1,0,0:0:0:0:
64,192,36106,1,0,0:0:0:0:
448,192,36190,1,0,0:0:0:0:
192,192,36273,1,0,0:0:0:0:
64,192,36357,1,0,0:0:0:0:
448,192,36440,1,0,0:0:0:0:
192,192,36523,128,0,37356:0:0:0:0:
64,192,36523,1,0,0:0:0:0:
320,192,36607,1,0,0:0:0:0:
448,192,36690,1,0,0:0:0:0:
320,192,36774,1,0,0:0:0:0:
64,192,36857,1,0,0:0:0:0:
448,192,36940,1,0,0:0:0:0:
64,192,37024,1,0,0:0:0:0:
320,192,37107,1,0,0:0:0:0:
448,192,37190,1,0,0:0:0:0:
320,192,37274,1,0,0:0:0:0:
448,192,37357,1,0,0:0:0:0:
64,192,37357,1,0,0:0:0:0:
64,192,37524,1,0,0:0:0:0:
448,192,37524,1,0,0:0:0:0:
64,192,37858,1,0,0:0:0:0:
448,192,37858,1,0,0:0:0:0:
64,192,38191,1,0,0:0:0:0:
448,192,38191,1,0,0:0:0:0:
448,192,38525,1,0,0:0:0:0:
64,192,38525,1,0,0:0:0:0:
64,192,38858,1,0,0:0:0:0:
448,192,38858,1,0,0:0:0:0:
192,192,39192,1,0,0:0:0:0:
320,192,39192,1,0,0:0:0:0:
192,192,39525,1,0,0:0:0:0:
320,192,39525,1,0,0:0:0:0:
448,192,39859,128,0,40303:0:0:0:0:
320,192,40526,128,0,40970:0:0:0:0:
192,192,41026,128,0,41637:0:0:0:0:
64,192,41693,128,0,42304:0:0:0:0:
64,192,42694,128,0,43194:0:0:0:0:
192,192,42694,128,0,43194:0:0:0:0:
320,192,42694,128,0,43194:0:0:0:0:
448,192,42694,128,0,43194:0:0:0:0:
192,192,43361,1,0,0:0:0:0:
448,192,43444,1,0,0:0:0:0:
320,192,43444,1,0,0:0:0:0:
192,192,43528,1,0,0:0:0:0:
320,192,43611,1,0,0:0:0:0:
448,192,43611,1,0,0:0:0:0:
192,192,43694,1,0,0:0:0:0:
64,192,43778,1,0,0:0:0:0:
320,192,43778,1,0,0:0:0:0:
448,192,43861,1,0,0:0:0:0:
320,192,43945,1,0,0:0:0:0:
192,192,43945,1,0,0:0:0:0:
64,192,44028,1,0,0:0:0:0:
448,192,44111,1,0,0:0:0:0:
320,192,44111,1,0,0:0:0:0:
192,192,44195,1,0,0:0:0:0:
64,192,44278,1,0,0:0:0:0:
448,192,44278,1,0,0:0:0:0:
192,192,44278,1,0,0:0:0:0:
320,192,44278,1,0,0:0:0:0:
448,192,44445,1,0,0:0:0:0:
64,192,44445,1,0,0:0:0:0:
448,192,44528,1,0,0:0:0:0:
64,192,44528,1,0,0:0:0:0:
448,192,44612,1,0,0:0:0:0:
64,192,44612,1,0,0:0:0:0:
448,192,44778,1,0,0:0:0:0:
64,192,44778,1,0,0:0:0:0:
192,192,44778,1,0,0:0:0:0:
320,192,44862,1,0,0:0:0:0:
192,192,44945,1,0,0:0:0:0:
320,192,44945,1,0,0:0:0:0:
448,192,45029,128,0,45195:0:0:0:0:
64,192,45029,128,0,45195:0:0:0:0:
192,192,45029,1,0,0:0:0:0:
320,192,45112,1,0,0:0:0:0:
192,192,45112,1,0,0:0:0:0:
320,192,45279,1,0,0:0:0:0:
192,192,45279,1,0,0:0:0:0:
64,192,45362,1,0,0:0:0:0:
448,192,45445,1,0,0:0:0:0:
320,192,45445,1,0,0:0:0:0:
192,192,45529,1,0,0:0:0:0:
320,192,45612,1,0,0:0:0:0:
448,192,45612,1,0,0:0:0:0:
192,192,45696,1,0,0:0:0:0:
64,192,45779,1,0,0:0:0:0:
448,192,45779,1,0,0:0:0:0:
320,192,45862,1,0,0:0:0:0:
192,192,45946,1,0,0:0:0:0:
320,192,45946,1,0,0:0:0:0:
448,192,46029,1,0,0:0:0:0:
64,192,46029,1,0,0:0:0:0:
320,192,46112,1,0,0:0:0:0:
192,192,46112,1,0,0:0:0:0:
64,192,46196,1,0,0:0:0:0:
448,192,46279,1,0,0:0:0:0:
320,192,46279,1,0,0:0:0:0:
192,192,46363,1,0,0:0:0:0:
448,192,46446,1,0,0:0:0:0:
320,192,46529,1,0,0:0:0:0:
192,192,46613,1,0,0:0:0:0:
64,192,46613,1,0,0:0:0:0:
320,192,46696,1,0,0:0:0:0:
192,192,46780,1,0,0:0:0:0:
64,192,46780,1,0,0:0:0:0:
448,192,46780,1,0,0:0:0:0:
320,192,46863,1,0,0:0:0:0:
192,192,46946,1,0,0:0:0:0:
64,192,46946,1,0,0:0:0:0:
192,192,47030,1,0,0:0:0:0:
320,192,47113,1,0,0:0:0:0:
448,192,47113,1,0,0:0:0:0:
320,192,47196,1,0,0:0:0:0:
192,192,47280,1,0,0:0:0:0:
320,192,47280,1,0,0:0:0:0:
64,192,47363,1,0,0:0:0:0:
448,192,47363,1,0,0:0:0:0:
64,192,47613,1,0,0:0:0:0:
448,192,47613,1,0,0:0:0:0:
448,192,47697,1,0,0:0:0:0:
64,192,47697,1,0,0:0:0:0:
320,192,47780,1,0,0:0:0:0:
192,192,47780,1,0,0:0:0:0:
64,192,48030,1,0,0:0:0:0:
192,192,48030,1,0,0:0:0:0:
320,192,48030,1,0,0:0:0:0:
448,192,48030,1,0,0:0:0:0:
64,192,48197,1,0,0:0:0:0:
192,192,48197,1,0,0:0:0:0:
320,192,48197,1,0,0:0:0:0:
448,192,48197,1,0,0:0:0:0:
448,192,48280,1,0,0:0:0:0:
320,192,48280,1,0,0:0:0:0:
192,192,48280,1,0,0:0:0:0:
64,192,48280,1,0,0:0:0:0:
64,192,48447,1,0,0:0:0:0:
192,192,48447,1,0,0:0:0:0:
320,192,48447,1,0,0:0:0:0:
448,192,48447,1,0,0:0:0:0:
448,192,48531,1,0,0:0:0:0:
320,192,48531,1,0,0:0:0:0:
192,192,48531,1,0,0:0:0:0:
64,192,48531,1,0,0:0:0:0:
64,192,48697,1,0,0:0:0:0:
192,192,48697,1,0,0:0:0:0:
320,192,48697,1,0,0:0:0:0:
448,192,48697,1,0,0:0:0:0:
448,192,48781,1,0,0:0:0:0:
320,192,48781,1,0,0:0:0:0:
192,192,48781,1,0,0:0:0:0:
64,192,48781,1,0,0:0:0:0:
64,192,48948,1,0,0:0:0:0:
192,192,48948,1,0,0:0:0:0:
320,192,48948,1,0,0:0:0:0:
448,192,48948,1,0,0:0:0:0:
448,192,49114,1,0,0:0:0:0:
320,192,49114,1,0,0:0:0:0:
192,192,49114,1,0,0:0:0:0:
64,192,49114,1,0,0:0:0:0:
64,192,49281,1,0,0:0:0:0:
192,192,49281,1,0,0:0:0:0:
320,192,49281,1,0,0:0:0:0:
448,192,49281,1,0,0:0:0:0:
448,192,49364,1,0,0:0:0:0:
320,192,49364,1,0,0:0:0:0:
192,192,49364,1,0,0:0:0:0:
64,192,49364,1,0,0:0:0:0:
448,192,49531,1,0,0:0:0:0:
320,192,49531,1,0,0:0:0:0:
192,192,49531,1,0,0:0:0:0:
64,192,49531,1,0,0:0:0:0:
64,192,49615,1,0,0:0:0:0:
192,192,49615,1,0,0:0:0:0:
320,192,49615,1,0,0:0:0:0:
448,192,49615,1,0,0:0:0:0:
64,192,49781,1,0,0:0:0:0:
192,192,49781,1,0,0:0:0:0:
320,192,49781,1,0,0:0:0:0:
448,192,49781,1,0,0:0:0:0:
448,192,49948,1,0,0:0:0:0:
320,192,49948,1,0,0:0:0:0:
192,192,49948,1,0,0:0:0:0:
64,192,49948,1,0,0:0:0:0:
448,192,50115,1,0,0:0:0:0:
320,192,50115,1,0,0:0:0:0:
192,192,50115,1,0,0:0:0:0:
64,192,50115,1,0,0:0:0:0:
448,192,50282,1,0,0:0:0:0:
320,192,50365,1,0,0:0:0:0:
192,192,50448,1,0,0:0:0:0:
64,192,50448,1,0,0:0:0:0:
192,192,50532,1,0,0:0:0:0:
320,192,50615,1,0,0:0:0:0:
64,192,50699,1,0,0:0:0:0:
192,192,50699,1,0,0:0:0:0:
320,192,50699,1,0,0:0:0:0:
448,192,50699,1,0,0:0:0:0:
448,192,50865,1,0,0:0:0:0:
320,192,50865,1,0,0:0:0:0:
192,192,50865,1,0,0:0:0:0:
64,192,50865,1,0,0:0:0:0:
64,192,51032,1,0,0:0:0:0:
192,192,51032,1,0,0:0:0:0:
320,192,51032,1,0,0:0:0:0:
448,192,51032,1,0,0:0:0:0:
448,192,51199,1,0,0:0:0:0:
320,192,51199,1,0,0:0:0:0:
192,192,51199,1,0,0:0:0:0:
64,192,51199,1,0,0:0:0:0:
192,192,51366,1,0,0:0:0:0:
320,192,51366,1,0,0:0:0:0:
448,192,51366,1,0,0:0:0:0:
192,192,51532,1,0,0:0:0:0:
320,192,51532,1,0,0:0:0:0:
448,192,51532,1,0,0:0:0:0:
192,192,51699,1,0,0:0:0:0:
320,192,51699,1,0,0:0:0:0:
448,192,51699,1,0,0:0:0:0:
192,192,51866,1,0,0:0:0:0:
320,192,51866,1,0,0:0:0:0:
448,192,51866,1,0,0:0:0:0:
64,192,52033,128,0,52199:0:0:0:0:
448,192,52033,128,0,52199:0:0:0:0:
192,192,52199,128,0,52366:0:0:0:0:
320,192,52199,128,0,52366:0:0:0:0:
448,192,52366,128,0,52699:0:0:0:0:
64,192,52366,128,0,52699:0:0:0:0:
64,192,53033,128,0,53366:0:0:0:0:
192,192,53033,128,0,53366:0:0:0:0:
320,192,53033,128,0,53366:0:0:0:0:
448,192,53033,128,0,53366:0:0:0:0:
64,192,53450,128,0,54006:0:0:0:0:
192,192,53450,128,0,54006:0:0:0:0:
320,192,53450,128,0,54006:0:0:0:0:
448,192,53450,128,0,54006:0:0:0:0:
192,192,54117,1,0,0:0:0:0:
320,192,54201,1,0,0:0:0:0:
448,192,54284,1,0,0:0:0:0:
64,192,54284,1,0,0:0:0:0:
320,192,54284,1,0,0:0:0:0:
192,192,54367,1,0,0:0:0:0:
64,192,54451,1,0,0:0:0:0:
192,192,54451,1,0,0:0:0:0:
320,192,54534,1,0,0:0:0:0:
448,192,54618,1,0,0:0:0:0:
320,192,54618,1,0,0:0:0:0:
192,192,54701,1,0,0:0:0:0:
64,192,54784,1,0,0:0:0:0:
320,192,54784,1,0,0:0:0:0:
192,192,54868,1,0,0:0:0:0:
64,192,54951,1,0,0:0:0:0:
448,192,54951,1,0,0:0:0:0:
320,192,55035,1,0,0:0:0:0:
192,192,55118,1,0,0:0:0:0:
64,192,55118,1,0,0:0:0:0:
448,192,55201,1,0,0:0:0:0:
320,192,55285,1,0,0:0:0:0:
192,192,55285,1,0,0:0:0:0:
64,192,55368,1,0,0:0:0:0:
192,192,55451,1,0,0:0:0:0:
320,192,55451,1,0,0:0:0:0:
448,192,55535,1,0,0:0:0:0:
320,192,55618,1,0,0:0:0:0:
192,192,55618,1,0,0:0:0:0:
64,192,55702,1,0,0:0:0:0:
320,192,55785,1,0,0:0:0:0:
192,192,55785,1,0,0:0:0:0:
64,192,55868,1,0,0:0:0:0:
192,192,55952,1,0,0:0:0:0:
448,192,55952,1,0,0:0:0:0:
320,192,56035,1,0,0:0:0:0:
64,192,56118,1,0,0:0:0:0:
192,192,56118,1,0,0:0:0:0:
320,192,56202,1,0,0:0:0:0:
448,192,56285,1,0,0:0:0:0:
320,192,56285,1,0,0:0:0:0:
192,192,56369,1,0,0:0:0:0:
64,192,56452,1,0,0:0:0:0:
448,192,56452,1,0,0:0:0:0:
320,192,56535,1,0,0:0:0:0:
192,192,56619,1,0,0:0:0:0:
64,192,56619,1,0,0:0:0:0:
192,192,56702,1,0,0:0:0:0:
320,192,56786,1,0,0:0:0:0:
448,192,56786,1,0,0:0:0:0:
192,192,56869,1,0,0:0:0:0:
320,192,56952,1,0,0:0:0:0:
448,192,56952,1,0,0:0:0:0:
192,192,57036,1,0,0:0:0:0:
64,192,57119,1,0,0:0:0:0:
320,192,57119,1,0,0:0:0:0:
192,192,57202,1,0,0:0:0:0:
320,192,57286,1,0,0:0:0:0:
448,192,57369,1,0,0:0:0:0:
320,192,57453,1,0,0:0:0:0:
448,192,57453,1,0,0:0:0:0:
320,192,57536,1,0,0:0:0:0:
448,192,57619,1,0,0:0:0:0:
320,192,57619,1,0,0:0:0:0:
192,192,57703,1,0,0:0:0:0:
64,192,57786,1,0,0:0:0:0:
192,192,57786,1,0,0:0:0:0:
320,192,57870,1,0,0:0:0:0:
192,192,57953,1,0,0:0:0:0:
64,192,57953,1,0,0:0:0:0:
192,192,58036,1,0,0:0:0:0:
64,192,58120,1,0,0:0:0:0:
192,192,58120,1,0,0:0:0:0:
320,192,58203,1,0,0:0:0:0:
192,192,58286,1,0,0:0:0:0:
320,192,58286,128,0,58453:0:0:0:0:
448,192,58286,128,0,58453:0:0:0:0:
64,192,58286,1,0,0:0:0:0:
192,192,58370,1,0,0:0:0:0:
64,192,58453,1,0,0:0:0:0:
448,192,58620,128,0,58731:0:0:0:0:
320,192,58620,128,0,58731:0:0:0:0:
192,192,58620,128,0,58731:0:0:0:0:
64,192,58620,1,0,0:0:0:0:
64,192,58787,1,0,0:0:0:0:
448,192,58870,128,0,58981:0:0:0:0:
320,192,58870,128,0,58981:0:0:0:0:
64,192,58870,128,0,58981:0:0:0:0:
192,192,58870,1,0,0:0:0:0:
192,192,58954,1,0,0:0:0:0:
64,192,59120,128,0,59231:0:0:0:0:
448,192,59120,128,0,59231:0:0:0:0:
192,192,59120,128,0,59231:0:0:0:0:
320,192,59120,1,0,0:0:0:0:
320,192,59204,1,0,0:0:0:0:
64,192,59287,128,0,59398:0:0:0:0:
192,192,59287,128,0,59398:0:0:0:0:
320,192,59287,128,0,59398:0:0:0:0:
448,192,59287,1,0,0:0:0:0:
448,192,59454,1,0,0:0:0:0:
64,192,59537,128,0,59648:0:0:0:0:
192,192,59537,128,0,59648:0:0:0:0:
448,192,59537,128,0,59648:0:0:0:0:
320,192,59537,1,0,0:0:0:0:
320,192,59621,1,0,0:0:0:0:
64,192,59787,128,0,59898:0:0:0:0:
448,192,59787,128,0,59898:0:0:0:0:
320,192,59787,128,0,59898:0:0:0:0:
192,192,59787,1,0,0:0:0:0:
192,192,59871,1,0,0:0:0:0:
448,192,60038,1,0,0:0:0:0:
64,192,60121,128,0,60454:0:0:0:0:
448,192,60454,128,0,60787:0:0:0:0:
64,192,60788,1,0,0:0:0:0:
320,192,60788,1,0,0:0:0:0:
320,192,60871,1,0,0:0:0:0:
192,192,60955,1,0,0:0:0:0:
64,192,60955,1,0,0:0:0:0:
192,192,61038,1,0,0:0:0:0:
448,192,61121,1,0,0:0:0:0:
320,192,61121,1,0,0:0:0:0:
192,192,61121,1,0,0:0:0:0:
64,192,61121,1,0,0:0:0:0:
448,192,61288,1,0,0:0:0:0:
448,192,61372,1,0,0:0:0:0:
320,192,61372,1,0,0:0:0:0:
64,192,61372,1,0,0:0:0:0:
64,192,61455,1,0,0:0:0:0:
192,192,61455,1,0,0:0:0:0:
320,192,61455,1,0,0:0:0:0:
448,192,61622,1,0,0:0:0:0:
320,192,61622,1,0,0:0:0:0:
192,192,61622,1,0,0:0:0:0:
64,192,61705,1,0,0:0:0:0:
192,192,61705,1,0,0:0:0:0:
448,192,61705,1,0,0:0:0:0:
448,192,61789,1,0,0:0:0:0:
320,192,61789,1,0,0:0:0:0:
192,192,61789,1,0,0:0:0:0:
64,192,61955,1,0,0:0:0:0:
192,192,61955,1,0,0:0:0:0:
320,192,61955,1,0,0:0:0:0:
448,192,62039,1,0,0:0:0:0:
320,192,62039,1,0,0:0:0:0:
64,192,62039,1,0,0:0:0:0:
64,192,62122,1,0,0:0:0:0:
320,192,62122,1,0,0:0:0:0:
192,192,62122,1,0,0:0:0:0:
320,192,62289,1,0,0:0:0:0:
448,192,62289,1,0,0:0:0:0:
192,192,62289,1,0,0:0:0:0:
320,192,62372,1,0,0:0:0:0:
192,192,62372,1,0,0:0:0:0:
64,192,62372,1,0,0:0:0:0:
64,192,62456,1,0,0:0:0:0:
192,192,62456,1,0,0:0:0:0:
448,192,62456,1,0,0:0:0:0:
448,192,62622,1,0,0:0:0:0:
320,192,62622,1,0,0:0:0:0:
64,192,62622,1,0,0:0:0:0:
64,192,62706,128,0,63373:0:0:0:0:
192,192,62706,128,0,63373:0:0:0:0:
320,192,62706,128,0,63373:0:0:0:0:
448,192,62706,128,0,63373:0:0:0:0:
64,192,63706,1,0,0:0:0:0:
192,192,63706,1,0,0:0:0:0:
320,192,63706,1,0,0:0:0:0:
448,192,63706,1,0,0:0:0:0:
448,192,64040,1,0,0:0:0:0:
320,192,64207,1,0,0:0:0:0:
192,192,64373,1,0,0:0:0:0:
64,192,64540,1,0,0:0:0:0:
192,192,64707,1,0,0:0:0:0:
320,192,64874,1,0,0:0:0:0:
448,192,65041,1,0,0:0:0:0:
320,192,65207,1,0,0:0:0:0:
64,192,65374,1,0,0:0:0:0:
192,192,65541,1,0,0:0:0:0:
448,192,65708,1,0,0:0:0:0:
192,192,65874,1,0,0:0:0:0:
448,192,66041,1,0,0:0:0:0:
320,192,66208,1,0,0:0:0:0:
192,192,66375,1,0,0:0:0:0:
64,192,66541,1,0,0:0:0:0:
320,192,66708,1,0,0:0:0:0:
448,192,66708,1,0,0:0:0:0:
192,192,66875,1,0,0:0:0:0:
64,192,67042,1,0,0:0:0:0:
192,192,67208,1,0,0:0:0:0:
320,192,67375,1,0,0:0:0:0:
448,192,67542,1,0,0:0:0:0:
192,192,67709,1,0,0:0:0:0:
64,192,67876,1,0,0:0:0:0:
448,192,68042,1,0,0:0:0:0:
320,192,68209,1,0,0:0:0:0:
64,192,68376,1,0,0:0:0:0:
192,192,68543,1,0,0:0:0:0:
320,192,68709,1,0,0:0:0:0:
448,192,68876,1,0,0:0:0:0:
192,192,69043,1,0,0:0:0:0:
64,192,69043,1,0,0:0:0:0:
320,192,69210,1,0,0:0:0:0:
192,192,69376,1,0,0:0:0:0:
448,192,69543,1,0,0:0:0:0:
320,192,69710,1,0,0:0:0:0:
192,192,69877,1,0,0:0:0:0:
64,192,70044,1,0,0:0:0:0:
192,192,70210,1,0,0:0:0:0:
320,192,70377,1,0,0:0:0:0:
448,192,70544,1,0,0:0:0:0:
320,192,70711,1,0,0:0:0:0:
448,192,70877,1,0,0:0:0:0:
320,192,71044,1,0,0:0:0:0:
448,192,71211,1,0,0:0:0:0:
320,192,71378,1,0,0:0:0:0:
192,192,71544,1,0,0:0:0:0:
64,192,71711,1,0,0:0:0:0:
448,192,71878,1,0,0:0:0:0:
64,192,72045,128,0,72545:0:0:0:0:
192,192,72045,128,0,72545:0:0:0:0:
320,192,72712,128,0,73046:0:0:0:0:
448,192,72712,128,0,73046:0:0:0:0:
64,192,73379,128,0,74046:0:0:0:0:
192,192,73379,128,0,74046:0:0:0:0:
320,192,74046,128,0,74712:0:0:0:0:
448,192,74046,128,0,74712:0:0:0:0:
192,192,74796,1,0,0:0:0:0:
64,192,74963,1,0,0:0:0:0:
320,192,75130,1,0,0:0:0:0:
448,192,75213,1,0,0:0:0:0:
320,192,75297,1,0,0:0:0:0:
192,192,75463,1,0,0:0:0:0:
448,192,75630,1,0,0:0:0:0:
192,192,75797,1,0,0:0:0:0:
64,192,75880,1,0,0:0:0:0:
192,192,75964,1,0,0:0:0:0:
448,192,76130,1,0,0:0:0:0:
320,192,76297,1,0,0:0:0:0:
192,192,76464,1,0,0:0:0:0:
64,192,76631,1,0,0:0:0:0:
320,192,76798,1,0,0:0:0:0:
64,192,76964,1,0,0:0:0:0:
448,192,77131,1,0,0:0:0:0:
320,192,77214,1,0,0:0:0:0:
448,192,77298,1,0,0:0:0:0:
320,192,77548,1,0,0:0:0:0:
192,192,77715,1,0,0:0:0:0:
64,192,77882,1,0,0:0:0:0:
320,192,78048,1,0,0:0:0:0:
448,192,78215,1,0,0:0:0:0:
320,192,78382,1,0,0:0:0:0:
192,192,78549,1,0,0:0:0:0:
64,192,78715,1,0,0:0:0:0:
448,192,78799,1,0,0:0:0:0:
320,192,78882,1,0,0:0:0:0:
448,192,78966,1,0,0:0:0:0:
320,192,79049,1,0,0:0:0:0:
448,192,79132,1,0,0:0:0:0:
320,192,79216,1,0,0:0:0:0:
192,192,79299,1,0,0:0:0:0:
64,192,79299,1,0,0:0:0:0:
320,192,79382,1,0,0:0:0:0:
448,192,79466,1,0,0:0:0:0:
64,192,79466,1,0,0:0:0:0:
320,192,79549,1,0,0:0:0:0:
192,192,79716,1,0,0:0:0:0:
64,192,79883,1,0,0:0:0:0:
320,192,80050,1,0,0:0:0:0:
448,192,80216,1,0,0:0:0:0:
320,192,80383,1,0,0:0:0:0:
64,192,80550,1,0,0:0:0:0:
192,192,80717,1,0,0:0:0:0:
320,192,80883,1,0,0:0:0:0:
448,192,81050,1,0,0:0:0:0:
320,192,81217,1,0,0:0:0:0:
192,192,81384,1,0,0:0:0:0:
320,192,81550,1,0,0:0:0:0:
64,192,81717,1,0,0:0:0:0:
192,192,81884,1,0,0:0:0:0:
320,192,82051,1,0,0:0:0:0:
448,192,82217,1,0,0:0:0:0:
320,192,82384,1,0,0:0:0:0:
192,192,82551,1,0,0:0:0:0:
64,192,82718,1,0,0:0:0:0:
448,192,82885,1,0,0:0:0:0:
320,192,83051,1,0,0:0:0:0:
192,192,83218,1,0,0:0:0:0:
64,192,83385,1,0,0:0:0:0:
192,192,83552,1,0,0:0:0:0:
320,192,83718,1,0,0:0:0:0:
448,192,83885,1,0,0:0:0:0:
448,192,85386,1,0,0:0:0:0:
320,192,85469,1,0,0:0:0:0:
192,192,85469,1,0,0:0:0:0:
64,192,85553,1,0,0:0:0:0:
192,192,85636,1,0,0:0:0:0:
448,192,85636,1,0,0:0:0:0:
320,192,85720,1,0,0:0:0:0:
192,192,85803,1,0,0:0:0:0:
64,192,85803,1,0,0:0:0:0:
192,192,85886,1,0,0:0:0:0:
320,192,85970,1,0,0:0:0:0:
448,192,85970,1,0,0:0:0:0:
320,192,86053,1,0,0:0:0:0:
192,192,86136,1,0,0:0:0:0:
64,192,86136,1,0,0:0:0:0:
192,192,86220,1,0,0:0:0:0:
320,192,86303,1,0,0:0:0:0:
448,192,86303,1,0,0:0:0:0:
320,192,86387,1,0,0:0:0:0:
192,192,86470,1,0,0:0:0:0:
320,192,86470,1,0,0:0:0:0:
448,192,86553,1,0,0:0:0:0:
320,192,86637,1,0,0:0:0:0:
192,192,86637,1,0,0:0:0:0:
64,192,86720,1,0,0:0:0:0:
192,192,86804,1,0,0:0:0:0:
320,192,86804,1,0,0:0:0:0:
448,192,86887,1,0,0:0:0:0:
320,192,86970,1,0,0:0:0:0:
192,192,86970,1,0,0:0:0:0:
64,192,87054,1,0,0:0:0:0:
192,192,87137,1,0,0:0:0:0:
320,192,87137,1,0,0:0:0:0:
192,192,87220,1,0,0:0:0:0:
64,192,87304,1,0,0:0:0:0:
192,192,87304,1,0,0:0:0:0:
320,192,87387,1,0,0:0:0:0:
448,192,87471,1,0,0:0:0:0:
320,192,87471,1,0,0:0:0:0:
192,192,87554,1,0,0:0:0:0:
320,192,87637,1,0,0:0:0:0:
192,192,87637,1,0,0:0:0:0:
448,192,87637,128,0,87970:0:0:0:0:
64,192,87721,1,0,0:0:0:0:
