osu file format v14

[General]
AudioFilename: audio.mp3
AudioLeadIn: 0
PreviewTime: 35496
Countdown: 0
SampleSet: Soft
StackLeniency: 0.7
Mode: 3
LetterboxInBreaks: 0
SpecialStyle: 0
WidescreenStoryboard: 1

[Editor]
DistanceSpacing: 0.8
BeatDivisor: 4
GridSize: 32
TimelineZoom: 1

[Metadata]
Title:Chemical Cookie
TitleUnicode:Chemical Cookie
Artist:YUC'e
ArtistUnicode:YUC'e
Creator:Rhezie
Version:Hard
Source:beatmania IIDX 25 CANNON BALLERS
Tags:ORIGINAL SOUNDTRACK future bass step core Japanese DoNotMess Protastic101 Dudehacker video game konami bemani
BeatmapID:2317840
BeatmapSetID:1017088

[Difficulty]
HPDrainRate:7.8
CircleSize:4
OverallDifficulty:7.3
ApproachRate:5
SliderMultiplier:1.4
SliderTickRate:1

[Events]
//Background and Video events
0,0,"BG.png",0,0
//Break Periods
//Storyboard Layer 0 (Background)
//Storyboard Layer 1 (Fail)
//Storyboard Layer 2 (Pass)
//Storyboard Layer 3 (Foreground)
//Storyboard Layer 4 (Overlay)
//Storyboard Sound Samples
Sample,9153,0,"LR_Drum Hit HAT.wav",70
Sample,14486,0,"LR_Drum Hit HAT.wav",70
Sample,91819,0,"LR_Drum Hit HAT.wav",70
Sample,94486,0,"LR_Drum Hit HAT.wav",70
Sample,97153,0,"LR_Drum Hit HAT.wav",70

[TimingPoints]
820,333.333333333333,4,2,1,70,1,0
36819,-100,4,2,1,70,0,1
47153,-100,4,2,1,70,0,0
47486,-100,4,2,1,70,0,1
58153,-100,4,2,1,70,0,0
80819,-100,4,2,1,70,0,1
89819,-100,4,2,1,70,0,0
90153,-100,4,2,1,70,0,1
100819,-100,4,2,1,70,0,0

[HitObjects]
448,192,3486,5,0,0:0:0:0:
320,192,3569,1,0,0:0:0:0:
64,192,3653,1,0,0:0:0:0:
192,192,3736,1,0,0:0:0:0:
448,192,3819,128,0,3986:0:0:0:0:
192,192,3986,128,0,4153:0:0:0:0:
320,192,4153,1,0,0:0:0:0:
64,192,4319,1,0,0:0:0:0:
192,192,4403,1,0,0:0:0:0:
320,192,4486,128,0,4819:0:0:0:40:LR_J Hit Drum.wav
64,192,4819,1,2,0:0:0:0:
192,192,4819,1,4,0:0:0:0:
448,192,4819,1,0,0:0:0:0:
320,192,4986,1,0,0:0:0:0:
192,192,5153,1,0,0:0:0:70:LR_Drum Hit HAT.wav
320,192,5319,1,2,0:0:0:0:
448,192,5319,1,0,0:0:0:0:
64,192,5486,128,8,5819:0:0:0:0:
192,192,5486,1,0,0:0:0:70:LR_Drum Hit HAT.wav
448,192,5819,1,0,0:0:0:70:LR_Drum Hit HAT.wav
64,192,5986,1,2,0:0:0:0:
192,192,5986,1,0,0:0:0:0:
320,192,6153,1,0,0:0:0:70:LR_Drum Hit HAT.wav
192,192,6319,1,0,0:0:0:0:
320,192,6486,1,2,0:0:0:0:
448,192,6486,1,0,0:0:0:70:LR_Drum Hit HAT.wav
64,192,6653,1,0,0:0:0:0:
192,192,6819,1,8,0:0:0:0:
448,192,6819,128,0,7153:0:0:0:70:LR_Drum Hit HAT.wav
64,192,7153,1,2,0:0:0:0:
320,192,7153,1,0,0:0:0:70:LR_Drum Hit HAT.wav
192,192,7319,1,0,0:0:0:0:
320,192,7486,1,2,0:0:0:0:
448,192,7486,1,0,0:0:0:70:LR_Drum Hit HAT.wav
64,192,7653,1,0,0:0:0:0:
448,192,7819,1,0,0:0:0:70:LR_Drum Hit HAT.wav
64,192,7986,1,2,0:0:0:0:
192,192,7986,1,0,0:0:0:0:
320,192,8153,128,8,8486:0:0:0:0:
448,192,8153,1,0,0:0:0:70:LR_Drum Hit HAT.wav
64,192,8486,1,0,0:0:0:70:LR_Drum Hit HAT.wav
320,192,8653,1,2,0:0:0:0:
448,192,8653,1,0,0:0:0:0:
192,192,8819,128,0,9319:0:0:0:70:LR_Drum Hit HAT.wav
448,192,8986,1,0,0:0:0:0:
64,192,9153,1,2,0:0:0:0:
320,192,9319,1,0,0:0:0:0:
64,192,9486,128,8,9819:0:0:0:0:
448,192,9486,1,0,0:0:0:70:LR_Drum Hit HAT.wav
320,192,9653,1,0,0:0:0:0:
192,192,9819,1,2,0:0:0:0:
448,192,9819,1,0,0:0:0:70:LR_Drum Hit HAT.wav
64,192,9986,1,0,0:0:0:0:
320,192,10153,1,2,0:0:0:0:
448,192,10153,1,0,0:0:0:70:LR_Drum Hit HAT.wav
192,192,10319,1,0,0:0:0:0:
320,192,10486,1,0,0:0:0:70:LR_Drum Hit HAT.wav
192,192,10653,1,2,0:0:0:0:
448,192,10653,1,0,0:0:0:0:
64,192,10819,1,8,0:0:0:0:
320,192,10819,128,0,11153:0:0:0:70:LR_Drum Hit HAT.wav
192,192,11153,1,0,0:0:0:70:LR_Drum Hit HAT.wav
320,192,11319,1,2,0:0:0:0:
448,192,11319,1,0,0:0:0:0:
64,192,11486,1,0,0:0:0:70:LR_Drum Hit HAT.wav
192,192,11653,1,0,0:0:0:0:
320,192,11819,1,2,0:0:0:0:
448,192,11819,1,0,0:0:0:70:LR_Drum Hit HAT.wav
64,192,11986,1,0,0:0:0:0:
192,192,12153,128,8,12486:0:0:0:0:
320,192,12153,1,0,0:0:0:70:LR_Drum Hit HAT.wav
64,192,12486,1,2,0:0:0:0:
448,192,12486,1,0,0:0:0:70:LR_Drum Hit HAT.wav
320,192,12653,1,0,0:0:0:0:
64,192,12819,1,2,0:0:0:0:
192,192,12819,1,0,0:0:0:70:LR_Drum Hit HAT.wav
448,192,12986,1,0,0:0:0:0:
192,192,13153,1,0,0:0:0:70:LR_Drum Hit HAT.wav
64,192,13319,1,2,0:0:0:0:
320,192,13319,1,0,0:0:0:0:
192,192,13486,1,8,0:0:0:0:
448,192,13486,128,0,13819:0:0:0:70:LR_Drum Hit HAT.wav
320,192,13819,1,0,0:0:0:70:LR_Drum Hit HAT.wav
192,192,13986,1,2,0:0:0:0:
448,192,13986,1,0,0:0:0:0:
64,192,14153,128,0,14653:0:0:0:70:LR_Drum Hit HAT.wav
320,192,14319,1,0,0:0:0:0:
192,192,14486,1,2,0:0:0:0:
448,192,14653,1,0,0:0:0:0:
192,192,14819,1,8,0:0:0:0:
320,192,14819,128,0,14986:0:0:0:70:LR_Drum Hit HAT.wav
448,192,14986,1,0,0:0:0:0:
64,192,15069,1,0,0:0:0:0:
192,192,15069,1,0,0:0:0:0:
320,192,15153,1,2,0:0:0:0:
448,192,15153,1,0,0:0:0:0:
64,192,15319,1,0,0:0:0:0:
192,192,15486,1,8,0:0:0:0:
448,192,15486,1,4,0:0:0:0:
320,192,15653,1,0,0:0:0:0:
64,192,15819,1,8,0:0:0:0:
192,192,15819,1,0,0:0:0:0:
448,192,15986,1,0,0:0:0:0:
64,192,16153,1,8,0:0:0:0:
320,192,16153,1,0,0:0:0:0:
192,192,16319,1,0,0:0:0:0:
320,192,16486,1,8,0:0:0:0:
448,192,16486,1,0,0:0:0:0:
64,192,16653,1,0,0:0:0:0:
192,192,16819,1,8,0:0:0:0:
448,192,16819,1,0,0:0:0:0:
192,192,16986,1,0,0:0:0:0:
64,192,17153,1,8,0:0:0:0:
320,192,17153,1,0,0:0:0:0:
320,192,17319,1,0,0:0:0:0:
192,192,17486,1,8,0:0:0:0:
448,192,17486,128,0,17819:0:0:0:0:
64,192,17653,1,0,0:0:0:0:
192,192,17819,1,8,0:0:0:0:
320,192,17819,1,0,0:0:0:0:
64,192,17986,1,0,0:0:0:0:
320,192,18153,1,8,0:0:0:0:
448,192,18153,1,0,0:0:0:0:
192,192,18319,1,0,0:0:0:0:
64,192,18486,1,8,0:0:0:0:
448,192,18486,1,0,0:0:0:0:
320,192,18653,1,0,0:0:0:0:
192,192,18819,1,8,0:0:0:0:
448,192,18819,1,0,0:0:0:0:
64,192,18986,1,0,0:0:0:0:
192,192,19153,1,8,0:0:0:0:
320,192,19153,1,0,0:0:0:0:
448,192,19319,1,0,0:0:0:0:
64,192,19486,1,8,0:0:0:0:
320,192,19486,1,0,0:0:0:0:
320,192,19653,1,0,0:0:0:0:
192,192,19819,1,8,0:0:0:0:
448,192,19819,1,0,0:0:0:0:
192,192,19986,1,0,0:0:0:0:
64,192,20153,128,8,20486:0:0:0:0:
320,192,20153,1,0,0:0:0:0:
448,192,20319,1,0,0:0:0:0:
192,192,20486,1,8,0:0:0:0:
320,192,20486,1,0,0:0:0:0:
448,192,20653,1,0,0:0:0:0:
64,192,20819,1,8,0:0:0:0:
192,192,20819,1,4,0:0:0:0:
320,192,20986,1,0,0:0:0:0:
192,192,21153,128,8,21486:0:0:0:0:
448,192,21153,1,0,0:0:0:0:
448,192,21319,1,0,0:0:0:0:
64,192,21486,1,8,0:0:0:0:
320,192,21486,128,0,21819:0:0:0:0:
64,192,21653,1,0,0:0:0:0:
192,192,21819,1,8,0:0:0:0:
448,192,21819,1,0,0:0:0:0:
320,192,21986,1,0,0:0:0:0:
64,192,22153,1,8,0:0:0:0:
448,192,22153,128,4,22486:0:0:0:0:
192,192,22319,1,0,0:0:0:0:
64,192,22486,1,8,0:0:0:0:
320,192,22486,128,0,22819:0:0:0:0:
192,192,22653,1,0,0:0:0:0:
64,192,22819,128,8,23153:0:0:0:0:
448,192,22819,1,0,0:0:0:0:
320,192,22986,1,0,0:0:0:0:
192,192,23153,128,8,23486:0:0:0:0:
448,192,23153,1,0,0:0:0:0:
320,192,23319,1,0,0:0:0:0:
64,192,23486,1,8,0:0:0:0:
448,192,23486,1,4,0:0:0:0:
64,192,23653,1,0,0:0:0:0:
320,192,23819,1,8,0:0:0:0:
64,192,23986,1,0,0:0:0:0:
192,192,23986,1,0,0:0:0:0:
320,192,24153,1,8,0:0:0:0:
448,192,24153,1,4,0:0:0:0:
448,192,24319,1,0,0:0:0:0:
192,192,24486,1,8,0:0:0:0:
64,192,24653,1,0,0:0:0:0:
320,192,24653,1,0,0:0:0:0:
192,192,24819,1,8,0:0:0:0:
448,192,24819,1,4,0:0:0:0:
192,192,24986,1,0,0:0:0:0:
64,192,25153,1,8,0:0:0:0:
320,192,25153,1,4,0:0:0:0:
320,192,25319,1,0,0:0:0:0:
192,192,25486,1,8,0:0:0:0:
448,192,25486,1,4,0:0:0:0:
192,192,25653,1,0,0:0:0:0:
64,192,25819,1,8,0:0:0:0:
320,192,25819,1,4,0:0:0:0:
320,192,25986,1,0,0:0:0:0:
64,192,26153,128,2,26486:0:0:0:0:
448,192,26153,1,0,0:0:0:0:
192,192,26319,1,0,0:0:0:0:
320,192,26403,1,0,0:0:0:70:LR_Drum Rpd x2.wav
192,192,26486,1,0,0:0:0:70:LR_Drum Rpd x2.wav
448,192,26653,128,0,26986:0:0:0:70:LR_Drum Rpd x2.wav
320,192,26819,1,0,0:0:0:0:
192,192,26903,1,0,0:0:0:70:LR_Drum Rpd x2.wav
320,192,26986,1,0,0:0:0:70:LR_Drum Rpd x2.wav
64,192,27153,1,0,0:0:0:70:LR_Drum Rpd x2.wav
64,192,27319,1,0,0:0:0:70:LR_Drum Rpd x2.wav
192,192,27486,128,0,27819:0:0:0:70:LR_Drum Rpd x2.wav
448,192,27653,1,0,0:0:0:0:
320,192,27736,1,0,0:0:0:70:LR_Drum Rpd x2.wav
448,192,27819,1,0,0:0:0:70:LR_Drum Rpd x2.wav
320,192,27986,128,0,28319:0:0:0:70:LR_Drum Rpd x2.wav
64,192,28153,1,0,0:0:0:0:
192,192,28236,1,0,0:0:0:70:LR_Drum Rpd x2.wav
64,192,28319,1,0,0:0:0:70:LR_Drum Rpd x2.wav
320,192,28486,1,0,0:0:0:40:LR4_SnareKKF.wav
448,192,28486,1,0,0:0:0:0:
192,192,28653,1,0,0:0:0:0:
64,192,28819,128,0,29153:0:0:0:70:LR_Drum Rpd x2.wav
448,192,28819,1,0,0:0:0:0:
320,192,28986,1,0,0:0:0:0:
192,192,29069,1,0,0:0:0:70:LR_Drum Rpd x2.wav
320,192,29153,1,0,0:0:0:70:LR_Drum Rpd x2.wav
192,192,29319,128,0,29653:0:0:0:70:LR_Drum Rpd x2.wav
448,192,29486,1,0,0:0:0:0:
320,192,29569,1,0,0:0:0:70:LR_Drum Rpd x2.wav
448,192,29653,1,0,0:0:0:70:LR_Drum Rpd x2.wav
64,192,29819,1,0,0:0:0:70:LR_Drum Rpd x2.wav
64,192,29986,1,0,0:0:0:70:LR_Drum Rpd x2.wav
448,192,30153,128,0,30486:0:0:0:70:LR_Drum Rpd x2.wav
192,192,30319,1,0,0:0:0:0:
320,192,30403,1,0,0:0:0:70:LR_Drum Rpd x2.wav
192,192,30486,1,0,0:0:0:70:LR_Drum Rpd x2.wav
320,192,30653,128,0,30986:0:0:0:70:LR_Drum Rpd x2.wav
64,192,30819,1,0,0:0:0:0:
192,192,30903,1,0,0:0:0:70:LR_Drum Rpd x2.wav
64,192,30986,1,0,0:0:0:70:LR_Drum Rpd x2.wav
320,192,31153,1,2,0:0:0:0:
448,192,31153,1,0,0:0:0:40:LR4_SnareKKF.wav
64,192,31486,1,4,0:0:0:0:
448,192,31486,1,0,0:0:0:40:LR4_SnareKKF.wav
192,192,31653,1,0,0:0:0:40:LR4_SnareKKF.wav
64,192,31819,1,0,0:0:0:40:LR4_SnareKKF.wav
320,192,31819,1,0,0:0:0:0:
192,192,31986,1,0,0:0:0:40:LR4_SnareKKF.wav
64,192,32153,1,0,0:0:0:40:LR4_SnareKKF.wav
448,192,32153,1,0,0:0:0:0:
192,192,32319,1,0,0:0:0:40:LR4_SnareKKF.wav
64,192,32486,1,0,0:0:0:40:LR4_SnareKKF.wav
320,192,32486,1,0,0:0:0:0:
192,192,32653,1,0,0:0:0:40:LR4_SnareKKF.wav
64,192,32819,1,0,0:0:0:40:LR4_SnareKKF.wav
448,192,32819,1,0,0:0:0:0:
320,192,32986,1,0,0:0:0:40:LR4_SnareKKF.wav
192,192,33153,1,0,0:0:0:40:LR4_SnareKKF.wav
448,192,33153,1,0,0:0:0:0:
320,192,33319,1,0,0:0:0:40:LR4_SnareKKF.wav
64,192,33486,1,0,0:0:0:40:LR4_SnareKKF.wav
448,192,33486,1,0,0:0:0:0:
320,192,33653,1,0,0:0:0:40:LR4_SnareKKF.wav
192,192,33819,1,0,0:0:0:40:LR4_SnareKKF.wav
448,192,33819,1,0,0:0:0:0:
320,192,33986,1,0,0:0:0:40:LR4_SnareKKF.wav
64,192,34153,1,0,0:0:0:40:LR4_SnareKKF.wav
448,192,34153,1,0,0:0:0:0:
192,192,34236,1,0,0:0:0:40:LR4_SnareKKF.wav
320,192,34319,1,0,0:0:0:40:LR4_SnareKKF.wav
192,192,34403,1,0,0:0:0:40:LR4_SnareKKF.wav
64,192,34486,1,0,0:0:0:40:LR4_SnareKKF.wav
448,192,34486,1,0,0:0:0:0:
320,192,34569,1,0,0:0:0:40:LR4_SnareKKF.wav
192,192,34653,1,0,0:0:0:40:LR4_SnareKKF.wav
64,192,34736,1,0,0:0:0:40:LR4_SnareKKF.wav
320,192,34819,128,0,35486:0:0:0:40:LR4_SnareKKF.wav
448,192,34819,1,0,0:0:0:0:
192,192,34986,1,0,0:0:0:40:LR4_SnareKKF.wav
64,192,35153,128,0,35486:0:0:0:40:LR4_SnareKKF.wav
192,192,35153,128,0,35486:0:0:0:0:
448,192,35486,1,8,0:0:0:0:
448,192,35819,1,8,0:0:0:0:
448,192,36153,1,8,0:0:0:0:
192,192,36486,1,0,0:0:0:80:bell2.wav
320,192,36486,1,0,0:0:0:0:
64,192,36819,128,2,37486:0:0:0:0:
320,192,36819,1,4,0:0:0:0:
448,192,36819,1,0,0:0:0:0:
192,192,36986,1,0,0:0:0:70:LR3_Snare CWS.wav
448,192,37153,1,0,0:0:0:0:
320,192,37319,1,0,0:0:0:70:LR3_Snare CWS.wav
192,192,37486,1,2,0:0:0:0:
448,192,37486,128,4,37819:0:0:0:0:
320,192,37653,1,0,0:0:0:70:LR3_Snare CWS.wav
64,192,37819,1,0,0:0:0:0:
192,192,37903,1,0,0:0:0:70:LR3_Snare CWS.wav
448,192,37986,1,0,0:0:0:70:LR3_Snare CWS.wav
320,192,38069,1,0,0:0:0:70:LR3_Snare CWS.wav
64,192,38153,1,2,0:0:0:0:
192,192,38153,128,4,38319:0:0:0:0:
448,192,38403,1,0,0:0:0:40:LR4_SnareKKF.wav
64,192,38486,1,2,0:0:0:0:
192,192,38486,128,4,38653:0:0:0:0:
320,192,38653,1,0,0:0:0:40:LR4_SnareKKF.wav
64,192,38819,1,2,0:0:0:0:
448,192,38819,128,4,38986:0:0:0:0:
192,192,38986,1,0,0:0:0:40:LR4_SnareKKF.wav
320,192,39069,1,6,0:0:0:0:
64,192,39153,1,0,0:0:0:0:
448,192,39236,1,0,0:0:0:40:LR4_SnareKKF.wav
64,192,39319,1,2,0:0:0:0:
192,192,39319,1,4,0:0:0:0:
320,192,39486,1,2,0:0:0:0:
448,192,39486,128,4,40153:0:0:0:0:
64,192,39653,1,0,0:0:0:70:LR3_Snare CWS.wav
192,192,39819,1,0,0:0:0:0:
320,192,39986,1,0,0:0:0:70:LR3_Snare CWS.wav
64,192,40153,1,2,0:0:0:0:
192,192,40153,128,4,40486:0:0:0:0:
320,192,40319,1,0,0:0:0:70:LR3_Snare CWS.wav
448,192,40486,1,0,0:0:0:0:
320,192,40569,1,0,0:0:0:70:LR3_Snare CWS.wav
64,192,40653,1,0,0:0:0:70:LR3_Snare CWS.wav
192,192,40736,1,0,0:0:0:70:LR3_Snare CWS.wav
320,192,40819,128,2,40986:0:0:0:0:
448,192,40819,1,4,0:0:0:0:
64,192,41069,1,0,0:0:0:40:LR4_SnareKKF.wav
320,192,41153,128,2,41319:0:0:0:0:
448,192,41153,1,4,0:0:0:0:
192,192,41319,1,0,0:0:0:40:LR4_SnareKKF.wav
64,192,41486,128,2,41653:0:0:0:0:
448,192,41486,1,4,0:0:0:0:
320,192,41653,1,0,0:0:0:40:LR4_SnareKKF.wav
192,192,41736,1,6,0:0:0:0:
448,192,41819,1,0,0:0:0:0:
64,192,41903,1,0,0:0:0:40:LR4_SnareKKF.wav
320,192,41986,1,2,0:0:0:0:
448,192,41986,1,4,0:0:0:0:
64,192,42153,1,4,0:0:0:0:
192,192,42153,128,2,42819:0:0:0:0:
320,192,42319,1,0,0:0:0:70:LR3_Snare CWS.wav
448,192,42486,1,0,0:0:0:0:
64,192,42653,1,0,0:0:0:70:LR3_Snare CWS.wav
320,192,42819,128,4,43153:0:0:0:0:
448,192,42819,1,2,0:0:0:0:
64,192,42986,1,0,0:0:0:70:LR3_Snare CWS.wav
192,192,43153,1,0,0:0:0:0:
64,192,43236,1,0,0:0:0:70:LR3_Snare CWS.wav
320,192,43319,1,0,0:0:0:70:LR3_Snare CWS.wav
448,192,43403,1,0,0:0:0:70:LR3_Snare CWS.wav
64,192,43486,128,4,43653:0:0:0:0:
192,192,43486,1,2,0:0:0:0:
320,192,43736,1,0,0:0:0:40:LR4_SnareKKF.wav
64,192,43819,128,4,43986:0:0:0:0:
192,192,43819,1,2,0:0:0:0:
448,192,43986,1,0,0:0:0:40:LR4_SnareKKF.wav
192,192,44153,1,4,0:0:0:0:
320,192,44153,128,2,44319:0:0:0:0:
448,192,44319,1,0,0:0:0:40:LR4_SnareKKF.wav
64,192,44403,1,6,0:0:0:0:
192,192,44486,1,0,0:0:0:0:
448,192,44569,1,0,0:0:0:40:LR4_SnareKKF.wav
64,192,44653,1,4,0:0:0:0:
320,192,44653,1,2,0:0:0:0:
192,192,44819,1,2,0:0:0:0:
448,192,44819,128,4,45486:0:0:0:0:
64,192,44986,1,0,0:0:0:70:LR3_Snare CWS.wav
320,192,45153,1,0,0:0:0:0:
192,192,45319,1,0,0:0:0:70:LR3_Snare CWS.wav
64,192,45486,1,2,0:0:0:0:
320,192,45486,128,4,45819:0:0:0:0:
192,192,45653,1,0,0:0:0:70:LR3_Snare CWS.wav
64,192,45819,1,0,0:0:0:0:
448,192,45903,1,0,0:0:0:70:LR3_Snare CWS.wav
320,192,45986,1,0,0:0:0:70:LR3_Snare CWS.wav
192,192,46069,1,0,0:0:0:70:LR3_Snare CWS.wav
64,192,46153,128,2,46486:0:0:0:0:
448,192,46153,1,4,0:0:0:0:
192,192,46486,128,2,46819:0:0:0:0:
320,192,46486,1,4,0:0:0:0:
64,192,46819,1,2,0:0:0:0:
448,192,46819,128,4,47153:0:0:0:0:
64,192,47153,1,0,0:0:0:70:LR_Kick Crushing Bump.wav
192,192,47153,1,0,0:0:0:0:
320,192,47153,1,0,0:0:0:0:
64,192,47486,1,6,0:0:0:0:
448,192,47486,1,0,0:0:0:70:LR_Drum Hit HAT.wav
192,192,47653,1,0,0:0:0:0:
192,192,47819,1,2,0:0:0:0:
320,192,47819,1,0,0:0:0:70:LR_Drum Hit HAT.wav
448,192,47986,1,0,0:0:0:70:LR3_Snare CWS.wav
64,192,48153,1,2,0:0:0:0:
192,192,48153,1,0,0:0:0:70:LR_Drum Hit HAT.wav
448,192,48319,1,0,0:0:0:70:LR3_Snare CWS.wav
320,192,48403,1,2,0:0:0:0:
64,192,48486,1,0,0:0:0:70:LR_Drum Hit HAT.wav
192,192,48569,1,0,0:0:0:70:LR3_Snare CWS.wav
320,192,48653,1,2,0:0:0:0:
448,192,48736,1,0,0:0:0:70:LR3_Snare CWS.wav
64,192,48819,128,2,49153:0:0:0:0:
192,192,48819,1,0,0:0:0:70:LR_Drum Hit HAT.wav
192,192,48986,1,0,0:0:0:0:
320,192,49153,1,2,0:0:0:0:
448,192,49153,128,0,49486:0:0:0:70:LR_Drum Hit HAT.wav
320,192,49319,1,0,0:0:0:70:LR3_Snare CWS.wav
64,192,49486,1,2,0:0:0:0:
192,192,49486,128,0,49653:0:0:0:70:LR_Drum Hit HAT.wav
320,192,49653,1,0,0:0:0:70:LR3_Snare CWS.wav
448,192,49736,1,2,0:0:0:0:
64,192,49819,1,0,0:0:0:70:LR_Drum Hit HAT.wav
192,192,49903,1,0,0:0:0:70:LR3_Snare CWS.wav
64,192,49986,1,2,0:0:0:0:
320,192,49986,1,0,0:0:0:0:
192,192,50153,1,2,0:0:0:0:
448,192,50153,1,0,0:0:0:70:LR_Drum Hit HAT.wav
320,192,50319,1,0,0:0:0:0:
64,192,50486,1,2,0:0:0:0:
320,192,50486,1,0,0:0:0:70:LR_Drum Hit HAT.wav
448,192,50653,1,0,0:0:0:70:LR3_Snare CWS.wav
192,192,50819,1,2,0:0:0:0:
320,192,50819,1,0,0:0:0:70:LR_Drum Hit HAT.wav
448,192,50986,1,0,0:0:0:70:LR3_Snare CWS.wav
192,192,51069,1,2,0:0:0:0:
64,192,51153,1,0,0:0:0:70:LR_Drum Hit HAT.wav
320,192,51236,1,0,0:0:0:70:LR3_Snare CWS.wav
192,192,51319,1,2,0:0:0:0:
448,192,51403,1,0,0:0:0:70:LR3_Snare CWS.wav
64,192,51486,1,2,0:0:0:0:
320,192,51486,128,0,51819:0:0:0:70:LR_Drum Hit HAT.wav
64,192,51653,1,0,0:0:0:0:
192,192,51819,128,2,52153:0:0:0:0:
448,192,51819,1,0,0:0:0:70:LR_Drum Hit HAT.wav
448,192,51986,1,0,0:0:0:70:LR3_Snare CWS.wav
64,192,52153,128,0,52319:0:0:0:70:LR_Drum Hit HAT.wav
448,192,52486,128,0,52819:0:0:0:70:LR_Drum Hit HAT.wav
192,192,52819,1,2,0:0:0:0:
320,192,52819,1,4,0:0:0:0:
64,192,52986,1,0,0:0:0:0:
64,192,53153,1,2,0:0:0:0:
448,192,53153,1,0,0:0:0:70:LR_Drum Hit HAT.wav
320,192,53319,1,0,0:0:0:70:LR3_Snare CWS.wav
64,192,53486,1,2,0:0:0:0:
448,192,53486,1,0,0:0:0:70:LR_Drum Hit HAT.wav
192,192,53653,1,0,0:0:0:70:LR3_Snare CWS.wav
320,192,53736,1,2,0:0:0:0:
64,192,53819,1,0,0:0:0:70:LR_Drum Hit HAT.wav
448,192,53903,1,0,0:0:0:70:LR3_Snare CWS.wav
320,192,53986,1,2,0:0:0:0:
192,192,54069,1,0,0:0:0:70:LR3_Snare CWS.wav
64,192,54153,1,2,0:0:0:0:
448,192,54153,128,0,54486:0:0:0:70:LR_Drum Hit HAT.wav
64,192,54319,1,0,0:0:0:0:
192,192,54486,128,2,54819:0:0:0:0:
320,192,54486,1,0,0:0:0:70:LR_Drum Hit HAT.wav
320,192,54653,1,0,0:0:0:70:LR3_Snare CWS.wav
64,192,54819,128,2,54986:0:0:0:0:
448,192,54819,1,0,0:0:0:70:LR_Drum Hit HAT.wav
320,192,54986,1,0,0:0:0:70:LR3_Snare CWS.wav
192,192,55069,1,2,0:0:0:0:
448,192,55153,1,0,0:0:0:70:LR_Drum Hit HAT.wav
64,192,55236,1,0,0:0:0:70:LR3_Snare CWS.wav
320,192,55319,1,2,0:0:0:0:
448,192,55319,1,0,0:0:0:0:
64,192,55486,1,0,0:0:0:70:LR_Drum Hit HAT.wav
192,192,55486,1,0,0:0:0:70:LR3_Snare ShotH.wav
448,192,55569,1,0,0:0:0:70:LR3_Snare ShotH.wav
320,192,55653,1,0,0:0:0:70:LR3_Snare ShotH.wav
192,192,55736,1,0,0:0:0:70:LR3_Snare ShotH.wav
64,192,55819,1,0,0:0:0:70:LR_Drum Hit HAT.wav
448,192,55819,1,0,0:0:0:70:LR3_Snare ShotH.wav
320,192,55903,1,0,0:0:0:70:LR3_Snare ShotH.wav
192,192,55986,1,0,0:0:0:70:LR3_Snare ShotH.wav
320,192,56069,1,0,0:0:0:70:LR3_Snare ShotH.wav
64,192,56153,1,0,0:0:0:70:LR_Drum Hit HAT.wav
448,192,56153,1,0,0:0:0:70:LR3_Snare ShotH.wav
192,192,56236,1,0,0:0:0:70:LR3_Snare ShotH.wav
320,192,56319,1,0,0:0:0:70:LR3_Snare ShotH.wav
448,192,56403,1,0,0:0:0:70:LR3_Snare ShotH.wav
64,192,56486,1,0,0:0:0:70:LR_Drum Hit HAT.wav
192,192,56486,1,0,0:0:0:70:LR3_Snare ShotH.wav
320,192,56569,1,0,0:0:0:70:LR3_Snare ShotH.wav
192,192,56653,1,0,0:0:0:70:LR3_Snare ShotH.wav
64,192,56736,1,0,0:0:0:70:LR3_Snare ShotH.wav
320,192,56819,1,2,0:0:0:0:
448,192,56819,128,0,56986:0:0:0:0:
192,192,57153,1,2,0:0:0:0:
320,192,57153,128,0,57319:0:0:0:0:
64,192,57486,1,2,0:0:0:0:
192,192,57486,128,4,57819:0:0:0:0:
64,192,57819,1,0,0:0:0:70:LR_Kick Crushing Bump.wav
320,192,57819,1,0,0:0:0:0:
448,192,57819,1,0,0:0:0:0:
192,192,58153,1,4,0:0:0:0:
320,192,58153,1,2,0:0:0:0:
448,192,58153,1,0,0:0:0:0:
64,192,58486,1,0,0:0:0:0:
192,192,58819,1,0,0:0:0:70:LR_Clap hollow echo.wav
448,192,58819,128,0,59153:0:0:0:0:
64,192,59153,1,0,0:0:0:0:
320,192,59486,1,0,0:0:0:0:
448,192,59819,1,0,0:0:0:0:
64,192,60153,1,0,0:0:0:70:LR_Clap hollow echo.wav
320,192,60153,128,0,60486:0:0:0:0:
448,192,60486,1,0,0:0:0:0:
192,192,60819,1,0,0:0:0:0:
320,192,61153,1,0,0:0:0:0:
64,192,61486,1,0,0:0:0:70:LR_Clap hollow echo.wav
192,192,61486,128,0,61819:0:0:0:0:
448,192,61819,1,0,0:0:0:0:
320,192,62153,128,0,62819:0:0:0:0:
192,192,62486,1,0,0:0:0:0:
64,192,62819,1,0,0:0:0:70:LR_Clap hollow echo.wav
448,192,62819,128,0,63153:0:0:0:0:
192,192,62986,1,0,0:0:0:0:
320,192,63153,1,0,0:0:0:0:
192,192,63319,1,0,0:0:0:0:
64,192,63486,1,0,0:0:0:0:
448,192,63486,1,0,0:0:0:0:
320,192,63819,1,0,0:0:0:0:
192,192,64153,1,0,0:0:0:70:LR_Clap hollow echo.wav
448,192,64153,128,0,64486:0:0:0:0:
64,192,64486,1,0,0:0:0:0:
448,192,64819,1,0,0:0:0:0:
320,192,65153,1,0,0:0:0:0:
192,192,65486,1,0,0:0:0:70:LR_Clap hollow echo.wav
448,192,65486,128,0,65819:0:0:0:0:
64,192,65819,1,0,0:0:0:0:
192,192,66153,1,0,0:0:0:0:
448,192,66486,1,0,0:0:0:0:
64,192,66819,128,0,67153:0:0:0:70:LR_Clap hollow echo.wav
320,192,66819,1,0,0:0:0:0:
192,192,67153,1,0,0:0:0:0:
448,192,67486,128,0,67986:0:0:0:0:
320,192,67819,1,0,0:0:0:0:
64,192,67986,128,0,68486:0:0:0:0:
320,192,68153,1,0,0:0:0:0:
192,192,68486,1,0,0:0:0:70:LR_Kick Crushing Bump.wav
320,192,68486,1,0,0:0:0:0:
448,192,68486,1,0,0:0:0:0:
64,192,68819,1,2,0:0:0:0:
192,192,68819,128,4,69153:0:0:0:0:
448,192,68986,1,0,0:0:0:0:
320,192,69069,1,0,0:0:0:0:
448,192,69153,1,0,0:0:0:0:
64,192,69319,1,0,0:0:0:70:LR3_Snare ShotH.wav
192,192,69319,128,0,69653:0:0:0:0:
448,192,69486,1,0,0:0:0:70:LR3_Snare ShotH.wav
320,192,69569,1,0,0:0:0:0:
448,192,69653,1,0,0:0:0:0:
64,192,69819,1,0,0:0:0:0:
192,192,69986,1,0,0:0:0:70:LR3_Snare ShotH.wav
448,192,69986,1,0,0:0:0:0:
64,192,70069,1,0,0:0:0:70:LR3_Snare ShotH.wav
320,192,70153,128,0,70486:0:0:0:70:LR3_Snare ShotH.wav
448,192,70153,1,0,0:0:0:0:
192,192,70319,1,0,0:0:0:0:
64,192,70403,1,0,0:0:0:0:
192,192,70486,1,0,0:0:0:0:
320,192,70653,128,0,70986:0:0:0:70:LR3_Snare ShotH.wav
448,192,70653,1,0,0:0:0:0:
192,192,70819,1,0,0:0:0:70:LR3_Snare ShotH.wav
64,192,70903,1,0,0:0:0:0:
192,192,70986,1,0,0:0:0:0:
448,192,71153,1,0,0:0:0:40:LR4_SnareKKF.wav
64,192,71319,1,0,0:0:0:70:LR3_Snare ShotH.wav
192,192,71319,1,0,0:0:0:0:
320,192,71403,1,0,0:0:0:70:LR3_Snare ShotH.wav
64,192,71486,1,0,0:0:0:70:LR3_Snare ShotH.wav
448,192,71486,128,0,71819:0:0:0:0:
192,192,71653,1,0,0:0:0:0:
320,192,71736,1,0,0:0:0:0:
192,192,71819,1,0,0:0:0:0:
64,192,71986,1,0,0:0:0:70:LR3_Snare ShotH.wav
448,192,71986,128,0,72319:0:0:0:0:
192,192,72153,1,0,0:0:0:70:LR3_Snare ShotH.wav
320,192,72236,1,0,0:0:0:0:
192,192,72319,1,0,0:0:0:0:
64,192,72486,1,0,0:0:0:0:
320,192,72653,1,0,0:0:0:70:LR3_Snare ShotH.wav
448,192,72653,1,0,0:0:0:0:
192,192,72736,1,0,0:0:0:70:LR3_Snare ShotH.wav
64,192,72819,128,0,73153:0:0:0:70:LR3_Snare ShotH.wav
448,192,72819,1,0,0:0:0:0:
320,192,72986,1,0,0:0:0:0:
192,192,73069,1,0,0:0:0:0:
448,192,73153,1,0,0:0:0:0:
64,192,73319,128,0,73653:0:0:0:70:LR3_Snare ShotH.wav
192,192,73319,1,0,0:0:0:0:
320,192,73486,1,0,0:0:0:70:LR3_Snare ShotH.wav
192,192,73569,1,0,0:0:0:0:
448,192,73653,128,0,73819:0:0:0:0:
64,192,73819,1,0,0:0:0:40:LR_Kick Crushing Bump.wav
192,192,73819,1,0,0:0:0:0:
320,192,73819,1,0,0:0:0:0:
64,192,74153,1,0,0:0:0:70:LR3_Snare ShotH.wav
448,192,74153,1,0,0:0:0:0:
192,192,74319,1,0,0:0:0:70:LR3_Snare ShotH.wav
320,192,74486,1,0,0:0:0:70:LR3_Snare ShotH.wav
448,192,74486,1,0,0:0:0:0:
192,192,74653,1,0,0:0:0:70:LR3_Snare ShotH.wav
64,192,74819,1,0,0:0:0:70:LR3_Snare ShotH.wav
448,192,74819,1,0,0:0:0:0:
192,192,74986,1,0,0:0:0:70:LR3_Snare ShotH.wav
320,192,75153,1,0,0:0:0:70:LR3_Snare ShotH.wav
448,192,75153,1,0,0:0:0:0:
192,192,75319,1,0,0:0:0:70:LR3_Snare ShotH.wav
64,192,75486,1,0,0:0:0:70:LR3_Snare ShotH.wav
448,192,75486,1,0,0:0:0:0:
320,192,75653,1,0,0:0:0:70:LR3_Snare ShotH.wav
64,192,75819,1,0,0:0:0:70:LR3_Snare ShotH.wav
192,192,75819,1,0,0:0:0:0:
320,192,75986,1,0,0:0:0:70:LR3_Snare ShotH.wav
64,192,76153,1,0,0:0:0:70:LR3_Snare ShotH.wav
448,192,76153,1,0,0:0:0:0:
320,192,76319,1,0,0:0:0:70:LR3_Snare ShotH.wav
64,192,76486,1,0,0:0:0:70:LR3_Snare ShotH.wav
192,192,76486,1,0,0:0:0:0:
320,192,76653,1,0,0:0:0:70:LR3_Snare ShotH.wav
64,192,76819,1,0,0:0:0:70:LR3_Snare ShotH.wav
448,192,76819,1,0,0:0:0:0:
192,192,76903,1,0,0:0:0:70:LR3_Snare ShotH.wav
320,192,76986,1,0,0:0:0:70:LR3_Snare ShotH.wav
448,192,77069,1,0,0:0:0:70:LR3_Snare ShotH.wav
64,192,77153,1,0,0:0:0:70:LR3_Snare ShotH.wav
192,192,77236,1,0,0:0:0:70:LR3_Snare ShotH.wav
320,192,77319,1,0,0:0:0:70:LR3_Snare ShotH.wav
448,192,77403,1,0,0:0:0:70:LR3_Snare ShotH.wav
64,192,77486,1,0,0:0:0:70:LR3_Snare ShotH.wav
192,192,77486,1,0,0:0:0:0:
448,192,77569,1,0,0:0:0:70:LR3_Snare ShotH.wav
320,192,77653,1,0,0:0:0:70:LR3_Snare ShotH.wav
64,192,77736,1,0,0:0:0:70:LR3_Snare ShotH.wav
192,192,77819,1,0,0:0:0:70:LR3_Snare ShotH.wav
448,192,77903,1,0,0:0:0:70:LR3_Snare ShotH.wav
320,192,77986,1,0,0:0:0:70:LR3_Snare ShotH.wav
192,192,78069,1,0,0:0:0:70:LR3_Snare ShotH.wav
64,192,78153,1,0,0:0:0:0:
448,192,78153,1,0,0:0:0:0:
320,192,79486,1,0,0:0:0:0:
192,192,79653,1,0,0:0:0:0:
448,192,79819,1,0,0:0:0:0:
64,192,79986,1,0,0:0:0:0:
192,192,80069,1,0,0:0:0:0:
320,192,80153,1,0,0:0:0:0:
64,192,80319,1,0,0:0:0:0:
448,192,80486,1,0,0:0:0:0:
320,192,80569,1,0,0:0:0:0:
64,192,80653,1,0,0:0:0:0:
192,192,80736,1,0,0:0:0:0:
320,192,80819,1,2,0:0:0:0:
448,192,80819,128,4,80986:0:0:0:0:
64,192,81069,1,0,0:0:0:40:LR4_SnareKKF.wav
320,192,81153,1,2,0:0:0:0:
448,192,81153,128,4,81319:0:0:0:0:
192,192,81319,1,0,0:0:0:40:LR4_SnareKKF.wav
64,192,81486,128,2,81653:0:0:0:0:
320,192,81486,1,4,0:0:0:0:
448,192,81653,1,0,0:0:0:40:LR4_SnareKKF.wav
192,192,81736,1,6,0:0:0:0:
320,192,81819,1,0,0:0:0:0:
64,192,81903,1,0,0:0:0:40:LR4_SnareKKF.wav
192,192,81986,1,2,0:0:0:0:
448,192,81986,1,4,0:0:0:0:
64,192,82153,128,2,82819:0:0:0:0:
320,192,82153,1,4,0:0:0:0:
448,192,82319,1,0,0:0:0:70:LR3_Snare CWS.wav
192,192,82403,1,0,0:0:0:70:LR3_Snare CWS.wav
448,192,82486,1,0,0:0:0:0:
320,192,82653,1,0,0:0:0:70:LR3_Snare CWS.wav
192,192,82736,1,0,0:0:0:70:LR3_Snare CWS.wav
320,192,82819,1,2,0:0:0:0:
448,192,82819,128,4,83153:0:0:0:0:
192,192,82986,1,0,0:0:0:70:LR3_Snare CWS.wav
64,192,83153,1,0,0:0:0:0:
320,192,83236,1,0,0:0:0:70:LR3_Snare CWS.wav
192,192,83319,1,0,0:0:0:70:LR3_Snare CWS.wav
448,192,83403,1,0,0:0:0:70:LR3_Snare CWS.wav
64,192,83486,128,2,83653:0:0:0:0:
320,192,83486,1,4,0:0:0:0:
192,192,83736,1,0,0:0:0:40:LR4_SnareKKF.wav
64,192,83819,128,2,83986:0:0:0:0:
320,192,83819,1,4,0:0:0:0:
448,192,83986,1,0,0:0:0:40:LR4_SnareKKF.wav
192,192,84153,1,2,0:0:0:0:
320,192,84153,128,4,84319:0:0:0:0:
64,192,84319,1,0,0:0:0:40:LR4_SnareKKF.wav
192,192,84403,1,6,0:0:0:0:
448,192,84486,1,0,0:0:0:0:
320,192,84569,1,0,0:0:0:40:LR4_SnareKKF.wav
64,192,84653,1,2,0:0:0:0:
192,192,84653,1,4,0:0:0:0:
320,192,84819,1,4,0:0:0:0:
448,192,84819,128,2,85486:0:0:0:0:
64,192,84986,1,0,0:0:0:70:LR3_Snare CWS.wav
192,192,85069,1,0,0:0:0:70:LR3_Snare CWS.wav
64,192,85153,1,0,0:0:0:0:
320,192,85319,1,0,0:0:0:70:LR3_Snare CWS.wav
192,192,85403,1,0,0:0:0:70:LR3_Snare CWS.wav
64,192,85486,128,4,85819:0:0:0:0:
320,192,85486,1,2,0:0:0:0:
192,192,85653,1,0,0:0:0:70:LR3_Snare CWS.wav
448,192,85819,1,0,0:0:0:0:
320,192,85903,1,0,0:0:0:70:LR3_Snare CWS.wav
192,192,85986,1,0,0:0:0:70:LR3_Snare CWS.wav
320,192,86069,1,0,0:0:0:70:LR3_Snare CWS.wav
64,192,86153,1,4,0:0:0:0:
448,192,86153,128,2,86319:0:0:0:0:
192,192,86403,1,0,0:0:0:40:LR4_SnareKKF.wav
64,192,86486,1,4,0:0:0:0:
448,192,86486,128,2,86653:0:0:0:0:
320,192,86653,1,0,0:0:0:40:LR4_SnareKKF.wav
64,192,86819,128,4,86986:0:0:0:0:
192,192,86819,1,2,0:0:0:0:
448,192,86986,1,0,0:0:0:40:LR4_SnareKKF.wav
320,192,87069,1,6,0:0:0:0:
192,192,87153,1,0,0:0:0:0:
64,192,87236,1,0,0:0:0:40:LR4_SnareKKF.wav
320,192,87319,1,4,0:0:0:0:
448,192,87319,1,2,0:0:0:0:
64,192,87486,128,2,88153:0:0:0:0:
192,192,87486,1,4,0:0:0:0:
320,192,87653,1,0,0:0:0:70:LR3_Snare CWS.wav
448,192,87736,1,0,0:0:0:70:LR3_Snare CWS.wav
320,192,87819,1,0,0:0:0:0:
192,192,87986,1,0,0:0:0:70:LR3_Snare CWS.wav
320,192,88069,1,0,0:0:0:70:LR3_Snare CWS.wav
192,192,88153,1,2,0:0:0:0:
448,192,88153,128,4,88486:0:0:0:0:
320,192,88319,1,0,0:0:0:70:LR3_Snare CWS.wav
64,192,88486,1,0,0:0:0:0:
192,192,88569,1,0,0:0:0:70:LR3_Snare CWS.wav
320,192,88653,1,0,0:0:0:70:LR3_Snare CWS.wav
64,192,88736,1,0,0:0:0:70:LR3_Snare CWS.wav
192,192,88819,128,2,89153:0:0:0:0:
448,192,88819,1,4,0:0:0:0:
64,192,89153,1,2,0:0:0:0:
320,192,89153,128,4,89486:0:0:0:0:
192,192,89486,1,2,0:0:0:0:
448,192,89486,128,4,89819:0:0:0:0:
64,192,89819,1,0,0:0:0:70:LR_Kick Crushing Bump.wav
192,192,89819,1,0,0:0:0:0:
320,192,89819,1,0,0:0:0:0:
64,192,90153,1,6,0:0:0:0:
448,192,90153,1,0,0:0:0:70:LR_Drum Hit HAT.wav
320,192,90319,1,0,0:0:0:0:
64,192,90486,1,2,0:0:0:0:
448,192,90486,1,0,0:0:0:70:LR_Drum Hit HAT.wav
192,192,90653,1,0,0:0:0:70:LR3_Snare CWS.wav
64,192,90819,1,0,0:0:0:70:LR_Drum Hit HAT.wav
320,192,90819,1,0,0:0:0:60:LR4_SnareKKF.wav
448,192,90819,1,0,0:0:0:0:
192,192,90986,1,0,0:0:0:70:LR3_Snare CWS.wav
320,192,91069,1,2,0:0:0:0:
448,192,91153,1,0,0:0:0:70:LR_Drum Hit HAT.wav
64,192,91236,1,0,0:0:0:70:LR3_Snare CWS.wav
192,192,91319,1,2,0:0:0:0:
320,192,91403,1,0,0:0:0:70:LR3_Snare CWS.wav
64,192,91486,128,2,91819:0:0:0:0:
448,192,91486,1,0,0:0:0:70:LR_Drum Hit HAT.wav
192,192,91653,128,0,91819:0:0:0:0:
448,192,91819,128,2,92153:0:0:0:0:
320,192,91986,128,0,92153:0:0:0:70:LR3_Snare CWS.wav
64,192,92153,1,0,0:0:0:70:LR_Drum Hit HAT.wav
192,192,92153,1,0,0:0:0:60:LR4_SnareKKF.wav
320,192,92319,1,0,0:0:0:70:LR3_Snare CWS.wav
64,192,92403,1,2,0:0:0:0:
448,192,92486,1,0,0:0:0:70:LR_Drum Hit HAT.wav
192,192,92569,1,0,0:0:0:70:LR3_Snare CWS.wav
320,192,92653,1,2,0:0:0:0:
448,192,92653,1,0,0:0:0:0:
64,192,92819,1,2,0:0:0:0:
192,192,92819,1,0,0:0:0:70:LR_Drum Hit HAT.wav
448,192,92986,1,0,0:0:0:0:
64,192,93153,1,2,0:0:0:0:
192,192,93153,1,0,0:0:0:70:LR_Drum Hit HAT.wav
320,192,93319,1,0,0:0:0:70:LR3_Snare CWS.wav
64,192,93486,1,0,0:0:0:70:LR_Drum Hit HAT.wav
192,192,93486,1,0,0:0:0:60:LR4_SnareKKF.wav
448,192,93486,1,0,0:0:0:0:
320,192,93653,1,0,0:0:0:70:LR3_Snare CWS.wav
448,192,93736,1,2,0:0:0:0:
64,192,93819,1,0,0:0:0:70:LR_Drum Hit HAT.wav
192,192,93903,1,0,0:0:0:70:LR3_Snare CWS.wav
320,192,93986,1,2,0:0:0:0:
448,192,94069,1,0,0:0:0:70:LR3_Snare CWS.wav
64,192,94153,128,2,94486:0:0:0:0:
192,192,94153,1,0,0:0:0:70:LR_Drum Hit HAT.wav
320,192,94319,128,0,94486:0:0:0:0:
448,192,94486,128,2,94819:0:0:0:0:
192,192,94653,128,0,94819:0:0:0:70:LR3_Snare CWS.wav
64,192,94819,1,0,0:0:0:70:LR_Drum Hit HAT.wav
320,192,94903,1,0,0:0:0:0:
64,192,94986,1,0,0:0:0:70:LR3_Snare CWS.wav
320,192,95069,1,0,0:0:0:70:LR3_Snare CWS.wav
192,192,95153,128,0,95486:0:0:0:70:LR_Drum Hit HAT.wav
320,192,95486,1,4,0:0:0:0:
448,192,95486,1,2,0:0:0:0:
64,192,95653,1,0,0:0:0:0:
448,192,95819,1,2,0:0:0:0:
320,192,95819,1,0,0:0:0:70:LR_Drum Hit HAT.wav
192,192,95986,1,0,0:0:0:70:LR3_Snare CWS.wav
320,192,96153,1,2,0:0:0:0:
448,192,96153,1,0,0:0:0:70:LR_Drum Hit HAT.wav
64,192,96319,1,0,0:0:0:70:LR3_Snare CWS.wav
192,192,96403,1,2,0:0:0:0:
320,192,96486,1,0,0:0:0:70:LR_Drum Hit HAT.wav
448,192,96569,1,0,0:0:0:70:LR3_Snare CWS.wav
192,192,96653,1,2,0:0:0:0:
320,192,96736,1,0,0:0:0:70:LR3_Snare CWS.wav
64,192,96819,1,2,0:0:0:0:
448,192,96819,128,0,97153:0:0:0:70:LR_Drum Hit HAT.wav
192,192,96986,128,0,97153:0:0:0:0:
64,192,97153,128,2,97486:0:0:0:0:
320,192,97319,128,0,97486:0:0:0:70:LR3_Snare CWS.wav
192,192,97486,1,2,0:0:0:0:
448,192,97486,1,0,0:0:0:70:LR_Drum Hit HAT.wav
320,192,97653,1,0,0:0:0:70:LR3_Snare CWS.wav
448,192,97736,1,2,0:0:0:0:
64,192,97819,1,0,0:0:0:70:LR_Drum Hit HAT.wav
192,192,97903,1,0,0:0:0:70:LR3_Snare CWS.wav
320,192,97986,1,2,0:0:0:0:
448,192,97986,1,0,0:0:0:0:
64,192,98153,1,0,0:0:0:70:LR_Drum Hit HAT.wav
192,192,98153,1,0,0:0:0:70:LR3_Snare ShotH.wav
448,192,98236,1,0,0:0:0:70:LR3_Snare ShotH.wav
320,192,98319,1,0,0:0:0:70:LR3_Snare ShotH.wav
192,192,98403,1,0,0:0:0:70:LR3_Snare ShotH.wav
64,192,98486,1,0,0:0:0:70:LR_Drum Hit HAT.wav
448,192,98486,1,0,0:0:0:70:LR3_Snare ShotH.wav
320,192,98569,1,0,0:0:0:70:LR3_Snare ShotH.wav
192,192,98653,1,0,0:0:0:70:LR3_Snare ShotH.wav
320,192,98736,1,0,0:0:0:70:LR3_Snare ShotH.wav
64,192,98819,1,0,0:0:0:70:LR_Drum Hit HAT.wav
448,192,98819,1,0,0:0:0:70:LR3_Snare ShotH.wav
192,192,98903,1,0,0:0:0:70:LR3_Snare ShotH.wav
320,192,98986,1,0,0:0:0:70:LR3_Snare ShotH.wav
448,192,99069,1,0,0:0:0:70:LR3_Snare ShotH.wav
64,192,99153,1,0,0:0:0:70:LR_Drum Hit HAT.wav
192,192,99153,1,0,0:0:0:70:LR3_Snare ShotH.wav
320,192,99236,1,0,0:0:0:70:LR3_Snare ShotH.wav
448,192,99319,1,0,0:0:0:70:LR3_Snare ShotH.wav
64,192,99403,1,0,0:0:0:70:LR3_Snare ShotH.wav
192,192,99486,1,2,0:0:0:0:
320,192,99486,128,0,99653:0:0:0:0:
64,192,99819,1,2,0:0:0:0:
192,192,99819,128,0,99986:0:0:0:0:
64,192,100153,128,4,100486:0:0:0:0:
448,192,100153,1,2,0:0:0:0:
192,192,100486,1,0,0:0:0:70:LR_Kick Crushing Bump.wav
320,192,100486,1,0,0:0:0:0:
448,192,100486,1,0,0:0:0:0:
64,192,100819,1,4,0:0:0:0:
192,192,100819,1,2,0:0:0:0:
320,192,100819,128,0,103486:0:0:0:0:
