osu file format v14

[General]
AudioFilename: audio.mp3
AudioLeadIn: 0
PreviewTime: 74378
Countdown: 0
SampleSet: Soft
StackLeniency: 0.7
Mode: 0
LetterboxInBreaks: 0
WidescreenStoryboard: 0

[Editor]
Bookmarks: 1431,21641,41852,49431,51957,62062,72168,74694,94904,99957,105010,115431
DistanceSpacing: 1.4
BeatDivisor: 4
GridSize: 16
TimelineZoom: 2.3

[Metadata]
Title:CHOCOLATE BOMB!!!!
TitleUnicode:トラック
Artist:YUC'e
ArtistUnicode:YUC'e
Creator:Arospity
Version:Extravagant
Source:
Tags:
BeatmapID:1866866
BeatmapSetID:893223

[Difficulty]
HPDrainRate:5
CircleSize:3.8
OverallDifficulty:9
ApproachRate:9.7
SliderMultiplier:2
SliderTickRate:1

[Events]
//Background and Video events
0,0,"bg1.jpg",0,0
//Break Periods
//Storyboard Layer 0 (Background)
//Storyboard Layer 1 (Fail)
//Storyboard Layer 2 (Pass)
//Storyboard Layer 3 (Foreground)
//Storyboard Sound Samples

[TimingPoints]
168,315.789473684211,4,2,1,100,1,0
1431,-133.333333333333,4,2,1,16,0,0
4431,-250,4,2,1,16,0,0
4589,-133.333333333333,4,2,1,16,0,0
9483,-250,4,2,1,16,0,0
9641,-133.333333333333,4,2,1,16,0,0
11536,-96.1538461538461,4,2,1,22,0,0
14536,-151.515151515152,4,2,1,22,0,0
14694,-96.1538461538461,4,2,1,22,0,0
15799,-151.515151515152,4,2,1,22,0,0
15957,-96.1538461538461,4,2,1,22,0,0
16589,-96.1538461538461,4,2,1,24,0,0
17220,-96.1538461538461,4,2,1,32,0,0
17378,-96.1538461538461,4,2,1,28,0,0
17852,-96.1538461538461,4,2,1,40,0,0
18010,-96.1538461538461,4,2,1,38,0,0
18483,-96.1538461538461,4,2,1,46,0,0
20536,-200,4,2,1,30,0,0
22589,-83.3333333333333,4,2,1,30,0,0
22904,-200,4,2,1,30,0,0
25115,-83.3333333333333,4,2,1,30,0,0
25431,-200,4,2,1,30,0,0
26378,-66.6666666666667,4,2,1,30,0,0
26694,-200,4,2,1,30,0,0
27641,-83.3333333333333,4,2,1,30,0,0
27957,-200,4,2,1,30,0,0
30168,-83.3333333333333,4,2,1,30,0,0
30483,-200,4,2,1,30,0,0
31115,-111.111111111111,4,2,1,45,0,0
31431,-83.3333333333333,4,2,1,30,0,0
31746,-96.1538461538461,4,2,1,33,0,0
32694,-75.187969924812,4,2,1,33,0,0
33168,-96.1538461538461,4,2,1,33,0,0
35220,-69.4444444444444,4,2,1,33,0,0
35536,-96.1538461538461,4,2,1,33,0,0
36483,-200,4,2,1,12,0,0
36799,-96.1538461538461,4,2,1,33,0,0
39325,-119.047619047619,4,2,1,41,0,0
39957,-87.719298245614,4,2,1,48,0,0
40589,-96.1538461538461,4,2,1,33,0,0
41062,-185.185185185185,4,2,1,33,0,0
41852,-113.636363636364,4,2,1,43,0,0
46904,-208.333333333335,4,2,1,35,0,0
47062,-83.3333333333333,4,2,1,35,0,0
47220,-172.413793103449,4,2,1,39,0,0
47378,-71.4285714285714,4,2,1,39,0,0
47536,-147.058823529412,4,2,1,43,0,0
47694,-62.5,4,2,1,43,0,0
47852,-128.205128205129,4,2,1,47,0,0
48010,-55.5555555555556,4,2,1,47,0,0
48168,-106.382978723404,4,2,1,51,0,0
48483,-87.719298245614,4,2,1,55,0,0
48799,-135.135135135135,4,2,1,35,0,0
49115,-66.2251655629139,4,2,1,45,0,0
49746,-66.2251655629139,4,2,1,35,0,0
50062,-66.2251655629139,4,2,1,25,0,0
50378,-66.2251655629139,4,2,1,15,0,0
50694,-66.2251655629139,4,2,1,5,0,0
51325,-49.7512437810945,4,2,1,57,0,0
51957,-43.1034482758621,4,2,1,51,0,0
52273,-89.2857142857143,4,2,1,51,0,0
52589,-43.1034482758621,4,2,1,51,0,0
52825,-65.359477124183,4,2,1,51,0,0
53062,-43.1034482758621,4,2,1,51,0,0
53220,-89.2857142857143,4,2,1,51,0,0
53852,-43.1034482758621,4,2,1,51,0,0
54089,-65.359477124183,4,2,1,51,0,0
54325,-43.1034482758621,4,2,1,51,0,0
54483,-89.2857142857143,4,2,1,51,0,0
54799,-60.2409638554217,4,2,1,51,0,0
55115,-43.1034482758621,4,2,1,51,0,0
55352,-65.359477124183,4,2,1,51,0,0
55589,-43.1034482758621,4,2,1,51,0,0
55746,-60.2409638554217,4,2,1,51,0,0
56378,-89.2857142857143,4,2,1,51,0,0
56694,-60.2409638554217,4,2,1,51,0,0
57010,-89.2857142857143,4,2,1,51,0,0
57325,-51.2820512820513,4,2,1,51,0,0
57641,-43.1034482758621,4,2,1,51,0,0
57878,-65.359477124183,4,2,1,51,0,0
58115,-43.1034482758621,4,2,1,51,0,0
58273,-89.2857142857143,4,2,1,51,0,0
58904,-43.1034482758621,4,2,1,51,0,0
59141,-65.359477124183,4,2,1,51,0,0
59378,-43.1034482758621,4,2,1,51,0,0
59536,-38.7596899224806,4,2,1,51,0,0
59694,-208.333333333333,4,2,1,51,0,0
59852,-38.7596899224806,4,2,1,51,0,0
60010,-208.333333333333,4,2,1,51,0,0
60168,-46.7289719626168,4,2,1,51,0,0
60799,-50,4,2,1,51,0,0
62378,-55.5555555555556,4,2,1,51,0,0
63168,-81.9672131147541,4,2,1,51,0,0
63325,-55.5555555555556,4,2,1,51,0,0
64273,-81.9672131147541,4,2,1,51,0,0
64589,-55.5555555555556,4,2,1,51,0,0
65536,-55.5555555555556,4,2,1,43,0,0
65694,-55.5555555555556,4,2,1,33,0,0
65852,-66.6666666666667,4,2,1,23,0,0
66641,-74.0740740740741,4,2,1,31,0,0
66799,-83.3333333333333,4,2,1,28,0,0
66957,-95.2380952380952,4,2,1,24,0,0
67431,-55.5555555555556,4,2,1,51,0,0
68221,-81.9672131147541,4,2,1,51,0,0
68378,-55.5555555555556,4,2,1,51,0,0
69641,-100,4,2,1,55,0,0
70273,-76.9230769230769,4,2,1,60,0,0
70904,-76.9230769230769,4,2,1,65,0,0
71615,-66.6666666666667,4,2,1,58,0,0
73431,-66.6666666666667,4,2,1,24,0,0
74694,-133.333333333333,4,2,1,24,0,0
77694,-250,4,2,1,24,0,0
77852,-133.333333333333,4,2,1,24,0,0
82746,-250,4,2,1,24,0,0
82904,-133.333333333333,4,2,1,24,0,0
84799,-96.1538461538461,4,2,1,22,0,0
87799,-151.515151515152,4,2,1,22,0,0
87957,-96.1538461538461,4,2,1,22,0,0
89062,-151.515151515152,4,2,1,22,0,0
89220,-96.1538461538461,4,2,1,22,0,0
89852,-96.1538461538461,4,2,1,24,0,0
90483,-96.1538461538461,4,2,1,32,0,0
90641,-96.1538461538461,4,2,1,28,0,0
91115,-96.1538461538461,4,2,1,40,0,0
91273,-96.1538461538461,4,2,1,38,0,0
91746,-96.1538461538461,4,2,1,46,0,0
96168,-80.6451612903226,4,2,1,51,0,0
97431,-69.4444444444444,4,2,1,56,0,0
98694,-60.9756097560976,4,2,1,61,0,0
99957,-57.4712643678161,4,2,1,61,0,0
101220,-49.0196078431373,4,2,1,61,0,0
101378,-96.1538461538461,4,2,1,61,0,0
101536,-49.0196078431373,4,2,1,61,0,0
101694,-96.1538461538461,4,2,1,61,0,0
102483,-185.185185185185,4,2,1,31,0,0
102799,-185.185185185185,4,2,1,21,0,0
103746,-74.6268656716418,4,2,1,21,0,0
104378,-74.6268656716418,4,2,1,41,0,0
105010,-48.780487804878,4,2,1,51,0,0
105720,-105.263157894737,4,2,1,46,0,0
105957,-48.780487804878,4,2,1,56,0,0
106431,-133.333333333333,4,2,1,41,0,0
106589,-42.5531914893617,4,2,1,56,0,0
106904,-57.1428571428571,4,2,1,46,0,0
107220,-74.6268656716418,4,2,1,46,0,0
108483,-48.780487804878,4,2,1,56,0,0
108799,-54.054054054054,4,2,1,51,0,0
109589,-48.780487804878,4,2,1,56,0,0
110062,-285.714285714286,4,2,1,25,0,0
110378,-54.054054054054,4,2,1,56,0,0
110931,-285.714285714286,4,2,1,56,0,0
111168,-80,4,2,1,56,0,0
111957,-48.780487804878,4,2,1,56,0,0
112589,-42.5531914893617,4,2,1,56,0,0
113220,-37.7358490566038,4,2,1,56,0,0
113852,-48.780487804878,4,2,1,56,0,0
115431,-54.9450549450549,4,2,1,47,0,0
117641,-61.7283950617284,4,2,1,47,0,0
119220,-89.2857142857143,4,2,1,37,0,0
119852,-89.2857142857143,4,2,1,44,0,0
120483,-54.9450549450549,4,2,1,47,0,0
122694,-65.7894736842105,4,2,1,47,0,0
123325,-54.9450549450549,4,2,1,53,0,0
123957,-47.1698113207547,4,2,1,56,0,0
124983,-52.0833333333333,4,2,1,56,0,0

[HitObjects]
289,33,1431,6,0,B|268:111|329:141|280:202,1,150.000005722046,0|0,0:0|3:0,3:0:0:0:
309,87,2062,1,10,0:0:0:0:
411,262,2536,6,0,B|330:284|330:284|217:277,1,187.500007152558,0|0,0:0|3:0,0:0:0:0:
125,178,3010,2,0,B|146:243|146:243|140:282|140:282|149:343,1,150.000005722046,0|10,0:0|0:0,3:0:0:0:
214,169,3641,2,0,P|266:143|368:158,1,150.000005722046,0|0,0:0|0:0,0:0:0:0:
219,179,4273,1,0,0:0:0:0:
80,182,4431,6,0,L|83:216,1,20,0|0,0:0|0:0,0:0:0:0:
97,251,4589,6,0,P|114:208|152:166,1,75.0000028610231,10|0,0:0|3:0,0:0:0:0:
330,169,4825,2,0,P|267:180|226:167,1,75.0000028610231,0|0,0:0|3:0,0:0:0:0:
161,49,5062,2,0,B|163:79|163:79|175:112,1,37.5000014305115,0|0,0:0|0:0,0:0:0:0:
220,48,5220,6,0,P|188:85|183:120,1,75.0000028610231,0|0,0:0|3:0,0:0:0:0:
160,286,5457,2,0,P|160:238|146:203,1,75.0000028610231,0|0,0:0|0:0,0:0:0:0:
50,141,5694,2,0,B|76:148|76:148|105:145,1,37.5000014305115,0|0,0:0|0:0,0:0:0:0:
130,104,5852,6,0,B|102:167|144:202|101:281,1,150.000005722046,10|0,0:0|0:0,0:0:0:0:
161,176,6483,1,0,0:0:0:0:
314,264,6799,6,0,B|297:201|343:163|298:85,1,150.000005722046,0|10,0:0|0:0,0:0:0:0:
286,177,7431,1,0,0:0:0:0:
460,254,7589,6,0,B|465:214|459:162,1,75.0000028610231,0|0,0:0|0:0,0:0:0:0:
376,46,7904,2,0,B|371:82|376:123,1,75.0000028610231,0|0,0:0|0:0,0:0:0:0:
390,45,8378,1,10,0:0:0:0:
221,185,8536,6,0,P|270:210|306:216,1,75.0000028610231,0|0,0:0|0:0,0:0:0:0:
441,242,8852,6,0,P|407:261|369:271,1,75.0000028610231,0|0,0:0|0:0,0:0:0:0:
446,236,9325,1,0,0:0:0:0:
350,180,9483,6,0,L|343:142,1,20,0|0,0:0|0:0,0:0:0:0:
323,97,9641,6,0,P|321:167|304:200,1,75.0000028610231,10|0,0:0|3:0,0:0:0:0:
169,253,9878,2,0,P|220:229|253:233,1,75.0000028610231,0|0,0:0|3:0,0:0:0:0:
336,325,10115,2,0,B|340:304|340:304|342:281,1,37.5000014305115,0|0,0:0|0:0,0:0:0:0:
316,338,10273,6,0,P|310:278|315:250,1,75.0000028610231,0|0,0:0|3:0,0:0:0:0:
362,110,10510,2,0,P|366:148|358:187,1,75.0000028610231,0|0,0:0|3:0,0:0:0:0:
231,184,10746,2,0,B|257:177|257:177|273:176,1,37.5000014305115,0|0,0:0|0:0,0:0:0:0:
284,181,10904,6,0,B|221:204|187:174|123:199,1,150.000005722046,10|0,0:0|0:0,0:0:0:0:
137,326,11378,1,0,0:0:0:0:
137,326,11457,1,0,0:0:0:0:
137,326,11536,5,4,1:0:0:0:
323,290,11694,1,0,0:0:0:0:
229,134,11852,2,0,P|229:222|249:263,1,103.999999365234,0|0,0:0|0:0,0:0:0:0:
406,196,12168,2,0,P|332:171|303:182,1,103.999999365234,2|0,2:0|0:0,0:0:0:0:
312,318,12483,1,0,0:0:0:0:
312,318,12562,1,0,0:0:0:0:
312,318,12641,2,0,P|313:276|304:245,1,51.9999996826172,0|0,0:0|0:0,0:0:0:0:
208,204,12799,6,0,P|199:296|212:353,1,103.999999365234,8|0,0:0|0:0,0:0:0:0:
327,352,13115,2,0,B|259:328|196:372|101:335,1,207.999998730469,0|2,0:0|0:0,0:0:0:0:
98,128,13589,5,0,0:0:0:0:
124,306,13746,1,0,0:0:0:0:
174,171,13904,1,0,0:0:0:0:
37,310,14062,6,0,B|31:264|31:264|39:184,1,103.999999365234,8|0,0:0|0:0,0:0:0:0:
36,206,14299,1,0,0:0:0:0:
36,206,14378,1,0,0:0:0:0:
171,121,14536,2,0,L|181:159,1,32.999999899292,0|0,0:0|0:0,0:0:0:0:
163,188,14694,6,0,P|219:161|301:164,1,103.999999365234,10|0,0:0|3:0,0:0:0:0:
422,282,14931,2,0,P|349:236|337:196,1,103.999999365234,0|0,0:0|3:0,0:0:0:0:
366,108,15168,2,0,B|364:78|364:78|370:53,1,51.9999996826172,0|0,0:0|0:0,0:0:0:0:
360,30,15325,6,0,P|355:116|340:162,1,103.999999365234,10|0,0:0|0:0,0:0:0:0:
244,246,15562,2,0,P|242:207|258:166,2,51.9999996826172,0|0|0,0:0|0:0|0:0,0:0:0:0:
253,328,15799,2,0,P|220:324|202:332,1,32.999999899292,0|0,0:0|0:0,0:0:0:0:
192,334,15957,6,0,B|286:342|286:342|329:332|329:332|415:340,1,207.999998730469,10|0,0:0|0:0,0:0:0:0:
286,311,16431,1,0,0:0:0:0:
286,311,16510,1,0,0:0:0:0:
286,311,16589,5,4,1:1:0:0:
244,147,16746,1,2,0:0:0:0:
264,336,16904,1,2,0:0:0:0:
295,123,17062,1,2,0:0:0:0:
392,260,17220,5,4,1:1:0:0:
133,230,17378,1,2,0:0:0:0:
415,176,17536,1,2,0:0:0:0:
149,319,17694,1,2,0:0:0:0:
256,87,17852,5,4,1:1:0:0:
319,294,18010,1,2,0:0:0:0:
249,75,18168,1,2,0:0:0:0:
171,325,18325,1,2,0:0:0:0:
385,212,18483,5,4,1:1:0:0:
77,104,18641,1,2,0:0:0:0:
129,354,18799,1,2,0:0:0:0:
297,109,18957,1,2,0:0:0:0:
56,255,19115,5,12,0:1:0:0:
99,286,19194,1,8,0:0:0:0:
152,280,19273,1,8,0:0:0:0:
185,239,19352,1,8,0:0:0:0:
223,215,19431,1,8,0:0:0:0:
273,196,19510,1,8,0:0:0:0:
328,198,19589,1,8,0:0:0:0:
377,220,19668,1,8,0:0:0:0:
398,267,19746,5,8,0:0:0:0:
401,319,19825,1,8,0:0:0:0:
365,357,19904,1,8,0:0:0:0:
313,368,19983,1,8,0:0:0:0:
274,344,20062,1,8,0:0:0:0:
242,300,20141,1,8,0:0:0:0:
237,246,20220,1,8,0:0:0:0:
260,197,20299,1,8,0:0:0:0:
259,145,20378,1,8,0:0:0:0:
139,43,20536,5,8,0:0:0:0:
139,43,20615,1,8,0:0:0:0:
139,43,20694,1,8,0:0:0:0:
104,167,20852,1,8,0:0:0:0:
238,87,21010,5,8,0:0:0:0:
231,112,21089,1,8,0:0:0:0:
229,138,21168,1,8,0:0:0:0:
229,164,21246,1,8,0:0:0:0:
232,190,21325,1,8,0:0:0:0:
237,216,21404,1,8,0:0:0:0:
239,242,21483,1,8,0:0:0:0:
237,268,21562,1,8,0:0:0:0:
231,293,21641,6,0,B|147:343|94:290|21:323,1,200,2|0,0:0|0:0,0:0:0:0:
157,236,22589,2,0,B|156:192|156:192|143:153|143:153|164:62,1,119.999996337891,8|0,0:0|0:0,0:0:0:0:
344,135,22904,6,0,P|291:155|236:145,1,100,2|2,0:0|0:0,0:0:0:0:
227,150,23536,2,0,P|282:159|307:204,1,100,2|0,0:0|0:0,0:0:0:0:
312,237,24168,6,0,B|288:147|351:102|301:24,1,200,8|2,0:0|0:0,0:0:0:0:
114,114,24957,1,0,0:0:0:0:
114,114,25036,1,0,0:0:0:0:
114,114,25115,2,0,B|149:99|149:99|205:116|205:116|239:104,1,119.999996337891,0|0,0:0|0:0,0:0:0:0:
362,56,25431,6,0,P|356:118|357:122,1,50,0|0,0:0|0:0,0:0:0:0:
354,107,25668,1,0,0:0:0:0:
354,107,25746,1,0,0:0:0:0:
480,55,25904,1,0,0:0:0:0:
414,220,26062,2,0,P|360:202|321:204,1,75,0|0,0:0|0:0,0:0:0:0:
325,203,26378,6,0,B|343:193|343:193|379:190|379:190|414:203|414:203|443:229|443:229|458:262|458:262|459:297|459:297|447:334|447:334|431:349,1,225.000008583069,8|0,0:1|0:0,0:0:0:0:
164,258,26694,6,0,B|232:246|317:314|378:269,1,200,2|8,0:0|0:0,0:0:0:0:
164,258,27641,2,0,B|233:273|233:273|331:260,1,119.999996337891,0|0,0:0|0:0,0:0:0:0:
215,69,27957,6,0,P|206:136|216:183,1,100,2|2,0:0|0:0,0:0:0:0:
407,119,28589,2,0,B|362:136|335:105|281:122,1,125,2|0,0:0|0:0,0:0:0:0:
143,148,29220,2,0,P|224:192|282:105,1,200,8|2,0:0|0:0,0:0:0:0:
75,35,30010,1,0,0:0:0:0:
75,35,30089,1,0,0:0:0:0:
75,35,30168,6,0,B|59:78|59:78|60:120|60:120|45:180,1,119.999996337891,0|0,0:0|0:0,0:0:0:0:
76,316,30483,6,0,P|114:283|144:269,1,75,2|0,0:0|0:0,0:0:0:0:
276,286,30799,2,0,P|246:291|219:284,1,50,2|0,0:0|0:0,0:0:0:0:
303,56,31115,6,0,P|314:131|306:200,1,134.999995880127,2|0,0:0|0:0,0:0:0:0:
304,39,31431,2,0,B|299:100|299:100|322:154|322:154|309:229,1,179.999994506836,8|0,0:1|0:0,0:0:0:0:
156,357,31746,6,0,P|232:349|273:353,1,103.999999365234,2|8,0:0|0:0,0:0:0:0:
259,351,31983,1,8,0:0:0:0:
259,351,32062,1,8,0:0:0:0:
158,267,32220,1,0,0:0:0:0:
158,267,32299,1,0,0:0:0:0:
158,267,32378,6,0,P|140:202|144:156,1,103.999999365234,0|8,0:0|0:0,0:0:0:0:
398,72,32694,6,0,B|375:71|350:96|350:96|327:100|327:100|284:90|261:107,1,132.999994520569,8|2,0:0|0:0,0:0:0:0:
273,100,32931,1,0,0:0:0:0:
273,100,33010,1,2,0:0:0:0:
235,326,33168,5,0,0:0:0:0:
337,176,33325,2,0,B|350:231|326:255|340:312,1,103.999999365234,2|0,0:0|0:0,0:0:0:0:
351,316,33641,5,2,0:0:0:0:
205,253,33799,1,8,0:0:0:0:
335,225,33957,1,8,0:0:0:0:
184,351,34115,1,2,0:0:0:0:
233,128,34273,5,8,0:1:0:0:
233,128,34352,1,0,0:0:0:0:
233,128,34431,2,0,P|245:205|240:260,1,103.999999365234,8|8,0:0|0:0,0:0:0:0:
349,340,34746,5,0,0:0:0:0:
349,340,34825,1,0,0:0:0:0:
349,340,34904,2,0,P|338:287|339:233,1,103.999999365234,2|0,0:0|0:0,0:0:0:0:
469,137,35220,6,0,B|410:135|410:135|371:118|371:118|317:112,1,144.000003515625,2|0,0:0|0:0,0:0:0:0:
177,251,35536,6,0,P|178:176|172:136,1,103.999999365234,8|8,0:0|0:0,0:0:0:0:
39,87,35852,1,8,0:0:0:0:
42,113,35931,1,8,0:0:0:0:
36,140,36010,1,8,0:0:0:0:
44,166,36089,1,8,0:0:0:0:
36,195,36168,1,8,0:0:0:0:
26,222,36246,1,0,0:0:0:0:
46,249,36325,1,0,0:0:0:0:
6,301,36404,1,0,0:0:0:0:
83,355,36483,6,0,P|125:335|165:334,1,75,2|0,0:0|0:0,0:0:0:0:
212,316,36799,6,0,P|134:323|91:301,1,103.999999365234,2|0,0:0|0:0,0:0:0:0:
111,314,37036,1,0,0:0:0:0:
111,314,37115,1,0,0:0:0:0:
188,87,37273,5,0,0:0:0:0:
188,87,37352,1,0,0:0:0:0:
188,87,37431,2,0,L|181:198,1,103.999999365234,8|0,0:0|0:0,0:0:0:0:
119,257,37746,1,0,0:0:0:0:
293,202,37904,1,0,0:0:0:0:
217,335,38062,6,0,P|283:293|346:297,1,103.999999365234,2|0,0:0|0:0,0:0:0:0:
306,290,38299,1,0,0:0:0:0:
306,290,38378,1,2,0:0:0:0:
481,241,38536,5,0,0:0:0:0:
481,241,38615,1,0,0:0:0:0:
481,241,38694,2,0,P|392:244|375:238,1,103.999999365234,2|0,0:0|0:0,0:0:0:0:
434,33,39010,6,0,B|435:79|435:79|440:92|440:92|442:151,1,103.999999365234,0|0,0:0|0:0,0:0:0:0:
315,261,39325,5,8,0:0:0:0:
341,229,39404,1,0,0:0:0:0:
381,218,39483,1,0,0:0:0:0:
420,232,39562,1,0,0:0:0:0:
445,265,39641,1,0,0:0:0:0:
447,306,39720,1,0,0:0:0:0:
425,341,39799,1,0,0:0:0:0:
387,358,39878,1,0,0:0:0:0:
347,351,39957,5,8,0:0:0:0:
317,310,40036,1,0,0:0:0:0:
325,258,40115,1,0,0:0:0:0:
364,222,40194,1,0,0:0:0:0:
397,171,40273,1,0,0:0:0:0:
404,115,40352,1,0,0:0:0:0:
373,69,40431,1,0,0:0:0:0:
320,53,40510,1,0,0:0:0:0:
271,71,40589,5,2,0:2:0:0:
205,218,40746,2,0,B|190:248|198:281|198:282,2,51.9999996826172,8|8|8,0:0|0:0|0:0,0:0:0:0:
295,169,41062,6,0,L|297:211,1,27.0000006591797,8|8,0:0|0:0,0:0:0:0:
280,235,41220,5,8,0:0:0:0:
296,213,41299,1,8,0:0:0:0:
318,199,41378,1,8,0:0:0:0:
345,194,41457,1,8,0:0:0:0:
371,200,41536,1,8,0:0:0:0:
394,214,41615,1,8,0:0:0:0:
409,236,41694,1,8,0:0:0:0:
416,262,41773,1,8,0:0:0:0:
413,292,41852,5,2,0:0:0:0:
413,248,41931,1,0,0:0:0:0:
414,204,42010,1,0,0:0:0:0:
414,160,42089,1,0,0:0:0:0:
415,115,42168,2,0,L|418:37,2,44.0000013427735,0|0|0,0:0|0:0|0:0,0:0:0:0:
207,38,42483,5,2,0:0:0:0:
207,82,42562,1,0,0:0:0:0:
208,126,42641,1,0,0:0:0:0:
208,170,42720,1,0,0:0:0:0:
209,215,42799,2,0,L|211:293,2,44.0000013427735,10|0|0,0:0|0:0|0:0,0:0:0:0:
470,337,43115,5,2,0:0:0:0:
456,295,43194,1,0,0:0:0:0:
450,251,43273,1,0,0:0:0:0:
452,207,43352,1,0,0:0:0:0:
460,164,43431,2,0,P|469:124|478:109,2,44.0000013427735,0|0|0,0:0|0:0|0:0,0:0:0:0:
315,293,43746,5,2,0:0:0:0:
272,281,43825,1,0,0:0:0:0:
228,277,43904,1,0,0:0:0:0:
185,282,43983,1,0,0:0:0:0:
143,295,44062,2,0,P|95:315|89:321,2,44.0000013427735,10|0|0,0:0|0:0|0:0,0:0:0:0:
367,176,44378,5,2,0:0:0:0:
323,184,44457,1,0,0:0:0:0:
280,185,44536,1,0,0:0:0:0:
236,179,44615,1,0,0:0:0:0:
195,164,44694,2,0,P|147:136|140:128,2,44.0000013427735,0|0|0,0:0|0:0|0:0,0:0:0:0:
30,40,45010,5,2,0:0:0:0:
35,83,45089,1,0,0:0:0:0:
37,127,45168,1,0,0:0:0:0:
37,171,45246,1,0,0:0:0:0:
35,215,45325,2,0,P|28:268|26:274,2,44.0000013427735,10|0|0,0:0|0:0|0:0,0:0:0:0:
211,352,45641,5,2,0:0:0:0:
205,308,45720,1,0,0:0:0:0:
203,264,45799,1,0,0:0:0:0:
205,220,45878,1,0,0:0:0:0:
208,176,45957,2,0,P|220:118|223:113,2,44.0000013427735,0|0|0,0:0|0:0|0:0,0:0:0:0:
401,35,46273,5,2,0:0:0:0:
406,78,46352,1,0,0:0:0:0:
410,122,46431,1,0,0:0:0:0:
412,166,46510,1,0,0:0:0:0:
415,215,46589,2,0,P|410:271|407:279,2,44.0000013427735,10|0|0,0:0|0:0|0:0,0:0:0:0:
162,228,46904,6,0,P|197:220|201:220,1,24.0000005859375,2|0,0:0|0:0,0:0:0:0:
186,223,47062,2,0,P|101:232|81:228,1,59.9999981689454,0|0,0:0|0:0,0:0:0:0:
274,143,47220,6,0,P|280:165|279:182,1,29.0000008850098,2|0,0:0|0:0,0:0:0:0:
281,172,47378,2,0,P|250:99|251:90,1,69.9999978637696,0|0,0:0|0:0,0:0:0:0:
376,240,47536,6,0,P|348:251|317:250,1,34.0000002075195,2|0,0:0|0:0,0:0:0:0:
347,255,47694,2,0,P|435:250|454:255,1,80,0|0,0:0|0:0,0:0:0:0:
242,304,47852,6,0,P|238:259|242:245,1,39.0000013092042,2|0,0:0|0:0,0:0:0:0:
237,265,48010,2,0,P|243:362|241:366,1,89.9999972534181,0|0,0:0|0:0,0:0:0:0:
129,151,48168,6,0,P|125:224|128:231,1,46.9999992828369,2|0,0:0|0:0,0:0:0:0:
240,343,48325,6,0,B|241:313|241:313|240:276,1,46.9999992828369,2|0,0:0|0:0,0:0:0:0:
348,127,48483,6,0,P|353:179|350:207,1,56.9999993041992,2|0,0:0|0:0,0:0:0:0:
253,332,48641,6,0,B|250:300|250:300|253:264,1,56.9999993041992,2|0,0:0|0:0,0:0:0:0:
157,93,48799,5,8,0:2:0:0:
190,108,48878,1,8,0:2:0:0:
226,114,48957,1,8,0:2:0:0:
263,109,49036,1,8,0:2:0:0:
288,85,49115,5,8,0:2:0:0:
352,52,49194,1,8,0:2:0:0:
417,85,49273,1,8,0:2:0:0:
426,157,49352,1,8,0:2:0:0:
377,214,49431,5,12,0:3:0:0:
244,290,49536,1,4,0:3:0:0:
376,366,49641,1,4,0:3:0:0:
353,248,49746,5,4,0:3:0:0:
286,286,49852,1,4,0:3:0:0:
352,324,49957,1,4,0:3:0:0:
341,267,50062,5,4,0:3:0:0:
307,286,50168,1,4,0:3:0:0:
340,305,50273,1,4,0:3:0:0:
341,288,50378,5,4,0:3:0:0:
341,288,50483,1,4,0:3:0:0:
341,288,50589,1,4,0:3:0:0:
341,288,50694,5,8,0:2:0:0:
341,288,51010,5,8,0:2:0:0:
236,116,51325,6,0,L|246:272,1,100.500000383377,8|0,0:0|0:0,0:0:0:0:
145,304,51483,2,0,L|158:176,1,100.500000383377,8|0,0:0|0:0,0:0:0:0:
69,61,51641,1,8,0:0:0:0:
68,111,51720,1,0,0:0:0:0:
68,161,51799,1,8,0:0:0:0:
68,211,51878,1,8,0:0:0:0:
68,261,51957,6,0,B|181:229|193:329|317:284,1,232.000007080078,2|0,0:2|0:0,0:0:0:0:
315,297,52273,6,0,P|242:296|194:308,1,112.000001367188,4|0,0:3|0:0,0:0:0:0:
298,118,52589,6,0,B|303:91|291:45|235:45|198:57|180:89|173:137|193:162|201:182,1,232.000007080078,2|0,0:0|0:0,0:0:0:0:
145,262,52825,6,0,P|157:155|152:102,1,153.000006887055,2|0,0:0|0:0,0:0:0:0:
44,205,53062,2,0,P|32:98|37:69,1,116.000003540039,2|0,0:0|0:0,0:0:0:0:
105,24,53220,6,0,B|118:75|100:101|111:139,1,112.000001367188,2|0,0:0|0:0,0:0:0:0:
213,271,53536,5,8,0:0:0:0:
236,200,53615,1,8,0:0:0:0:
342,260,53694,5,8,0:0:0:0:
320,189,53773,1,8,0:0:0:0:
203,106,53852,6,0,B|289:153|359:55|441:109,1,232.000007080078,2|0,0:2|0:0,0:0:0:0:
479,362,54089,2,0,B|464:293|464:293|468:189,1,153.000006887055,2|0,0:0|0:0,0:0:0:0:
477,194,54325,2,0,P|481:225|479:258,2,58.0000017700196,2|0|0,0:0|0:0|0:0,0:0:0:0:
360,216,54483,6,0,B|323:227|293:198|249:212,1,112.000001367188,2|0,0:0|0:0,0:0:0:0:
156,339,54799,6,0,B|150:296|150:296|154:224,1,83.0000012031555,8|0,0:2|0:0,0:0:0:0:
63,276,54957,6,0,B|69:233|69:233|67:194,1,83.0000012031555,8|0,0:2|0:0,0:0:0:0:
136,55,55115,6,0,B|187:120|261:121|293:92|320:51|271:32|190:64,1,232.000007080078,2|0,0:2|0:0,0:0:0:0:
316,170,55352,2,0,B|320:213|320:213|305:266|305:266|305:321,1,153.000006887055,2|0,0:0|0:0,0:0:0:0:
425,348,55589,2,0,B|423:306|423:306|410:278|410:278|414:235,1,116.000003540039,2|0,0:0|0:0,0:0:0:0:
418,58,55746,6,0,P|413:145|414:152,1,83.0000012031555,2|0,0:0|0:0,0:0:0:0:
412,140,55904,1,8,0:0:0:0:
412,140,55983,1,8,0:0:0:0:
313,297,56062,6,0,P|324:199|321:171,1,83.0000012031555,2|0,0:0|0:0,0:0:0:0:
209,229,56220,2,0,P|200:189|198:148,1,83.0000012031555,2|0,0:0|0:0,0:0:0:0:
244,63,56378,6,0,P|244:18|243:14,2,28.0000003417969,8|0|8,0:0|0:0|0:0,0:0:0:0:
139,52,56536,6,0,P|139:65|141:79,2,28.0000003417969,8|0|0,0:0|0:0|0:0,0:0:0:0:
40,93,56694,6,0,P|35:213|43:245,1,83.0000012031555,2|0,0:0|0:0,0:0:0:0:
121,175,56852,2,0,P|121:291|119:299,1,83.0000012031555,2|0,0:0|0:0,0:0:0:0:
31,356,57010,6,0,B|129:314|162:387|241:326,1,168.000002050781,2|0,0:2|0:0,0:0:0:0:
196,349,57325,6,0,P|197:241|252:268,1,195.000000743866,8|8,0:1|0:0,0:0:0:0:
482,262,57641,6,0,B|438:281|402:343|402:343|378:284|315:239,1,232.000007080078,2|0,0:0|0:0,0:0:0:0:
357,84,57878,2,0,P|394:198|390:244,1,153.000006887055,2|0,0:0|0:0,0:0:0:0:
467,147,58115,2,0,P|461:83|476:21,1,116.000003540039,2|0,0:0|0:0,0:0:0:0:
371,30,58273,6,0,B|328:48|286:19|251:37,1,112.000001367188,2|0,0:0|0:0,0:0:0:0:
191,146,58589,6,0,P|195:128|194:112,6,28.0000003417969,8|0|8|0|8|0|8,0:0|0:0|0:0|0:0|0:0|0:0|0:0,0:0:0:0:
187,100,58904,6,0,B|142:195|214:235|150:335,1,232.000007080078,2|0,0:0|0:0,0:0:0:0:
246,319,59141,2,0,P|335:279|406:296,1,153.000006887055,2|0,0:0|0:0,0:0:0:0:
473,254,59378,2,0,P|468:289|480:317,2,58.0000017700196,2|0|0,0:0|0:0|0:0,0:0:0:0:
406,48,59536,6,0,L|397:229,1,129.000001968384,2|0,0:0|0:0,0:0:0:0:
294,179,59694,2,0,L|265:184,1,24.0000005859375,2|2,0:0|0:0,0:0:0:0:
161,186,59852,6,0,P|156:320|160:333,1,129.000001968384,0|0,0:0|0:0,0:0:0:0:
260,352,60010,2,0,L|305:357,1,24.0000005859375,2|2,0:0|0:0,0:0:0:0:
397,322,60168,6,0,P|417:264|374:111,1,213.999993469238,2|0,0:0|0:0,0:0:0:0:
155,88,60404,2,0,P|269:112|277:108,1,106.999996734619,2|0,0:0|0:0,0:0:0:0:
321,68,60562,1,0,0:0:0:0:
365,43,60641,1,2,0:0:0:0:
408,50,60720,1,0,0:0:0:0:
409,279,60799,6,0,B|400:224|400:224|413:120,1,100,8|8,0:0|0:0,0:0:0:0:
405,180,60957,1,8,0:0:0:0:
405,180,61036,1,0,0:0:0:0:
300,242,61115,2,0,B|313:295|313:295|297:341,1,100,8|8,0:0|0:0,0:0:0:0:
298,337,61273,1,8,0:0:0:0:
298,337,61352,1,0,0:0:0:0:
125,346,61431,5,8,0:0:0:0:
132,328,61510,1,8,0:0:0:0:
150,301,61589,1,8,0:0:0:0:
186,277,61668,1,8,0:0:0:0:
214,248,61746,1,8,0:0:0:0:
219,197,61825,1,8,0:0:0:0:
194,140,61904,1,8,0:0:0:0:
134,89,61983,1,8,0:0:0:0:
48,100,62062,5,8,0:1:0:0:
72,352,62378,5,2,0:0:0:0:
72,352,62457,1,0,0:0:0:0:
72,352,62536,2,0,B|63:304|63:304|71:244,1,89.9999972534181,0|0,0:0|0:0,0:0:0:0:
141,100,62694,2,0,B|143:162|143:162|171:206|171:206|171:284,1,179.999994506836,2|0,0:0|0:0,0:0:0:0:
63,164,63010,1,2,0:0:0:0:
281,165,63168,2,0,P|346:149|354:149,1,60.9999974868775,8|8,0:0|0:0,0:0:0:0:
369,138,63325,6,0,P|260:125|251:119,1,89.9999972534181,2|0,0:0|0:0,0:0:0:0:
176,96,63483,2,0,P|184:116|187:139,2,44.999998626709,2|0|0,0:0|0:0|0:0,0:0:0:0:
153,342,63641,2,0,L|169:226,1,89.9999972534181,0|0,0:0|0:0,0:0:0:0:
245,211,63799,2,0,L|257:300,1,89.9999972534181,0|0,0:0|0:0,0:0:0:0:
356,357,63957,2,0,B|370:317|362:283|362:283|387:243|387:243|376:211|396:160,1,179.999994506836,2|0,0:0|0:0,0:0:0:0:
476,76,64273,2,0,P|414:87|342:72,1,121.999994973755,8|2,0:0|0:0,0:0:0:0:
164,45,64589,6,0,P|175:139|173:154,1,89.9999972534181,2|0,0:0|0:0,0:0:0:0:
100,202,64746,2,0,P|83:217|70:235,2,44.999998626709,0|0|0,0:0|0:0|0:0,0:0:0:0:
274,258,64904,2,0,P|187:211|180:198,1,89.9999972534181,0|0,0:0|0:0,0:0:0:0:
374,146,65062,2,0,B|345:217|418:246|354:337,1,179.999994506836,2|0,0:0|0:0,0:0:0:0:
278,166,65378,1,0,0:0:0:0:
445,84,65536,5,8,0:0:0:0:
423,211,65694,1,8,0:0:0:0:
397,111,65852,1,8,0:0:0:0:
475,290,66010,1,8,0:0:0:0:
475,290,66089,1,8,0:0:0:0:
475,290,66168,2,0,P|379:315|310:301,1,150.000005722046,8|8,0:0|0:0,0:0:0:0:
216,175,66483,6,0,P|215:221|226:262,1,75.0000028610231,8|0,0:0|0:0,0:0:0:0:
143,348,66641,2,0,P|152:306|142:257,1,67.5000002574921,8|0,0:0|0:0,0:0:0:0:
69,182,66799,2,0,P|67:226|77:256,1,59.9999981689454,8|0,0:0|0:0,0:0:0:0:
34,362,66957,2,0,L|34:306,1,52.4999983978272,8|0,0:0|0:0,0:0:0:0:
34,309,67115,5,8,0:1:0:0:
34,309,67194,1,0,0:0:0:0:
187,68,67431,5,2,0:0:0:0:
187,68,67510,1,0,0:0:0:0:
187,68,67589,2,0,P|175:160|198:226,1,89.9999972534181,0|0,0:0|0:0,0:0:0:0:
254,295,67746,2,0,B|257:243|257:243|288:188|288:188|284:98,1,179.999994506836,2|0,0:0|0:0,0:0:0:0:
171,238,68062,1,2,0:0:0:0:
381,276,68220,6,0,P|355:272|334:273,2,44.999998626709,8|0|8,0:0|0:0|0:0,0:0:0:0:
401,294,68378,6,0,P|380:221|389:175,1,89.9999972534181,2|0,0:0|0:0,0:0:0:0:
405,85,68536,2,0,P|406:112|401:142,2,44.999998626709,2|0|0,0:0|0:0|0:0,0:0:0:0:
178,51,68694,2,0,L|286:59,1,89.9999972534181,0|0,0:0|0:0,0:0:0:0:
323,129,68852,2,0,L|211:146,1,89.9999972534181,0|0,0:0|0:0,0:0:0:0:
110,241,69010,2,0,P|225:259|205:317,1,179.999994506836,2|0,0:0|0:0,0:0:0:0:
237,341,69325,2,0,P|242:230|260:164,1,179.999994506836,8|2,0:0|0:0,0:0:0:0:
472,106,69641,5,2,0:0:0:0:
433,136,69719,1,0,0:0:0:0:
384,141,69798,1,2,0:0:0:0:
340,118,69877,1,0,0:0:0:0:
316,75,69956,1,0,0:0:0:0:
296,55,70036,1,0,0:0:0:0:
279,47,70115,1,2,0:0:0:0:
261,46,70194,1,0,0:0:0:0:
238,47,70273,5,2,0:0:0:0:
194,94,70351,1,0,0:0:0:0:
176,156,70430,1,0,0:0:0:0:
186,220,70509,1,0,0:0:0:0:
223,273,70588,1,2,0:0:0:0:
235,297,70668,1,0,0:0:0:0:
238,316,70746,1,2,0:0:0:0:
237,334,70825,1,0,0:0:0:0:
228,349,70904,5,2,0:0:0:0:
101,228,71062,2,0,L|96:164,1,64.9999970245363,2|2,0:0|0:0,0:0:0:0:
96,164,71220,1,2,0:0:0:0:
278,63,71378,1,2,0:0:0:0:
285,75,71457,1,2,0:0:0:0:
289,87,71536,1,2,0:0:0:0:
290,100,71615,1,2,0:0:0:0:
287,115,71694,1,2,0:0:0:0:
274,135,71773,5,2,0:0:0:0:
244,179,71851,1,2,0:0:0:0:
238,244,71930,1,2,0:0:0:0:
277,306,72009,1,2,0:0:0:0:
359,318,72088,1,2,0:0:0:0:
427,249,72167,5,4,0:0:0:0:
243,90,73431,5,2,0:0:0:0:
173,275,74062,5,2,0:0:0:0:
264,238,75010,6,0,L|417:233,1,150.000005722046,0|10,0:0|0:0,0:0:0:0:
140,149,75957,2,0,P|121:202|253:160,1,300.000011444092,0|10,0:0|0:0,0:0:0:0:
260,175,77220,1,0,0:0:0:0:
239,315,77694,1,0,0:0:0:0:
239,315,77773,1,0,0:0:0:0:
239,315,77852,6,0,P|289:340|311:342,1,75.0000028610231,10|0,0:0|3:0,0:0:0:0:
492,268,78089,2,0,P|446:304|368:301,1,112.500004291535,0|0,0:0|0:0,0:0:0:0:
240,119,78483,5,0,0:0:0:0:
265,235,78720,1,0,0:0:0:0:
143,209,78957,1,0,0:0:0:0:
292,45,79115,6,0,L|293:224,1,150.000005722046,10|0,0:0|0:0,0:0:0:0:
354,339,80062,6,0,P|363:280|450:249,1,150.000005722046,0|10,0:0|0:0,0:0:0:0:
230,156,81010,2,0,P|237:80|370:160,1,300.000011444092,0|10,0:0|0:0,0:0:0:0:
375,146,82273,1,0,0:0:0:0:
214,326,82746,1,0,0:0:0:0:
214,326,82825,1,0,0:0:0:0:
214,326,82904,6,0,P|193:276|190:244,1,75.0000028610231,10|0,0:0|3:0,0:0:0:0:
294,257,83141,2,0,P|309:211|296:134,1,112.500004291535,0|0,0:0|0:0,0:0:0:0:
101,58,83536,5,0,0:0:0:0:
50,173,83773,1,0,0:0:0:0:
168,168,84010,1,0,0:0:0:0:
16,80,84168,6,0,B|16:233,1,150.000005722046,10|0,0:0|0:0,0:0:0:0:
117,328,84641,1,0,0:0:0:0:
117,328,84720,1,0,0:0:0:0:
117,328,84799,5,4,1:0:0:0:
284,228,84957,1,0,0:0:0:0:
178,105,85115,2,0,B|177:193|177:193|192:226|192:226|192:301,1,155.999999047852,0|0,0:0|0:0,0:0:0:0:
212,364,85431,2,0,P|266:318|314:311,1,103.999999365234,2|0,2:0|0:0,0:0:0:0:
296,310,85668,1,0,0:0:0:0:
296,310,85746,1,0,0:0:0:0:
276,165,85904,1,0,0:0:0:0:
397,26,86062,6,0,P|412:89|410:98,1,51.9999996826172,8|0,0:0|0:0,0:0:0:0:
357,195,86220,2,0,P|377:142|385:137,1,51.9999996826172,0|0,0:0|0:0,0:0:0:0:
499,131,86378,2,0,P|454:148|431:142,1,51.9999996826172,0|0,0:0|0:0,0:0:0:0:
295,33,86536,2,0,P|306:98|305:109,1,51.9999996826172,0|0,0:0|0:0,0:0:0:0:
386,294,86694,2,0,P|438:254|446:253,1,51.9999996826172,2|0,0:0|0:0,0:0:0:0:
460,244,86852,6,0,P|371:253|343:246,1,103.999999365234,0|0,0:0|0:0,0:0:0:0:
234,201,87168,2,0,P|170:198|116:212,1,103.999999365234,0|8,0:0|0:0,0:0:0:0:
131,206,87404,1,0,0:0:0:0:
131,206,87483,1,0,0:0:0:0:
132,349,87641,1,0,0:0:0:0:
42,74,87799,6,0,L|54:114,1,32.999999899292,0|0,0:0|0:0,0:0:0:0:
71,158,87957,6,0,P|120:106|169:95,1,103.999999365234,10|0,0:0|3:0,0:0:0:0:
300,193,88194,2,0,P|235:196|190:174,1,103.999999365234,0|0,0:0|3:0,0:0:0:0:
257,31,88431,2,0,P|263:64|254:109,1,51.9999996826172,0|0,0:0|0:0,0:0:0:0:
257,113,88589,6,0,P|305:64|354:53,1,103.999999365234,10|0,0:0|0:0,0:0:0:0:
486,85,88825,1,0,0:0:0:0:
388,224,88983,1,0,0:0:0:0:
388,224,89062,2,0,P|372:203|370:175,1,32.999999899292,0|0,0:0|0:0,0:0:0:0:
346,146,89220,6,0,P|354:232|337:311,1,155.999999047852,10|0,0:0|0:0,0:0:0:0:
265,268,89536,2,0,P|273:215|266:159,1,103.999999365234,0|0,0:0|0:0,0:0:0:0:
73,110,89852,5,4,1:1:0:0:
172,140,90010,1,2,0:0:0:0:
206,27,90168,1,2,0:0:0:0:
256,180,90325,1,2,0:0:0:0:
346,73,90483,5,4,1:1:0:0:
319,268,90641,1,2,0:0:0:0:
461,150,90799,1,2,0:0:0:0:
366,351,90957,1,2,0:0:0:0:
93,302,91115,5,4,1:1:0:0:
268,315,91273,1,2,0:0:0:0:
171,124,91431,1,2,0:0:0:0:
32,199,91589,1,2,0:0:0:0:
425,265,91746,5,4,1:1:0:0:
387,44,91904,1,2,0:0:0:0:
160,131,92062,5,2,0:0:0:0:
288,331,92220,1,2,0:0:0:0:
419,115,92378,5,12,0:1:0:0:
367,119,92456,1,8,0:0:0:0:
327,151,92535,1,8,0:0:0:0:
310,199,92614,1,8,0:0:0:0:
314,246,92694,1,8,0:0:0:0:
321,296,92772,1,8,0:0:0:0:
292,337,92851,1,8,0:0:0:0:
242,345,92930,1,8,0:0:0:0:
200,316,93009,5,8,0:0:0:0:
183,271,93089,1,8,0:0:0:0:
197,219,93168,1,8,0:0:0:0:
240,191,93246,1,8,0:0:0:0:
292,186,93325,1,8,0:0:0:0:
340,203,93404,1,8,0:0:0:0:
387,210,93483,1,8,0:0:0:0:
437,210,93561,1,8,0:0:0:0:
485,197,93641,5,8,0:0:0:0:
227,69,93799,2,0,P|278:73|299:68,2,51.9999996826172,8|8|8,0:0|0:0|0:0,0:0:0:0:
187,209,94115,1,8,0:0:0:0:
47,293,94273,5,8,0:0:0:0:
97,279,94351,1,8,0:0:0:0:
148,274,94430,1,8,0:0:0:0:
200,277,94509,1,8,0:0:0:0:
251,289,94588,1,8,0:0:0:0:
309,288,94668,1,8,0:0:0:0:
360,280,94746,1,8,0:0:0:0:
403,252,94825,1,8,0:0:0:0:
431,208,94904,6,0,L|426:98,1,103.999999365234,4|8,0:1|0:0,0:0:0:0:
426,104,95141,1,8,0:0:0:0:
426,104,95220,1,8,0:0:0:0:
279,232,95378,1,8,0:0:0:0:
84,62,95536,6,0,L|89:132,1,51.9999996826172,0|0,0:0|0:0,0:0:0:0:
213,126,95694,2,0,L|211:193,1,51.9999996826172,2|0,0:0|0:0,0:0:0:0:
80,224,95852,2,0,L|88:290,1,51.9999996826172,2|0,0:0|0:0,0:0:0:0:
197,278,96010,2,0,L|190:341,1,51.9999996826172,2|0,0:0|0:0,0:0:0:0:
208,359,96168,6,0,P|206:289|235:238,1,123.999995080567,4|8,0:1|0:0,0:0:0:0:
230,242,96404,1,8,0:0:0:0:
230,242,96483,1,8,0:0:0:0:
337,104,96641,2,0,B|344:138|344:138|338:169,2,61.9999975402833,8|0|0,0:0|0:0|0:0,0:0:0:0:
87,297,96957,2,0,L|105:221,1,61.9999975402833,2|0,0:0|0:0,0:0:0:0:
141,76,97115,2,0,L|144:180,1,61.9999975402833,2|0,0:0|0:0,0:0:0:0:
215,293,97273,2,0,L|192:222,1,61.9999975402833,2|0,0:0|0:0,0:0:0:0:
410,184,97431,6,0,P|330:173|294:234,1,144.000003515625,4|8,0:1|0:0,0:0:0:0:
295,217,97668,1,8,0:0:0:0:
295,217,97746,1,8,0:0:0:0:
110,233,97904,2,0,B|116:198|116:198|110:149,2,72.0000017578125,8|0|0,0:0|0:0|0:0,0:0:0:0:
226,342,98220,2,0,P|216:260|218:251,1,72.0000017578125,2|0,0:0|0:0,0:0:0:0:
214,29,98378,2,0,P|226:100|221:117,1,72.0000017578125,2|0,0:0|0:0,0:0:0:0:
39,202,98536,2,0,P|95:183|129:180,1,72.0000017578125,2|0,0:0|0:0,0:0:0:0:
467,212,98694,6,0,B|405:207|405:207|358:219|358:219|300:210,1,164.000002502441,4|8,0:1|0:0,0:0:0:0:
305,210,98931,1,8,0:0:0:0:
305,210,99010,1,8,0:0:0:0:
34,228,99168,1,8,0:0:0:0:
114,224,99246,1,0,0:0:0:0:
186,268,99325,1,0,0:0:0:0:
209,346,99404,1,0,0:0:0:0:
209,346,99483,2,0,P|187:292|189:249,1,82.0000012512207,2|0,0:0|0:0,0:0:0:0:
367,64,99641,2,0,P|327:115|279:131,1,82.0000012512207,2|0,0:0|0:0,0:0:0:0:
28,161,99799,2,0,P|97:134|137:133,1,82.0000012512207,2|0,0:0|0:0,0:0:0:0:
252,214,99957,6,0,L|245:35,1,174.000001460266,4|0,0:1|0:0,0:0:0:0:
246,41,100194,1,0,0:0:0:0:
246,41,100273,1,2,0:2:0:0:
410,213,100431,6,0,L|398:305,1,87.0000007301331,0|0,0:0|0:0,0:0:0:0:
304,339,100589,1,2,0:2:0:0:
94,229,100746,5,0,0:0:0:0:
198,189,100825,1,0,0:0:0:0:
179,288,100904,1,2,0:2:0:0:
366,52,101062,5,0,0:0:0:0:
380,173,101141,1,0,0:0:0:0:
398,314,101220,6,0,L|260:299,1,102.000000622559,2|0,0:0|0:0,0:0:0:0:
78,229,101378,6,0,P|137:233|150:229,1,51.9999996826172,2|0,0:0|0:0,0:0:0:0:
275,32,101536,6,0,L|257:151,1,102.000000622559,2|0,0:0|0:0,0:0:0:0:
226,346,101694,6,0,P|186:313|173:311,1,51.9999996826172,2|0,0:0|0:0,0:0:0:0:
66,290,101852,5,8,0:2:0:0:
97,295,101931,1,8,0:2:0:0:
137,286,102010,1,8,0:2:0:0:
176,251,102089,1,8,0:2:0:0:
199,194,102168,1,8,0:2:0:0:
179,123,102246,1,8,0:2:0:0:
215,46,102325,1,8,0:2:0:0:
317,23,102404,1,8,0:2:0:0:
398,95,102483,6,0,L|400:117,4,13.5000003295899,8|0|0|0|0,0:0|0:0|0:0|0:0|0:0,0:0:0:0:
294,154,102720,1,0,0:0:0:0:
203,229,102799,2,0,L|202:211,4,13.5000003295899,8|0|0|0|0,0:0|0:0|0:0|0:0|0:0,0:0:0:0:
285,274,103036,1,0,0:0:0:0:
205,344,103115,5,8,0:0:0:0:
178,349,103193,1,8,0:0:0:0:
151,350,103272,1,8,0:0:0:0:
124,348,103351,1,8,0:0:0:0:
98,341,103431,2,0,L|96:225,1,108.000002636719,8|2,0:1|0:0,0:0:0:0:
186,44,104062,5,2,0:0:0:0:
307,111,104378,5,8,0:0:0:0:
307,177,104456,1,8,0:0:0:0:
308,244,104535,1,8,0:0:0:0:
309,311,104614,1,8,0:0:0:0:
195,348,104694,5,8,0:0:0:0:
190,281,104772,1,8,0:0:0:0:
185,214,104851,1,8,0:0:0:0:
181,147,104930,1,8,0:0:0:0:
178,82,105010,6,0,B|238:71|238:71|321:90|321:90|392:85,1,205.000003128052,8|2,0:1|0:0,0:0:0:0:
468,40,105246,1,2,0:0:0:0:
468,40,105325,2,0,B|458:155|458:155|468:202|468:202|457:266,1,205.000003128052,2|8,0:0|0:0,0:0:0:0:
281,274,105562,1,8,0:0:0:0:
285,259,105641,1,8,0:0:0:0:
308,245,105720,5,8,0:0:0:0:
351,257,105798,1,8,0:0:0:0:
365,301,105877,1,0,0:0:0:0:
337,336,105957,6,0,P|208:315|131:330,1,205.000003128052,2|8,0:0|0:0,0:0:0:0:
52,347,106194,1,8,0:0:0:0:
78,263,106273,1,8,0:0:0:0:
62,174,106352,1,8,0:0:0:0:
195,139,106431,6,0,P|197:160|193:183,1,37.5000014305115,8|0,0:2|0:0,0:0:0:0:
185,198,106589,6,0,B|184:144|184:144|203:57,1,117.499998207092,2|0,0:0|0:0,0:0:0:0:
297,25,106746,2,0,B|312:88|312:88|305:171,1,117.499998207092,2|0,0:0|0:0,0:0:0:0:
365,290,106904,6,0,L|373:192,1,87.500000834465,8|0,0:0|0:0,0:0:0:0:
372,202,107062,2,0,L|365:290,1,87.500000834465,8|0,0:0|0:0,0:0:0:0:
25,267,107220,6,0,B|66:249|66:249|101:258|101:258|139:255|139:255|156:268|185:278|185:278|219:277|232:273|232:273|240:278|278:288|297:273,1,267.999987322999,8|8,0:1|0:0,0:0:0:0:
304,188,107615,1,8,0:0:0:0:
285,150,107694,1,8,0:0:0:0:
256,183,107773,1,0,0:0:0:0:
62,125,107852,5,8,0:0:0:0:
104,157,107931,1,8,0:0:0:0:
137,115,108010,1,8,0:0:0:0:
94,82,108089,1,0,0:0:0:0:
140,311,108168,5,8,0:0:0:0:
195,338,108246,1,8,0:0:0:0:
190,275,108325,1,8,0:0:0:0:
190,275,108404,1,0,0:0:0:0:
271,63,108483,6,0,B|278:137|278:137|272:217|272:217|274:298,1,205.000003128052,2|8,0:0|0:0,0:0:0:0:
354,332,108720,1,8,0:0:0:0:
92,341,108799,6,0,B|-2:286|63:104|169:198|144:266,1,277.499998941422,2|0,0:0|0:0,0:0:0:0:
135,111,109115,2,0,P|192:119|266:109,1,92.4999996471405,2|0,0:0|0:0,0:0:0:0:
330,84,109273,2,0,P|401:74|445:82,1,92.4999996471405,2|0,0:0|0:0,0:0:0:0:
268,320,109431,2,0,L|269:273,2,46.2499998235703,8|0|8,0:1|0:0|0:0,0:0:0:0:
256,324,109589,6,0,P|242:274|245:222,1,102.500001564026,2|0,0:0|0:0,0:0:0:0:
421,169,109746,2,0,P|369:192|311:187,1,102.500001564026,2|0,0:0|0:0,0:0:0:0:
162,77,109904,2,0,P|252:136|264:174,1,102.500001564026,2|0,0:0|0:0,0:0:0:0:
250,139,110062,6,0,P|245:110|250:77,1,52.4999983978272,8|0,0:0|0:0,0:0:0:0:
454,126,110378,6,0,B|417:156|417:156|365:168,1,92.4999996471405,2|0,0:0|0:0,0:0:0:0:
211,245,110536,2,0,B|260:230|260:230|305:233,1,92.4999996471405,2|0,0:0|0:0,0:0:0:0:
409,255,110694,1,8,0:0:0:0:
272,209,110773,1,8,0:0:0:0:
143,194,110852,1,8,0:0:0:0:
25,181,110931,6,0,L|17:220,1,34.9999989318848,2|0,0:0|0:0,0:0:0:0:
77,301,111168,5,8,0:0:0:0:
164,327,111246,1,8,0:0:0:0:
250,349,111325,2,0,B|278:293|278:293|281:224|281:224|306:163,1,187.5,2|0,0:0|0:0,0:0:0:0:
302,172,111641,2,0,L|306:207,6,31.25,8|0|8|0|8|0|8,0:0|0:0|0:0|0:0|0:0|0:0|0:0,0:0:0:0:
48,76,111957,6,0,B|154:71|154:71|204:88|204:88|312:80,1,205.000003128052,8|0,0:1|0:0,0:0:0:0:
428,26,112194,2,0,P|398:155|490:175,1,205.000003128052,2|0,0:0|0:0,0:0:0:0:
449,179,112431,2,0,P|342:175|333:179,1,102.500001564026,2|0,0:0|0:0,0:0:0:0:
180,340,112589,6,0,L|188:184,1,117.499998207092,8|0,0:1|0:0,0:0:0:0:
89,187,112746,1,2,0:0:0:0:
61,178,112825,1,2,0:0:0:0:
21,77,112904,6,0,L|183:68,1,117.499998207092,2|0,0:0|0:0,0:0:0:0:
305,63,113062,1,2,0:0:0:0:
267,73,113141,1,2,0:0:0:0:
288,288,113220,6,0,B|303:224|303:224|294:144,1,132.500005559922,8|0,0:1|0:0,0:0:0:0:
215,218,113378,1,0,0:2:0:0:
215,218,113457,2,0,B|198:287|198:287|220:345,1,132.500005559922,8|0,0:1|0:0,0:0:0:0:
350,347,113615,1,0,0:2:0:0:
391,248,113694,1,8,0:1:0:0:
388,131,113773,1,0,0:0:0:0:
301,47,113852,6,0,B|188:40,1,102.500001564026,8|8,0:0|0:0,0:0:0:0:
198,40,114010,1,8,0:0:0:0:
198,40,114089,1,0,0:0:0:0:
60,171,114168,6,0,B|162:177,1,102.500001564026,8|8,0:0|0:0,0:0:0:0:
163,178,114326,1,8,0:0:0:0:
163,178,114405,1,0,0:0:0:0:
421,151,114483,5,8,0:0:0:0:
383,146,114562,1,8,0:0:0:0:
341,168,114641,1,8,0:0:0:0:
328,216,114720,1,8,0:0:0:0:
352,269,114799,1,8,0:0:0:0:
353,338,114878,1,8,0:0:0:0:
279,368,114957,1,8,0:0:0:0:
203,325,115036,1,8,0:0:0:0:
217,233,115115,1,2,0:0:0:0:
77,102,115431,6,0,B|129:115|129:115|176:100,1,91.0000030548097,2|0,0:0|0:0,0:0:0:0:
319,29,115589,2,0,B|271:53|271:53|240:108,1,91.0000030548097,0|0,0:0|0:0,0:0:0:0:
271,201,115746,2,0,B|227:187|227:187|156:192,1,91.0000030548097,0|0,0:0|0:0,0:0:0:0:
71,306,115904,2,0,P|80:192|77:187,1,91.0000030548097,2|0,0:0|0:0,0:0:0:0:
175,309,116062,2,0,P|241:298|300:305,1,91.0000030548097,2|0,0:0|0:0,0:0:0:0:
365,341,116220,2,0,B|355:294|355:294|368:222,1,91.0000030548097,0|0,0:0|0:0,0:0:0:0:
417,53,116378,6,0,P|317:86|232:69,1,182.000006109619,2|8,0:0|0:0,0:0:0:0:
243,73,116615,1,8,0:0:0:0:
243,73,116694,1,8,0:0:0:0:
288,244,116852,1,2,0:0:0:0:
30,229,117010,1,2,0:0:0:0:
75,224,117089,1,0,0:0:0:0:
120,220,117168,1,0,0:0:0:0:
165,216,117246,1,0,0:0:0:0:
211,212,117325,1,2,0:0:0:0:
201,345,117483,1,0,0:0:0:0:
377,340,117641,6,0,L|372:238,1,81.0000019775391,2|0,0:0|0:0,0:0:0:0:
373,259,117799,1,0,0:0:0:0:
462,213,117878,2,0,L|416:124,1,81.0000019775391,2|0,0:0|0:0,0:0:0:0:
424,141,118036,1,0,0:0:0:0:
426,44,118115,2,0,L|326:43,1,81.0000019775391,2|0,0:0|0:0,0:0:0:0:
245,47,118273,5,0,0:0:0:0:
171,85,118351,1,2,0:0:0:0:
136,149,118430,1,0,0:0:0:0:
134,220,118510,1,0,0:0:0:0:
141,315,118589,6,0,L|132:202,1,81.0000019775391,2|0,0:0|0:0,0:0:0:0:
232,238,118746,2,0,L|239:131,1,81.0000019775391,2|0,0:0|0:0,0:0:0:0:
356,115,118904,5,8,0:0:0:0:
407,151,118983,1,8,0:0:0:0:
415,192,119062,1,8,0:0:0:0:
410,219,119141,1,8,0:0:0:0:
396,236,119220,6,0,P|338:259|322:259,1,56.0000006835938,8|0,0:0|0:0,0:0:0:0:
175,185,119378,2,0,P|241:202|250:210,1,56.0000006835938,8|0,0:0|0:0,0:0:0:0:
267,362,119536,2,0,P|261:293|270:269,1,56.0000006835938,8|0,0:0|0:0,0:0:0:0:
274,263,119694,1,8,0:0:0:0:
327,249,119772,1,8,0:0:0:0:
383,251,119851,1,8,0:0:0:0:
437,273,119931,1,8,0:0:0:0:
439,195,120009,1,8,0:0:0:0:
435,116,120088,1,8,0:0:0:0:
431,37,120167,1,2,0:0:0:0:
112,151,120483,6,0,P|202:173|225:169,1,91.0000030548097,2|0,0:0|0:0,0:0:0:0:
369,106,120641,2,0,P|266:126|263:130,1,91.0000030548097,0|0,0:0|0:0,0:0:0:0:
272,284,120799,2,0,P|288:191|283:182,1,91.0000030548097,0|0,0:0|0:0,0:0:0:0:
157,314,120957,2,0,P|250:373|263:372,1,91.0000030548097,2|0,0:0|0:0,0:0:0:0:
401,330,121115,1,2,0:0:0:0:
211,177,121273,1,0,0:0:0:0:
418,51,121431,6,0,B|435:98|435:98|433:153,1,91.0000030548097,2|0,0:0|0:0,0:0:0:0:
433,138,121589,1,8,0:0:0:0:
433,138,121668,1,8,0:0:0:0:
433,138,121746,1,8,0:0:0:0:
413,278,121904,1,2,0:0:0:0:
189,158,122063,1,2,0:0:0:0:
223,130,122141,1,0,0:0:0:0:
268,131,122220,1,0,0:0:0:0:
301,161,122299,1,0,0:0:0:0:
306,205,122378,1,2,0:0:0:0:
140,265,122536,1,0,0:0:0:0:
365,56,122694,6,0,L|373:108,4,37.9999995361328,2|0|0|0|0,0:0|0:0|0:0|0:0|0:0,0:0:0:0:
211,36,123010,1,0,0:0:0:0:
286,280,123168,1,0,0:0:0:0:
74,137,123325,6,0,L|65:188,4,45.5000015274048,2|0|0|0|0,0:0|0:0|0:0|0:0|0:0,0:0:0:0:
214,36,123641,1,0,0:0:0:0:
243,340,123799,1,0,0:0:0:0:
390,211,123957,5,2,0:0:0:0:
170,104,124115,1,0,0:0:0:0:
174,174,124194,1,0,0:0:0:0:
179,245,124273,1,2,0:0:0:0:
332,300,124431,5,0,0:0:0:0:
322,262,124510,1,0,0:0:0:0:
324,225,124589,1,2,0:0:0:0:
351,158,124667,1,0,0:0:0:0:
346,81,124746,1,2,0:0:0:0:
302,23,124824,1,2,0:0:0:0:
230,31,124903,1,2,0:0:0:0:
203,105,124983,1,2,0:0:0:0:
268,166,125061,1,2,0:0:0:0:
353,176,125140,1,2,0:0:0:0:
431,228,125219,5,4,0:2:0:0:
