osu file format v14

[General]
AudioFilename: shiroi.mp3
AudioLeadIn: 0
PreviewTime: 59650
Countdown: 0
SampleSet: Normal
StackLeniency: 0.7
Mode: 1
LetterboxInBreaks: 0
WidescreenStoryboard: 0

[Editor]
Bookmarks: 24357,100934,105568
DistanceSpacing: 1.1
BeatDivisor: 1
GridSize: 32
TimelineZoom: 2

[Metadata]
Title:Shiroi Tsuki. (TV Size)
TitleUnicode:シロイツキ。(TVサイズ)
Artist:YU-KI
ArtistUnicode:YU-KI
Creator:bank78952
Version:Kantan
Source:妖逆門
Tags:Bakegyamon Shigeco Ogula Rio Juno Hyoe Yasuhara Opening 2
BeatmapID:941443
BeatmapSetID:437181

[Difficulty]
HPDrainRate:8
CircleSize:2
OverallDifficulty:3
ApproachRate:10
SliderMultiplier:1.3999999666214
SliderTickRate:1

[Events]
//Background and Video events
0,0,"BG.jpg",0,0
//Break Periods
//Storyboard Layer 0 (Background)
//Storyboard Layer 1 (Fail)
//Storyboard Layer 2 (Pass)
//Storyboard Layer 3 (Foreground)
//Storyboard Sound Samples

[TimingPoints]
3180,441.176470588235,4,1,0,70,1,0
59650,-100,4,1,0,70,0,1
73327,-100,4,1,0,70,0,0
73768,-100,4,1,0,70,0,1
87885,-100,4,1,0,70,0,0
105091,-100,4,1,0,5,0,0

[HitObjects]
256,192,2738,5,12,0:0:0:0:
256,192,3179,1,4,0:0:0:0:
256,192,4062,1,0,0:0:0:0:
288,192,4503,1,8,0:0:0:0:
288,224,4944,1,0,0:0:0:0:
288,224,5827,1,0,0:0:0:0:
288,224,6709,1,0,0:0:0:0:
288,256,7150,1,8,0:0:0:0:
288,224,8032,1,8,0:0:0:0:
256,160,8474,1,0,0:0:0:0:
256,192,9356,1,0,0:0:0:0:
288,224,10238,1,4,0:0:0:0:
288,224,11121,1,0,0:0:0:0:
288,224,11562,1,8,0:0:0:0:
288,224,12003,1,4,0:0:0:0:
288,224,12885,1,8,0:0:0:0:
320,224,13327,1,8,0:0:0:0:
320,224,13768,1,0,0:0:0:0:
320,256,14650,1,8,0:0:0:0:
320,256,15532,1,4,0:0:0:0:
320,256,16415,1,0,0:0:0:0:
320,256,16856,1,8,0:0:0:0:
320,256,17297,1,0,0:0:0:0:
352,288,18179,1,0,0:0:0:0:
256,192,19062,1,4,0:0:0:0:
256,192,19944,1,8,0:0:0:0:
256,192,20385,1,8,0:0:0:0:
256,192,20827,1,0,0:0:0:0:
256,224,21709,1,0,0:0:0:0:
320,224,22591,1,4,0:0:0:0:
288,224,23474,1,8,0:0:0:0:
288,224,23915,1,8,0:0:0:0:
288,224,24356,1,12,0:0:0:0:
288,224,25238,1,0,0:0:0:0:
288,224,25679,1,8,0:0:0:0:
288,224,26121,1,0,0:0:0:0:
256,224,27444,1,8,0:0:0:0:
256,224,27885,1,0,0:0:0:0:
256,256,28768,1,0,0:0:0:0:
288,224,29209,1,0,0:0:0:0:
288,224,29650,1,0,0:0:0:0:
288,256,30532,1,8,0:0:0:0:
320,224,31415,1,8,0:0:0:0:
320,256,32297,1,0,0:0:0:0:
352,288,32738,1,8,0:0:0:0:
352,256,33179,1,0,0:0:0:0:
352,256,34503,1,8,0:0:0:0:
352,256,34944,1,0,0:0:0:0:
320,256,35827,1,0,0:0:0:0:
352,256,36709,1,0,0:0:0:0:
416,256,37591,1,8,0:0:0:0:
352,256,38032,1,8,0:0:0:0:
352,256,38474,1,0,0:0:0:0:
352,256,39356,1,8,0:0:0:0:
256,192,40238,1,0,0:0:0:0:
256,192,41121,1,0,0:0:0:0:
256,192,41562,1,8,0:0:0:0:
256,192,42003,1,0,0:0:0:0:
288,224,42885,1,0,0:0:0:0:
288,224,43768,1,8,0:0:0:0:
288,224,44650,1,8,0:0:0:0:
288,224,45091,1,8,0:0:0:0:
288,224,45532,1,0,0:0:0:0:
288,256,46415,1,0,0:0:0:0:
256,192,47297,1,0,0:0:0:0:
256,192,47738,1,8,0:0:0:0:
256,192,48179,1,0,0:0:0:0:
224,192,49062,1,0,0:0:0:0:
224,192,49503,1,8,0:0:0:0:
256,192,49944,1,0,0:0:0:0:
256,192,50827,1,0,0:0:0:0:
256,192,51709,1,8,0:0:0:0:
256,192,52150,1,8,0:0:0:0:
256,160,52591,1,4,0:0:0:0:
224,160,53474,1,0,0:0:0:0:
256,192,53915,1,8,0:0:0:0:
256,224,54356,1,0,0:0:0:0:
256,224,55238,1,8,0:0:0:0:
288,224,55679,1,8,0:0:0:0:
288,256,56121,1,0,0:0:0:0:
288,256,57003,1,0,0:0:0:0:
288,256,57444,1,8,0:0:0:0:
320,256,57885,1,0,0:0:0:0:
320,256,58768,1,0,0:0:0:0:
320,256,59209,1,8,0:0:0:0:
320,256,59650,1,4,0:0:0:0:
352,256,60532,1,0,0:0:0:0:
352,256,60974,1,8,0:0:0:0:
352,256,61415,1,0,0:0:0:0:
352,256,62297,1,0,0:0:0:0:
256,192,63179,1,0,0:0:0:0:
288,192,63621,1,8,0:0:0:0:
288,224,64503,1,8,0:0:0:0:
288,224,64944,1,0,0:0:0:0:
288,256,65385,1,8,0:0:0:0:
288,256,66268,1,8,0:0:0:0:
288,256,66709,1,0,0:0:0:0:
320,288,67591,1,0,0:0:0:0:
320,288,68032,1,8,0:0:0:0:
288,288,68474,1,0,0:0:0:0:
320,256,69356,1,8,0:0:0:0:
256,192,69797,1,0,0:0:0:0:
256,192,70238,1,8,0:0:0:0:
256,224,71121,1,0,0:0:0:0:
256,224,71562,1,8,0:0:0:0:
256,224,72003,1,0,0:0:0:0:
256,224,72885,1,0,0:0:0:0:
256,224,73327,1,12,0:0:0:0:
256,224,73768,1,12,0:0:0:0:
288,224,74650,1,0,0:0:0:0:
288,224,75532,1,0,0:0:0:0:
288,224,75974,1,8,0:0:0:0:
320,224,76415,1,0,0:0:0:0:
320,224,77297,1,0,0:0:0:0:
320,224,78179,1,0,0:0:0:0:
320,224,78621,1,8,0:0:0:0:
320,224,79062,1,0,0:0:0:0:
320,224,79944,1,8,0:0:0:0:
320,224,80385,1,8,0:0:0:0:
320,224,80827,1,4,0:0:0:0:
320,224,81709,1,0,0:0:0:0:
320,224,82591,1,0,0:0:0:0:
320,224,83032,1,8,0:0:0:0:
320,224,83474,1,0,0:0:0:0:
320,224,84356,1,0,0:0:0:0:
320,224,85238,1,0,0:0:0:0:
320,224,85679,1,8,0:0:0:0:
320,224,86121,1,0,0:0:0:0:
320,224,87003,1,0,0:0:0:0:
320,224,87885,1,4,0:0:0:0:
288,192,88768,1,8,0:0:0:0:
288,192,89650,1,0,0:0:0:0:
256,224,90532,1,0,0:0:0:0:
288,224,90974,1,8,0:0:0:0:
288,224,91415,1,0,0:0:0:0:
288,224,92297,1,8,0:0:0:0:
256,288,93179,1,0,0:0:0:0:
288,288,93621,1,8,0:0:0:0:
288,288,94062,1,0,0:0:0:0:
288,288,94944,1,12,0:0:0:0:
288,288,95827,1,0,0:0:0:0:
256,256,96268,1,8,0:0:0:0:
256,288,96709,1,8,0:0:0:0:
256,288,97591,1,0,0:0:0:0:
256,288,98474,1,8,0:0:0:0:
256,288,99356,1,0,0:0:0:0:
256,288,99797,1,0,0:0:0:0:
256,288,100238,1,8,0:0:0:0:
256,192,101121,12,8,105091,0:0:0:0:
288,288,101121,1,12,0:0:0:0:
