osu file format v14

[General]
AudioFilename: audio.ogg
AudioLeadIn: 0
PreviewTime: 53348
Countdown: 0
SampleSet: Soft
StackLeniency: 0.7
Mode: 0
LetterboxInBreaks: 0
WidescreenStoryboard: 1

[Editor]
DistanceSpacing: 0.9
BeatDivisor: 4
GridSize: 32
TimelineZoom: 1

[Metadata]
Title:Wasurerarenai Koi
TitleUnicode:忘れられない恋
Artist:YU-A
ArtistUnicode:YU-A
Creator:timemon
Version:Erisu's Normal
Source:
Tags:jpop j-pop pop japanese erisu lanzhu sanairrt Mayuzumi Fuyuko
BeatmapID:3548351
BeatmapSetID:1735865

[Difficulty]
HPDrainRate:4
CircleSize:3
OverallDifficulty:4
ApproachRate:5
SliderMultiplier:1.1
SliderTickRate:1

[Events]
//Background and Video events
0,0,"e_rei02LN_1Edit.jpg",0,0
//Break Periods
2,85726,99326
//Storyboard Layer 0 (Background)
//Storyboard Layer 1 (Fail)
//Storyboard Layer 2 (Pass)
//Storyboard Layer 3 (Foreground)
//Storyboard Layer 4 (Overlay)
//Storyboard Sound Samples

[TimingPoints]
365,483.870967741935,4,2,1,30,1,0
15848,-100,4,2,1,50,0,0
16090,-100,4,2,1,40,0,0
31332,-100,4,2,1,55,0,0
31574,-100,4,2,1,50,0,0
39921,-100,4,2,1,5,0,0
40042,-100,4,2,1,50,0,0
45364,-100,4,2,1,60,0,0
46574,-100,4,2,1,50,0,0
46816,-100,4,2,1,50,0,0
47058,-100,4,2,1,40,0,0
47542,-100,4,2,1,50,0,0
47905,-100,4,2,1,40,0,0
48268,-100,4,2,1,50,0,0
48752,-100,4,2,1,40,0,0
49477,-100,4,2,1,50,0,0
49840,-100,4,2,1,40,0,0
50687,-100,4,2,1,50,0,0
50929,-100,4,2,1,40,0,0
51413,-100,4,2,1,50,0,0
51776,-100,4,2,1,40,0,0
52381,-100,4,2,1,50,0,0
54558,-90.9090909090909,4,2,1,80,0,1
54800,-90.9090909090909,4,2,1,70,0,1
58792,-90.9090909090909,4,2,1,5,0,1
58913,-90.9090909090909,4,2,1,70,0,1
69800,-90.9090909090909,4,2,1,70,0,0
70042,-90.9090909090909,4,2,1,80,0,1
70405,-90.9090909090909,4,2,1,5,0,1
70526,-90.9090909090909,4,2,1,70,0,1
83590,-100,4,2,1,40,0,0
99074,-100,4,2,1,65,0,0
99195,-100,4,2,1,30,0,0
100526,-100,4,2,1,50,0,0
101010,-100,4,2,1,60,0,0
101252,-100,4,2,1,55,0,0
115042,-100,4,2,1,60,0,0
116494,-100,4,2,1,65,0,0
116735,-100,4,2,1,50,0,0
124235,-90.9090909090909,4,2,1,80,0,1
124477,-90.9090909090909,4,2,1,70,0,1
128469,-90.9090909090909,4,2,1,5,0,1
128590,-90.9090909090909,4,2,1,70,0,1
139477,-90.9090909090909,4,2,1,70,0,0
139719,-90.9090909090909,4,2,1,80,0,1
140082,-90.9090909090909,4,2,1,5,0,1
140203,-90.9090909090909,4,2,1,70,0,1
153026,-100,4,2,1,60,0,0
153268,-100,4,2,1,40,0,0
155929,-100,4,2,1,40,0,0
159074,-100,4,2,1,50,0,0
159316,-100,4,2,1,40,0,0
162219,-100,4,2,1,50,0,0
163671,-100,4,2,1,40,0,0
166816,-100,4,2,1,50,0,0
167058,-100,4,2,1,40,0,0
169477,-100,4,2,1,50,0,0
170687,-100,4,2,1,50,0,0
183994,-100,4,2,1,50,0,0
188106,-90.9090909090909,4,2,1,85,0,1
188348,-90.9090909090909,4,2,1,75,0,1
192340,-90.9090909090909,4,2,1,5,0,1
192461,-90.9090909090909,4,2,1,75,0,1
203348,-90.9090909090909,4,2,1,75,0,0
203590,-90.9090909090909,4,2,1,85,0,1
203832,-90.9090909090909,4,2,1,75,0,1
219074,-100,4,2,1,75,0,0

[Colours]
Combo1 : 166,176,217
Combo2 : 228,154,182
Combo3 : 226,156,213
Combo4 : 182,154,228

[HitObjects]
42,341,15848,6,0,P|95:334|126:290,1,110,4|8,1:0|0:0,0:0:0:0:
66,210,16816,2,0,L|81:89,1,110,2|8,0:0|0:0,0:0:0:0:
102,56,17542,1,2,0:0:0:0:
199,28,18026,1,0,0:0:0:0:
199,28,18268,2,0,B|265:28|238:64|308:59,1,110,8|2,0:0|0:0,0:0:0:0:
389,11,19235,1,8,0:0:0:0:
389,11,19477,6,0,P|422:56|413:119,1,110,2|0,0:0|0:0,0:0:0:0:
382,141,20203,1,8,0:0:0:0:
452,210,20687,1,2,0:0:0:0:
429,309,21171,1,8,0:0:0:0:
429,309,21413,2,0,P|382:307|335:348,1,110,2|0,0:0|0:0,0:0:0:0:
289,363,22139,2,0,B|223:369|248:333|179:339,1,110,8|0,0:0|0:0,0:0:0:0:
145,247,23106,1,8,0:0:0:0:
237,211,23590,6,0,P|252:154|216:92,1,110,2|8,0:0|0:0,0:0:0:0:
173,29,24558,2,0,P|121:22|61:15,1,110,2|8,0:0|0:0,0:0:0:0:
31,52,25284,1,2,0:0:0:0:
20,154,25768,1,0,0:0:0:0:
20,154,26010,2,0,P|29:198|36:273,1,110,8|2,0:0|0:0,0:0:0:0:
91,351,26977,1,8,0:0:0:0:
91,351,27219,6,0,P|141:364|194:332,1,110,2|0,0:0|0:0,0:0:0:0:
224,302,27945,2,0,P|280:310|333:314,1,110,10|2,0:0|0:0,0:0:0:0:
431,329,28913,1,8,0:0:0:0:
431,329,29155,2,0,P|445:286|405:221,1,110,0|0,0:0|0:0,0:0:0:0:
376,205,29881,1,10,0:0:0:0:
422,117,30364,1,2,0:0:0:0:
329,81,30848,2,0,L|262:70,1,55,2|8,0:0|0:0,0:0:0:0:
225,65,31332,6,0,P|186:115|204:175,1,110,4|8,1:1|0:0,0:0:0:0:
208,203,32058,1,0,0:0:0:0:
208,203,32300,2,0,L|200:261,1,55,2|0,1:2|0:0,0:0:0:0:
163,289,32784,1,8,0:0:0:0:
163,289,33026,1,0,0:0:0:0:
72,262,33510,1,0,0:0:0:0:
72,262,33752,2,0,B|48:220|48:220|65:156,1,110,8|2,0:0|1:2,0:0:0:0:
30,124,34477,2,0,L|19:61,1,55,0|8,0:0|1:2,0:0:0:0:
51,31,34961,6,0,B|100:-1|100:-1|173:16,1,110,0|0,1:0|0:0,0:0:0:0:
185,38,35687,1,8,0:0:0:0:
250,112,36171,2,0,L|318:98,1,55,2|0,1:2|0:0,0:0:0:0:
335,63,36655,1,8,0:0:0:0:
335,63,36897,2,0,L|444:46,1,110,0|0,0:0|0:0,0:0:0:0:
490,62,37623,1,8,0:0:0:0:
457,155,38106,1,2,1:2:0:0:
491,248,38590,2,0,L|479:313,1,55,8|8,0:0|0:0,0:0:0:0:
442,333,39074,6,0,P|406:335|368:315,1,55,0|0,1:0|0:0,0:0:0:0:
356,291,39558,1,8,0:0:0:0:
269,243,40042,2,0,L|279:181,2,55,2|0|8,1:2|0:0|0:0,0:0:0:0:
227,270,40768,2,0,P|194:252|121:244,1,110,0|0,0:0|0:0,0:0:0:0:
74,230,41494,1,8,0:0:0:0:
12,307,41977,2,0,L|70:320,1,55,0|0,1:2|0:0,0:0:0:0:
101,360,42461,1,8,0:0:0:0:
101,360,42703,6,0,P|158:350|213:349,1,110,0|0,1:0|0:0,0:0:0:0:
257,363,43429,1,8,0:0:0:0:
331,298,43913,2,0,L|392:307,2,55,2|0|8,1:2|0:0|0:0,0:0:0:0:
297,261,44639,2,0,P|291:206|325:148,1,110,0|0,0:0|0:0,0:0:0:0:
363,151,45364,1,2,1:2:0:0:
336,55,45848,1,2,1:2:0:0:
237,47,46332,2,0,L|170:60,1,55,10|0,0:0|1:0,0:0:0:0:
141,30,46816,5,4,0:0:0:0:
141,30,47058,2,0,P|90:67|98:171,1,165,0|2,0:0|0:0,0:0:0:0:
41,247,48268,1,2,0:0:0:0:
41,247,48510,1,2,0:0:0:0:
117,310,48994,2,0,B|199:331|184:256|293:281,1,165,2|0,0:0|0:0,0:0:0:0:
371,291,50203,2,0,L|384:231,1,55,2|2,0:0|0:0,0:0:0:0:
420,204,50687,5,2,0:0:0:0:
420,204,50929,2,0,L|387:20,1,165,2|2,0:0|0:0,0:0:0:0:
294,17,52139,1,2,0:0:0:0:
294,17,52381,1,2,1:2:0:0:
17,227,54316,1,0,3:0:0:0:
17,227,54558,6,0,P|74:228|129:277,1,121.000003692627,4|8,1:1|0:0,0:0:0:0:
161,304,55284,1,2,0:3:0:0:
210,328,55526,2,0,L|269:317,1,60.5000018463135,2|2,1:2|0:3,0:0:0:0:
323,321,56010,1,8,0:0:0:0:
358,279,56252,2,0,P|353:223|352:155,1,121.000003692627,2|2,0:3|0:3,0:0:0:0:
337,104,56977,1,8,0:2:0:0:
405,19,57461,1,2,1:2:0:0:
458,31,57703,2,0,P|491:83|476:165,1,121.000003692627,2|2,0:3|0:3,0:0:0:0:
497,196,58429,5,2,1:2:0:0:
436,286,58913,2,0,P|400:290|360:299,1,60.5000018463135,8|2,0:0|0:3,0:0:0:0:
349,343,59397,2,0,P|313:338|273:330,1,60.5000018463135,2|2,1:2|0:3,0:0:0:0:
240,308,59881,1,8,0:0:0:0:
202,347,60123,2,0,B|142:343|142:343|128:351|128:351|79:345,1,121.000003692627,2|2,0:3|0:3,0:0:0:0:
29,339,60848,1,10,0:0:0:0:
4,232,61332,1,2,1:2:0:0:
90,165,61816,2,0,L|79:94,1,60.5000018463135,10|2,0:0|1:3,0:0:0:0:
50,59,62300,6,0,P|76:43|126:47,1,60.5000018463135,2|2,1:2|0:3,0:0:0:0:
156,20,62784,2,0,P|182:34|204:79,1,60.5000018463135,8|2,0:0|0:3,0:0:0:0:
238,97,63268,2,0,L|310:86,2,60.5000018463135,2|2|10,1:2|0:3|0:0,0:0:0:0:
214,146,63994,1,2,0:3:0:0:
246,249,64477,2,0,P|306:262|351:313,1,121.000003692627,2|2,0:3|0:3,0:0:0:0:
400,298,65203,1,2,1:2:0:0:
431,253,65445,1,2,0:3:0:0:
380,156,65929,1,2,0:3:0:0:
337,121,66171,6,0,B|268:117|277:150|213:147,1,121.000003692627,2|8,1:2|0:0,0:0:0:0:
173,120,66897,1,2,0:3:0:0:
70,81,67381,1,2,0:3:0:0:
19,179,67864,2,0,P|23:224|28:306,1,121.000003692627,2|0,0:3|0:0,0:0:0:0:
70,333,68590,1,8,0:0:0:0:
115,303,68832,2,0,P|178:288|240:333,1,121.000003692627,2|2,0:3|0:3,0:0:0:0:
266,349,69558,2,0,L|358:328,1,60.5000018463135,8|0,1:2|1:0,0:0:0:0:
373,360,70042,5,4,1:1:0:0:
433,269,70526,2,0,L|444:209,1,60.5000018463135,8|2,0:0|0:3,0:0:0:0:
396,181,71010,2,0,L|384:121,1,60.5000018463135,2|2,1:2|0:3,0:0:0:0:
348,80,71494,1,8,0:0:0:0:
298,56,71735,2,0,B|235:50|235:50|186:92,1,121.000003692627,2|2,0:2|0:3,0:0:0:0:
172,138,72461,1,8,0:0:0:0:
94,214,72945,1,2,1:2:0:0:
42,197,73187,2,0,L|30:113,1,60.5000018463135,2|8,0:3|0:0,0:0:0:0:
65,92,73671,5,2,0:3:0:0:
143,17,74155,1,2,0:3:0:0:
196,25,74397,2,0,P|224:28|251:45,1,60.5000018463135,8|2,0:0|0:3,0:0:0:0:
279,91,74881,2,0,P|307:88|334:71,1,60.5000018463135,2|2,1:2|0:3,0:0:0:0:
372,32,75364,1,8,0:0:0:0:
420,57,75606,2,0,B|444:117|444:117|418:180,1,121.000003692627,2|2,0:3|0:3,0:0:0:0:
391,213,76332,1,10,0:0:0:0:
446,306,76816,1,2,1:2:0:0:
360,373,77300,2,0,L|286:363,1,60.5000018463135,10|2,0:0|1:3,0:0:0:0:
266,321,77784,6,0,P|233:320|196:336,1,60.5000018463135,2|2,1:2|0:3,0:0:0:0:
162,360,78268,2,0,L|84:349,1,60.5000018463135,8|2,0:0|0:3,0:0:0:0:
63,312,78752,2,0,L|-9:323,2,60.5000018463135,2|2|8,1:2|0:3|0:0,0:0:0:0:
95,267,79477,1,2,0:3:0:0:
22,186,79961,2,0,P|20:153|44:118,1,60.5000018463135,2|8,0:3|0:0,0:0:0:0:
42,75,80445,2,0,B|110:72|96:112|163:106,1,121.000003692627,2|2,0:3|0:3,0:0:0:0:
249,50,81413,1,2,0:3:0:0:
299,71,81655,6,0,P|291:128|283:199,1,121.000003692627,2|8,1:2|0:0,0:0:0:0:
303,242,82381,1,2,0:3:0:0:
386,311,82864,1,2,0:3:0:0:
477,255,83348,2,0,L|459:123,1,121.000003692627,4|0,0:0|0:0,0:0:0:0:
457,90,84074,1,0,0:0:0:0:
457,90,84316,1,2,0:0:0:0:
374,35,84800,2,0,P|318:27|274:69,1,110,0|0,0:0|1:0,0:0:0:0:
255,101,85526,5,4,0:0:0:0:
473,221,100526,6,0,L|460:299,1,55,0|0,1:0|1:0,0:0:0:0:
457,324,101010,6,0,B|407:351|407:351|345:336,1,110,4|8,1:0|0:0,0:0:0:0:
321,310,101735,1,0,0:0:0:0:
321,310,101977,2,0,L|259:322,1,55,2|0,1:2|0:0,0:0:0:0:
229,351,102461,1,8,0:0:0:0:
229,351,102703,1,0,0:0:0:0:
143,312,103187,1,0,0:0:0:0:
143,312,103429,2,0,P|124:267|149:210,1,110,8|2,0:0|1:2,0:0:0:0:
194,204,104155,2,0,L|200:140,1,55,0|8,0:0|1:2,0:0:0:0:
234,114,104639,1,0,0:0:0:0:
234,114,104881,5,0,1:0:0:0:
157,51,105364,2,0,P|123:52|99:70,1,55,8|0,0:0|0:0,0:0:0:0:
71,98,105848,2,0,L|79:167,1,55,2|0,1:2|0:0,0:0:0:0:
49,194,106332,1,8,0:0:0:0:
49,194,106574,2,0,P|60:251|66:314,1,110,0|0,0:0|0:0,0:0:0:0:
55,351,107300,1,8,0:0:0:0:
148,383,107784,1,2,1:2:0:0:
213,309,108268,2,0,L|284:318,1,55,8|8,0:0|0:0,0:0:0:0:
310,340,108752,6,0,P|346:342|384:322,1,55,2|0,1:2|0:0,0:0:0:0:
409,318,109235,1,8,0:0:0:0:
455,230,109719,2,0,L|527:247,2,55,2|0|8,1:2|0:0|0:0,0:0:0:0:
418,196,110445,2,0,P|363:199|313:222,1,110,0|0,0:0|0:0,0:0:0:0:
265,233,111171,1,8,0:0:0:0:
166,221,111655,2,0,L|177:154,1,55,2|0,1:2|0:0,0:0:0:0:
173,121,112139,1,8,0:0:0:0:
173,121,112381,6,0,P|114:129|80:173,1,110,0|0,0:0|0:0,0:0:0:0:
47,201,113106,2,0,L|37:276,1,55,8|0,0:0|0:0,0:0:0:0:
81,281,113590,2,0,L|91:356,1,55,2|0,1:2|0:0,0:0:0:0:
122,371,114074,1,8,0:0:0:0:
122,371,114316,2,0,P|180:372|236:331,1,110,0|0,0:0|0:0,0:0:0:0:
250,304,115042,1,10,0:2:0:0:
212,212,115526,1,2,1:2:0:0:
287,148,116010,2,0,L|294:81,1,55,10|0,0:2|1:0,0:0:0:0:
329,60,116494,5,4,0:0:0:0:
329,60,116735,2,0,B|418:73|380:135|477:138,1,165,0|2,0:0|0:0,0:0:0:0:
477,240,117945,1,2,0:0:0:0:
477,240,118187,1,2,0:0:0:0:
407,310,118671,2,0,B|339:315|339:315|316:342|316:342|233:348,1,165,0|2,0:0|0:0,0:0:0:0:
157,363,119881,2,0,L|84:350,1,55,2|2,0:0|0:0,0:0:0:0:
64,332,120364,5,2,0:0:0:0:
64,332,120606,2,0,P|59:241|124:183,1,165,2|2,0:0|0:0,0:0:0:0:
199,237,121816,1,2,0:0:0:0:
199,237,122058,1,2,1:2:0:0:
486,52,123994,1,0,3:0:0:0:
486,52,124235,6,0,B|417:65|439:89|357:108,1,121.000003692627,4|8,1:1|0:0,0:0:0:0:
329,76,124961,1,2,0:3:0:0:
282,46,125203,2,0,L|223:57,1,60.5000018463135,2|2,1:2|0:3,0:0:0:0:
176,86,125687,1,8,0:0:0:0:
126,63,125929,2,0,P|83:96|84:179,1,121.000003692627,2|2,0:3|0:3,0:0:0:0:
105,204,126655,1,8,0:0:0:0:
51,298,127139,1,2,1:2:0:0:
94,330,127381,2,0,P|147:322|213:314,1,121.000003692627,2|2,0:3|0:3,0:0:0:0:
246,269,128106,5,2,1:2:0:0:
187,176,128590,2,0,L|196:91,1,60.5000018463135,8|2,0:0|0:3,0:0:0:0:
208,63,129074,2,0,P|242:55|284:76,1,60.5000018463135,2|2,1:2|0:3,0:0:0:0:
312,91,129558,1,8,0:0:0:0:
364,77,129800,2,0,P|383:119|397:205,1,121.000003692627,2|2,0:3|0:3,0:0:0:0:
382,244,130526,1,10,0:0:0:0:
406,343,131010,1,2,1:2:0:0:
298,357,131494,2,0,P|264:364|227:346,1,60.5000018463135,10|2,0:0|1:3,0:0:0:0:
215,307,131977,6,0,L|225:244,1,60.5000018463135,2|2,1:2|0:3,0:0:0:0:
267,212,132461,2,0,L|253:134,1,60.5000018463135,8|2,0:0|0:3,0:0:0:0:
218,112,132945,2,0,L|146:123,2,60.5000018463135,2|2|8,1:2|0:3|0:0,0:0:0:0:
249,67,133671,1,2,0:3:0:0:
354,39,134155,2,0,P|374:64|371:105,1,60.5000018463135,2|8,0:3|0:0,0:0:0:0:
417,126,134639,2,0,P|405:155|368:173,1,60.5000018463135,2|2,0:3|1:2,0:0:0:0:
364,222,135123,1,2,0:3:0:0:
292,304,135606,1,2,0:3:0:0:
243,278,135848,6,0,B|181:269|113:260,1,121.000003692627,2|8,1:2|0:0,0:0:0:0:
76,289,136574,1,2,0:3:0:0:
17,197,137058,1,2,0:3:0:0:
66,100,137542,2,0,P|123:64|189:74,1,121.000003692627,2|0,0:3|0:0,0:0:0:0:
219,98,138268,1,8,0:0:0:0:
259,134,138510,2,0,L|277:268,1,121.000003692627,2|2,0:3|0:3,0:0:0:0:
298,303,139235,2,0,P|319:310|358:299,1,60.5000018463135,8|0,1:2|1:0,0:0:0:0:
400,269,139719,5,4,1:0:0:0:
467,183,140203,2,0,P|482:156|476:124,1,60.5000018463135,8|2,0:0|0:3,0:0:0:0:
486,73,140687,2,0,P|470:46|439:35,1,60.5000018463135,2|2,1:2|0:3,0:0:0:0:
394,60,141171,1,8,0:0:0:0:
343,39,141413,2,0,B|189:71,1,121.000003692627,2|2,0:3|0:3,0:0:0:0:
183,99,142139,1,8,0:0:0:0:
81,58,142623,1,2,1:2:0:0:
43,97,142864,2,0,L|55:181,1,60.5000018463135,2|8,0:3|0:0,0:0:0:0:
36,209,143348,5,2,0:3:0:0:
102,295,143832,1,2,0:3:0:0:
147,265,144074,2,0,B|179:260|179:260|219:276,1,60.5000018463135,8|2,0:0|0:3,0:0:0:0:
249,301,144558,2,0,B|281:306|281:306|321:290,1,60.5000018463135,2|2,1:2|0:3,0:0:0:0:
334,248,145042,1,8,0:0:0:0:
298,203,145284,2,0,B|287:73,1,121.000003692627,2|2,0:3|0:3,0:0:0:0:
336,58,146010,1,10,0:0:0:0:
438,95,146494,1,2,1:2:0:0:
483,194,146977,2,0,L|473:253,1,60.5000018463135,10|2,0:0|1:3,0:0:0:0:
457,306,147461,6,0,P|423:307|390:328,1,60.5000018463135,2|2,1:2|0:3,0:0:0:0:
364,359,147945,2,0,P|330:357|297:337,1,60.5000018463135,8|2,0:0|0:3,0:0:0:0:
271,303,148429,2,0,L|203:313,2,60.5000018463135,2|2|8,1:2|0:3|0:0,0:0:0:0:
308,263,149155,1,2,0:3:0:0:
233,183,149639,2,0,L|239:109,1,60.5000018463135,2|8,0:3|0:0,0:0:0:0:
214,73,150123,2,0,B|150:61|150:61|93:104,1,121.000003692627,2|2,0:3|0:3,0:0:0:0:
35,178,151090,1,2,0:3:0:0:
77,211,151332,6,0,P|70:271|61:331,1,121.000003692627,2|8,1:2|0:0,0:0:0:0:
110,354,152058,1,2,0:3:0:0:
202,296,152542,1,2,0:3:0:0:
282,353,153026,2,0,P|316:318|312:235,1,110,4|0,0:0|0:0,0:0:0:0:
329,209,153752,1,0,0:0:0:0:
329,209,153994,1,2,0:0:0:0:
231,193,154477,2,0,B|181:201|181:201|168:213|168:213|100:224,1,110,0|0,0:0|1:0,0:0:0:0:
77,223,155203,5,4,0:0:0:0:
24,89,155929,1,0,0:0:0:0:
24,89,156171,2,0,P|73:56|154:67,1,110,0|2,0:0|0:0,0:0:0:0:
216,86,157139,2,0,L|206:149,2,55,0|2|0,0:0|0:0|0:0,0:0:0:0:
252,52,157864,1,2,0:0:0:0:
347,25,158348,2,0,P|398:57|389:145,1,110,2|0,0:0|0:0,0:0:0:0:
378,141,159074,6,0,P|368:220|360:339,1,165,2|0,0:0|0:0,0:0:0:0:
318,329,160042,2,0,L|255:343,1,55,0|2,0:0|0:0,0:0:0:0:
219,363,160526,2,0,P|180:359|152:326,1,55,2|2,0:0|0:0,0:0:0:0:
152,303,161010,1,0,0:0:0:0:
129,211,161494,1,2,0:0:0:0:
129,211,161735,1,2,0:0:0:0:
201,143,162219,2,0,P|256:150|335:166,1,110,2|0,0:0|0:0,0:0:0:0:
359,164,162945,6,0,P|384:100|330:12,1,165,2|2,0:0|0:0,0:0:0:0:
292,26,163913,2,0,L|219:40,1,55,2|2,0:0|0:0,0:0:0:0:
205,74,164397,2,0,L|132:60,1,55,2|2,0:0|0:0,0:0:0:0:
113,31,164881,1,2,0:0:0:0:
41,99,165364,1,0,0:0:0:0:
41,99,165606,1,2,0:0:0:0:
99,179,166090,2,0,L|82:240,2,55,0|0|0,0:0|0:0|0:0,0:0:0:0:
148,161,166816,6,0,P|202:154|261:186,1,110,2|0,0:0|0:0,0:0:0:0:
285,212,167542,1,2,0:0:0:0:
375,252,168026,1,2,0:0:0:0:
323,336,168510,2,0,B|268:342|268:342|256:352|256:352|186:360,1,110,2|0,0:0|0:0,0:0:0:0:
118,350,169477,2,0,B|88:302|88:302|106:231,1,110,2|0,1:2|0:0,0:0:0:0:
140,220,170203,2,0,L|128:144,1,55,0|0,1:0|1:0,0:0:0:0:
104,123,170687,5,4,1:2:0:0:
164,44,171171,2,0,L|227:60,1,55,8|0,0:0|0:0,0:0:0:0:
255,89,171655,2,0,L|317:82,1,55,2|0,1:2|0:0,0:0:0:0:
351,55,172139,1,8,0:0:0:0:
428,117,172623,2,0,L|417:256,1,110,0|8,1:0|0:0,0:0:0:0:
446,267,173348,2,0,L|436:330,1,55,0|2,0:0|1:2,0:0:0:0:
397,351,173832,1,0,0:0:0:0:
397,351,174074,2,0,P|359:350|324:329,1,55,8|0,1:2|1:0,0:0:0:0:
305,312,174558,5,2,1:2:0:0:
213,350,175042,1,8,0:0:0:0:
137,286,175526,2,0,L|151:219,1,55,2|0,1:2|0:0,0:0:0:0:
177,193,176010,1,8,0:0:0:0:
177,193,176252,2,0,P|128:160|69:179,1,110,0|0,0:0|0:0,0:0:0:0:
18,246,177219,2,0,P|16:274|26:300,1,55,0|2,0:0|1:2,0:0:0:0:
57,339,177703,1,0,0:0:0:0:
57,339,177945,2,0,L|137:329,1,55,8|8,0:0|0:0,0:0:0:0:
157,351,178429,5,2,1:2:0:0:
246,307,178913,2,0,L|262:232,1,55,8|0,0:0|0:0,0:0:0:0:
287,213,179397,2,0,L|278:158,1,55,2|0,1:2|0:0,0:0:0:0:
243,123,179881,1,8,0:0:0:0:
310,50,180364,2,0,P|362:46|424:98,1,110,0|8,1:0|0:0,0:0:0:0:
441,113,181090,2,0,L|435:177,1,55,0|2,0:0|1:2,0:0:0:0:
424,219,181574,1,0,0:0:0:0:
424,219,181816,2,0,L|441:303,1,55,8|0,0:0|1:0,0:0:0:0:
414,318,182300,5,2,1:2:0:0:
326,364,182784,1,8,0:0:0:0:
326,364,183026,2,0,B|273:357|273:357|261:361|261:361|208:349,1,110,0|0,0:2|0:2,0:0:0:0:
183,316,183752,1,8,0:0:0:0:
183,316,183994,1,4,0:0:0:0:
256,192,184114,12,2,185929,1:2:0:0:
63,371,188106,6,0,L|86:243,1,121.000003692627,4|8,1:1|0:0,0:0:0:0:
44,214,188832,1,2,0:3:0:0:
78,172,189074,2,0,L|62:93,1,60.5000018463135,2|2,1:2|0:3,0:0:0:0:
25,75,189558,1,8,0:0:0:0:
52,28,189800,2,0,P|107:23|162:65,1,121.000003692627,2|2,0:3|0:3,0:0:0:0:
202,92,190526,1,8,0:2:0:0:
250,189,191010,1,2,1:2:0:0:
217,232,191252,2,0,L|235:366,1,121.000003692627,2|2,0:3|0:3,0:0:0:0:
280,379,191977,5,2,1:2:0:0:
384,348,192461,2,0,L|392:281,1,60.5000018463135,8|2,0:0|0:3,0:0:0:0:
434,254,192945,2,0,L|421:186,1,60.5000018463135,2|2,1:2|0:3,0:0:0:0:
442,143,193429,1,8,0:0:0:0:
409,99,193671,1,2,0:3:0:0:
304,67,194155,2,0,L|231:82,1,60.5000018463135,2|10,0:3|0:0,0:0:0:0:
210,121,194639,2,0,B|148:134|148:134|76:98,1,121.000003692627,2|2,0:3|0:3,0:0:0:0:
47,131,195364,2,0,P|45:169|58:202,1,60.5000018463135,10|2,0:0|1:3,0:0:0:0:
81,236,195848,5,2,1:2:0:0:
146,323,196332,2,0,P|172:328|219:305,1,60.5000018463135,8|2,0:0|0:3,0:0:0:0:
245,282,196816,2,0,L|247:214,1,60.5000018463135,2|2,1:2|0:3,0:0:0:0:
226,176,197300,1,8,0:0:0:0:
256,131,197542,1,2,0:3:0:0:
322,45,198026,2,0,B|388:41|373:81|444:68,1,121.000003692627,2|2,0:3|0:3,0:0:0:0:
483,98,198752,1,2,1:2:0:0:
482,152,198994,1,2,0:3:0:0:
414,237,199477,1,2,0:3:0:0:
436,286,199719,6,0,P|375:283|322:326,1,121.000003692627,2|8,1:2|0:0,0:0:0:0:
281,345,200445,1,2,0:3:0:0:
177,377,200929,1,2,0:3:0:0:
108,292,201413,2,0,P|112:247|117:165,1,121.000003692627,2|2,0:3|0:3,0:0:0:0:
152,130,202139,1,8,0:0:0:0:
133,78,202381,2,0,B|66:74|66:74|12:119,1,121.000003692627,2|2,0:3|0:3,0:0:0:0:
3,158,203106,2,0,L|16:224,1,60.5000018463135,8|0,1:2|1:2,0:0:0:0:
7,272,203590,5,4,1:1:0:0:
111,301,204074,2,0,P|137:294|174:290,1,60.5000018463135,8|2,0:0|0:3,0:0:0:0:
214,322,204558,2,0,P|240:328|277:333,1,60.5000018463135,2|2,1:2|0:3,0:0:0:0:
318,301,205042,1,8,0:0:0:0:
369,317,205284,2,0,B|375:254|376:189,1,121.000003692627,2|2,0:3|0:3,0:0:0:0:
368,143,206010,1,8,0:0:0:0:
281,77,206494,1,2,1:2:0:0:
242,115,206735,2,0,L|167:101,1,60.5000018463135,2|8,0:3|0:0,0:0:0:0:
131,84,207219,5,2,0:3:0:0:
27,49,207703,1,2,0:3:0:0:
3,98,207945,2,0,L|16:165,1,60.5000018463135,8|2,0:0|0:3,0:0:0:0:
57,191,208429,2,0,L|44:258,1,60.5000018463135,2|2,1:2|0:3,0:0:0:0:
20,299,208913,1,8,0:0:0:0:
62,333,209155,2,0,B|122:357|122:357|185:331,1,121.000003692627,2|2,0:3|0:3,0:0:0:0:
222,359,209881,1,10,0:0:0:0:
297,280,210364,1,2,1:2:0:0:
244,184,210848,2,0,L|235:113,1,60.5000018463135,10|2,0:0|1:3,0:0:0:0:
273,83,211332,6,0,B|305:81|305:81|343:98,1,60.5000018463135,2|2,1:2|0:3,0:0:0:0:
371,129,211816,2,0,L|363:189,1,60.5000018463135,8|2,0:0|0:3,0:0:0:0:
395,233,212300,2,0,L|454:242,2,60.5000018463135,2|2|8,1:2|0:3|0:0,0:0:0:0:
364,278,213026,1,2,0:3:0:0:
288,356,213510,2,0,P|255:358|220:334,1,60.5000018463135,2|8,0:3|0:0,0:0:0:0:
201,299,213994,2,0,B|142:306|142:306|128:319|128:319|40:331,1,121.000003692627,2|2,0:3|0:3,0:0:0:0:
31,229,214961,1,2,0:3:0:0:
74,196,215203,6,0,P|80:135|89:75,1,121.000003692627,2|8,1:2|0:0,0:0:0:0:
133,43,215929,1,2,0:3:0:0:
240,26,216413,1,2,0:3:0:0:
296,118,216897,2,0,B|267:175|306:184|282:237,1,121.000003692627,4|0,0:0|0:0,0:0:0:0:
301,292,217623,1,8,0:0:0:0:
301,292,217864,2,0,P|364:305|431:258,1,121.000003692627,2|0,0:0|0:0,0:0:0:0:
430,229,218590,2,0,L|445:146,1,60.5000018463135,0|0,1:0|1:0,0:0:0:0:
451,121,219074,5,4,0:0:0:0:
