osu file format v14

[General]
AudioFilename: audio.mp3
AudioLeadIn: 0
PreviewTime: 45072
Countdown: 0
SampleSet: None
StackLeniency: 0.7
Mode: 0
LetterboxInBreaks: 0
WidescreenStoryboard: 1

[Editor]
Bookmarks: 5634,5971,22151,25521,27206,28892,46083,46252,48273,49116,52487,62599
DistanceSpacing: 1.5
BeatDivisor: 2
GridSize: 16
TimelineZoom: 1.7

[Metadata]
Title:Kokoro no yuki
TitleUnicode:Kokoro no yuki
Artist:YU+KI
ArtistUnicode:YU+KI
Creator:Zonsa
Version:Hard
Source:Beyblade 4D
Tags:
BeatmapID:1711040
BeatmapSetID:814787

[Difficulty]
HPDrainRate:3
CircleSize:3
OverallDifficulty:4
ApproachRate:7
SliderMultiplier:1.4
SliderTickRate:1

[Events]
//Background and Video events
0,0,"maxresdefault.jpg",0,0
Video,0,"Metal Fight Beyblade 4D - Opening 1 Brave Heart (Version 1) 1080p.mp4"
//Break Periods
2,11396,20951
2,57237,61699
//Storyboard Layer 0 (Background)
//Storyboard Layer 1 (Fail)
//Storyboard Layer 2 (Pass)
//Storyboard Layer 3 (Foreground)
//Storyboard Sound Samples

[TimingPoints]
578,337.083050847457,4,2,0,30,1,0
578,-117.647058823529,4,2,0,30,0,0
2431,-142.857142857143,4,2,0,30,0,0
3274,-117.647058823529,4,2,0,30,0,0
11196,337.083050847457,4,2,0,30,1,0
22151,-100,4,2,0,30,0,0
23499,337.083050847457,4,2,0,30,1,0
35465,-117.647058823529,4,2,0,30,0,0
35971,-100,4,2,0,30,0,0
46420,337.083050847457,4,2,0,30,1,1
46420,-86.9565217391304,4,2,0,30,0,1
55858,337.083050847457,4,2,0,30,1,0
65296,337.083050847457,4,2,0,30,1,1
75745,-86.9565217391304,4,2,0,30,0,1
85520,337.083050847457,4,2,0,30,1,0

[HitObjects]
108,99,578,6,0,P|114:165|156:219,1,119.000002269745,0|0,0:0|0:0,0:0:0:0:
224,242,1083,1,0,0:0:0:0:
343,109,1420,2,0,P|337:175|295:229,1,119.000002269745,0|0,0:0|0:0,0:0:0:0:
274,298,1926,6,0,P|268:232|226:178,1,119.000002269745,0|0,0:0|0:0,0:0:0:0:
167,173,2431,2,0,P|247:189|317:151,1,146.999995513916
411,306,3274,6,0,P|398:228|349:186,1,119.000002269745,0|0,0:0|0:0,0:0:0:0:
458,174,3780,2,0,P|399:180|346:155,2,119.000002269745,0|0|0,0:0|0:0|0:0,0:0:0:0:
372,199,4622,6,0,P|316:190|346:269,1,178.500003404617,4|4,0:0|0:0,0:0:0:0:
96,326,5634,1,4,0:0:0:0:
255,270,5971,6,0,P|176:263|121:240,1,119.000002269745,0|0,0:0|0:0,0:0:0:0:
51,246,6476,2,0,P|130:239|185:216,1,119.000002269745,0|0,0:0|0:0,0:0:0:0:
342,193,7151,1,4,0:0:0:0:
179,118,7488,1,0,0:0:0:0:
333,28,7825,2,8,P|300:110|240:175,1,178.500003404617,0|0,0:0|0:0,0:0:0:0:
71,232,8667,6,0,P|136:229|195:201,1,119.000002269745,4|0,0:0|0:0,0:0:0:0:
240,270,9173,2,0,P|146:265|62:225,1,178.500003404617,4|4,0:0|0:0,0:0:0:0:
243,186,10016,1,0,0:0:0:0:
452,246,10690,2,0,P|388:251|329:231,1,119.000002269745,2|2,0:0|0:0,0:0:0:0:
243,186,11196,1,2,0:0:0:0:
143,112,22151,6,0,B|163:150|163:150|211:169,1,70,2|2,0:0|0:0,0:0:0:0:
392,210,22656,2,0,B|362:277|362:277|275:308,1,140,2|2,0:0|0:0,0:0:0:0:
59,94,23499,6,0,B|140:94|100:148|193:153,1,140,0|8,0:0|0:0,0:0:0:0:
389,169,24173,2,0,B|308:169|348:223|255:228,1,140,0|8,0:0|0:0,0:0:0:0:
75,311,24847,6,0,P|124:261|207:239,1,140,0|8,0:0|0:0,0:0:0:0:
397,268,25521,2,0,P|348:318|265:340,2,140,0|8|0,0:0|0:0|0:0,0:0:0:0:
161,237,26532,6,0,P|226:261|316:250,1,140,8|0,0:0|0:0,0:0:0:0:
387,67,27206,1,8,0:0:0:0:
205,172,27543,6,0,B|238:185|238:185|277:177,2,70,0|0|8,0:0|0:0|0:0,0:0:0:0:
99,178,28049,2,0,B|71:200|71:200|58:237,1,70,0|0,0:3|0:0,0:0:0:0:
147,83,28386,2,0,B|141:47|141:47|115:18,1,70,0|8,0:0|0:0,0:0:0:0:
42,94,28723,1,0,0:0:0:0:
0,190,28892,6,0,B|17:261|17:261|76:317,1,140,4|8,0:0|0:0,0:0:0:0:
253,213,29566,2,0,P|182:192|104:215,1,140,0|8,0:0|0:0,0:0:0:0:
298,316,30240,6,0,P|368:336|446:313,1,140,0|8,0:0|0:0,0:0:0:0:
377,119,30914,2,0,P|356:189|379:267,1,140,0|8,0:0|0:0,0:0:0:0:
175,329,31588,6,0,P|195:258|172:180,1,140,0|8,0:0|0:0,0:0:0:0:
62,21,32263,2,0,P|41:91|64:169,1,140,0|8,0:0|0:0,0:0:0:0:
293,56,32937,2,0,B|329:42|329:42|391:43,1,70,4|0,0:0|0:0,0:0:0:0:
435,116,33274,2,0,B|399:130|399:130|337:129,1,70,0|2,0:0|0:0,0:0:0:0:
265,153,33611,2,0,P|185:192|143:242,1,140,2|0,0:0|0:0,0:0:0:0:
245,287,34117,1,0,0:0:0:0:
330,227,34285,6,0,B|369:224|369:224|398:242,4,70,4|4|4|4|4,0:0|0:0|0:0|0:0|0:0,0:0:0:0:
141,124,35465,6,0,P|155:199|130:272,1,119.000002269745,0|0,0:0|0:0,0:0:0:0:
216,317,35971,2,0,P|189:258|130:304,1,140,12|0,0:0|0:0,0:0:0:0:
237,189,36645,2,0,P|232:139|219:98,1,70,8|0,0:0|0:0,0:0:0:0:
278,72,36982,6,0,P|285:137|325:234,1,140,0|8,0:0|0:0,0:0:0:0:
417,295,37656,2,0,P|410:230|370:133,1,140,0|8,0:0|0:0,0:0:0:0:
452,138,38162,2,0,P|382:128|317:102,1,140,0|0,0:0|0:0,0:0:0:0:
296,36,38667,2,0,P|328:57|377:76,2,70,8|0|0,0:0|0:0|0:0,0:0:0:0:
205,47,39173,1,0,0:0:0:0:
205,47,39341,1,8,0:0:0:0:
205,47,39510,1,0,0:0:0:0:
121,110,39678,6,0,P|162:194|161:282,1,140,0|8,0:0|0:0,0:0:0:0:
27,243,40353,2,0,P|106:273|187:269,1,140,0|8,0:0|0:0,0:0:0:0:
222,307,40858,2,0,P|188:315|159:335,2,70,0|0|0,0:0|0:0|0:0,0:0:0:0:
324,281,41364,1,8,0:0:0:0:
324,281,41532,2,0,P|248:268|163:229,1,140,0|0,0:0|0:0,0:0:0:0:
283,196,42038,1,8,0:0:0:0:
74,223,42375,6,0,P|158:164|222:154,1,140,4|8,0:0|0:0,0:0:0:0:
298,149,42881,2,0,P|262:172|203:192,2,70,4|0|0,0:0|0:0|0:0,0:0:0:0:
316,256,43386,2,0,P|293:220|273:161,1,70,4|0,0:0|0:0,0:0:0:0:
324,98,43723,2,0,P|343:127|357:158,1,70,2|2,0:0|0:0,0:0:0:0:
502,312,44229,2,0,P|467:314|432:310,1,70,2|2,0:0|0:0,0:0:0:0:
228,359,44735,2,0,P|243:327|263:299,1,70,10|2,0:0|0:0,0:0:0:0:
331,218,45072,6,0,B|369:210|369:210|416:227,2,70,0|0|8,0:0|0:0|0:0,0:0:0:0:
227,203,45577,2,0,B|189:211|189:211|142:194,2,70,0|0|0,0:0|0:0|0:0,0:0:0:0:
312,141,46083,2,0,B|350:133|350:133|381:107,1,70,8|0,0:0|0:0,0:0:0:0:
262,64,46420,6,0,P|188:66|116:118,1,161.000003070831,4|8,0:0|0:0,0:0:0:0:
83,276,46925,2,0,L|202:145,1,161.000003070831,0|0,0:0|0:0,0:0:0:0:
262,64,47431,2,0,L|288:176,1,80.5000015354157,8|0,0:0|0:0,0:0:0:0:
240,256,47768,2,0,P|241:194|214:144,2,80.5000015354157,0|0|8,0:0|0:0|0:0,0:0:0:0:
358,153,48273,6,0,P|303:150|249:122,2,80.5000015354157,0|0|0,0:0|0:0|0:0,0:0:0:0:
472,112,48779,2,0,P|469:167|441:221,1,80.5000015354157,8|0,0:0|0:0,0:0:0:0:
362,316,49116,6,0,P|412:248|420:197,1,80.5000015354157
413,131,49453,1,8,0:0:0:0:
347,28,49622,2,0,P|344:83|316:137,1,80.5000015354157,0|0,0:0|0:0,0:0:0:0:
235,284,49959,2,0,P|285:216|293:165,1,80.5000015354157,0|8,0:0|0:0,0:0:0:0:
251,104,50296,6,0,L|202:189,1,80.5000015354157,4|0,0:0|0:0,0:0:0:0:
191,54,50633,2,0,L|142:139,1,80.5000015354157,4|8,0:0|0:0,0:0:0:0:
131,5,50970,2,0,L|82:90,1,80.5000015354157,4|0,0:0|0:0,0:0:0:0:
67,193,51307,2,0,P|111:220|132:259,1,80.5000015354157,0|8,0:0|0:0,0:0:0:0:
14,290,51644,1,0,0:0:0:0:
14,290,51813,6,0,P|38:321|73:340,1,80.5000015354157,0|0,0:0|0:0,0:0:0:0:
185,293,52150,1,8,0:0:0:0:
185,293,52319,2,0,P|160:261|125:242,1,80.5000015354157,0|0,0:0|0:0,0:0:0:0:
65,136,52656,6,0,P|163:214|220:229,1,161.000003070831,0|0,0:0|0:0,0:0:0:0:
351,311,53330,2,8,P|359:227|399:150,1,161.000003070831,0|0,0:0|0:0,0:0:0:0:
393,38,53835,2,0,P|375:85|335:139,1,80.5000015354157,0|0,0:0|0:0,0:0:0:0:
286,206,54172,2,0,P|303:158|343:104,1,80.5000015354157,8|0,0:0|0:0,0:0:0:0:
233,47,54509,6,0,P|267:119|274:199,1,161.000003070831,4|8,0:0|0:0,0:0:0:0:
172,134,55015,2,0,P|247:160|308:212,1,161.000003070831,4|0,0:0|0:0,0:0:0:0:
190,238,55521,2,0,P|262:203|342:196,1,161.000003070831,12|0,0:0|0:0,0:0:0:0:
479,73,56532,6,0,P|406:107|337:114,1,140,2|0,0:0|0:0,0:0:0:0:
261,80,57037,1,0,0:0:0:0:
49,249,62599,6,0,P|86:227|126:225,1,70,4|0,0:0|0:0,0:0:0:0:
202,277,62936,2,0,P|165:299|125:301,1,70,0|4,0:0|0:0,0:0:0:0:
209,104,63442,2,0,P|172:82|132:80,1,70,0|4,0:0|0:0,0:0:0:0:
40,71,63779,2,0,P|100:104|169:115,1,140,0|4,0:0|0:0,0:0:0:0:
288,271,64285,6,0,P|326:273|365:247,1,70,0|0,0:0|0:0,0:0:0:0:
388,159,64622,2,0,P|367:190|370:237,1,70,0|0,0:0|0:0,0:0:0:0:
434,301,64959,2,0,P|416:267|374:246,1,70,0|0,0:0|0:0,0:0:0:0:
290,143,65296,6,0,P|226:191|158:209,1,140,0|8,0:0|0:0,0:0:0:0:
81,150,65801,2,0,P|167:122|192:123,1,70,0|0,0:0|0:0,0:0:0:0:
118,22,66138,2,0,P|161:26|200:49,1,70,0|8,0:0|0:0,0:0:0:0:
285,7,66475,2,0,P|316:36|332:78,1,70,0|0,0:0|0:0,0:0:0:0:
432,44,66812,2,0,P|424:86|353:168,2,140,0|0|0,0:0|0:0|0:0,0:0:0:0:
493,129,67655,1,8,0:0:0:0:
444,222,67824,1,0,0:0:0:0:
357,280,67992,6,0,P|412:224|432:150,1,140,0|8,0:0|0:0,0:0:0:0:
377,76,68498,2,0,P|379:116|369:161,1,70,0|0,0:0|0:0,0:0:0:0:
293,237,68835,2,0,P|321:136|290:74,1,140,0|0,0:0|0:0,0:0:0:0:
237,311,69509,2,0,P|209:210|240:148,1,140,0|0,0:0|0:0,0:0:0:0:
135,115,70015,2,0,P|218:119|256:102,1,70,0|0,0:0|0:0,0:0:0:0:
274,43,70352,2,0,P|191:39|153:56,1,70,10|2,0:0|0:0,0:0:0:0:
102,11,70689,6,0,P|46:123|63:182,1,140,0|8,0:0|0:0,0:0:0:0:
135,188,71194,2,0,P|89:170|30:175,1,70,0|0,0:0|0:0,0:0:0:0:
89,272,71532,2,0,P|120:286|155:291,1,70,0|8,0:0|0:0,0:0:0:0:
257,318,71869,2,0,P|194:257|186:185,1,140,0|0,0:0|0:0,0:0:0:0:
102,141,72374,2,0,P|148:159|207:154,1,70,8|0,0:0|0:0,0:0:0:0:
273,169,72711,2,0,P|355:199|391:261,1,140,0|8,0:0|0:0,0:0:0:0:
480,52,73385,6,0,L|326:115,1,140,0|8,0:0|0:0,0:0:0:0:
432,170,73891,2,0,L|278:233,1,140,0|0,0:0|0:0,0:0:0:0:
384,288,74397,2,0,L|283:328,1,70,8|0,0:0|0:0,0:0:0:0:
213,317,74734,2,0,B|226:243|226:243|188:175,1,140,4|0,0:0|0:0,0:0:0:0:
109,125,75239,2,0,B|96:199|96:199|134:267,1,140,4|0,0:0|0:0,0:0:0:0:
100,373,75745,2,0,L|53:292,1,80.5000015354157,4|0,0:0|0:0,0:0:0:0:
15,190,76082,6,0,L|51:6,1,161.000003070831,0|8,0:0|0:0,0:0:0:0:
63,151,76588,2,0,P|105:75|184:51,1,161.000003070831,0|0,0:0|0:0,0:0:0:0:
407,102,77262,2,0,P|377:174|306:210,1,161.000003070831,0|0,0:0|0:0,0:0:0:0:
63,151,77936,2,0,B|105:75|105:75|184:51,1,161.000003070831,0|0,0:0|0:0,0:0:0:0:
284,106,78442,2,0,L|171:140,1,80.5000015354157,8|0,0:0|0:0,0:0:0:0:
144,232,78779,6,0,L|340:173,1,161.000003070831,0|8,0:0|0:0,0:0:0:0:
407,236,79284,2,0,L|211:295,1,161.000003070831,0|0,0:0|0:0,0:0:0:0:
12,254,79959,6,0,P|52:191|190:147,2,161.000003070831,4|4|4,0:0|0:0|0:0,0:0:0:0:
65,361,80801,2,0,P|81:301|112:255,1,80.5000015354157,0|0,0:0|0:0,0:0:0:0:
203,243,81138,2,0,P|187:303|156:349,1,80.5000015354157,8|2,0:0|0:0,0:0:0:0:
283,258,81475,6,0,P|234:168|169:169,1,161.000003070831,2|8,0:0|0:0,0:0:0:0:
65,183,81981,2,0,P|181:143|233:95,1,161.000003070831,0|0,0:0|0:0,0:0:0:0:
449,94,82655,2,0,P|371:113|304:156,1,161.000003070831,0|0,0:0|0:0,0:0:0:0:
76,238,83329,2,0,P|192:278|244:326,1,161.000003070831,0|0,0:0|0:0,0:0:0:0:
341,288,83835,2,0,P|286:289|237:277,1,80.5000015354157,8|0,0:0|0:0,0:0:0:0:
153,229,84172,6,0,P|269:189|339:194,1,161.000003070831,0|8,0:0|0:0,0:0:0:0:
426,199,84678,2,0,P|309:159|239:164,1,161.000003070831,0|0,0:0|0:0,0:0:0:0:
160,115,85183,1,8,0:0:0:0:
160,115,85520,1,0,0:0:0:0:
