osu file format v14

[General]
AudioFilename: audio.ogg
AudioLeadIn: 0
PreviewTime: 112120
Countdown: 0
SampleSet: Soft
StackLeniency: 0.7
Mode: 3
LetterboxInBreaks: 0
SpecialStyle: 0
WidescreenStoryboard: 1

[Editor]
DistanceSpacing: 1
BeatDivisor: 8
GridSize: 32
TimelineZoom: 3.800001

[Metadata]
Title:Oort Cloud
TitleUnicode:오르트구름
Artist:YOUNHA
ArtistUnicode:윤하
Creator:Gahyeonln
Version:valiant
Source:
Tags:yunha kpop k-pop korean pop rock Kakao 카카오 c9 씨나인 엔터테인먼트 entertainment end theory The 6th Album JEWNO 손준호 KZ HOFF danke lalala studio
BeatmapID:4125284
BeatmapSetID:1880372

[Difficulty]
HPDrainRate:8.5
CircleSize:4
OverallDifficulty:7.5
ApproachRate:5
SliderMultiplier:1.4
SliderTickRate:1

[Events]
//Background and Video events
0,0,"Younha bg.jpg",0,0
//Break Periods
//Storyboard Layer 0 (Background)
//Storyboard Layer 1 (Fail)
//Storyboard Layer 2 (Pass)
//Storyboard Layer 3 (Foreground)
//Storyboard Layer 4 (Overlay)
//Storyboard Sound Samples

[TimingPoints]
558,468.750000000001,4,2,1,100,1,0
53058,-100,4,2,1,100,0,1
68058,-100,4,2,1,100,0,0
113058,-100,4,2,1,100,0,1
127589,-100,4,2,1,100,0,0
128058,-100,4,2,1,100,0,1
139308,-100,4,2,1,100,0,0
173058,-100,4,2,1,100,0,1
199308,-100,4,2,1,100,0,0

[HitObjects]
320,192,558,5,2,0:0:0:70:soft-hitwhistle.wav
448,192,558,1,0,0:0:0:0:
192,192,792,128,0,1026:0:0:0:0:
320,192,1026,1,2,0:0:0:70:soft-hitwhistle.wav
448,192,1026,1,0,0:0:0:0:
192,192,1143,128,0,1261:0:0:0:0:
448,192,1261,128,0,1378:0:0:0:0:
192,192,1378,128,0,1495:0:0:0:0:
320,192,1495,1,2,0:0:0:70:soft-hitwhistle.wav
448,192,1495,1,0,0:0:0:0:
64,192,1729,128,0,1964:0:0:0:0:
320,192,1964,1,2,0:0:0:70:soft-hitwhistle.wav
448,192,1964,1,0,0:0:0:0:
64,192,2081,128,0,2198:0:0:0:0:
448,192,2198,128,0,2315:0:0:0:0:
64,192,2315,128,0,2433:0:0:0:0:
320,192,2433,1,2,0:0:0:70:soft-hitwhistle.wav
448,192,2433,1,0,0:0:0:0:
192,192,2667,128,0,2901:0:0:0:0:
320,192,2901,1,2,0:0:0:70:soft-hitwhistle.wav
448,192,2901,1,0,0:0:0:0:
192,192,3018,128,0,3136:0:0:0:0:
448,192,3136,128,0,3253:0:0:0:0:
192,192,3253,128,0,3370:0:0:0:0:
320,192,3370,1,2,0:0:0:70:soft-hitwhistle.wav
448,192,3370,1,0,0:0:0:0:
64,192,3604,128,0,3839:0:0:0:0:
320,192,3839,1,2,0:0:0:70:soft-hitwhistle.wav
448,192,3839,1,0,0:0:0:0:
64,192,3956,128,0,4073:0:0:0:0:
448,192,4073,128,0,4190:0:0:0:0:
64,192,4190,128,0,4308:0:0:0:0:
320,192,4308,1,2,0:0:0:70:soft-hitwhistle.wav
448,192,4308,1,0,0:0:0:0:
320,192,4542,128,0,4776:0:0:0:0:
64,192,4776,1,2,0:0:0:70:soft-hitwhistle.wav
192,192,4776,1,0,0:0:0:0:
320,192,4893,128,0,5011:0:0:0:0:
64,192,5011,128,0,5128:0:0:0:0:
320,192,5128,128,0,5245:0:0:0:0:
64,192,5245,1,2,0:0:0:70:soft-hitwhistle.wav
192,192,5245,1,0,0:0:0:0:
448,192,5479,128,0,5714:0:0:0:0:
64,192,5714,1,2,0:0:0:70:soft-hitwhistle.wav
192,192,5714,1,0,0:0:0:0:
448,192,5831,128,0,5948:0:0:0:0:
64,192,5948,128,0,6065:0:0:0:0:
448,192,6065,128,0,6183:0:0:0:0:
64,192,6183,1,2,0:0:0:70:soft-hitwhistle.wav
192,192,6183,1,0,0:0:0:0:
320,192,6417,128,0,6651:0:0:0:0:
64,192,6651,1,2,0:0:0:70:soft-hitwhistle.wav
192,192,6651,1,0,0:0:0:0:
320,192,6768,128,0,6886:0:0:0:0:
64,192,6886,128,0,7003:0:0:0:0:
320,192,7003,128,0,7120:0:0:0:0:
64,192,7120,1,2,0:0:0:70:soft-hitwhistle.wav
192,192,7120,1,0,0:0:0:0:
448,192,7354,128,0,7589:0:0:0:0:
64,192,7589,1,2,0:0:0:70:soft-hitwhistle.wav
192,192,7589,1,0,0:0:0:0:
448,192,7706,128,0,7823:0:0:0:0:
64,192,7823,128,0,7940:0:0:0:0:
448,192,7940,128,0,8058:0:0:0:0:
64,192,8058,1,2,0:0:0:70:soft-hitwhistle.wav
192,192,8058,1,0,0:0:0:50:soft-hitfinish.wav
320,192,8058,1,0,0:0:0:0:
64,192,8292,128,0,8526:0:0:0:0:
320,192,8526,1,2,0:0:0:70:soft-hitwhistle.wav
448,192,8526,128,0,8761:0:0:0:0:
192,192,8643,128,0,8761:0:0:0:0:
320,192,8761,1,0,0:0:0:0:
192,192,8878,128,0,8995:0:0:0:0:
64,192,8995,1,2,0:0:0:70:soft-hitwhistle.wav
448,192,8995,128,0,9347:0:0:0:0:
64,192,9229,128,0,9464:0:0:0:0:
320,192,9464,1,2,0:0:0:70:soft-hitwhistle.wav
448,192,9464,128,0,9581:0:0:0:0:
192,192,9581,128,0,9698:0:0:0:0:
320,192,9698,1,0,0:0:0:0:
448,192,9815,128,0,10050:0:0:0:0:
64,192,9933,1,2,0:0:0:70:soft-hitwhistle.wav
192,192,9933,1,0,0:0:0:0:
192,192,10167,128,0,10401:0:0:0:0:
320,192,10401,1,2,0:0:0:70:soft-hitwhistle.wav
448,192,10401,128,0,10518:0:0:0:0:
192,192,10518,128,0,10636:0:0:0:0:
64,192,10636,1,0,0:0:0:0:
320,192,10753,128,0,11104:0:0:0:0:
192,192,10870,128,2,11222:0:0:0:70:soft-hitwhistle.wav
448,192,10870,1,0,0:0:0:0:
448,192,11104,128,0,11339:0:0:0:0:
64,192,11339,1,2,0:0:0:70:soft-hitwhistle.wav
192,192,11339,128,0,11573:0:0:0:0:
320,192,11456,1,0,0:0:0:0:
64,192,11573,128,0,11808:0:0:0:0:
192,192,11690,1,0,0:0:0:0:
320,192,11808,128,2,12159:0:0:0:70:soft-hitwhistle.wav
448,192,11808,1,0,0:0:0:0:
64,192,12042,128,0,12276:0:0:0:0:
320,192,12276,1,2,0:0:0:70:soft-hitwhistle.wav
448,192,12276,128,0,12393:0:0:0:0:
192,192,12393,128,0,12511:0:0:0:0:
320,192,12511,1,0,0:0:0:0:
192,192,12628,128,0,12745:0:0:0:0:
64,192,12745,1,2,0:0:0:70:soft-hitwhistle.wav
448,192,12745,128,0,13097:0:0:0:0:
64,192,12979,128,0,13214:0:0:0:0:
320,192,13214,1,2,0:0:0:70:soft-hitwhistle.wav
448,192,13214,128,0,13331:0:0:0:0:
192,192,13331,128,0,13448:0:0:0:0:
320,192,13448,1,0,0:0:0:0:
448,192,13565,128,0,13800:0:0:0:0:
64,192,13683,1,2,0:0:0:70:soft-hitwhistle.wav
192,192,13683,1,0,0:0:0:0:
192,192,13917,128,0,14151:0:0:0:0:
320,192,14151,1,2,0:0:0:70:soft-hitwhistle.wav
448,192,14151,128,0,14268:0:0:0:0:
192,192,14268,128,0,14386:0:0:0:0:
64,192,14386,1,0,0:0:0:0:
320,192,14503,128,0,14972:0:0:0:0:
192,192,14620,1,2,0:0:0:70:soft-hitwhistle.wav
448,192,14620,1,0,0:0:0:0:
448,192,14854,128,0,15089:0:0:0:0:
64,192,15089,128,2,15206:0:0:0:70:soft-hitwhistle.wav
320,192,15089,1,0,0:0:0:0:
448,192,15206,128,0,15323:0:0:0:0:
192,192,15323,1,0,0:0:0:0:
64,192,15440,128,0,15909:0:0:0:0:
192,192,15558,1,2,0:0:0:70:soft-hitwhistle.wav
320,192,15558,1,0,0:0:0:50:soft-hitfinish.wav
448,192,15558,1,0,0:0:0:0:
448,192,15792,128,0,16026:0:0:0:0:
64,192,16026,1,2,0:0:0:70:soft-hitwhistle.wav
192,192,16026,1,0,0:0:0:0:
320,192,16143,1,0,0:0:0:0:
64,192,16261,128,0,16378:0:0:0:0:
192,192,16378,1,0,0:0:0:0:
320,192,16495,1,2,0:0:0:70:soft-hitwhistle.wav
448,192,16495,128,0,16847:0:0:0:0:
320,192,16729,128,0,16964:0:0:0:0:
64,192,16964,1,2,0:0:0:70:soft-hitwhistle.wav
448,192,16964,1,0,0:0:0:0:
192,192,17081,1,0,0:0:0:0:
448,192,17198,128,0,17315:0:0:0:0:
320,192,17315,1,0,0:0:0:0:
64,192,17433,128,2,17784:0:0:0:70:soft-hitwhistle.wav
192,192,17433,1,0,0:0:0:0:
192,192,17667,128,0,17901:0:0:0:0:
64,192,17901,1,2,0:0:0:70:soft-hitwhistle.wav
448,192,17901,128,0,18253:0:0:0:0:
192,192,18018,1,0,0:0:0:0:
320,192,18136,128,0,18370:0:0:0:0:
64,192,18253,1,0,0:0:0:0:
192,192,18370,1,2,0:0:0:70:soft-hitwhistle.wav
448,192,18370,128,0,18722:0:0:0:0:
192,192,18604,128,0,18839:0:0:0:0:
64,192,18839,1,2,0:0:0:70:soft-hitwhistle.wav
448,192,18839,1,0,0:0:0:0:
320,192,18956,1,0,0:0:0:0:
64,192,19073,128,0,19190:0:0:0:0:
192,192,19190,1,0,0:0:0:0:
320,192,19308,1,2,0:0:0:70:soft-hitwhistle.wav
448,192,19308,128,0,19659:0:0:0:0:
320,192,19542,128,0,19776:0:0:0:0:
64,192,19776,128,2,20128:0:0:0:70:soft-hitwhistle.wav
448,192,19776,1,0,0:0:0:0:
192,192,19893,1,0,0:0:0:0:
448,192,20011,128,0,20245:0:0:0:0:
192,192,20128,1,0,0:0:0:0:
64,192,20245,1,2,0:0:0:70:soft-hitwhistle.wav
320,192,20245,128,0,20597:0:0:0:0:
448,192,20479,128,0,20714:0:0:0:0:
64,192,20714,1,2,0:0:0:70:soft-hitwhistle.wav
192,192,20714,128,0,20831:0:0:0:0:
320,192,20831,128,0,20948:0:0:0:0:
64,192,20948,1,0,0:0:0:0:
320,192,21065,1,0,0:0:0:0:
192,192,21183,1,2,0:0:0:70:soft-hitwhistle.wav
448,192,21183,128,0,22003:0:0:0:0:
192,192,21417,128,0,21651:0:0:0:0:
64,192,21651,1,2,0:0:0:70:soft-hitwhistle.wav
320,192,21651,1,0,0:0:0:0:
192,192,21768,1,0,0:0:0:0:
320,192,21886,128,0,22120:0:0:0:0:
192,192,22003,128,0,22120:0:0:0:0:
64,192,22120,1,2,0:0:0:70:soft-hitwhistle.wav
448,192,22120,1,0,0:0:0:0:
64,192,22354,128,0,22589:0:0:0:0:
192,192,22472,128,0,22589:0:0:0:0:
320,192,22589,1,2,0:0:0:70:soft-hitwhistle.wav
448,192,22589,1,0,0:0:0:0:
64,192,22823,1,0,0:0:0:0:
192,192,22823,1,0,0:0:0:0:
320,192,22940,1,0,0:0:0:0:
64,192,23058,1,2,0:0:0:70:soft-hitwhistle.wav
192,192,23058,1,0,0:0:0:50:soft-hitfinish.wav
448,192,23058,128,0,23409:0:0:0:0:
320,192,23292,128,0,23585:0:0:0:0:
64,192,23526,128,0,23585:0:0:0:70:Chi!.wav
192,192,23526,128,0,23878:0:0:0:0:
448,192,23643,1,0,0:0:0:0:
320,192,23761,128,0,23995:0:0:0:0:
448,192,23878,1,0,0:0:0:0:
64,192,23995,128,2,24347:0:0:0:70:soft-hitwhistle.wav
192,192,23995,1,0,0:0:0:0:
192,192,24229,128,0,24522:0:0:0:0:
320,192,24464,128,0,24815:0:0:0:70:Chi!.wav
448,192,24464,128,0,24522:0:0:0:0:
64,192,24581,1,0,0:0:0:0:
192,192,24698,128,0,24933:0:0:0:0:
448,192,24815,1,0,0:0:0:0:
64,192,24933,128,2,25284:0:0:0:70:soft-hitwhistle.wav
320,192,24933,128,0,25284:0:0:0:0:
192,192,25167,128,0,25284:0:0:0:0:
64,192,25401,128,0,25460:0:0:0:70:Chi!.wav
320,192,25401,128,0,25753:0:0:0:0:
192,192,25518,1,0,0:0:0:0:
64,192,25636,128,0,25753:0:0:0:0:
448,192,25753,1,0,0:0:0:0:
64,192,25870,128,2,26222:0:0:0:70:soft-hitwhistle.wav
192,192,25870,128,0,26222:0:0:0:0:
320,192,26104,128,0,26222:0:0:0:0:
192,192,26339,128,0,26690:0:0:0:70:Chi!.wav
448,192,26339,128,0,26397:0:0:0:0:
64,192,26456,128,0,26573:0:0:0:0:
320,192,26573,128,0,26690:0:0:0:0:
448,192,26690,1,0,0:0:0:0:
64,192,26808,1,2,0:0:0:70:soft-hitwhistle.wav
192,192,26808,128,0,27159:0:0:0:0:
320,192,27042,128,0,27335:0:0:0:0:
64,192,27276,128,0,27628:0:0:0:70:Chi!.wav
448,192,27276,128,0,27335:0:0:0:0:
192,192,27393,1,0,0:0:0:0:
448,192,27511,128,0,27745:0:0:0:0:
320,192,27628,1,0,0:0:0:0:
64,192,27745,1,2,0:0:0:70:soft-hitwhistle.wav
192,192,27745,128,0,28097:0:0:0:0:
320,192,27979,128,0,28272:0:0:0:0:
64,192,28214,128,0,28565:0:0:0:70:Chi!.wav
448,192,28214,128,0,28272:0:0:0:0:
192,192,28331,1,0,0:0:0:0:
320,192,28448,128,0,28683:0:0:0:0:
448,192,28565,1,0,0:0:0:0:
64,192,28683,128,2,29034:0:0:0:70:soft-hitwhistle.wav
192,192,28683,128,0,29034:0:0:0:0:
320,192,28917,128,0,29034:0:0:0:0:
192,192,29151,128,0,29210:0:0:0:70:Chi!.wav
448,192,29151,128,0,29503:0:0:0:0:
320,192,29268,1,0,0:0:0:0:
192,192,29386,128,0,29503:0:0:0:0:
64,192,29503,1,0,0:0:0:0:
192,192,29620,128,2,29972:0:0:0:70:soft-hitwhistle.wav
448,192,29620,128,0,29972:0:0:0:0:
320,192,29854,128,0,29972:0:0:0:0:
192,192,30089,128,0,30147:0:0:0:70:Chi!.wav
448,192,30089,128,0,30440:0:0:0:0:
320,192,30206,128,0,30323:0:0:0:0:
64,192,30323,128,0,30440:0:0:0:0:
192,192,30440,1,0,0:0:0:0:
64,192,30558,128,2,30909:0:0:0:70:soft-hitwhistle.wav
320,192,30558,1,0,0:0:0:50:soft-hitfinish.wav
448,192,30558,1,0,0:0:0:0:
192,192,30792,128,0,30909:0:0:0:0:
64,192,31026,128,0,31378:0:0:0:70:Chi!.wav
320,192,31026,128,0,31085:0:0:0:0:
192,192,31143,1,0,0:0:0:0:
448,192,31261,128,0,31378:0:0:0:0:
192,192,31378,1,0,0:0:0:0:
64,192,31495,1,2,0:0:0:70:soft-hitwhistle.wav
320,192,31495,128,0,31847:0:0:0:0:
192,192,31729,128,0,31847:0:0:0:0:
64,192,31964,128,0,32315:0:0:0:70:Chi!.wav
320,192,31964,128,0,32022:0:0:0:0:
448,192,32081,1,0,0:0:0:0:
192,192,32198,128,0,32433:0:0:0:0:
320,192,32315,1,0,0:0:0:0:
64,192,32433,1,2,0:0:0:70:soft-hitwhistle.wav
448,192,32433,128,0,32784:0:0:0:0:
320,192,32667,128,0,32784:0:0:0:0:
192,192,32901,128,0,32960:0:0:0:70:Chi!.wav
448,192,32901,128,0,33253:0:0:0:0:
320,192,33018,1,0,0:0:0:0:
64,192,33136,128,0,33253:0:0:0:0:
320,192,33253,1,0,0:0:0:0:
192,192,33370,128,2,33722:0:0:0:70:soft-hitwhistle.wav
448,192,33370,1,0,0:0:0:0:
320,192,33604,128,0,33897:0:0:0:0:
192,192,33839,1,0,0:0:0:70:Chi!.wav
448,192,33839,128,0,33897:0:0:0:0:
64,192,33956,1,0,0:0:0:0:
320,192,34073,128,0,34190:0:0:0:0:
192,192,34190,1,0,0:0:0:0:
64,192,34308,128,2,34659:0:0:0:70:soft-hitwhistle.wav
448,192,34308,1,0,0:0:0:0:
320,192,34542,128,0,34835:0:0:0:0:
192,192,34776,128,0,34835:0:0:0:70:Chi!.wav
448,192,34776,128,0,35128:0:0:0:0:
64,192,34893,1,0,0:0:0:0:
192,192,35011,128,0,35245:0:0:0:0:
320,192,35128,1,0,0:0:0:0:
64,192,35245,128,2,35597:0:0:0:70:soft-hitwhistle.wav
448,192,35245,1,0,0:0:0:0:
192,192,35479,128,0,35772:0:0:0:0:
64,192,35714,128,0,36065:0:0:0:70:Chi!.wav
320,192,35714,128,0,35772:0:0:0:0:
448,192,35831,1,0,0:0:0:0:
320,192,35948,128,0,36065:0:0:0:0:
192,192,36065,1,0,0:0:0:0:
64,192,36183,128,2,36534:0:0:0:70:soft-hitwhistle.wav
448,192,36183,128,0,36534:0:0:0:0:
192,192,36417,128,0,36534:0:0:0:0:
192,192,36651,128,0,37003:0:0:0:70:Chi!.wav
448,192,36651,128,0,36710:0:0:0:0:
320,192,36768,1,0,0:0:0:0:
448,192,36886,128,0,37003:0:0:0:0:
64,192,37003,1,0,0:0:0:0:
320,192,37120,128,2,37472:0:0:0:70:soft-hitwhistle.wav
448,192,37120,128,0,37472:0:0:0:0:
192,192,37354,128,0,37472:0:0:0:0:
64,192,37589,128,0,37647:0:0:0:70:Chi!.wav
448,192,37589,1,0,0:0:0:0:
192,192,37706,1,0,0:0:0:0:
320,192,37823,128,0,37940:0:0:0:0:
64,192,37940,1,0,0:0:0:0:
192,192,38058,128,2,38409:0:0:0:70:soft-hitwhistle.wav
320,192,38058,128,0,38409:0:0:0:50:soft-hitfinish.wav
448,192,38058,128,0,38409:0:0:0:0:
64,192,38526,1,0,0:0:0:70:soft-hitclap.wav
192,192,38526,1,0,0:0:0:0:
448,192,38526,1,0,0:0:0:0:
192,192,39229,128,2,39347:0:0:0:70:soft-hitwhistle.wav
320,192,39229,128,0,39581:0:0:0:0:
448,192,39229,128,0,39581:0:0:0:0:
64,192,39464,1,0,0:0:0:70:soft-hitclap.wav
192,192,39464,128,0,39698:0:0:0:0:
64,192,39698,128,2,39815:0:0:0:70:soft-hitwhistle.wav
320,192,39698,128,0,40050:0:0:0:0:
448,192,39698,128,0,40284:0:0:0:0:
192,192,39815,128,0,40167:0:0:0:0:
320,192,40167,128,0,40284:0:0:0:0:
64,192,40401,1,0,0:0:0:70:soft-hitclap.wav
192,192,40401,1,0,0:0:0:0:
448,192,40401,1,0,0:0:0:0:
320,192,40518,1,0,0:0:0:0:
320,192,40636,1,0,0:0:0:0:
192,192,40792,1,0,0:0:0:0:
448,192,40870,1,0,0:0:0:0:
64,192,41104,128,0,41222:0:0:0:0:
320,192,41104,128,0,41339:0:0:0:0:
64,192,41339,1,0,0:0:0:70:soft-hitclap.wav
192,192,41339,128,0,41456:0:0:0:0:
448,192,41339,128,0,41573:0:0:0:0:
64,192,41573,128,0,41690:0:0:0:0:
192,192,41573,128,0,41690:0:0:0:0:
320,192,41690,128,0,42042:0:0:0:0:
64,192,41808,128,2,42159:0:0:0:70:soft-hitwhistle.wav
192,192,41808,128,0,42159:0:0:0:0:
448,192,41808,128,0,42042:0:0:0:0:
64,192,42276,1,0,0:0:0:70:soft-hitclap.wav
320,192,42276,1,0,0:0:0:0:
448,192,42276,1,0,0:0:0:0:
192,192,42979,128,2,43097:0:0:0:70:soft-hitwhistle.wav
320,192,42979,128,0,43331:0:0:0:0:
448,192,42979,128,0,43331:0:0:0:0:
64,192,43214,1,0,0:0:0:70:soft-hitclap.wav
192,192,43214,128,0,43331:0:0:0:0:
64,192,43448,128,2,43917:0:0:0:70:soft-hitwhistle.wav
320,192,43448,128,0,43800:0:0:0:0:
448,192,43448,128,0,44034:0:0:0:0:
192,192,43565,128,0,43917:0:0:0:0:
320,192,43917,128,0,44034:0:0:0:0:
64,192,44151,1,0,0:0:0:70:soft-hitclap.wav
192,192,44151,1,0,0:0:0:0:
448,192,44151,1,0,0:0:0:0:
320,192,44268,1,0,0:0:0:0:
64,192,44386,128,2,44972:0:0:0:70:soft-hitwhistle.wav
192,192,44386,128,0,44503:0:0:0:0:
448,192,44386,128,0,44972:0:0:0:0:
192,192,44620,128,0,44972:0:0:0:0:
320,192,44854,1,0,0:0:0:0:
64,192,45089,1,0,0:0:0:70:soft-hitclap.wav
320,192,45089,128,0,45323:0:0:0:0:
448,192,45089,128,0,45440:0:0:0:0:
192,192,45323,1,0,0:0:0:0:
320,192,45440,1,0,0:0:0:0:
64,192,45558,128,2,45909:0:0:0:70:soft-hitwhistle.wav
192,192,45558,128,0,45909:0:0:0:0:
448,192,45558,128,0,45675:0:0:0:0:
320,192,45792,128,0,45909:0:0:0:0:
64,192,46026,128,0,46261:0:0:0:70:soft-hitclap.wav
192,192,46026,1,0,0:0:0:0:
320,192,46026,1,0,0:0:0:0:
448,192,46143,1,0,0:0:0:0:
320,192,46261,128,0,46495:0:0:0:0:
448,192,46378,1,0,0:0:0:0:
64,192,46495,1,2,0:0:0:70:soft-hitwhistle.wav
192,192,46495,128,0,46847:0:0:0:0:
64,192,46729,128,0,46847:0:0:0:0:
320,192,46729,128,0,46964:0:0:0:0:
448,192,46729,128,0,46964:0:0:0:0:
64,192,46964,1,0,0:0:0:70:soft-hitclap.wav
192,192,46964,128,0,47081:0:0:0:0:
448,192,47081,128,0,47198:0:0:0:0:
64,192,47198,128,0,47784:0:0:0:0:
192,192,47198,128,0,47550:0:0:0:0:
320,192,47198,128,0,47315:0:0:0:0:
320,192,47433,1,2,0:0:0:70:soft-hitwhistle.wav
448,192,47433,128,0,47784:0:0:0:0:
192,192,47667,128,0,47784:0:0:0:0:
64,192,47901,1,0,0:0:0:70:soft-hitclap.wav
192,192,47901,1,0,0:0:0:0:
320,192,47901,128,0,48136:0:0:0:0:
448,192,48018,1,0,0:0:0:0:
64,192,48136,128,0,48370:0:0:0:0:
192,192,48253,1,0,0:0:0:0:
320,192,48370,1,2,0:0:0:70:soft-hitwhistle.wav
448,192,48370,128,0,48604:0:0:0:0:
192,192,48604,128,0,48839:0:0:0:0:
64,192,48839,1,0,0:0:0:70:soft-hitclap.wav
320,192,48839,128,0,48956:0:0:0:0:
448,192,48839,1,0,0:0:0:0:
64,192,48956,128,0,49190:0:0:0:0:
192,192,49073,1,0,0:0:0:0:
64,192,49308,128,2,49425:0:0:0:70:soft-hitwhistle.wav
320,192,49308,128,0,49659:0:0:0:0:
448,192,49308,128,0,49659:0:0:0:0:
192,192,49542,128,0,49659:0:0:0:0:
192,192,49776,1,0,0:0:0:70:soft-hitclap.wav
320,192,49776,1,0,0:0:0:0:
448,192,49776,128,0,50011:0:0:0:0:
64,192,49893,1,0,0:0:0:0:
192,192,50011,128,0,50128:0:0:0:0:
448,192,50128,1,0,0:0:0:0:
64,192,50245,1,2,0:0:0:70:soft-hitwhistle.wav
320,192,50245,128,0,50597:0:0:0:0:
64,192,50479,128,0,50831:0:0:0:0:
192,192,50479,128,0,50831:0:0:0:0:
448,192,50479,128,0,50597:0:0:0:0:
320,192,50714,1,0,0:0:0:70:soft-hitclap.wav
448,192,50714,128,0,50831:0:0:0:0:
64,192,50948,128,0,51183:0:0:0:0:
192,192,50948,128,0,51300:0:0:0:0:
320,192,50948,128,0,51065:0:0:0:0:
448,192,51065,128,0,51534:0:0:0:0:
320,192,51183,128,0,51417:0:0:0:0:
64,192,51300,128,0,51534:0:0:0:0:
192,192,51417,128,0,51651:0:0:0:0:
320,192,51534,128,0,51768:0:0:0:0:
448,192,51651,128,0,51768:0:0:0:0:
64,192,52354,1,0,0:0:0:35:Tom1.wav
448,192,52354,1,0,0:0:0:0:
192,192,52472,1,0,0:0:0:35:Tom2.wav
320,192,52589,1,0,0:0:0:35:Tom2.wav
448,192,52589,1,0,0:0:0:35:Tom1.wav
192,192,52706,1,0,0:0:0:35:Tom2.wav
64,192,52823,1,0,0:0:0:35:Tom3.wav
448,192,52823,1,0,0:0:0:35:Tom2.wav
320,192,52940,1,0,0:0:0:35:Tom3.wav
64,192,53058,1,2,0:0:0:70:soft-hitwhistle.wav
192,192,53058,128,0,53292:0:0:0:50:soft-hitfinish.wav
448,192,53058,128,0,54229:0:0:0:0:
320,192,53175,128,0,53292:0:0:0:0:
64,192,53292,128,0,53409:0:0:0:0:
320,192,53409,128,0,53526:0:0:0:0:
64,192,53526,1,0,0:0:0:70:soft-hitclap.wav
192,192,53526,128,0,53761:0:0:0:0:
320,192,53643,128,0,53761:0:0:0:0:
64,192,53761,128,0,53878:0:0:0:0:
320,192,53878,128,0,53995:0:0:0:0:
64,192,53995,1,2,0:0:0:70:soft-hitwhistle.wav
192,192,53995,128,0,54229:0:0:0:0:
320,192,54112,128,0,54229:0:0:0:0:
64,192,54229,128,0,54464:0:0:0:0:
192,192,54347,128,0,54464:0:0:0:0:
320,192,54464,128,0,54581:0:0:0:70:soft-hitclap.wav
448,192,54464,128,0,54698:0:0:0:0:
64,192,54581,128,0,54815:0:0:0:0:
192,192,54698,128,0,55050:0:0:0:0:
320,192,54698,1,0,0:0:0:0:
448,192,54815,128,0,54933:0:0:0:0:
64,192,54933,1,2,0:0:0:70:soft-hitwhistle.wav
320,192,54933,128,0,55167:0:0:0:0:
192,192,55167,128,0,55518:0:0:0:0:
448,192,55167,1,0,0:0:0:0:
320,192,55284,128,0,55401:0:0:0:0:
64,192,55401,1,0,0:0:0:70:soft-hitclap.wav
448,192,55401,128,0,55636:0:0:0:0:
320,192,55518,128,0,55636:0:0:0:0:
64,192,55636,1,0,0:0:0:0:
192,192,55636,1,0,0:0:0:0:
64,192,55870,128,2,56104:0:0:0:70:soft-hitwhistle.wav
320,192,55870,128,0,55987:0:0:0:0:
448,192,55987,128,0,56222:0:0:0:0:
192,192,56104,128,0,56339:0:0:0:0:
320,192,56104,128,0,56222:0:0:0:0:
64,192,56222,128,0,56456:0:0:0:0:
320,192,56339,128,0,56690:0:0:0:70:soft-hitclap.wav
448,192,56339,128,0,56573:0:0:0:0:
192,192,56573,128,0,56808:0:0:0:0:
448,192,56690,1,0,0:0:0:0:
64,192,56808,128,2,57862:0:0:0:70:soft-hitwhistle.wav
320,192,56808,128,0,57042:0:0:0:0:
192,192,56925,128,0,57042:0:0:0:0:
448,192,57042,128,0,57159:0:0:0:0:
192,192,57159,128,0,57276:0:0:0:0:
320,192,57276,128,0,57511:0:0:0:70:soft-hitclap.wav
448,192,57276,1,0,0:0:0:0:
192,192,57393,128,0,57511:0:0:0:0:
448,192,57511,128,0,57628:0:0:0:0:
192,192,57628,128,0,57745:0:0:0:0:
320,192,57745,128,2,57979:0:0:0:70:soft-hitwhistle.wav
448,192,57745,1,0,0:0:0:0:
192,192,57862,128,0,57979:0:0:0:0:
448,192,57979,128,0,58214:0:0:0:0:
320,192,58097,128,0,58214:0:0:0:0:
64,192,58214,128,0,58331:0:0:0:70:soft-hitclap.wav
192,192,58214,128,0,58448:0:0:0:0:
320,192,58331,128,0,58565:0:0:0:0:
64,192,58448,128,0,58683:0:0:0:0:
448,192,58448,128,0,58683:0:0:0:0:
192,192,58683,128,2,58917:0:0:0:70:soft-hitwhistle.wav
320,192,58683,1,0,0:0:0:0:
320,192,58917,128,0,59151:0:0:0:0:
448,192,58917,1,0,0:0:0:0:
64,192,59034,128,0,59503:0:0:0:0:
192,192,59151,128,0,59386:0:0:0:70:soft-hitclap.wav
448,192,59151,1,0,0:0:0:0:
320,192,59268,128,0,59503:0:0:0:0:
448,192,59386,128,0,59503:0:0:0:0:
64,192,59620,128,2,59854:0:0:0:70:soft-hitwhistle.wav
448,192,59620,1,0,0:0:0:0:
192,192,59737,1,0,0:0:0:0:
320,192,59854,128,0,59972:0:0:0:0:
448,192,59854,128,0,60089:0:0:0:0:
64,192,59972,1,0,0:0:0:0:
192,192,60089,128,0,60206:0:0:0:70:soft-hitclap.wav
320,192,60089,128,0,60323:0:0:0:0:
64,192,60323,128,0,60440:0:0:0:0:
192,192,60323,128,0,60558:0:0:0:0:
64,192,60558,128,2,60675:0:0:0:70:soft-hitwhistle.wav
320,192,60558,128,0,60792:0:0:0:50:soft-hitfinish.wav
448,192,60558,128,0,61026:0:0:0:0:
192,192,60792,128,0,60909:0:0:0:0:
320,192,60909,128,0,61143:0:0:0:0:
64,192,61026,1,0,0:0:0:70:soft-hitclap.wav
192,192,61026,128,0,61378:0:0:0:0:
448,192,61143,128,0,61261:0:0:0:0:
320,192,61261,128,0,61495:0:0:0:0:
64,192,61495,128,2,61964:0:0:0:70:soft-hitwhistle.wav
192,192,61495,128,0,61729:0:0:0:0:
448,192,61612,1,0,0:0:0:0:
320,192,61729,128,0,61847:0:0:0:0:
192,192,61847,128,0,62081:0:0:0:0:
320,192,61964,128,0,62550:0:0:0:70:soft-hitclap.wav
448,192,61964,1,0,0:0:0:0:
64,192,62081,128,0,62198:0:0:0:0:
192,192,62198,128,0,62315:0:0:0:0:
64,192,62433,128,2,62784:0:0:0:70:soft-hitwhistle.wav
448,192,62433,128,0,62784:0:0:0:0:
192,192,62550,128,0,62667:0:0:0:0:
320,192,62667,128,0,62901:0:0:0:0:
192,192,62784,128,0,63018:0:0:0:0:
64,192,62901,128,0,63253:0:0:0:70:soft-hitclap.wav
448,192,62901,128,0,63253:0:0:0:0:
320,192,63018,128,0,63253:0:0:0:0:
192,192,63136,128,0,63370:0:0:0:0:
320,192,63370,128,2,63722:0:0:0:70:soft-hitwhistle.wav
448,192,63370,128,0,63839:0:0:0:0:
192,192,63487,128,0,63604:0:0:0:0:
64,192,63604,1,0,0:0:0:0:
192,192,63722,1,0,0:0:0:0:
64,192,63839,128,0,64073:0:0:0:70:soft-hitclap.wav
320,192,63839,1,0,0:0:0:0:
448,192,63956,128,0,64190:0:0:0:0:
320,192,64073,128,0,64425:0:0:0:0:
64,192,64308,128,2,64659:0:0:0:70:soft-hitwhistle.wav
448,192,64308,128,0,64659:0:0:0:0:
192,192,64542,128,0,64659:0:0:0:0:
320,192,64659,1,0,0:0:0:0:
64,192,64776,128,0,65011:0:0:0:70:soft-hitclap.wav
192,192,64776,128,0,65128:0:0:0:0:
320,192,64893,128,0,65011:0:0:0:0:
448,192,65011,1,0,0:0:0:0:
320,192,65128,128,0,65362:0:0:0:0:
192,192,65245,128,2,65597:0:0:0:70:soft-hitwhistle.wav
448,192,65245,1,0,0:0:0:0:
64,192,65362,128,0,65597:0:0:0:0:
320,192,65479,128,0,65597:0:0:0:0:
448,192,65597,1,0,0:0:0:0:
64,192,65714,128,0,66065:0:0:0:70:soft-hitclap.wav
320,192,65714,128,0,65948:0:0:0:0:
192,192,65831,128,0,65948:0:0:0:0:
448,192,65948,1,0,0:0:0:0:
192,192,66065,128,0,66300:0:0:0:0:
64,192,66183,128,2,67003:0:0:0:70:soft-hitwhistle.wav
448,192,66183,128,0,66300:0:0:0:0:
320,192,66300,128,0,66417:0:0:0:0:
448,192,66417,128,0,66534:0:0:0:0:
320,192,66534,128,0,66651:0:0:0:0:
192,192,66651,128,0,66768:0:0:0:70:soft-hitclap.wav
448,192,66651,1,0,0:0:0:0:
320,192,66768,128,0,66886:0:0:0:0:
192,192,66886,128,0,67003:0:0:0:0:
320,192,67003,128,0,67120:0:0:0:0:
64,192,67120,128,2,67940:0:0:0:70:soft-hitwhistle.wav
192,192,67120,128,0,67237:0:0:0:0:
448,192,67237,128,0,67354:0:0:0:0:
192,192,67354,128,0,67472:0:0:0:0:
448,192,67472,128,0,67589:0:0:0:0:
320,192,67589,128,0,67706:0:0:0:0:
192,192,67706,128,0,67823:0:0:0:0:
320,192,67823,128,0,67940:0:0:0:0:
192,192,67940,128,0,68058:0:0:0:0:
64,192,68058,1,2,0:0:0:70:soft-hitwhistle.wav
320,192,68058,1,0,0:0:0:50:soft-hitfinish.wav
448,192,68058,1,0,0:0:0:0:
448,192,68292,128,0,68526:0:0:0:0:
64,192,68526,128,2,68643:0:0:0:70:soft-hitwhistle.wav
192,192,68526,1,0,0:0:0:0:
320,192,68643,1,0,0:0:0:0:
192,192,68761,128,0,68878:0:0:0:0:
320,192,68878,1,0,0:0:0:0:
64,192,68995,128,2,69229:0:0:0:70:soft-hitwhistle.wav
448,192,68995,1,0,0:0:0:0:
448,192,69229,128,0,69464:0:0:0:0:
64,192,69464,128,2,69698:0:0:0:70:soft-hitwhistle.wav
192,192,69464,1,0,0:0:0:0:
448,192,69581,1,0,0:0:0:0:
320,192,69698,128,0,69815:0:0:0:0:
192,192,69815,1,0,0:0:0:0:
64,192,69933,1,2,0:0:0:70:soft-hitwhistle.wav
448,192,69933,128,0,70284:0:0:0:0:
320,192,70167,128,0,70401:0:0:0:0:
64,192,70401,128,2,70753:0:0:0:70:soft-hitwhistle.wav
192,192,70401,1,0,0:0:0:0:
320,192,70518,1,0,0:0:0:0:
192,192,70636,128,0,70870:0:0:0:0:
448,192,70753,1,0,0:0:0:0:
64,192,70870,1,2,0:0:0:70:soft-hitwhistle.wav
320,192,70870,128,0,71222:0:0:0:0:
64,192,71104,128,0,71339:0:0:0:0:
320,192,71339,1,2,0:0:0:70:soft-hitwhistle.wav
448,192,71339,128,0,71573:0:0:0:0:
192,192,71456,1,0,0:0:0:0:
320,192,71573,1,0,0:0:0:0:
448,192,71690,1,0,0:0:0:0:
64,192,71808,1,2,0:0:0:70:soft-hitwhistle.wav
192,192,71808,1,0,0:0:0:0:
192,192,72042,128,0,72276:0:0:0:0:
64,192,72276,1,2,0:0:0:70:soft-hitwhistle.wav
448,192,72276,128,0,72511:0:0:0:0:
320,192,72393,1,0,0:0:0:0:
192,192,72511,128,0,72628:0:0:0:0:
320,192,72628,1,0,0:0:0:0:
64,192,72745,128,2,73097:0:0:0:70:soft-hitwhistle.wav
448,192,72745,1,0,0:0:0:0:
448,192,72979,128,0,73214:0:0:0:0:
64,192,73214,1,2,0:0:0:70:soft-hitwhistle.wav
192,192,73214,128,0,73565:0:0:0:0:
320,192,73331,1,0,0:0:0:0:
64,192,73448,128,0,73683:0:0:0:0:
320,192,73565,128,0,73917:0:0:0:0:
192,192,73683,128,2,74034:0:0:0:70:soft-hitwhistle.wav
448,192,73683,128,0,73800:0:0:0:0:
448,192,73917,128,0,74151:0:0:0:0:
64,192,74151,128,2,74503:0:0:0:70:soft-hitwhistle.wav
192,192,74151,128,0,74386:0:0:0:50:soft-hitfinish.wav
320,192,74151,128,0,74268:0:0:0:0:
448,192,74268,128,0,74620:0:0:0:0:
320,192,74386,128,0,74503:0:0:0:0:
192,192,74503,128,0,74854:0:0:0:0:
64,192,74620,128,2,74737:0:0:0:70:soft-hitwhistle.wav
320,192,74620,128,0,74972:0:0:0:0:
64,192,74854,128,0,75089:0:0:0:0:
192,192,75089,128,2,75206:0:0:0:70:soft-hitwhistle.wav
320,192,75089,128,0,75323:0:0:0:50:soft-hitfinish.wav
448,192,75089,128,0,75440:0:0:0:0:
64,192,75206,128,0,75440:0:0:0:0:
192,192,75323,128,0,75440:0:0:0:0:
320,192,75440,128,0,75558:0:0:0:0:
64,192,75558,1,2,0:0:0:70:soft-hitwhistle.wav
192,192,75558,1,4,0:0:0:50:soft-hitfinish.wav
448,192,75558,128,0,75675:0:0:0:0:
192,192,75792,128,0,76026:0:0:0:0:
448,192,75792,128,0,75850:0:0:0:0:
448,192,76026,128,2,76085:0:0:0:70:soft-hitwhistle.wav
192,192,76143,1,0,0:0:0:0:
320,192,76261,1,0,0:0:0:0:
448,192,76261,128,0,76319:0:0:0:0:
192,192,76378,1,0,0:0:0:0:
64,192,76495,128,2,76729:0:0:0:70:soft-hitwhistle.wav
448,192,76495,1,0,0:0:0:0:
192,192,76729,128,0,76964:0:0:0:0:
64,192,76964,1,2,0:0:0:70:soft-hitwhistle.wav
320,192,76964,128,0,77315:0:0:0:0:
448,192,77081,1,0,0:0:0:0:
64,192,77198,128,0,77433:0:0:0:0:
192,192,77315,1,0,0:0:0:0:
320,192,77433,1,2,0:0:0:70:soft-hitwhistle.wav
448,192,77433,1,0,0:0:0:0:
320,192,77667,128,0,77901:0:0:0:0:
64,192,77901,128,2,78018:0:0:0:70:soft-hitwhistle.wav
448,192,77901,1,0,0:0:0:0:
320,192,78018,1,0,0:0:0:0:
192,192,78136,128,0,78253:0:0:0:0:
448,192,78253,1,0,0:0:0:0:
64,192,78370,1,2,0:0:0:70:soft-hitwhistle.wav
320,192,78370,128,0,78604:0:0:0:0:
64,192,78604,128,0,78839:0:0:0:0:
320,192,78839,128,2,78956:0:0:0:70:soft-hitwhistle.wav
448,192,78839,1,0,0:0:0:0:
192,192,78956,1,0,0:0:0:0:
448,192,79073,128,0,79542:0:0:0:0:
320,192,79190,1,0,0:0:0:0:
64,192,79308,1,2,0:0:0:70:soft-hitwhistle.wav
192,192,79308,1,0,0:0:0:0:
64,192,79542,128,0,79776:0:0:0:0:
320,192,79776,128,2,80011:0:0:0:70:soft-hitwhistle.wav
448,192,79776,1,0,0:0:0:0:
192,192,79893,1,0,0:0:0:0:
64,192,80011,128,0,80245:0:0:0:0:
448,192,80128,1,0,0:0:0:0:
192,192,80245,1,2,0:0:0:70:soft-hitwhistle.wav
320,192,80245,128,0,80479:0:0:0:0:
448,192,80479,128,0,80714:0:0:0:0:
64,192,80714,128,2,80948:0:0:0:70:soft-hitwhistle.wav
320,192,80714,1,0,0:0:0:0:
192,192,80831,1,0,0:0:0:0:
448,192,80948,128,0,81065:0:0:0:0:
320,192,81065,128,0,81534:0:0:0:0:
192,192,81183,128,2,81300:0:0:0:70:soft-hitwhistle.wav
448,192,81183,128,0,81651:0:0:0:0:
64,192,81300,128,0,81417:0:0:0:0:
192,192,81417,128,0,82003:0:0:0:0:
64,192,81651,128,2,82120:0:0:0:70:soft-hitwhistle.wav
320,192,81651,128,0,81768:0:0:0:0:
448,192,81768,128,0,81886:0:0:0:0:
320,192,81886,128,0,82472:0:0:0:0:
192,192,82120,128,2,82237:0:0:0:70:soft-hitwhistle.wav
448,192,82120,128,0,82589:0:0:0:0:
64,192,82237,128,0,82354:0:0:0:0:
192,192,82354,128,0,82589:0:0:0:0:
64,192,82589,1,2,0:0:0:70:soft-hitwhistle.wav
320,192,82589,1,0,0:0:0:0:
192,192,82706,1,0,0:0:0:0:
320,192,82823,1,0,0:0:0:0:
448,192,82823,1,0,0:0:0:0:
192,192,82940,1,0,0:0:0:0:
64,192,83058,128,2,83409:0:0:0:70:soft-hitwhistle.wav
320,192,83058,1,0,0:0:0:50:soft-hitfinish.wav
448,192,83058,1,0,0:0:0:0:
192,192,83292,128,0,83585:0:0:0:0:
320,192,83526,128,0,83878:0:0:0:70:Chi!.wav
448,192,83526,128,0,83585:0:0:0:0:
64,192,83643,1,0,0:0:0:0:
192,192,83761,128,0,83995:0:0:0:0:
64,192,83878,1,0,0:0:0:0:
320,192,83995,1,2,0:0:0:70:soft-hitwhistle.wav
448,192,83995,128,0,84347:0:0:0:0:
320,192,84229,128,0,84522:0:0:0:0:
64,192,84464,128,0,84522:0:0:0:70:Chi!.wav
192,192,84464,128,0,84815:0:0:0:0:
448,192,84581,1,0,0:0:0:0:
320,192,84698,128,0,84933:0:0:0:0:
64,192,84815,1,0,0:0:0:0:
192,192,84933,128,2,85284:0:0:0:70:soft-hitwhistle.wav
448,192,84933,128,0,85284:0:0:0:0:
320,192,85167,128,0,85284:0:0:0:0:
192,192,85401,128,0,85753:0:0:0:70:Chi!.wav
448,192,85401,128,0,85460:0:0:0:0:
320,192,85518,1,0,0:0:0:0:
448,192,85636,128,0,85753:0:0:0:0:
64,192,85753,1,0,0:0:0:0:
320,192,85870,128,2,86222:0:0:0:70:soft-hitwhistle.wav
448,192,85870,128,0,86222:0:0:0:0:
192,192,86104,128,0,86222:0:0:0:0:
64,192,86339,128,0,86397:0:0:0:70:Chi!.wav
320,192,86339,128,0,86690:0:0:0:0:
448,192,86456,128,0,86573:0:0:0:0:
192,192,86573,128,0,86690:0:0:0:0:
64,192,86690,1,0,0:0:0:0:
320,192,86808,128,2,87159:0:0:0:70:soft-hitwhistle.wav
448,192,86808,1,0,0:0:0:0:
192,192,87042,128,0,87335:0:0:0:0:
64,192,87276,128,0,87335:0:0:0:70:Chi!.wav
448,192,87276,128,0,87628:0:0:0:0:
320,192,87393,1,0,0:0:0:0:
64,192,87511,128,0,87745:0:0:0:0:
192,192,87628,1,0,0:0:0:0:
320,192,87745,128,2,88097:0:0:0:70:soft-hitwhistle.wav
448,192,87745,1,0,0:0:0:0:
192,192,87979,128,0,88272:0:0:0:0:
64,192,88214,128,0,88272:0:0:0:70:Chi!.wav
448,192,88214,128,0,88565:0:0:0:0:
320,192,88331,1,0,0:0:0:0:
192,192,88448,128,0,88683:0:0:0:0:
64,192,88565,1,0,0:0:0:0:
320,192,88683,128,2,89034:0:0:0:70:soft-hitwhistle.wav
448,192,88683,128,0,89034:0:0:0:0:
192,192,88917,128,0,89034:0:0:0:0:
64,192,89151,128,0,89503:0:0:0:70:Chi!.wav
320,192,89151,128,0,89210:0:0:0:0:
192,192,89268,1,0,0:0:0:0:
320,192,89386,128,0,89503:0:0:0:0:
448,192,89503,1,0,0:0:0:0:
64,192,89620,128,2,89972:0:0:0:70:soft-hitwhistle.wav
320,192,89620,128,0,89972:0:0:0:0:
192,192,89854,128,0,89972:0:0:0:0:
64,192,90089,128,0,90440:0:0:0:70:Chi!.wav
320,192,90089,128,0,90147:0:0:0:0:
192,192,90206,128,0,90323:0:0:0:0:
448,192,90323,128,0,90440:0:0:0:0:
320,192,90440,1,0,0:0:0:0:
64,192,90558,1,2,0:0:0:70:soft-hitwhistle.wav
192,192,90558,1,0,0:0:0:50:soft-hitfinish.wav
448,192,90558,128,0,90909:0:0:0:0:
320,192,90792,128,0,90909:0:0:0:0:
192,192,91026,128,0,91085:0:0:0:70:Chi!.wav
448,192,91026,128,0,91378:0:0:0:0:
320,192,91143,1,0,0:0:0:0:
64,192,91261,128,0,91378:0:0:0:0:
320,192,91378,1,0,0:0:0:0:
192,192,91495,128,2,91847:0:0:0:70:soft-hitwhistle.wav
448,192,91495,1,0,0:0:0:0:
320,192,91729,128,0,91847:0:0:0:0:
192,192,91964,128,0,92022:0:0:0:70:Chi!.wav
448,192,91964,128,0,92315:0:0:0:0:
64,192,92081,1,0,0:0:0:0:
320,192,92198,128,0,92433:0:0:0:0:
192,192,92315,1,0,0:0:0:0:
64,192,92433,128,2,92784:0:0:0:70:soft-hitwhistle.wav
448,192,92433,1,0,0:0:0:0:
192,192,92667,128,0,92784:0:0:0:0:
64,192,92901,128,0,93253:0:0:0:70:Chi!.wav
320,192,92901,128,0,92960:0:0:0:0:
192,192,93018,1,0,0:0:0:0:
448,192,93136,128,0,93253:0:0:0:0:
192,192,93253,1,0,0:0:0:0:
64,192,93370,1,2,0:0:0:70:soft-hitwhistle.wav
320,192,93370,128,0,93722:0:0:0:0:
192,192,93604,128,0,93897:0:0:0:0:
64,192,93839,128,0,93897:0:0:0:70:Chi!.wav
320,192,93839,1,0,0:0:0:0:
448,192,93956,1,0,0:0:0:0:
192,192,94073,128,0,94190:0:0:0:0:
320,192,94190,1,0,0:0:0:0:
64,192,94308,1,2,0:0:0:70:soft-hitwhistle.wav
448,192,94308,128,0,94659:0:0:0:0:
192,192,94542,128,0,94835:0:0:0:0:
64,192,94776,128,0,95128:0:0:0:70:Chi!.wav
320,192,94776,128,0,94835:0:0:0:0:
448,192,94893,1,0,0:0:0:0:
320,192,95011,128,0,95245:0:0:0:0:
192,192,95128,1,0,0:0:0:0:
64,192,95245,1,2,0:0:0:70:soft-hitwhistle.wav
448,192,95245,128,0,95597:0:0:0:0:
320,192,95479,128,0,95772:0:0:0:0:
192,192,95714,128,0,95772:0:0:0:70:Chi!.wav
448,192,95714,128,0,96065:0:0:0:0:
64,192,95831,1,0,0:0:0:0:
192,192,95948,128,0,96065:0:0:0:0:
320,192,96065,1,0,0:0:0:0:
64,192,96183,128,2,96534:0:0:0:70:soft-hitwhistle.wav
448,192,96183,128,0,96534:0:0:0:0:
320,192,96417,128,0,96534:0:0:0:0:
64,192,96651,128,0,96710:0:0:0:70:Chi!.wav
320,192,96651,128,0,97003:0:0:0:0:
192,192,96768,1,0,0:0:0:0:
64,192,96886,128,0,97003:0:0:0:0:
448,192,97003,1,0,0:0:0:0:
64,192,97120,128,2,97472:0:0:0:70:soft-hitwhistle.wav
192,192,97120,128,0,97472:0:0:0:0:
320,192,97354,128,0,97472:0:0:0:0:
64,192,97589,1,0,0:0:0:70:Chi!.wav
448,192,97589,128,0,97647:0:0:0:0:
320,192,97706,1,0,0:0:0:0:
192,192,97823,128,0,97940:0:0:0:0:
448,192,97940,1,0,0:0:0:0:
64,192,98058,128,2,98409:0:0:0:70:soft-hitwhistle.wav
192,192,98058,128,0,98409:0:0:0:50:soft-hitfinish.wav
320,192,98058,128,0,98409:0:0:0:0:
64,192,98526,1,0,0:0:0:70:soft-hitclap.wav
320,192,98526,1,0,0:0:0:0:
448,192,98526,1,0,0:0:0:0:
448,192,98643,1,0,0:0:0:0:
192,192,98761,1,0,0:0:0:0:
192,192,98878,1,0,0:0:0:0:
64,192,98995,1,2,0:0:0:70:soft-hitwhistle.wav
320,192,98995,1,0,0:0:0:0:
64,192,99229,128,0,99581:0:0:0:0:
192,192,99229,128,0,99581:0:0:0:0:
320,192,99229,128,0,99347:0:0:0:0:
320,192,99464,128,0,99698:0:0:0:70:soft-hitclap.wav
448,192,99464,1,0,0:0:0:0:
64,192,99698,128,0,100167:0:0:0:0:
192,192,99698,128,0,99815:0:0:0:0:
448,192,99698,128,0,99815:0:0:0:0:
320,192,99815,128,0,100050:0:0:0:0:
192,192,99933,128,2,100167:0:0:0:70:soft-hitwhistle.wav
448,192,99933,128,0,100050:0:0:0:0:
320,192,100167,1,0,0:0:0:0:
64,192,100401,1,0,0:0:0:70:soft-hitclap.wav
320,192,100401,1,0,0:0:0:0:
448,192,100401,1,0,0:0:0:0:
192,192,100518,1,0,0:0:0:0:
64,192,100636,1,0,0:0:0:0:
320,192,100753,1,0,0:0:0:0:
64,192,100870,1,2,0:0:0:70:soft-hitwhistle.wav
192,192,100870,1,0,0:0:0:0:
192,192,101104,128,0,101222:0:0:0:0:
448,192,101104,128,0,101222:0:0:0:0:
64,192,101339,128,2,101456:0:0:0:70:soft-hitwhistle.wav
320,192,101339,128,0,101456:0:0:0:70:soft-hitclap.wav
448,192,101339,1,0,0:0:0:0:
320,192,101573,128,0,101690:0:0:0:0:
448,192,101573,128,0,101690:0:0:0:0:
192,192,101808,128,2,102159:0:0:0:70:soft-hitwhistle.wav
320,192,101808,128,0,102159:0:0:0:50:soft-hitfinish.wav
448,192,101808,128,0,102159:0:0:0:0:
64,192,102276,1,0,0:0:0:70:soft-hitclap.wav
192,192,102276,1,0,0:0:0:0:
448,192,102276,1,0,0:0:0:0:
64,192,102393,1,0,0:0:0:0:
320,192,102511,1,0,0:0:0:0:
320,192,102628,1,0,0:0:0:0:
192,192,102745,1,2,0:0:0:70:soft-hitwhistle.wav
448,192,102745,1,0,0:0:0:0:
64,192,102979,128,0,103331:0:0:0:0:
192,192,102979,128,0,103331:0:0:0:0:
320,192,102979,128,0,103097:0:0:0:0:
320,192,103214,128,0,103448:0:0:0:70:soft-hitclap.wav
448,192,103214,1,0,0:0:0:0:
64,192,103448,128,0,103917:0:0:0:0:
192,192,103448,128,0,103565:0:0:0:0:
448,192,103448,128,0,103565:0:0:0:0:
320,192,103565,128,0,103800:0:0:0:0:
192,192,103683,128,2,103917:0:0:0:70:soft-hitwhistle.wav
448,192,103683,128,0,103800:0:0:0:0:
320,192,103917,1,0,0:0:0:0:
64,192,104151,1,0,0:0:0:70:soft-hitclap.wav
320,192,104151,1,0,0:0:0:0:
448,192,104151,1,0,0:0:0:0:
192,192,104268,1,0,0:0:0:0:
64,192,104386,128,0,104972:0:0:0:0:
320,192,104386,128,0,104503:0:0:0:0:
448,192,104386,128,0,104972:0:0:0:0:
192,192,104620,1,2,0:0:0:70:soft-hitwhistle.wav
320,192,104620,128,0,104972:0:0:0:0:
192,192,104854,1,0,0:0:0:0:
64,192,105089,128,0,105440:0:0:0:70:soft-hitclap.wav
192,192,105089,128,0,105323:0:0:0:0:
448,192,105089,1,0,0:0:0:0:
320,192,105206,1,0,0:0:0:0:
448,192,105323,1,0,0:0:0:0:
192,192,105440,1,0,0:0:0:0:
64,192,105558,128,2,105675:0:0:0:70:soft-hitwhistle.wav
320,192,105558,128,0,105909:0:0:0:0:
448,192,105558,128,0,105909:0:0:0:0:
192,192,105792,128,0,105909:0:0:0:0:
192,192,106026,1,0,0:0:0:70:soft-hitclap.wav
320,192,106026,1,0,0:0:0:0:
448,192,106026,128,0,106261:0:0:0:0:
64,192,106143,1,0,0:0:0:0:
192,192,106261,128,0,106495:0:0:0:0:
64,192,106378,1,0,0:0:0:0:
320,192,106495,128,2,106847:0:0:0:70:soft-hitwhistle.wav
448,192,106495,1,0,0:0:0:0:
64,192,106729,128,0,106964:0:0:0:0:
192,192,106729,128,0,106964:0:0:0:0:
448,192,106729,128,0,106847:0:0:0:0:
320,192,106964,128,0,107081:0:0:0:70:soft-hitclap.wav
448,192,106964,1,0,0:0:0:0:
64,192,107081,128,0,107198:0:0:0:0:
192,192,107198,128,0,107315:0:0:0:0:
320,192,107198,128,0,107550:0:0:0:0:
448,192,107198,128,0,107784:0:0:0:0:
64,192,107433,128,2,107784:0:0:0:70:soft-hitwhistle.wav
192,192,107433,1,0,0:0:0:0:
320,192,107667,128,0,107784:0:0:0:0:
192,192,107901,128,0,108136:0:0:0:70:soft-hitclap.wav
320,192,107901,1,0,0:0:0:0:
448,192,107901,1,0,0:0:0:0:
64,192,108018,1,0,0:0:0:0:
448,192,108136,128,0,108370:0:0:0:0:
320,192,108253,1,0,0:0:0:0:
64,192,108370,128,2,108604:0:0:0:70:soft-hitwhistle.wav
192,192,108370,1,0,0:0:0:0:
320,192,108604,128,0,108839:0:0:0:0:
64,192,108839,1,0,0:0:0:70:soft-hitclap.wav
192,192,108839,128,0,108956:0:0:0:0:
448,192,108839,1,0,0:0:0:0:
448,192,108956,128,0,109190:0:0:0:0:
320,192,109073,1,0,0:0:0:0:
64,192,109308,128,2,109366:0:0:0:70:soft-hitwhistle.wav
320,192,109308,128,0,109659:0:0:0:0:
448,192,109308,128,0,109659:0:0:0:0:
64,192,109542,128,2,109600:0:0:0:70:soft-hitwhistle.wav
192,192,109542,1,0,0:0:0:0:
64,192,109776,128,0,109835:0:0:0:70:soft-hitclap.wav
192,192,109776,1,0,0:0:0:0:
320,192,109776,1,0,0:0:0:0:
64,192,110011,128,2,110069:0:0:0:70:soft-hitwhistle.wav
320,192,110011,1,0,0:0:0:0:
64,192,110245,128,2,110304:0:0:0:70:soft-hitwhistle.wav
448,192,110245,1,0,0:0:0:0:
64,192,110479,128,2,110597:0:0:0:70:soft-hitwhistle.wav
320,192,110479,128,0,110831:0:0:0:0:
448,192,110479,128,0,110831:0:0:0:0:
64,192,110714,128,0,110831:0:0:0:70:soft-hitclap.wav
192,192,110714,1,0,0:0:0:0:
192,192,110948,128,2,111065:0:0:0:70:soft-hitwhistle.wav
320,192,110948,128,0,111300:0:0:0:0:
448,192,110948,128,0,111183:0:0:0:0:
64,192,111065,128,0,111534:0:0:0:0:
192,192,111183,128,0,111417:0:0:0:0:
448,192,111300,128,0,111534:0:0:0:0:
320,192,111417,128,0,111651:0:0:0:0:
192,192,111534,128,0,111768:0:0:0:0:
64,192,111651,128,0,111768:0:0:0:0:
64,192,112354,1,0,0:0:0:35:Tom1.wav
448,192,112354,1,0,0:0:0:0:
320,192,112472,1,0,0:0:0:35:Tom2.wav
64,192,112589,1,0,0:0:0:35:Tom2.wav
192,192,112589,1,0,0:0:0:35:Tom1.wav
320,192,112706,1,0,0:0:0:35:Tom2.wav
64,192,112823,1,0,0:0:0:35:Tom3.wav
448,192,112823,1,0,0:0:0:35:Tom2.wav
192,192,112940,1,0,0:0:0:35:Tom3.wav
64,192,113058,128,2,114229:0:0:0:70:soft-hitwhistle.wav
320,192,113058,128,0,113292:0:0:0:50:soft-hitfinish.wav
448,192,113058,1,0,0:0:0:0:
192,192,113175,128,0,113292:0:0:0:0:
448,192,113292,128,0,113409:0:0:0:0:
192,192,113409,128,0,113526:0:0:0:0:
320,192,113526,128,0,113761:0:0:0:70:soft-hitclap.wav
448,192,113526,1,0,0:0:0:0:
192,192,113643,128,0,113761:0:0:0:0:
448,192,113761,128,0,113878:0:0:0:0:
192,192,113878,128,0,113995:0:0:0:0:
320,192,113995,128,2,114229:0:0:0:70:soft-hitwhistle.wav
448,192,113995,1,0,0:0:0:0:
192,192,114112,128,0,114229:0:0:0:0:
448,192,114229,128,0,114464:0:0:0:0:
320,192,114347,128,0,114464:0:0:0:0:
64,192,114464,128,0,114698:0:0:0:70:soft-hitclap.wav
192,192,114464,128,0,114581:0:0:0:0:
448,192,114581,128,0,114815:0:0:0:0:
192,192,114698,1,0,0:0:0:0:
320,192,114698,128,0,115050:0:0:0:0:
64,192,114815,128,0,114933:0:0:0:0:
192,192,114933,128,2,115167:0:0:0:70:soft-hitwhistle.wav
448,192,114933,1,0,0:0:0:0:
64,192,115167,1,0,0:0:0:0:
320,192,115167,128,0,115518:0:0:0:0:
192,192,115284,128,0,115401:0:0:0:0:
64,192,115401,128,0,115636:0:0:0:70:soft-hitclap.wav
448,192,115401,1,0,0:0:0:0:
192,192,115518,128,0,115636:0:0:0:0:
320,192,115636,1,0,0:0:0:0:
448,192,115636,1,0,0:0:0:0:
320,192,115870,128,2,115987:0:0:0:70:soft-hitwhistle.wav
448,192,115870,128,0,116104:0:0:0:0:
64,192,115987,128,0,116222:0:0:0:0:
192,192,116104,128,0,116222:0:0:0:0:
320,192,116104,128,0,116339:0:0:0:0:
448,192,116222,128,0,116456:0:0:0:0:
64,192,116339,128,0,116573:0:0:0:70:soft-hitclap.wav
192,192,116339,128,0,116690:0:0:0:0:
320,192,116573,128,0,116690:0:0:0:0:
64,192,116690,1,0,0:0:0:0:
192,192,116808,128,2,117042:0:0:0:70:soft-hitwhistle.wav
448,192,116808,128,0,117979:0:0:0:0:
320,192,116925,128,0,117042:0:0:0:0:
64,192,117042,128,0,117159:0:0:0:0:
320,192,117159,128,0,117276:0:0:0:0:
64,192,117276,1,0,0:0:0:70:soft-hitclap.wav
192,192,117276,128,0,117511:0:0:0:0:
320,192,117393,128,0,117511:0:0:0:0:
64,192,117511,128,0,117628:0:0:0:0:
320,192,117628,128,0,117745:0:0:0:0:
64,192,117745,1,2,0:0:0:70:soft-hitwhistle.wav
192,192,117745,128,0,117979:0:0:0:0:
320,192,117862,128,0,117979:0:0:0:0:
64,192,117979,128,0,118214:0:0:0:0:
192,192,118097,128,0,118214:0:0:0:0:
320,192,118214,128,0,118448:0:0:0:70:soft-hitclap.wav
448,192,118214,128,0,118331:0:0:0:0:
192,192,118331,128,0,118565:0:0:0:0:
64,192,118448,128,0,118683:0:0:0:0:
448,192,118448,128,0,118683:0:0:0:0:
192,192,118683,1,2,0:0:0:70:soft-hitwhistle.wav
320,192,118683,128,0,118917:0:0:0:0:
64,192,118917,1,0,0:0:0:0:
192,192,118917,128,0,119151:0:0:0:0:
448,192,119034,128,0,119503:0:0:0:0:
64,192,119151,1,0,0:0:0:70:soft-hitclap.wav
320,192,119151,128,0,119386:0:0:0:0:
192,192,119268,128,0,119503:0:0:0:0:
64,192,119386,128,0,119503:0:0:0:0:
64,192,119620,1,2,0:0:0:70:soft-hitwhistle.wav
448,192,119620,128,0,119854:0:0:0:0:
320,192,119737,1,0,0:0:0:0:
64,192,119854,128,0,120089:0:0:0:0:
192,192,119854,128,0,119972:0:0:0:0:
448,192,119972,1,0,0:0:0:0:
192,192,120089,128,0,120323:0:0:0:70:soft-hitclap.wav
320,192,120089,128,0,120206:0:0:0:0:
320,192,120323,128,0,120558:0:0:0:0:
448,192,120323,128,0,120440:0:0:0:0:
64,192,120558,128,2,121026:0:0:0:70:soft-hitwhistle.wav
192,192,120558,128,0,120792:0:0:0:50:soft-hitfinish.wav
448,192,120558,128,0,120675:0:0:0:0:
320,192,120792,128,0,120909:0:0:0:0:
192,192,120909,128,0,121143:0:0:0:0:
320,192,121026,128,0,121378:0:0:0:70:soft-hitclap.wav
448,192,121026,1,0,0:0:0:0:
64,192,121143,128,0,121261:0:0:0:0:
192,192,121261,128,0,121495:0:0:0:0:
320,192,121495,128,2,121729:0:0:0:70:soft-hitwhistle.wav
448,192,121495,128,0,121964:0:0:0:0:
64,192,121612,1,0,0:0:0:0:
192,192,121729,128,0,121847:0:0:0:0:
320,192,121847,128,0,122081:0:0:0:0:
64,192,121964,1,0,0:0:0:70:soft-hitclap.wav
192,192,121964,128,0,122550:0:0:0:0:
448,192,122081,128,0,122198:0:0:0:0:
320,192,122198,128,0,122315:0:0:0:0:
64,192,122433,128,2,122784:0:0:0:70:soft-hitwhistle.wav
448,192,122433,128,0,122784:0:0:0:0:
320,192,122550,128,0,122667:0:0:0:0:
192,192,122667,128,0,122901:0:0:0:0:
320,192,122784,128,0,123018:0:0:0:0:
64,192,122901,128,0,123253:0:0:0:70:soft-hitclap.wav
448,192,122901,128,0,123253:0:0:0:0:
192,192,123018,128,0,123253:0:0:0:0:
320,192,123136,128,0,123370:0:0:0:0:
64,192,123370,128,2,123839:0:0:0:70:soft-hitwhistle.wav
192,192,123370,128,0,123722:0:0:0:0:
320,192,123487,128,0,123604:0:0:0:0:
448,192,123604,1,0,0:0:0:0:
320,192,123722,1,0,0:0:0:0:
192,192,123839,1,0,0:0:0:70:soft-hitclap.wav
448,192,123839,128,0,124073:0:0:0:0:
64,192,123956,128,0,124190:0:0:0:0:
192,192,124073,128,0,124425:0:0:0:0:
64,192,124308,128,2,124659:0:0:0:70:soft-hitwhistle.wav
448,192,124308,128,0,124659:0:0:0:0:
320,192,124542,128,0,124659:0:0:0:0:
192,192,124659,1,0,0:0:0:0:
320,192,124776,128,0,125128:0:0:0:70:soft-hitclap.wav
448,192,124776,128,0,125011:0:0:0:0:
192,192,124893,128,0,125011:0:0:0:0:
64,192,125011,1,0,0:0:0:0:
192,192,125128,128,0,125362:0:0:0:0:
64,192,125245,1,2,0:0:0:70:soft-hitwhistle.wav
320,192,125245,128,0,125597:0:0:0:0:
448,192,125362,128,0,125597:0:0:0:0:
192,192,125479,128,0,125597:0:0:0:0:
64,192,125597,1,0,0:0:0:0:
192,192,125714,128,0,125948:0:0:0:70:soft-hitclap.wav
448,192,125714,128,0,126065:0:0:0:0:
320,192,125831,128,0,125948:0:0:0:0:
64,192,125948,1,0,0:0:0:0:
320,192,126065,128,0,126300:0:0:0:0:
64,192,126183,128,2,126300:0:0:0:70:soft-hitwhistle.wav
448,192,126183,128,0,127003:0:0:0:0:
192,192,126300,128,0,126417:0:0:0:0:
64,192,126417,128,0,126534:0:0:0:0:
192,192,126534,128,0,126651:0:0:0:0:
64,192,126651,1,0,0:0:0:70:soft-hitclap.wav
320,192,126651,128,0,126768:0:0:0:0:
192,192,126768,128,0,126886:0:0:0:0:
320,192,126886,128,0,127003:0:0:0:0:
192,192,127003,128,0,127120:0:0:0:0:
320,192,127120,128,2,127237:0:0:0:70:soft-hitwhistle.wav
448,192,127120,128,0,127472:0:0:0:0:
64,192,127237,128,0,127354:0:0:0:0:
320,192,127354,128,0,127472:0:0:0:0:
64,192,127472,128,0,127589:0:0:0:0:
320,192,127589,128,0,127940:0:0:0:0:
448,192,127589,128,0,127940:0:0:0:0:
64,192,127823,128,0,127940:0:0:0:0:
192,192,127823,128,0,127940:0:0:0:0:
64,192,128058,1,2,0:0:0:70:soft-hitwhistle.wav
192,192,128058,1,0,0:0:0:50:soft-hitfinish.wav
320,192,128058,1,0,0:0:0:0:
448,192,128058,1,0,0:0:0:0:
448,192,128175,1,0,0:0:0:0:
192,192,128292,1,0,0:0:0:0:
320,192,128409,1,0,0:0:0:0:
64,192,128526,1,0,0:0:0:70:soft-hitclap.wav
192,192,128526,1,0,0:0:0:0:
448,192,128526,1,0,0:0:0:0:
320,192,128643,1,0,0:0:0:0:
448,192,128761,1,0,0:0:0:0:
192,192,128878,1,0,0:0:0:0:
64,192,128995,1,2,0:0:0:70:soft-hitwhistle.wav
320,192,128995,1,0,0:0:0:0:
448,192,128995,1,0,0:0:0:0:
192,192,129112,1,0,0:0:0:0:
64,192,129229,1,0,0:0:0:0:
320,192,129347,1,0,0:0:0:0:
64,192,129464,1,0,0:0:0:70:soft-hitclap.wav
192,192,129464,1,0,0:0:0:0:
448,192,129464,1,0,0:0:0:0:
320,192,129581,1,0,0:0:0:0:
64,192,129698,1,0,0:0:0:0:
448,192,129698,1,0,0:0:0:0:
192,192,129933,1,2,0:0:0:70:soft-hitwhistle.wav
320,192,129933,1,0,0:0:0:0:
448,192,129933,1,0,0:0:0:0:
64,192,130050,1,0,0:0:0:0:
192,192,130167,1,0,0:0:0:0:
320,192,130284,1,0,0:0:0:0:
64,192,130401,1,0,0:0:0:70:soft-hitclap.wav
192,192,130401,1,0,0:0:0:0:
448,192,130401,1,0,0:0:0:0:
320,192,130518,1,0,0:0:0:0:
448,192,130636,1,0,0:0:0:0:
192,192,130753,1,0,0:0:0:0:
64,192,130870,1,2,0:0:0:70:soft-hitwhistle.wav
320,192,130870,1,0,0:0:0:0:
448,192,130870,1,0,0:0:0:0:
192,192,130987,1,0,0:0:0:0:
64,192,131104,1,0,0:0:0:0:
448,192,131222,1,0,0:0:0:0:
64,192,131339,1,0,0:0:0:70:soft-hitclap.wav
192,192,131339,1,0,0:0:0:0:
320,192,131339,1,0,0:0:0:0:
448,192,131456,1,0,0:0:0:0:
320,192,131573,1,0,0:0:0:0:
64,192,131690,1,0,0:0:0:0:
192,192,131808,1,2,0:0:0:70:soft-hitwhistle.wav
320,192,131808,1,0,0:0:0:0:
448,192,131808,1,0,0:0:0:0:
448,192,131925,1,0,0:0:0:0:
192,192,132042,1,0,0:0:0:0:
320,192,132159,1,0,0:0:0:0:
64,192,132276,1,0,0:0:0:70:soft-hitclap.wav
192,192,132276,1,0,0:0:0:0:
448,192,132276,1,0,0:0:0:0:
320,192,132393,1,0,0:0:0:0:
448,192,132511,1,0,0:0:0:0:
192,192,132628,1,0,0:0:0:0:
64,192,132745,1,2,0:0:0:70:soft-hitwhistle.wav
320,192,132745,1,0,0:0:0:0:
448,192,132745,1,0,0:0:0:0:
192,192,132862,1,0,0:0:0:0:
64,192,132979,1,0,0:0:0:0:
320,192,133097,1,0,0:0:0:0:
64,192,133214,1,0,0:0:0:70:soft-hitclap.wav
192,192,133214,1,0,0:0:0:0:
448,192,133214,1,0,0:0:0:0:
320,192,133331,1,0,0:0:0:0:
64,192,133448,1,0,0:0:0:0:
448,192,133448,1,0,0:0:0:0:
192,192,133683,1,2,0:0:0:70:soft-hitwhistle.wav
320,192,133683,1,0,0:0:0:0:
448,192,133683,1,0,0:0:0:0:
64,192,133800,1,0,0:0:0:0:
192,192,133917,1,0,0:0:0:0:
320,192,134034,1,0,0:0:0:0:
64,192,134151,1,0,0:0:0:70:soft-hitclap.wav
192,192,134151,1,0,0:0:0:0:
448,192,134151,1,0,0:0:0:0:
320,192,134268,1,0,0:0:0:0:
448,192,134386,1,0,0:0:0:0:
192,192,134503,1,0,0:0:0:0:
64,192,134620,1,2,0:0:0:70:soft-hitwhistle.wav
320,192,134620,1,0,0:0:0:0:
448,192,134620,1,0,0:0:0:0:
192,192,134737,1,0,0:0:0:0:
64,192,134854,1,0,0:0:0:0:
448,192,134972,1,0,0:0:0:0:
64,192,135089,1,0,0:0:0:70:soft-hitclap.wav
192,192,135089,1,0,0:0:0:0:
320,192,135089,1,0,0:0:0:0:
448,192,135206,1,0,0:0:0:0:
320,192,135323,1,0,0:0:0:0:
64,192,135440,1,0,0:0:0:0:
64,192,135558,1,2,0:0:0:70:soft-hitwhistle.wav
192,192,135558,1,0,0:0:0:50:soft-hitfinish.wav
320,192,135558,1,0,0:0:0:0:
448,192,135558,1,0,0:0:0:0:
448,192,135675,1,0,0:0:0:0:
64,192,135792,1,0,0:0:0:0:
192,192,135909,1,0,0:0:0:0:
64,192,136026,1,0,0:0:0:70:soft-hitclap.wav
320,192,136026,1,0,0:0:0:0:
448,192,136026,1,0,0:0:0:0:
192,192,136143,1,0,0:0:0:0:
448,192,136261,1,0,0:0:0:0:
320,192,136378,1,0,0:0:0:0:
64,192,136495,1,2,0:0:0:70:soft-hitwhistle.wav
192,192,136495,1,0,0:0:0:0:
448,192,136495,1,0,0:0:0:0:
320,192,136612,1,0,0:0:0:0:
64,192,136729,1,0,0:0:0:0:
192,192,136847,1,0,0:0:0:0:
64,192,136964,1,0,0:0:0:70:soft-hitclap.wav
320,192,136964,1,0,0:0:0:0:
448,192,136964,1,0,0:0:0:0:
192,192,137081,1,0,0:0:0:0:
64,192,137198,1,0,0:0:0:0:
448,192,137198,1,0,0:0:0:0:
64,192,137433,1,2,0:0:0:70:soft-hitwhistle.wav
192,192,137433,1,0,0:0:0:0:
448,192,137433,1,0,0:0:0:0:
320,192,137550,1,0,0:0:0:0:
192,192,137667,1,0,0:0:0:0:
448,192,137784,1,0,0:0:0:0:
64,192,137901,1,0,0:0:0:70:soft-hitclap.wav
192,192,137901,1,0,0:0:0:0:
320,192,137901,1,0,0:0:0:0:
448,192,138018,1,0,0:0:0:0:
64,192,138136,1,0,0:0:0:0:
192,192,138253,1,0,0:0:0:0:
64,192,138370,1,2,0:0:0:70:soft-hitwhistle.wav
320,192,138370,1,0,0:0:0:0:
448,192,138370,1,0,0:0:0:0:
192,192,138487,1,0,0:0:0:0:
320,192,138604,1,0,0:0:0:0:
448,192,138722,1,0,0:0:0:0:
64,192,138839,1,0,0:0:0:70:soft-hitclap.wav
192,192,138839,1,0,0:0:0:0:
320,192,138839,1,0,0:0:0:0:
448,192,138956,1,0,0:0:0:0:
192,192,139073,1,0,0:0:0:0:
64,192,139190,1,0,0:0:0:0:
192,192,139308,1,2,0:0:0:70:soft-hitwhistle.wav
320,192,139308,1,0,0:0:0:0:
448,192,139308,1,0,0:0:0:0:
64,192,139425,1,0,0:0:0:0:
320,192,139542,1,0,0:0:0:0:
192,192,139659,1,0,0:0:0:0:
64,192,139776,1,0,0:0:0:70:soft-hitclap.wav
320,192,139776,1,0,0:0:0:0:
448,192,139776,1,0,0:0:0:0:
192,192,139893,1,0,0:0:0:0:
448,192,140011,1,0,0:0:0:0:
320,192,140128,1,0,0:0:0:0:
64,192,140245,1,2,0:0:0:70:soft-hitwhistle.wav
192,192,140245,1,0,0:0:0:0:
448,192,140245,1,0,0:0:0:0:
320,192,140362,1,0,0:0:0:0:
64,192,140479,1,0,0:0:0:0:
192,192,140597,1,0,0:0:0:0:
64,192,140714,1,0,0:0:0:70:soft-hitclap.wav
320,192,140714,1,0,0:0:0:0:
448,192,140714,1,0,0:0:0:0:
192,192,140831,1,0,0:0:0:0:
320,192,140948,1,0,0:0:0:0:
448,192,140948,1,0,0:0:0:0:
192,192,141183,1,2,0:0:0:70:soft-hitwhistle.wav
320,192,141183,1,0,0:0:0:0:
448,192,141183,1,0,0:0:0:0:
64,192,141300,1,0,0:0:0:0:
192,192,141417,1,0,0:0:0:0:
320,192,141534,1,0,0:0:0:0:
64,192,141651,1,0,0:0:0:70:soft-hitclap.wav
192,192,141651,1,0,0:0:0:0:
448,192,141651,1,0,0:0:0:0:
320,192,141768,1,0,0:0:0:0:
64,192,141886,1,0,0:0:0:0:
192,192,142003,1,0,0:0:0:0:
64,192,142120,1,2,0:0:0:70:soft-hitwhistle.wav
320,192,142120,1,0,0:0:0:0:
448,192,142120,1,0,0:0:0:0:
192,192,142237,1,0,0:0:0:0:
320,192,142354,1,0,0:0:0:0:
64,192,142472,1,0,0:0:0:0:
320,192,142589,1,0,0:0:0:35:Tom1.wav
448,192,142589,1,0,0:0:0:0:
192,192,142706,1,0,0:0:0:0:
320,192,142823,1,0,0:0:0:35:Tom1.wav
448,192,142823,1,0,0:0:0:0:
64,192,142940,1,0,0:0:0:35:Tom1.wav
192,192,142940,1,0,0:0:0:0:
64,192,143058,128,2,143409:0:0:0:70:soft-hitwhistle.wav
320,192,143058,128,0,143526:0:0:0:50:soft-hitfinish.wav
448,192,143058,128,0,143526:0:0:0:0:
64,192,143526,1,2,0:0:0:70:soft-hitwhistle.wav
192,192,143526,1,0,0:0:0:0:
320,192,143643,1,0,0:0:0:0:
64,192,143761,1,0,0:0:0:0:
192,192,143819,1,0,0:0:0:0:
64,192,143878,1,0,0:0:0:0:
320,192,143995,1,2,0:0:0:70:soft-hitwhistle.wav
448,192,143995,1,0,0:0:0:0:
192,192,144112,1,0,0:0:0:0:
64,192,144347,1,0,0:0:0:0:
192,192,144405,1,0,0:0:0:0:
64,192,144464,1,2,0:0:0:70:soft-hitwhistle.wav
448,192,144464,1,0,0:0:0:0:
192,192,144581,1,0,0:0:0:0:
320,192,144698,1,0,0:0:0:0:
448,192,144815,1,0,0:0:0:0:
64,192,144933,1,2,0:0:0:70:soft-hitwhistle.wav
192,192,144933,1,0,0:0:0:0:
320,192,144991,1,0,0:0:0:0:
192,192,145050,1,0,0:0:0:0:
448,192,145167,1,0,0:0:0:0:
320,192,145284,1,0,0:0:0:0:
192,192,145343,1,0,0:0:0:0:
64,192,145401,1,2,0:0:0:70:soft-hitwhistle.wav
448,192,145401,1,0,0:0:0:0:
192,192,145518,1,0,0:0:0:0:
320,192,145636,1,0,0:0:0:0:
448,192,145636,1,0,0:0:0:0:
64,192,145753,1,0,0:0:0:0:
192,192,145753,1,0,0:0:0:0:
320,192,145870,1,2,0:0:0:70:soft-hitwhistle.wav
448,192,145870,1,0,0:0:0:0:
64,192,145987,1,0,0:0:0:0:
192,192,145987,1,0,0:0:0:0:
64,192,146104,128,0,146222:0:0:0:0:
320,192,146104,128,0,146339:0:0:0:0:
448,192,146104,128,0,146222:0:0:0:0:
64,192,146339,128,2,146456:0:0:0:70:soft-hitwhistle.wav
192,192,146339,128,0,146573:0:0:0:0:
448,192,146339,128,0,146456:0:0:0:0:
64,192,146573,128,0,146690:0:0:0:0:
320,192,146573,128,0,146690:0:0:0:0:
448,192,146573,128,0,146808:0:0:0:0:
64,192,146808,128,2,147276:0:0:0:70:soft-hitwhistle.wav
192,192,146808,128,0,147276:0:0:0:0:
320,192,146808,128,0,147159:0:0:0:0:
320,192,147276,1,2,0:0:0:70:soft-hitwhistle.wav
448,192,147276,1,0,0:0:0:0:
192,192,147393,1,0,0:0:0:0:
64,192,147511,1,0,0:0:0:0:
448,192,147628,1,0,0:0:0:0:
64,192,147745,1,2,0:0:0:70:soft-hitwhistle.wav
192,192,147745,1,0,0:0:0:0:
320,192,147862,1,0,0:0:0:0:
64,192,148097,1,0,0:0:0:0:
192,192,148155,1,0,0:0:0:0:
64,192,148214,1,2,0:0:0:70:soft-hitwhistle.wav
448,192,148214,1,0,0:0:0:0:
320,192,148331,1,0,0:0:0:0:
192,192,148448,1,0,0:0:0:0:
448,192,148565,1,0,0:0:0:0:
64,192,148683,1,2,0:0:0:70:soft-hitwhistle.wav
192,192,148683,1,0,0:0:0:0:
320,192,148858,1,0,0:0:0:0:
320,192,149034,1,0,0:0:0:0:
64,192,149151,1,2,0:0:0:70:soft-hitwhistle.wav
192,192,149151,1,0,0:0:0:0:
320,192,149327,1,0,0:0:0:0:
320,192,149503,1,0,0:0:0:0:
64,192,149620,128,2,149854:0:0:0:70:soft-hitwhistle.wav
320,192,149620,128,0,149854:0:0:0:0:
448,192,149620,128,0,149854:0:0:0:0:
64,192,149972,128,0,150206:0:0:0:0:
320,192,149972,128,0,150206:0:0:0:0:
448,192,149972,128,0,150206:0:0:0:0:
192,192,150089,128,2,150206:0:0:0:70:soft-hitwhistle.wav
64,192,150323,128,0,150558:0:0:0:0:
320,192,150323,128,0,150440:0:0:0:0:
448,192,150323,128,0,150440:0:0:0:0:
192,192,150558,128,2,150909:0:0:0:70:soft-hitwhistle.wav
320,192,150558,128,0,151026:0:0:0:0:
448,192,150558,128,0,151026:0:0:0:0:
64,192,151026,1,2,0:0:0:70:soft-hitwhistle.wav
192,192,151026,1,0,0:0:0:0:
320,192,151143,1,0,0:0:0:0:
64,192,151261,1,0,0:0:0:0:
192,192,151319,1,0,0:0:0:0:
64,192,151378,1,0,0:0:0:0:
320,192,151495,1,2,0:0:0:70:soft-hitwhistle.wav
448,192,151495,1,0,0:0:0:0:
192,192,151612,1,0,0:0:0:0:
448,192,151847,1,0,0:0:0:0:
320,192,151905,1,0,0:0:0:0:
64,192,151964,1,2,0:0:0:70:soft-hitwhistle.wav
448,192,151964,1,0,0:0:0:0:
192,192,152081,1,0,0:0:0:0:
320,192,152198,1,0,0:0:0:0:
64,192,152315,1,0,0:0:0:0:
320,192,152433,1,2,0:0:0:70:soft-hitwhistle.wav
448,192,152433,1,0,0:0:0:0:
192,192,152491,1,0,0:0:0:0:
320,192,152550,1,0,0:0:0:0:
192,192,152784,1,0,0:0:0:0:
320,192,152843,1,0,0:0:0:0:
64,192,152901,1,2,0:0:0:70:soft-hitwhistle.wav
192,192,152901,1,0,0:0:0:0:
448,192,153136,1,0,0:0:0:0:
320,192,153253,1,0,0:0:0:0:
64,192,153370,1,2,0:0:0:70:soft-hitwhistle.wav
192,192,153370,1,0,0:0:0:0:
320,192,153487,1,0,0:0:0:0:
64,192,153604,128,0,153722:0:0:0:0:
192,192,153604,128,0,153839:0:0:0:0:
448,192,153604,128,0,153722:0:0:0:0:
64,192,153839,128,2,154073:0:0:0:70:soft-hitwhistle.wav
320,192,153839,128,0,153956:0:0:0:0:
448,192,153839,128,0,153956:0:0:0:0:
192,192,154073,128,0,154190:0:0:0:0:
320,192,154073,128,0,154308:0:0:0:0:
448,192,154073,128,0,154190:0:0:0:0:
64,192,154308,128,2,154776:0:0:0:70:soft-hitwhistle.wav
192,192,154308,128,0,154776:0:0:0:0:
448,192,154308,128,0,154659:0:0:0:0:
320,192,154776,1,2,0:0:0:70:soft-hitwhistle.wav
448,192,154776,1,0,0:0:0:0:
192,192,154893,1,0,0:0:0:0:
64,192,155011,1,0,0:0:0:0:
448,192,155128,1,0,0:0:0:0:
64,192,155245,1,2,0:0:0:70:soft-hitwhistle.wav
192,192,155245,1,0,0:0:0:0:
320,192,155362,1,0,0:0:0:0:
448,192,155597,1,0,0:0:0:0:
320,192,155655,1,0,0:0:0:0:
64,192,155714,1,2,0:0:0:70:soft-hitwhistle.wav
448,192,155714,1,0,0:0:0:0:
192,192,155831,1,0,0:0:0:0:
320,192,155948,1,0,0:0:0:0:
192,192,156065,1,0,0:0:0:0:
64,192,156183,1,2,0:0:0:70:soft-hitwhistle.wav
448,192,156183,1,0,0:0:0:0:
192,192,156241,1,0,0:0:0:0:
64,192,156300,1,0,0:0:0:0:
320,192,156417,1,0,0:0:0:0:
448,192,156534,1,0,0:0:0:0:
320,192,156593,1,0,0:0:0:0:
64,192,156651,1,2,0:0:0:70:soft-hitwhistle.wav
448,192,156651,1,0,0:0:0:0:
64,192,156768,1,0,0:0:0:0:
192,192,156768,1,0,0:0:0:0:
320,192,156886,1,0,0:0:0:0:
448,192,156886,1,0,0:0:0:0:
64,192,157003,1,0,0:0:0:0:
192,192,157003,1,0,0:0:0:0:
192,192,157120,128,2,157354:0:0:0:70:soft-hitwhistle.wav
320,192,157120,128,0,157354:0:0:0:0:
448,192,157120,128,0,157354:0:0:0:0:
64,192,157354,1,0,0:0:0:0:
192,192,157472,128,0,157706:0:0:0:70:soft-hitclap.wav
320,192,157472,128,0,157706:0:0:0:0:
448,192,157472,128,0,157706:0:0:0:0:
64,192,157589,1,2,0:0:0:70:soft-hitwhistle.wav
192,192,157823,128,0,157940:0:0:0:70:soft-hitclap.wav
320,192,157823,128,0,157940:0:0:0:0:
448,192,157823,128,0,157940:0:0:0:0:
64,192,158058,128,2,158292:0:0:0:70:soft-hitwhistle.wav
192,192,158058,1,0,0:0:0:0:
448,192,158058,128,0,158292:0:0:0:0:
320,192,158175,128,0,158409:0:0:0:0:
192,192,158292,128,0,158526:0:0:0:0:
64,192,158409,128,0,158526:0:0:0:0:
320,192,158526,1,0,0:0:0:70:soft-hitclap.wav
448,192,158526,1,0,0:0:0:0:
192,192,158643,1,0,0:0:0:0:
64,192,158761,128,0,158878:0:0:0:0:
320,192,158995,1,2,0:0:0:70:soft-hitwhistle.wav
448,192,158995,128,0,159229:0:0:0:0:
192,192,159112,1,0,0:0:0:0:
64,192,159229,128,0,159581:0:0:0:0:
192,192,159347,128,0,159464:0:0:0:0:
320,192,159464,1,0,0:0:0:70:soft-hitclap.wav
448,192,159464,1,0,0:0:0:0:
192,192,159581,128,0,159933:0:0:0:0:
64,192,159698,128,0,159815:0:0:0:0:
320,192,159933,128,2,160284:0:0:0:70:soft-hitwhistle.wav
448,192,159933,1,0,0:0:0:0:
192,192,160050,1,0,0:0:0:0:
64,192,160167,128,0,160284:0:0:0:0:
64,192,160401,1,0,0:0:0:70:soft-hitclap.wav
192,192,160401,128,0,160753:0:0:0:0:
320,192,160518,1,0,0:0:0:0:
448,192,160636,128,0,160753:0:0:0:0:
64,192,160870,1,2,0:0:0:70:soft-hitwhistle.wav
320,192,160870,128,0,161222:0:0:0:0:
192,192,160987,1,0,0:0:0:0:
448,192,161104,128,0,161339:0:0:0:0:
64,192,161339,1,0,0:0:0:70:soft-hitclap.wav
192,192,161339,128,0,161690:0:0:0:0:
320,192,161573,128,0,161808:0:0:0:0:
64,192,161808,128,2,162042:0:0:0:70:soft-hitwhistle.wav
192,192,161808,1,0,0:0:0:0:
448,192,161808,128,0,162042:0:0:0:0:
320,192,161925,128,0,162159:0:0:0:0:
192,192,162042,128,0,162276:0:0:0:0:
64,192,162159,128,0,162276:0:0:0:0:
320,192,162276,1,0,0:0:0:70:soft-hitclap.wav
448,192,162276,1,0,0:0:0:0:
192,192,162393,1,0,0:0:0:0:
448,192,162511,128,0,162628:0:0:0:0:
64,192,162745,128,2,162862:0:0:0:70:soft-hitwhistle.wav
192,192,162745,1,0,0:0:0:0:
320,192,162862,1,0,0:0:0:0:
448,192,162979,128,0,163331:0:0:0:0:
320,192,163097,128,0,163214:0:0:0:0:
64,192,163214,1,0,0:0:0:70:soft-hitclap.wav
192,192,163214,1,0,0:0:0:0:
320,192,163331,128,0,163683:0:0:0:0:
448,192,163448,128,0,163565:0:0:0:0:
64,192,163683,1,2,0:0:0:70:soft-hitwhistle.wav
192,192,163683,128,0,164034:0:0:0:0:
320,192,163800,1,0,0:0:0:0:
448,192,163917,128,0,164034:0:0:0:0:
320,192,164151,128,0,164503:0:0:0:70:soft-hitclap.wav
448,192,164151,1,0,0:0:0:0:
192,192,164268,1,0,0:0:0:0:
64,192,164386,128,0,164503:0:0:0:0:
192,192,164620,128,2,164972:0:0:0:70:soft-hitwhistle.wav
320,192,164620,1,0,0:0:0:0:
448,192,164737,1,0,0:0:0:0:
64,192,164854,128,0,165089:0:0:0:0:
320,192,164972,1,0,0:0:0:0:
192,192,165089,1,0,0:0:0:70:soft-hitclap.wav
448,192,165089,128,0,165440:0:0:0:0:
192,192,165323,1,0,0:0:0:0:
320,192,165323,128,0,165558:0:0:0:0:
64,192,165558,1,2,0:0:0:70:soft-hitwhistle.wav
448,192,165558,1,0,0:0:0:0:
320,192,165675,1,0,0:0:0:0:
192,192,165792,1,0,0:0:0:0:
64,192,165909,1,0,0:0:0:0:
320,192,166026,1,0,0:0:0:70:soft-hitclap.wav
448,192,166026,1,0,0:0:0:0:
192,192,166143,1,0,0:0:0:0:
64,192,166261,128,0,166378:0:0:0:0:
320,192,166495,128,2,166729:0:0:0:70:soft-hitwhistle.wav
448,192,166495,1,0,0:0:0:0:
192,192,166612,1,0,0:0:0:0:
448,192,166729,1,0,0:0:0:0:
320,192,166847,128,0,167081:0:0:0:0:
64,192,166964,1,0,0:0:0:70:soft-hitclap.wav
192,192,166964,1,0,0:0:0:0:
448,192,167198,128,0,167315:0:0:0:0:
320,192,167315,1,0,0:0:0:0:
64,192,167433,1,2,0:0:0:70:soft-hitwhistle.wav
192,192,167433,128,0,167667:0:0:0:0:
320,192,167550,1,0,0:0:0:0:
448,192,167667,1,0,0:0:0:0:
320,192,167784,128,0,168018:0:0:0:0:
64,192,167901,1,0,0:0:0:70:soft-hitclap.wav
192,192,167901,1,0,0:0:0:0:
64,192,168136,128,0,168370:0:0:0:0:
192,192,168370,128,2,168487:0:0:0:70:soft-hitwhistle.wav
448,192,168370,1,0,0:0:0:0:
320,192,168487,1,0,0:0:0:0:
64,192,168604,1,0,0:0:0:0:
448,192,168722,128,0,168956:0:0:0:0:
64,192,168839,1,0,0:0:0:70:soft-hitclap.wav
192,192,168839,1,0,0:0:0:0:
320,192,169073,128,0,169366:0:0:0:0:
192,192,169190,1,0,0:0:0:0:
64,192,169308,128,2,169659:0:0:0:70:soft-hitwhistle.wav
448,192,169308,128,0,169366:0:0:0:70:soft-hitclap.wav
192,192,169542,128,2,169659:0:0:0:70:soft-hitwhistle.wav
320,192,169542,128,0,169835:0:0:0:0:
64,192,169776,128,2,170128:0:0:0:70:soft-hitwhistle.wav
448,192,169776,128,0,169835:0:0:0:70:soft-hitclap.wav
192,192,170011,128,2,170128:0:0:0:70:soft-hitwhistle.wav
320,192,170011,128,0,170304:0:0:0:0:
64,192,170245,128,2,170304:0:0:0:70:soft-hitwhistle.wav
448,192,170245,128,0,170597:0:0:0:70:soft-hitclap.wav
192,192,170479,128,2,170772:0:0:0:70:soft-hitwhistle.wav
320,192,170479,128,0,170597:0:0:0:0:
64,192,170714,128,2,170772:0:0:0:70:soft-hitwhistle.wav
448,192,170714,128,0,171065:0:0:0:70:soft-hitclap.wav
192,192,170948,128,2,171065:0:0:0:70:soft-hitwhistle.wav
320,192,170948,128,0,171065:0:0:0:0:
64,192,171183,128,0,172003:0:0:0:0:
448,192,171183,128,0,171300:0:0:0:0:
192,192,171300,128,0,171651:0:0:0:0:
448,192,171417,128,0,171534:0:0:0:0:
320,192,171534,1,0,0:0:0:0:
320,192,171651,128,0,171768:0:0:0:0:
192,192,171768,1,0,0:0:0:0:
192,192,171886,128,0,172003:0:0:0:0:
448,192,172003,1,0,0:0:0:0:
64,192,172120,1,0,0:0:0:70:soft-hitclap.wav
320,192,172120,1,0,0:0:0:0:
448,192,172120,1,0,0:0:0:0:
192,192,172237,1,0,0:0:0:0:
320,192,172354,1,0,0:0:0:0:
448,192,172354,1,0,0:0:0:0:
64,192,172472,1,0,0:0:0:0:
192,192,172472,1,0,0:0:0:0:
320,192,172589,1,0,0:0:0:70:soft-hitclap.wav
448,192,172589,1,0,0:0:0:0:
192,192,172706,1,0,0:0:0:0:
64,192,172823,1,0,0:0:0:70:soft-hitclap.wav
448,192,172823,1,0,0:0:0:0:
320,192,172940,1,0,0:0:0:0:
64,192,173058,1,2,0:0:0:70:soft-hitwhistle.wav
192,192,173058,128,0,173409:0:0:0:50:soft-hitfinish.wav
448,192,173058,128,0,174229:0:0:0:0:
320,192,173175,128,0,173292:0:0:0:0:
64,192,173292,128,0,173409:0:0:0:0:
320,192,173409,128,0,173526:0:0:0:0:
64,192,173526,1,0,0:0:0:70:soft-hitclap.wav
192,192,173526,128,0,173878:0:0:0:0:
320,192,173643,128,0,173761:0:0:0:0:
64,192,173761,128,0,173878:0:0:0:0:
320,192,173878,128,0,173995:0:0:0:0:
64,192,173995,1,2,0:0:0:70:soft-hitwhistle.wav
192,192,173995,128,0,174229:0:0:0:0:
320,192,174112,128,0,174229:0:0:0:0:
64,192,174229,128,0,174464:0:0:0:0:
192,192,174347,128,0,174581:0:0:0:0:
320,192,174464,128,0,174581:0:0:0:70:soft-hitclap.wav
448,192,174464,128,0,174698:0:0:0:0:
64,192,174581,128,0,174815:0:0:0:0:
192,192,174698,128,0,175050:0:0:0:0:
320,192,174698,128,0,174815:0:0:0:0:
448,192,174815,128,0,174933:0:0:0:0:
64,192,174933,1,2,0:0:0:70:soft-hitwhistle.wav
320,192,174933,128,0,175167:0:0:0:0:
64,192,175167,128,0,175284:0:0:0:0:
192,192,175167,128,0,175518:0:0:0:0:
320,192,175284,128,0,175401:0:0:0:0:
64,192,175401,1,0,0:0:0:70:soft-hitclap.wav
448,192,175401,128,0,175636:0:0:0:0:
320,192,175518,128,0,175636:0:0:0:0:
64,192,175636,1,0,0:0:0:0:
192,192,175636,1,0,0:0:0:0:
64,192,175870,128,2,176104:0:0:0:70:soft-hitwhistle.wav
192,192,175870,128,0,175987:0:0:0:0:
448,192,175987,128,0,176222:0:0:0:0:
192,192,176104,128,0,176339:0:0:0:0:
320,192,176104,128,0,176222:0:0:0:0:
64,192,176222,128,0,176456:0:0:0:0:
320,192,176339,128,0,176690:0:0:0:70:soft-hitclap.wav
448,192,176339,128,0,176573:0:0:0:0:
192,192,176573,128,0,176808:0:0:0:0:
448,192,176690,128,0,176925:0:0:0:0:
64,192,176808,128,2,177979:0:0:0:70:soft-hitwhistle.wav
320,192,176808,128,0,177159:0:0:0:0:
192,192,176925,128,0,177042:0:0:0:0:
448,192,177042,128,0,177159:0:0:0:0:
192,192,177159,128,0,177276:0:0:0:0:
320,192,177276,128,0,177628:0:0:0:70:soft-hitclap.wav
448,192,177276,1,0,0:0:0:0:
192,192,177393,128,0,177511:0:0:0:0:
448,192,177511,128,0,177628:0:0:0:0:
192,192,177628,128,0,177745:0:0:0:0:
320,192,177745,128,2,177979:0:0:0:70:soft-hitwhistle.wav
448,192,177745,1,0,0:0:0:0:
192,192,177862,128,0,177979:0:0:0:0:
448,192,177979,128,0,178331:0:0:0:0:
320,192,178097,128,0,178214:0:0:0:0:
64,192,178214,128,0,178331:0:0:0:70:soft-hitclap.wav
192,192,178214,128,0,178448:0:0:0:0:
320,192,178331,128,0,178565:0:0:0:0:
64,192,178448,128,0,178683:0:0:0:0:
448,192,178448,128,0,178683:0:0:0:0:
192,192,178683,128,2,178917:0:0:0:70:soft-hitwhistle.wav
320,192,178683,1,0,0:0:0:0:
320,192,178917,128,0,179151:0:0:0:0:
448,192,178917,1,0,0:0:0:0:
64,192,179034,128,0,179503:0:0:0:0:
192,192,179151,128,0,179386:0:0:0:70:soft-hitclap.wav
448,192,179151,1,0,0:0:0:0:
320,192,179268,128,0,179503:0:0:0:0:
448,192,179386,128,0,179503:0:0:0:0:
64,192,179620,128,2,179854:0:0:0:70:soft-hitwhistle.wav
448,192,179620,1,0,0:0:0:0:
192,192,179737,1,0,0:0:0:0:
320,192,179854,128,0,179972:0:0:0:0:
448,192,179854,128,0,180089:0:0:0:0:
64,192,179972,1,0,0:0:0:0:
192,192,180089,128,0,180206:0:0:0:70:soft-hitclap.wav
320,192,180089,128,0,180323:0:0:0:0:
64,192,180323,128,0,180440:0:0:0:0:
192,192,180323,128,0,180558:0:0:0:0:
64,192,180558,128,2,180675:0:0:0:70:soft-hitwhistle.wav
320,192,180558,128,0,180792:0:0:0:50:soft-hitfinish.wav
448,192,180558,128,0,181026:0:0:0:0:
192,192,180792,128,0,180909:0:0:0:0:
320,192,180909,128,0,181143:0:0:0:0:
64,192,181026,1,0,0:0:0:70:soft-hitclap.wav
192,192,181026,128,0,181378:0:0:0:0:
448,192,181143,128,0,181261:0:0:0:0:
320,192,181261,128,0,181495:0:0:0:0:
64,192,181495,128,2,181964:0:0:0:70:soft-hitwhistle.wav
192,192,181495,128,0,181729:0:0:0:0:
448,192,181612,1,0,0:0:0:0:
320,192,181729,128,0,181847:0:0:0:0:
192,192,181847,128,0,182081:0:0:0:0:
320,192,181964,128,0,182550:0:0:0:70:soft-hitclap.wav
448,192,181964,1,0,0:0:0:0:
64,192,182081,128,0,182198:0:0:0:0:
192,192,182198,128,0,182315:0:0:0:0:
64,192,182433,128,2,182784:0:0:0:70:soft-hitwhistle.wav
448,192,182433,128,0,182784:0:0:0:0:
192,192,182550,128,0,182667:0:0:0:0:
320,192,182667,128,0,182901:0:0:0:0:
192,192,182784,128,0,183018:0:0:0:0:
64,192,182901,128,0,183253:0:0:0:70:soft-hitclap.wav
448,192,182901,128,0,183253:0:0:0:0:
320,192,183018,128,0,183253:0:0:0:0:
192,192,183136,128,0,183370:0:0:0:0:
320,192,183370,128,2,183722:0:0:0:70:soft-hitwhistle.wav
448,192,183370,128,0,183839:0:0:0:0:
192,192,183487,128,0,183604:0:0:0:0:
64,192,183604,1,0,0:0:0:0:
192,192,183722,1,0,0:0:0:0:
64,192,183839,128,0,184073:0:0:0:70:soft-hitclap.wav
320,192,183839,1,0,0:0:0:0:
448,192,183956,128,0,184190:0:0:0:0:
320,192,184073,128,0,184425:0:0:0:0:
64,192,184308,128,2,184542:0:0:0:70:soft-hitwhistle.wav
448,192,184308,128,0,184659:0:0:0:0:
192,192,184425,128,0,184659:0:0:0:0:
320,192,184542,128,0,184659:0:0:0:0:
64,192,184659,1,0,0:0:0:0:
192,192,184776,128,0,185128:0:0:0:70:soft-hitclap.wav
320,192,184776,128,0,185011:0:0:0:0:
64,192,184893,128,0,185245:0:0:0:0:
448,192,185011,1,0,0:0:0:0:
320,192,185128,128,0,185362:0:0:0:0:
192,192,185245,128,2,185597:0:0:0:70:soft-hitwhistle.wav
448,192,185245,1,0,0:0:0:0:
64,192,185362,128,0,185597:0:0:0:0:
320,192,185479,128,0,185597:0:0:0:0:
448,192,185597,1,0,0:0:0:0:
64,192,185714,128,0,186065:0:0:0:70:soft-hitclap.wav
192,192,185714,128,0,185948:0:0:0:0:
320,192,185831,128,0,186183:0:0:0:0:
448,192,185948,1,0,0:0:0:0:
192,192,186065,128,0,186534:0:0:0:0:
64,192,186183,128,2,187003:0:0:0:70:soft-hitwhistle.wav
448,192,186183,128,0,186300:0:0:0:0:
320,192,186300,128,0,186417:0:0:0:0:
448,192,186417,128,0,186534:0:0:0:0:
320,192,186534,128,0,186651:0:0:0:0:
192,192,186651,128,0,186768:0:0:0:70:soft-hitclap.wav
448,192,186651,1,0,0:0:0:0:
320,192,186768,128,0,186886:0:0:0:0:
192,192,186886,128,0,187003:0:0:0:0:
320,192,187003,128,0,187237:0:0:0:0:
64,192,187120,128,2,187472:0:0:0:70:soft-hitwhistle.wav
192,192,187120,128,0,187354:0:0:0:0:
448,192,187237,128,0,187472:0:0:0:0:
320,192,187354,128,0,187589:0:0:0:0:
192,192,187472,128,0,187706:0:0:0:0:
64,192,187589,128,0,187940:0:0:0:70:soft-hitclap.wav
448,192,187589,128,0,187706:0:0:0:0:
320,192,187706,128,0,187940:0:0:0:0:
192,192,187823,128,0,187940:0:0:0:0:
448,192,187823,128,0,187940:0:0:0:0:
64,192,188058,1,2,0:0:0:70:soft-hitwhistle.wav
192,192,188058,1,0,0:0:0:50:soft-hitfinish.wav
320,192,188058,1,0,0:0:0:0:
448,192,188058,1,0,0:0:0:0:
64,192,188175,1,0,0:0:0:0:
320,192,188292,1,0,0:0:0:0:
192,192,188409,1,0,0:0:0:0:
64,192,188526,1,0,0:0:0:70:soft-hitclap.wav
320,192,188526,1,0,0:0:0:0:
448,192,188526,1,0,0:0:0:0:
192,192,188643,1,0,0:0:0:0:
64,192,188761,1,0,0:0:0:0:
320,192,188878,1,0,0:0:0:0:
64,192,188995,1,2,0:0:0:70:soft-hitwhistle.wav
192,192,188995,1,0,0:0:0:0:
448,192,188995,1,0,0:0:0:0:
320,192,189112,1,0,0:0:0:0:
448,192,189229,1,0,0:0:0:0:
192,192,189347,1,0,0:0:0:0:
64,192,189464,1,0,0:0:0:70:soft-hitclap.wav
320,192,189464,1,0,0:0:0:0:
448,192,189464,1,0,0:0:0:0:
192,192,189581,1,0,0:0:0:0:
64,192,189698,1,0,0:0:0:0:
448,192,189698,1,0,0:0:0:0:
64,192,189933,1,2,0:0:0:70:soft-hitwhistle.wav
192,192,189933,1,0,0:0:0:0:
320,192,189933,1,0,0:0:0:0:
448,192,190050,1,0,0:0:0:0:
320,192,190167,1,0,0:0:0:0:
192,192,190284,1,0,0:0:0:0:
64,192,190401,1,0,0:0:0:70:soft-hitclap.wav
320,192,190401,1,0,0:0:0:0:
448,192,190401,1,0,0:0:0:0:
192,192,190518,1,0,0:0:0:0:
64,192,190636,1,0,0:0:0:0:
320,192,190753,1,0,0:0:0:0:
64,192,190870,1,2,0:0:0:70:soft-hitwhistle.wav
192,192,190870,1,0,0:0:0:0:
448,192,190870,1,0,0:0:0:0:
320,192,190987,1,0,0:0:0:0:
448,192,191104,1,0,0:0:0:0:
64,192,191222,1,0,0:0:0:0:
192,192,191339,1,0,0:0:0:70:soft-hitclap.wav
320,192,191339,1,0,0:0:0:0:
448,192,191339,1,0,0:0:0:0:
64,192,191456,1,0,0:0:0:0:
192,192,191573,1,0,0:0:0:0:
448,192,191690,1,0,0:0:0:0:
64,192,191808,1,2,0:0:0:70:soft-hitwhistle.wav
192,192,191808,1,0,0:0:0:0:
320,192,191808,1,0,0:0:0:0:
64,192,191925,1,0,0:0:0:0:
320,192,192042,1,0,0:0:0:0:
192,192,192159,1,0,0:0:0:0:
64,192,192276,1,0,0:0:0:70:soft-hitclap.wav
320,192,192276,1,0,0:0:0:0:
448,192,192276,1,0,0:0:0:0:
192,192,192393,1,0,0:0:0:0:
64,192,192511,1,0,0:0:0:0:
320,192,192628,1,0,0:0:0:0:
64,192,192745,1,2,0:0:0:70:soft-hitwhistle.wav
192,192,192745,1,0,0:0:0:0:
448,192,192745,1,0,0:0:0:0:
320,192,192862,1,0,0:0:0:0:
448,192,192979,1,0,0:0:0:0:
192,192,193097,1,0,0:0:0:0:
64,192,193214,1,0,0:0:0:70:soft-hitclap.wav
320,192,193214,1,0,0:0:0:0:
448,192,193214,1,0,0:0:0:0:
192,192,193331,1,0,0:0:0:0:
64,192,193448,1,0,0:0:0:0:
448,192,193448,1,0,0:0:0:0:
64,192,193683,1,2,0:0:0:70:soft-hitwhistle.wav
192,192,193683,1,0,0:0:0:0:
320,192,193683,1,0,0:0:0:0:
448,192,193800,1,0,0:0:0:0:
320,192,193917,1,0,0:0:0:0:
192,192,194034,1,0,0:0:0:0:
64,192,194151,1,0,0:0:0:70:soft-hitclap.wav
320,192,194151,1,0,0:0:0:0:
448,192,194151,1,0,0:0:0:0:
192,192,194268,1,0,0:0:0:0:
64,192,194386,1,0,0:0:0:0:
320,192,194503,1,0,0:0:0:0:
64,192,194620,1,2,0:0:0:70:soft-hitwhistle.wav
192,192,194620,1,0,0:0:0:0:
448,192,194620,1,0,0:0:0:0:
320,192,194737,1,0,0:0:0:0:
448,192,194854,1,0,0:0:0:0:
64,192,194972,1,0,0:0:0:0:
192,192,195089,1,0,0:0:0:70:soft-hitclap.wav
320,192,195089,1,0,0:0:0:0:
448,192,195089,1,0,0:0:0:0:
64,192,195206,1,0,0:0:0:0:
192,192,195323,1,0,0:0:0:0:
448,192,195440,1,0,0:0:0:0:
64,192,195558,1,2,0:0:0:70:soft-hitwhistle.wav
192,192,195558,1,0,0:0:0:50:soft-hitfinish.wav
320,192,195558,1,0,0:0:0:0:
448,192,195558,1,0,0:0:0:0:
64,192,195675,1,0,0:0:0:0:
448,192,195792,1,0,0:0:0:0:
320,192,195909,1,0,0:0:0:0:
64,192,196026,1,0,0:0:0:70:soft-hitclap.wav
192,192,196026,1,0,0:0:0:0:
448,192,196026,1,0,0:0:0:0:
320,192,196143,1,0,0:0:0:0:
64,192,196261,1,0,0:0:0:0:
192,192,196378,1,0,0:0:0:0:
64,192,196495,1,2,0:0:0:70:soft-hitwhistle.wav
320,192,196495,1,0,0:0:0:0:
448,192,196495,1,0,0:0:0:0:
192,192,196612,1,0,0:0:0:0:
448,192,196729,1,0,0:0:0:0:
320,192,196847,1,0,0:0:0:0:
64,192,196964,1,0,0:0:0:70:soft-hitclap.wav
192,192,196964,1,0,0:0:0:0:
448,192,196964,1,0,0:0:0:0:
320,192,197081,1,0,0:0:0:0:
64,192,197198,1,0,0:0:0:0:
448,192,197198,1,0,0:0:0:0:
64,192,197433,1,2,0:0:0:70:soft-hitwhistle.wav
320,192,197433,1,0,0:0:0:0:
448,192,197433,1,0,0:0:0:0:
192,192,197550,1,0,0:0:0:0:
320,192,197667,1,0,0:0:0:0:
64,192,197784,1,0,0:0:0:0:
192,192,197901,1,0,0:0:0:70:soft-hitclap.wav
320,192,197901,1,0,0:0:0:0:
448,192,197901,1,0,0:0:0:0:
64,192,198018,1,0,0:0:0:0:
448,192,198136,1,0,0:0:0:0:
320,192,198253,1,0,0:0:0:0:
64,192,198370,1,2,0:0:0:70:soft-hitwhistle.wav
192,192,198370,1,0,0:0:0:0:
448,192,198370,1,0,0:0:0:0:
320,192,198487,1,0,0:0:0:0:
192,192,198604,1,0,0:0:0:0:
64,192,198722,1,0,0:0:0:0:
192,192,198839,1,0,0:0:0:70:soft-hitclap.wav
320,192,198839,1,0,0:0:0:0:
448,192,198839,1,0,0:0:0:0:
64,192,198956,1,0,0:0:0:0:
320,192,199073,1,0,0:0:0:0:
448,192,199190,1,0,0:0:0:0:
64,192,199308,1,2,0:0:0:70:soft-hitwhistle.wav
192,192,199308,1,0,0:0:0:0:
320,192,199308,1,0,0:0:0:0:
448,192,199425,1,0,0:0:0:0:
192,192,199542,1,0,0:0:0:0:
320,192,199659,1,0,0:0:0:0:
64,192,199776,1,0,0:0:0:70:soft-hitclap.wav
192,192,199776,1,0,0:0:0:0:
448,192,199776,1,0,0:0:0:0:
320,192,199893,1,0,0:0:0:0:
64,192,200011,1,0,0:0:0:0:
192,192,200128,1,0,0:0:0:0:
64,192,200245,1,2,0:0:0:70:soft-hitwhistle.wav
320,192,200245,1,0,0:0:0:0:
448,192,200245,1,0,0:0:0:0:
192,192,200362,1,0,0:0:0:0:
448,192,200479,1,0,0:0:0:0:
320,192,200597,1,0,0:0:0:0:
64,192,200714,1,0,0:0:0:70:soft-hitclap.wav
192,192,200714,1,0,0:0:0:0:
448,192,200714,1,0,0:0:0:0:
320,192,200831,1,0,0:0:0:0:
64,192,200948,1,0,0:0:0:0:
192,192,200948,1,0,0:0:0:0:
64,192,201183,1,2,0:0:0:70:soft-hitwhistle.wav
192,192,201183,1,0,0:0:0:0:
320,192,201183,1,0,0:0:0:0:
448,192,201300,1,0,0:0:0:0:
320,192,201417,1,0,0:0:0:0:
192,192,201534,1,0,0:0:0:0:
64,192,201651,1,0,0:0:0:70:soft-hitclap.wav
320,192,201651,1,0,0:0:0:0:
448,192,201651,1,0,0:0:0:0:
192,192,201768,1,0,0:0:0:0:
448,192,201886,1,0,0:0:0:0:
320,192,202003,1,0,0:0:0:0:
64,192,202120,1,2,0:0:0:70:soft-hitwhistle.wav
192,192,202120,1,0,0:0:0:0:
448,192,202120,1,0,0:0:0:0:
320,192,202237,1,0,0:0:0:0:
192,192,202354,1,0,0:0:0:0:
448,192,202472,1,0,0:0:0:0:
64,192,202589,128,0,202706:0:0:0:70:soft-hitclap.wav
192,192,202589,128,0,202823:0:0:0:0:
448,192,202706,128,0,202940:0:0:0:0:
64,192,202823,128,0,202940:0:0:0:0:
320,192,202823,128,0,203175:0:0:0:0:
192,192,202940,128,0,203058:0:0:0:0:
