osu file format v14

[General]
AudioFilename: audio.ogg
AudioLeadIn: 0
PreviewTime: 78523
Countdown: 0
SampleSet: Soft
StackLeniency: 0.7
Mode: 3
LetterboxInBreaks: 0
SpecialStyle: 0
WidescreenStoryboard: 0

[Editor]
Bookmarks: 2650,24690,44282,63874,78568,98160,120201,139792,154486,174078,196119,215711,235303,257343,276935
DistanceSpacing: 1
BeatDivisor: 16
GridSize: 32
TimelineZoom: 2.4

[Metadata]
Title:Event Horizon
TitleUnicode:사건의 지평선
Artist:YOUNHA
ArtistUnicode:윤하
Creator:Hytex
Version:Beyond the Point of No Return
Source:
Tags:yunha kpop k-pop korean pop rock c9 엔터테인먼트 entertainment end theory final edition JEWNO 손준호 Son Jun-ho junho 숀 SHAUN 김윤호 Kim Yun-ho yunho
BeatmapID:3969437
BeatmapSetID:1922898

[Difficulty]
HPDrainRate:8
CircleSize:4
OverallDifficulty:7.6
ApproachRate:5
SliderMultiplier:1.4
SliderTickRate:1

[Events]
//Background and Video events
0,0,"98623700_p0.jpg",0,0
//Break Periods
//Storyboard Layer 0 (Background)
//Storyboard Layer 1 (Fail)
//Storyboard Layer 2 (Pass)
//Storyboard Layer 3 (Foreground)
//Storyboard Layer 4 (Overlay)
//Storyboard Sound Samples

[TimingPoints]
2590,612.244897959183,4,2,1,75,1,0
78508,-100,4,2,1,75,0,1
120141,-100,4,2,1,75,0,0
154426,-100,4,2,1,75,0,1
196059,-100,4,2,1,75,0,0
235243,-100,4,2,1,75,0,1
257283,-100,4,2,1,75,0,0

[HitObjects]
64,192,2590,128,0,2743:0:0:0:0:
320,192,2590,128,0,2896:0:0:0:0:
64,192,2896,128,0,3049:0:0:0:0:
320,192,3049,128,0,3355:0:0:0:0:
192,192,3355,128,0,3661:0:0:0:0:
64,192,3661,128,0,3967:0:0:0:0:
320,192,3814,128,0,3967:0:0:0:0:
448,192,3967,128,0,4120:0:0:0:0:
192,192,4120,128,0,4273:0:0:0:0:
448,192,4273,128,0,4426:0:0:0:0:
320,192,4426,128,0,4732:0:0:0:0:
64,192,4579,128,0,4885:0:0:0:0:
192,192,4732,128,0,5038:0:0:0:0:
448,192,4885,128,0,5038:0:0:0:0:
320,192,5038,128,0,5192:0:0:0:0:
64,192,5038,128,0,5345:0:0:0:0:
320,192,5345,128,0,5498:0:0:0:0:
64,192,5498,128,0,5804:0:0:0:0:
192,192,5804,128,0,6110:0:0:0:0:
320,192,6110,128,0,6416:0:0:0:0:
64,192,6263,128,0,6416:0:0:0:0:
448,192,6416,128,0,6569:0:0:0:0:
192,192,6569,128,0,6722:0:0:0:0:
320,192,6722,128,0,6875:0:0:0:0:
64,192,6875,128,0,7181:0:0:0:0:
192,192,7487,128,0,7794:0:0:0:0:
448,192,7487,128,0,7641:0:0:0:0:
64,192,7794,128,0,7947:0:0:0:0:
448,192,7947,128,0,8176:0:0:0:0:
192,192,8100,128,0,8253:0:0:0:0:
320,192,8253,128,0,8406:0:0:0:0:
64,192,8406,128,0,8559:0:0:0:0:
320,192,8559,128,0,8712:0:0:0:0:
192,192,8712,128,0,9018:0:0:0:0:
448,192,8865,128,0,9171:0:0:0:0:
320,192,9018,128,0,9171:0:0:0:0:
64,192,9171,128,0,9324:0:0:0:0:
192,192,9324,128,0,9630:0:0:0:0:
64,192,9936,128,0,10089:0:0:0:0:
320,192,9936,128,0,10243:0:0:0:0:
192,192,10089,128,0,10243:0:0:0:0:
64,192,10243,128,0,10396:0:0:0:0:
448,192,10396,128,0,10702:0:0:0:0:
192,192,10702,128,0,11008:0:0:0:0:
320,192,11008,128,0,11161:0:0:0:0:
448,192,11161,128,0,11467:0:0:0:0:
192,192,11161,128,0,11314:0:0:0:0:
64,192,11314,128,0,11467:0:0:0:0:
320,192,11467,128,0,11620:0:0:0:0:
448,192,11620,128,0,11773:0:0:0:0:
192,192,11773,128,0,11926:0:0:0:0:
320,192,11926,128,0,12079:0:0:0:0:
64,192,12079,128,0,12385:0:0:0:0:
192,192,12309,1,0,0:0:0:0:
320,192,12385,128,0,12500:0:0:0:0:
448,192,12385,128,0,12538:0:0:0:0:
192,192,12692,128,0,12845:0:0:0:0:
320,192,12845,128,0,13151:0:0:0:0:
448,192,12998,1,0,0:0:0:0:
192,192,13151,128,0,13610:0:0:0:0:
64,192,13304,1,0,0:0:0:0:
448,192,13457,128,0,13916:0:0:0:0:
320,192,13610,1,0,0:0:0:0:
64,192,13916,128,0,14069:0:0:0:0:
448,192,14146,1,0,0:0:0:0:
320,192,14222,128,0,14375:0:0:0:0:
192,192,14375,128,0,14528:0:0:0:0:
448,192,14528,128,0,14834:0:0:0:0:
320,192,14758,1,0,0:0:0:0:
192,192,14834,128,0,14949:0:0:0:0:
64,192,14834,128,0,14987:0:0:0:0:
320,192,15141,128,0,15294:0:0:0:0:
192,192,15294,128,0,15600:0:0:0:0:
64,192,15447,1,0,0:0:0:0:
320,192,15600,128,0,16059:0:0:0:0:
448,192,15753,1,0,0:0:0:0:
64,192,15906,128,0,16365:0:0:0:0:
192,192,16059,1,0,0:0:0:0:
448,192,16365,128,0,16518:0:0:0:0:
192,192,16671,128,0,16824:0:0:0:0:
320,192,16824,128,0,16977:0:0:0:0:
64,192,16977,128,0,17283:0:0:0:0:
192,192,17207,1,0,0:0:0:0:
320,192,17283,128,0,17436:0:0:0:0:
448,192,17283,128,0,17398:0:0:0:0:
320,192,17589,1,0,0:0:0:0:
192,192,17743,128,0,17896:0:0:0:0:
64,192,17896,1,0,0:0:0:0:
320,192,18049,128,0,18202:0:0:0:0:
448,192,18202,1,0,0:0:0:0:
192,192,18304,1,0,0:0:0:0:
320,192,18406,1,0,0:0:0:0:
448,192,18508,128,0,19120:0:0:0:0:
64,192,18508,128,0,18661:0:0:0:0:
192,192,18546,1,0,0:0:0:0:
64,192,18814,1,0,0:0:0:0:
320,192,19120,1,0,0:0:0:0:
320,192,19426,1,0,0:0:0:0:
192,192,19630,1,0,0:0:0:0:
320,192,19681,1,0,0:0:0:0:
448,192,19732,128,0,19885:0:0:0:0:
64,192,19732,128,0,19847:0:0:0:0:
192,192,20038,128,0,20192:0:0:0:0:
320,192,20345,128,0,20498:0:0:0:0:
64,192,20651,128,0,21263:0:0:0:0:
448,192,20651,128,0,20804:0:0:0:0:
320,192,20689,1,0,0:0:0:0:
192,192,20957,1,0,0:0:0:0:
448,192,21263,128,0,22181:0:0:0:0:
192,192,21569,128,0,21722:0:0:0:0:
192,192,21875,128,0,22105:0:0:0:0:
448,192,24477,1,0,0:0:0:0:
192,192,24528,1,0,0:0:0:0:
320,192,24579,1,0,0:0:0:0:
64,192,24630,128,0,24783:0:0:0:0:
448,192,24630,128,0,24936:0:0:0:0:
320,192,24936,128,0,25089:0:0:0:0:
192,192,25089,128,0,25549:0:0:0:0:
448,192,25243,128,0,25702:0:0:0:0:
64,192,25243,1,0,0:0:0:0:
320,192,25396,128,0,25702:0:0:0:0:
192,192,25702,128,0,26161:0:0:0:0:
448,192,25855,128,0,26314:0:0:0:0:
320,192,26008,128,0,26314:0:0:0:0:
192,192,26314,128,0,26467:0:0:0:0:
448,192,26467,128,0,26620:0:0:0:0:
320,192,26467,1,0,0:0:0:0:
64,192,26620,128,0,26773:0:0:0:0:
320,192,26773,128,0,26926:0:0:0:0:
64,192,26926,1,0,0:0:0:0:
192,192,26977,1,0,0:0:0:0:
320,192,27028,1,0,0:0:0:0:
448,192,27079,128,0,27232:0:0:0:0:
64,192,27079,128,0,27385:0:0:0:0:
192,192,27385,128,0,27538:0:0:0:0:
320,192,27538,128,0,27998:0:0:0:0:
64,192,27692,128,0,28151:0:0:0:0:
448,192,27692,1,0,0:0:0:0:
192,192,27845,128,0,28151:0:0:0:0:
320,192,28151,128,0,28610:0:0:0:0:
64,192,28304,128,0,28763:0:0:0:0:
192,192,28457,128,0,28763:0:0:0:0:
320,192,28763,128,0,28916:0:0:0:0:
64,192,28916,128,0,29069:0:0:0:0:
192,192,28916,1,0,0:0:0:0:
448,192,29069,128,0,29222:0:0:0:0:
192,192,29222,128,0,29375:0:0:0:0:
448,192,29375,1,0,0:0:0:0:
320,192,29426,1,0,0:0:0:0:
192,192,29477,1,0,0:0:0:0:
64,192,29528,128,0,29987:0:0:0:0:
448,192,29528,128,0,29681:0:0:0:0:
320,192,29834,128,0,30141:0:0:0:0:
448,192,29987,1,0,0:0:0:0:
64,192,30141,1,0,0:0:0:0:
192,192,30141,128,0,30294:0:0:0:0:
320,192,30294,1,0,0:0:0:0:
448,192,30447,128,0,31059:0:0:0:0:
192,192,30600,128,0,31059:0:0:0:0:
64,192,30906,1,0,0:0:0:0:
320,192,31059,128,0,31365:0:0:0:0:
192,192,31212,1,0,0:0:0:0:
448,192,31365,128,0,31518:0:0:0:0:
64,192,31365,1,0,0:0:0:0:
320,192,31518,1,0,0:0:0:0:
64,192,31671,128,0,31824:0:0:0:0:
448,192,31824,1,0,0:0:0:0:
192,192,31875,1,0,0:0:0:0:
320,192,31926,1,0,0:0:0:0:
64,192,31977,128,0,32130:0:0:0:0:
448,192,31977,128,0,32283:0:0:0:0:
192,192,32283,128,0,32436:0:0:0:0:
448,192,32436,1,0,0:0:0:0:
320,192,32589,128,0,33202:0:0:0:0:
64,192,32589,1,0,0:0:0:0:
448,192,32743,1,0,0:0:0:0:
192,192,32896,128,0,33508:0:0:0:0:
448,192,33049,1,0,0:0:0:0:
64,192,33355,1,0,0:0:0:0:
320,192,33508,128,0,33967:0:0:0:0:
192,192,33661,1,0,0:0:0:0:
64,192,33814,1,0,0:0:0:0:
448,192,33814,1,0,0:0:0:0:
64,192,33967,1,0,0:0:0:0:
448,192,34120,1,0,0:0:0:0:
64,192,34273,1,0,0:0:0:0:
320,192,34324,1,0,0:0:0:0:
192,192,34375,1,0,0:0:0:0:
448,192,34426,128,0,34732:0:0:0:0:
64,192,34426,128,0,34579:0:0:0:0:
192,192,34732,128,0,34885:0:0:0:0:
64,192,34885,1,0,0:0:0:0:
320,192,35038,128,0,35192:0:0:0:0:
448,192,35038,1,0,0:0:0:0:
192,192,35192,1,0,0:0:0:0:
64,192,35345,128,0,35957:0:0:0:0:
448,192,35498,1,0,0:0:0:0:
192,192,35804,1,0,0:0:0:0:
448,192,35957,128,0,36263:0:0:0:0:
320,192,36110,1,0,0:0:0:0:
192,192,36263,128,0,36569:0:0:0:0:
64,192,36263,1,0,0:0:0:0:
448,192,36416,1,0,0:0:0:0:
320,192,36569,128,0,36722:0:0:0:0:
448,192,36722,1,0,0:0:0:0:
192,192,36773,1,0,0:0:0:0:
320,192,36824,1,0,0:0:0:0:
448,192,36875,128,0,37028:0:0:0:0:
64,192,36875,128,0,37181:0:0:0:0:
192,192,37181,128,0,37641:0:0:0:0:
64,192,37334,1,0,0:0:0:0:
448,192,37487,1,0,0:0:0:0:
320,192,37487,1,0,0:0:0:0:
64,192,37641,1,0,0:0:0:0:
192,192,37794,128,0,38406:0:0:0:0:
448,192,37947,128,0,38406:0:0:0:0:
320,192,38253,1,0,0:0:0:0:
64,192,38406,128,0,38865:0:0:0:0:
192,192,38559,1,0,0:0:0:0:
320,192,38712,1,0,0:0:0:0:
448,192,38712,1,0,0:0:0:0:
192,192,38865,1,0,0:0:0:0:
448,192,39018,1,0,0:0:0:0:
64,192,39171,1,0,0:0:0:0:
320,192,39222,1,0,0:0:0:0:
192,192,39273,1,0,0:0:0:0:
64,192,39324,128,0,39477:0:0:0:0:
448,192,39324,128,0,39630:0:0:0:0:
192,192,39630,128,0,39936:0:0:0:0:
64,192,39783,1,0,0:0:0:0:
320,192,39936,128,0,40243:0:0:0:0:
448,192,39936,1,0,0:0:0:0:
192,192,40089,1,0,0:0:0:0:
64,192,40243,128,0,40549:0:0:0:0:
320,192,40396,1,0,0:0:0:0:
448,192,40549,128,0,41161:0:0:0:0:
192,192,40702,1,0,0:0:0:0:
64,192,40855,1,0,0:0:0:0:
320,192,41008,1,0,0:0:0:0:
192,192,41161,1,0,0:0:0:0:
64,192,41161,1,0,0:0:0:0:
64,192,41314,1,0,0:0:0:0:
448,192,41467,128,0,41773:0:0:0:0:
192,192,41773,128,0,41926:0:0:0:0:
64,192,41773,128,0,41926:0:0:0:0:
64,192,42079,128,0,42385:0:0:0:0:
448,192,42079,128,0,42538:0:0:0:0:
192,192,42385,128,0,42692:0:0:0:0:
448,192,42692,128,0,42845:0:0:0:0:
320,192,42692,128,0,43304:0:0:0:0:
448,192,42998,128,0,43304:0:0:0:0:
64,192,42998,128,0,43457:0:0:0:0:
192,192,43304,1,0,0:0:0:0:
192,192,43457,1,0,0:0:0:0:
320,192,43610,1,0,0:0:0:0:
448,192,43610,1,0,0:0:0:0:
192,192,43763,1,0,0:0:0:0:
64,192,43763,1,0,0:0:0:0:
448,192,43916,1,0,0:0:0:0:
64,192,43916,1,0,0:0:0:0:
320,192,44069,1,0,0:0:0:0:
192,192,44069,1,0,0:0:0:0:
320,192,44222,1,0,0:0:0:0:
64,192,44222,128,0,44375:0:0:0:0:
448,192,44222,128,0,44528:0:0:0:0:
192,192,44375,1,0,0:0:0:0:
320,192,44528,128,0,44681:0:0:0:0:
192,192,44681,128,0,45141:0:0:0:0:
448,192,44834,128,0,45294:0:0:0:0:
64,192,44834,1,0,0:0:0:0:
320,192,44987,128,0,45294:0:0:0:0:
64,192,45294,1,0,0:0:0:0:
192,192,45294,128,0,45753:0:0:0:0:
448,192,45447,128,0,45906:0:0:0:0:
320,192,45600,128,0,45906:0:0:0:0:
64,192,45753,1,0,0:0:0:0:
192,192,45906,128,0,46059:0:0:0:0:
448,192,46059,128,0,46212:0:0:0:0:
320,192,46059,1,0,0:0:0:0:
64,192,46212,128,0,46365:0:0:0:0:
320,192,46365,128,0,46518:0:0:0:0:
192,192,46518,1,0,0:0:0:0:
320,192,46595,1,0,0:0:0:0:
448,192,46671,128,0,46824:0:0:0:0:
64,192,46671,128,0,46977:0:0:0:0:
192,192,46977,128,0,47130:0:0:0:0:
320,192,47130,128,0,47589:0:0:0:0:
448,192,47283,1,0,0:0:0:0:
64,192,47283,128,0,47743:0:0:0:0:
192,192,47436,128,0,47743:0:0:0:0:
320,192,47743,128,0,48202:0:0:0:0:
448,192,47743,1,0,0:0:0:0:
64,192,47896,128,0,48355:0:0:0:0:
192,192,48049,128,0,48355:0:0:0:0:
448,192,48202,1,0,0:0:0:0:
320,192,48355,128,0,48508:0:0:0:0:
192,192,48508,1,0,0:0:0:0:
64,192,48508,128,0,48661:0:0:0:0:
448,192,48661,128,0,48814:0:0:0:0:
192,192,48814,128,0,49120:0:0:0:0:
448,192,49120,128,0,49273:0:0:0:0:
64,192,49120,128,0,49579:0:0:0:0:
320,192,49426,128,0,49732:0:0:0:0:
192,192,49579,128,0,49732:0:0:0:0:
64,192,49732,1,0,0:0:0:0:
448,192,49732,1,0,0:0:0:0:
192,192,49885,128,0,50038:0:0:0:0:
320,192,50038,128,0,50345:0:0:0:0:
192,192,50192,1,0,0:0:0:0:
64,192,50192,1,0,0:0:0:0:
448,192,50345,1,0,0:0:0:0:
64,192,50498,128,0,50957:0:0:0:0:
320,192,50651,1,0,0:0:0:0:
448,192,50651,1,0,0:0:0:0:
448,192,50957,128,0,51263:0:0:0:0:
192,192,50957,1,0,0:0:0:0:
320,192,51263,128,0,51416:0:0:0:0:
64,192,51569,128,0,51875:0:0:0:0:
448,192,51569,128,0,51722:0:0:0:0:
448,192,51875,1,0,0:0:0:0:
320,192,51875,128,0,52181:0:0:0:0:
192,192,52181,128,0,52487:0:0:0:0:
64,192,52181,1,0,0:0:0:0:
64,192,52487,128,0,52794:0:0:0:0:
448,192,52487,128,0,52947:0:0:0:0:
192,192,52947,1,0,0:0:0:0:
448,192,53100,128,0,53253:0:0:0:0:
320,192,53100,128,0,53406:0:0:0:0:
64,192,53406,1,0,0:0:0:0:
448,192,53406,128,0,53712:0:0:0:0:
192,192,53712,128,0,53865:0:0:0:0:
320,192,53865,1,0,0:0:0:0:
192,192,53942,1,0,0:0:0:0:
448,192,54018,128,0,54171:0:0:0:0:
64,192,54018,128,0,54324:0:0:0:0:
192,192,54324,128,0,54783:0:0:0:0:
448,192,54477,128,0,54936:0:0:0:0:
320,192,54630,128,0,54860:0:0:0:0:
64,192,54630,1,0,0:0:0:0:
64,192,54936,128,0,55396:0:0:0:0:
448,192,55089,1,0,0:0:0:0:
320,192,55089,128,0,55549:0:0:0:0:
192,192,55243,128,0,55472:0:0:0:0:
448,192,55549,1,0,0:0:0:0:
64,192,55549,128,0,55702:0:0:0:0:
192,192,55702,128,0,55855:0:0:0:0:
448,192,55855,1,0,0:0:0:0:
64,192,55855,1,0,0:0:0:0:
320,192,56008,128,0,56161:0:0:0:0:
192,192,56161,128,0,56314:0:0:0:0:
320,192,56314,1,0,0:0:0:0:
192,192,56391,1,0,0:0:0:0:
448,192,56467,128,0,56620:0:0:0:0:
64,192,56467,128,0,56773:0:0:0:0:
192,192,56773,128,0,57232:0:0:0:0:
448,192,56926,128,0,57385:0:0:0:0:
320,192,57079,128,0,57309:0:0:0:0:
64,192,57079,1,0,0:0:0:0:
64,192,57385,128,0,57845:0:0:0:0:
320,192,57538,128,0,57845:0:0:0:0:
448,192,57538,1,0,0:0:0:0:
192,192,57692,128,0,57845:0:0:0:0:
64,192,57998,1,0,0:0:0:0:
192,192,57998,128,0,58304:0:0:0:0:
320,192,58151,128,0,58304:0:0:0:0:
64,192,58304,1,0,0:0:0:0:
448,192,58304,1,0,0:0:0:0:
320,192,58457,128,0,58610:0:0:0:0:
192,192,58610,128,0,58763:0:0:0:0:
192,192,58916,128,0,59375:0:0:0:0:
64,192,58916,1,0,0:0:0:0:
320,192,59222,128,0,59528:0:0:0:0:
192,192,59528,1,0,0:0:0:0:
448,192,59528,128,0,59834:0:0:0:0:
64,192,59834,128,0,59987:0:0:0:0:
320,192,59987,1,0,0:0:0:0:
448,192,59987,1,0,0:0:0:0:
64,192,60141,128,0,60447:0:0:0:0:
448,192,60447,1,0,0:0:0:0:
192,192,60447,128,0,60753:0:0:0:0:
320,192,60753,128,0,60906:0:0:0:0:
448,192,60753,1,0,0:0:0:0:
448,192,61059,128,0,61365:0:0:0:0:
192,192,61059,128,0,61671:0:0:0:0:
64,192,61212,1,0,0:0:0:0:
320,192,61365,1,0,0:0:0:0:
448,192,61518,1,0,0:0:0:0:
320,192,61671,128,0,61824:0:0:0:0:
64,192,61671,128,0,61977:0:0:0:0:
192,192,61977,1,0,0:0:0:0:
448,192,61977,128,0,62283:0:0:0:0:
192,192,62283,1,0,0:0:0:0:
64,192,62283,128,0,62589:0:0:0:0:
320,192,62283,128,0,62743:0:0:0:0:
192,192,62743,1,0,0:0:0:0:
320,192,62819,1,0,0:0:0:0:
448,192,62896,1,0,0:0:0:0:
64,192,62896,128,0,63049:0:0:0:0:
64,192,63202,128,0,63355:0:0:0:0:
448,192,63202,128,0,63508:0:0:0:0:
320,192,63355,1,0,0:0:0:0:
192,192,63508,1,0,0:0:0:0:
448,192,63814,1,0,0:0:0:0:
320,192,63814,128,0,64120:0:0:0:0:
64,192,64120,128,0,64273:0:0:0:0:
320,192,64273,128,0,64579:0:0:0:0:
192,192,64426,1,0,0:0:0:0:
448,192,64579,128,0,64732:0:0:0:0:
64,192,64732,1,0,0:0:0:0:
192,192,64885,128,0,65192:0:0:0:0:
64,192,65192,128,0,65651:0:0:0:0:
448,192,65345,1,0,0:0:0:0:
320,192,65651,128,0,65804:0:0:0:0:
320,192,65957,1,0,0:0:0:0:
64,192,66263,1,0,0:0:0:0:
192,192,66263,128,0,67028:0:0:0:0:
320,192,66569,1,0,0:0:0:0:
448,192,66722,128,0,67487:0:0:0:0:
64,192,66875,1,0,0:0:0:0:
320,192,67181,1,0,0:0:0:0:
192,192,67487,1,0,0:0:0:0:
64,192,67641,1,0,0:0:0:0:
448,192,67794,1,0,0:0:0:0:
64,192,67947,1,0,0:0:0:0:
192,192,68100,1,0,0:0:0:0:
192,192,68406,1,0,0:0:0:0:
64,192,68559,1,0,0:0:0:0:
448,192,68712,1,0,0:0:0:0:
320,192,68712,128,0,69018:0:0:0:0:
64,192,69018,128,0,69171:0:0:0:0:
320,192,69171,128,0,69477:0:0:0:0:
192,192,69324,1,0,0:0:0:0:
448,192,69477,128,0,69630:0:0:0:0:
64,192,69630,1,0,0:0:0:0:
192,192,69783,128,0,70089:0:0:0:0:
64,192,70089,128,0,70549:0:0:0:0:
448,192,70243,1,0,0:0:0:0:
320,192,70549,128,0,70702:0:0:0:0:
320,192,70855,1,0,0:0:0:0:
192,192,71008,1,0,0:0:0:0:
320,192,71084,1,0,0:0:0:0:
64,192,71161,1,0,0:0:0:0:
448,192,71161,128,0,71467:0:0:0:0:
192,192,71467,1,0,0:0:0:0:
320,192,71620,128,0,71926:0:0:0:0:
192,192,71773,1,0,0:0:0:0:
64,192,71926,128,0,72079:0:0:0:0:
448,192,72079,128,0,72385:0:0:0:0:
192,192,72232,128,0,72538:0:0:0:0:
320,192,72538,1,0,0:0:0:0:
64,192,72692,1,0,0:0:0:0:
64,192,72998,1,0,0:0:0:0:
448,192,72998,1,0,0:0:0:0:
320,192,73304,128,0,73610:0:0:0:0:
192,192,73457,128,0,73610:0:0:0:0:
448,192,73610,128,0,73916:0:0:0:0:
64,192,73610,128,0,73763:0:0:0:0:
320,192,73916,128,0,74069:0:0:0:0:
192,192,74222,128,0,74528:0:0:0:0:
64,192,74222,1,0,0:0:0:0:
448,192,74528,128,0,74834:0:0:0:0:
64,192,74528,128,0,74987:0:0:0:0:
320,192,74987,1,0,0:0:0:0:
192,192,75141,128,0,75447:0:0:0:0:
448,192,75447,1,0,0:0:0:0:
320,192,75447,128,0,75600:0:0:0:0:
448,192,75753,128,0,76365:0:0:0:0:
192,192,76059,1,0,0:0:0:0:
64,192,76059,128,0,76212:0:0:0:0:
320,192,76365,1,0,0:0:0:0:
192,192,76365,128,0,76671:0:0:0:0:
448,192,76671,1,0,0:0:0:0:
320,192,76671,128,0,76824:0:0:0:0:
448,192,76977,128,0,77283:0:0:0:0:
64,192,76977,128,0,77130:0:0:0:0:
192,192,77130,1,0,0:0:0:0:
320,192,77207,1,0,0:0:0:0:
64,192,77283,1,0,0:0:0:0:
192,192,77360,1,0,0:0:0:0:
448,192,77436,1,0,0:0:0:0:
320,192,77513,1,0,0:0:0:0:
64,192,77589,1,0,0:0:0:0:
448,192,77666,1,0,0:0:0:0:
192,192,77743,1,0,0:0:0:0:
320,192,77819,1,0,0:0:0:0:
64,192,77896,1,0,0:0:0:0:
448,192,77896,1,0,0:0:0:0:
64,192,78508,1,0,0:0:0:0:
192,192,78508,128,0,78814:0:0:0:0:
448,192,78508,128,0,78661:0:0:0:0:
320,192,78814,128,0,78967:0:0:0:0:
448,192,78814,128,0,79120:0:0:0:0:
320,192,79120,1,0,0:0:0:0:
192,192,79120,1,0,0:0:0:0:
192,192,79426,128,0,79885:0:0:0:0:
320,192,79579,1,0,0:0:0:0:
64,192,79732,128,0,79885:0:0:0:0:
448,192,79732,128,0,80038:0:0:0:0:
320,192,80038,128,0,80192:0:0:0:0:
192,192,80038,128,0,80345:0:0:0:0:
320,192,80345,128,0,80804:0:0:0:0:
64,192,80345,128,0,80651:0:0:0:0:
192,192,80804,128,0,80957:0:0:0:0:
320,192,80957,1,0,0:0:0:0:
64,192,80957,128,0,81263:0:0:0:0:
448,192,81110,128,0,81416:0:0:0:0:
192,192,81263,1,0,0:0:0:0:
64,192,81569,1,0,0:0:0:0:
448,192,81569,1,0,0:0:0:0:
192,192,81875,128,0,82334:0:0:0:0:
320,192,82028,1,0,0:0:0:0:
64,192,82181,128,0,82334:0:0:0:0:
448,192,82181,128,0,82487:0:0:0:0:
320,192,82487,128,0,82641:0:0:0:0:
192,192,82487,128,0,82794:0:0:0:0:
320,192,82794,128,0,83253:0:0:0:0:
64,192,82794,128,0,83100:0:0:0:0:
192,192,83253,128,0,83406:0:0:0:0:
64,192,83406,128,0,83712:0:0:0:0:
448,192,83406,128,0,83559:0:0:0:0:
320,192,83712,128,0,83865:0:0:0:0:
448,192,83712,128,0,83865:0:0:0:0:
192,192,84018,1,0,0:0:0:0:
320,192,84018,1,0,0:0:0:0:
192,192,84324,128,0,84783:0:0:0:0:
320,192,84477,1,0,0:0:0:0:
64,192,84630,128,0,84783:0:0:0:0:
448,192,84630,128,0,84936:0:0:0:0:
192,192,84936,128,0,85243:0:0:0:0:
320,192,84936,128,0,85089:0:0:0:0:
64,192,85243,128,0,85396:0:0:0:0:
320,192,85243,128,0,85549:0:0:0:0:
192,192,85549,128,0,85702:0:0:0:0:
64,192,85549,128,0,85702:0:0:0:0:
320,192,85702,1,0,0:0:0:0:
192,192,85778,1,0,0:0:0:0:
64,192,85855,128,0,86161:0:0:0:0:
448,192,85855,128,0,86008:0:0:0:0:
448,192,86161,128,0,86467:0:0:0:0:
320,192,86161,128,0,86314:0:0:0:0:
320,192,86467,128,0,86773:0:0:0:0:
192,192,86467,128,0,86620:0:0:0:0:
448,192,86773,128,0,86926:0:0:0:0:
192,192,86773,128,0,87232:0:0:0:0:
64,192,86773,128,0,87079:0:0:0:0:
320,192,87079,1,0,0:0:0:0:
320,192,87232,1,0,0:0:0:0:
192,192,87385,1,0,0:0:0:0:
64,192,87385,128,0,87692:0:0:0:0:
320,192,87692,1,0,0:0:0:0:
448,192,87692,1,0,0:0:0:0:
64,192,87845,1,0,0:0:0:0:
448,192,87845,1,0,0:0:0:0:
64,192,87998,1,0,0:0:0:0:
192,192,87998,128,0,88304:0:0:0:0:
320,192,88304,1,0,0:0:0:0:
64,192,88304,1,0,0:0:0:0:
448,192,88304,1,0,0:0:0:0:
320,192,88610,128,0,88763:0:0:0:0:
192,192,88763,128,0,88916:0:0:0:0:
64,192,88916,1,0,0:0:0:0:
448,192,88916,128,0,89222:0:0:0:0:
192,192,89069,1,0,0:0:0:0:
64,192,89222,1,0,0:0:0:0:
320,192,89375,128,0,89528:0:0:0:0:
192,192,89528,128,0,89681:0:0:0:0:
64,192,89681,1,0,0:0:0:0:
320,192,89681,128,0,89834:0:0:0:0:
448,192,89834,128,0,89987:0:0:0:0:
192,192,89987,1,0,0:0:0:0:
64,192,89987,1,0,0:0:0:0:
448,192,90141,1,0,0:0:0:0:
320,192,90141,128,0,90294:0:0:0:0:
64,192,90294,128,0,90447:0:0:0:0:
192,192,90447,128,0,90600:0:0:0:0:
448,192,90753,1,0,0:0:0:0:
320,192,90753,1,0,0:0:0:0:
64,192,90906,1,0,0:0:0:0:
320,192,91059,128,0,91212:0:0:0:0:
192,192,91212,128,0,91365:0:0:0:0:
64,192,91365,1,0,0:0:0:0:
448,192,91365,128,0,91671:0:0:0:0:
192,192,91518,1,0,0:0:0:0:
64,192,91671,1,0,0:0:0:0:
320,192,91824,128,0,91977:0:0:0:0:
192,192,91977,128,0,92130:0:0:0:0:
64,192,92130,1,0,0:0:0:0:
320,192,92130,128,0,92283:0:0:0:0:
448,192,92283,128,0,92589:0:0:0:0:
192,192,92283,128,0,92436:0:0:0:0:
320,192,92589,128,0,92743:0:0:0:0:
64,192,92589,1,0,0:0:0:0:
192,192,92743,128,0,92896:0:0:0:0:
64,192,92896,128,0,93049:0:0:0:0:
448,192,92896,1,0,0:0:0:0:
320,192,93049,1,0,0:0:0:0:
192,192,93049,1,0,0:0:0:0:
320,192,93202,1,0,0:0:0:0:
64,192,93202,128,0,93355:0:0:0:0:
448,192,93202,128,0,93508:0:0:0:0:
192,192,93508,128,0,93814:0:0:0:0:
320,192,93661,128,0,93967:0:0:0:0:
64,192,93814,1,0,0:0:0:0:
448,192,93814,1,0,0:0:0:0:
192,192,93967,128,0,94426:0:0:0:0:
64,192,94120,128,0,94426:0:0:0:0:
320,192,94273,1,0,0:0:0:0:
448,192,94273,1,0,0:0:0:0:
320,192,94579,1,0,0:0:0:0:
192,192,94732,128,0,95038:0:0:0:0:
448,192,94732,1,0,0:0:0:0:
320,192,95038,128,0,95345:0:0:0:0:
64,192,95038,1,0,0:0:0:0:
64,192,95345,128,0,95651:0:0:0:0:
320,192,95651,1,0,0:0:0:0:
448,192,95651,1,0,0:0:0:0:
448,192,95957,128,0,96110:0:0:0:0:
192,192,95957,128,0,96263:0:0:0:0:
320,192,96263,128,0,96416:0:0:0:0:
448,192,96263,128,0,96569:0:0:0:0:
64,192,96569,128,0,97334:0:0:0:0:
192,192,96569,1,0,0:0:0:0:
320,192,96722,1,0,0:0:0:0:
192,192,97028,1,0,0:0:0:0:
448,192,97028,1,0,0:0:0:0:
192,192,97334,1,0,0:0:0:0:
320,192,97487,128,0,97794:0:0:0:0:
448,192,97487,128,0,97947:0:0:0:0:
64,192,98100,1,0,0:0:0:0:
192,192,98100,128,0,98406:0:0:0:0:
448,192,98100,128,0,98253:0:0:0:0:
320,192,98406,128,0,98559:0:0:0:0:
448,192,98406,128,0,98712:0:0:0:0:
320,192,98712,1,0,0:0:0:0:
192,192,98712,1,0,0:0:0:0:
192,192,99018,128,0,99477:0:0:0:0:
320,192,99171,1,0,0:0:0:0:
64,192,99324,128,0,99477:0:0:0:0:
448,192,99324,128,0,99630:0:0:0:0:
320,192,99630,128,0,99783:0:0:0:0:
192,192,99630,128,0,99936:0:0:0:0:
320,192,99936,128,0,100396:0:0:0:0:
64,192,99936,128,0,100243:0:0:0:0:
192,192,100396,128,0,100549:0:0:0:0:
320,192,100549,1,0,0:0:0:0:
64,192,100549,128,0,100855:0:0:0:0:
448,192,100702,128,0,101008:0:0:0:0:
192,192,100855,1,0,0:0:0:0:
64,192,101161,1,0,0:0:0:0:
448,192,101161,1,0,0:0:0:0:
192,192,101467,128,0,101926:0:0:0:0:
320,192,101620,1,0,0:0:0:0:
64,192,101773,128,0,101926:0:0:0:0:
448,192,101773,128,0,102079:0:0:0:0:
320,192,102079,128,0,102232:0:0:0:0:
192,192,102079,128,0,102385:0:0:0:0:
320,192,102385,128,0,102845:0:0:0:0:
64,192,102385,128,0,102692:0:0:0:0:
192,192,102845,128,0,102998:0:0:0:0:
64,192,102998,128,0,103304:0:0:0:0:
448,192,102998,128,0,103151:0:0:0:0:
320,192,103304,128,0,103457:0:0:0:0:
448,192,103304,128,0,103457:0:0:0:0:
192,192,103610,1,0,0:0:0:0:
320,192,103610,1,0,0:0:0:0:
192,192,103916,128,0,104375:0:0:0:0:
320,192,104069,1,0,0:0:0:0:
64,192,104222,128,0,104375:0:0:0:0:
448,192,104222,128,0,104528:0:0:0:0:
192,192,104528,128,0,104834:0:0:0:0:
320,192,104528,128,0,104681:0:0:0:0:
64,192,104834,128,0,104987:0:0:0:0:
320,192,104834,128,0,105141:0:0:0:0:
192,192,105141,128,0,105294:0:0:0:0:
64,192,105141,128,0,105294:0:0:0:0:
320,192,105294,1,0,0:0:0:0:
192,192,105370,1,0,0:0:0:0:
64,192,105447,128,0,105753:0:0:0:0:
448,192,105447,128,0,105600:0:0:0:0:
448,192,105753,128,0,106059:0:0:0:0:
320,192,105753,128,0,105906:0:0:0:0:
64,192,105906,1,0,0:0:0:0:
320,192,106059,128,0,106365:0:0:0:0:
192,192,106059,128,0,106212:0:0:0:0:
448,192,106365,128,0,106518:0:0:0:0:
192,192,106365,128,0,106824:0:0:0:0:
64,192,106365,128,0,106671:0:0:0:0:
320,192,106671,1,0,0:0:0:0:
320,192,106824,1,0,0:0:0:0:
192,192,106977,1,0,0:0:0:0:
64,192,106977,128,0,107283:0:0:0:0:
448,192,107283,1,0,0:0:0:0:
320,192,107283,128,0,107589:0:0:0:0:
192,192,107589,128,0,107896:0:0:0:0:
320,192,107743,1,0,0:0:0:0:
448,192,107743,1,0,0:0:0:0:
64,192,107896,1,0,0:0:0:0:
448,192,107896,1,0,0:0:0:0:
320,192,107896,1,0,0:0:0:0:
320,192,108202,128,0,108355:0:0:0:0:
192,192,108355,128,0,108508:0:0:0:0:
64,192,108508,1,0,0:0:0:0:
448,192,108508,128,0,108814:0:0:0:0:
64,192,108814,1,0,0:0:0:0:
320,192,108967,128,0,109120:0:0:0:0:
448,192,108967,1,0,0:0:0:0:
192,192,109120,128,0,109273:0:0:0:0:
320,192,109273,128,0,109426:0:0:0:0:
448,192,109426,128,0,109579:0:0:0:0:
64,192,109426,1,0,0:0:0:0:
448,192,109732,128,0,110192:0:0:0:0:
64,192,109732,1,0,0:0:0:0:
192,192,109732,128,0,109885:0:0:0:0:
320,192,109885,128,0,110038:0:0:0:0:
192,192,110038,128,0,110192:0:0:0:0:
64,192,110345,1,0,0:0:0:0:
192,192,110345,1,0,0:0:0:0:
320,192,110651,128,0,110804:0:0:0:0:
448,192,110651,1,0,0:0:0:0:
192,192,110804,128,0,110957:0:0:0:0:
64,192,110957,1,0,0:0:0:0:
448,192,110957,128,0,111263:0:0:0:0:
64,192,111263,1,0,0:0:0:0:
320,192,111416,128,0,111569:0:0:0:0:
448,192,111416,1,0,0:0:0:0:
192,192,111569,128,0,111722:0:0:0:0:
320,192,111722,128,0,111875:0:0:0:0:
448,192,111875,128,0,112028:0:0:0:0:
64,192,111875,1,0,0:0:0:0:
448,192,112181,1,0,0:0:0:0:
64,192,112181,1,0,0:0:0:0:
192,192,112181,128,0,112334:0:0:0:0:
320,192,112334,128,0,112487:0:0:0:0:
192,192,112487,128,0,112641:0:0:0:0:
64,192,112794,128,0,112947:0:0:0:0:
448,192,112794,128,0,113100:0:0:0:0:
320,192,112794,1,0,0:0:0:0:
192,192,113100,128,0,113406:0:0:0:0:
320,192,113253,128,0,113559:0:0:0:0:
64,192,113406,1,0,0:0:0:0:
448,192,113406,1,0,0:0:0:0:
192,192,113559,128,0,113865:0:0:0:0:
64,192,113712,128,0,113865:0:0:0:0:
320,192,113865,1,0,0:0:0:0:
448,192,113865,1,0,0:0:0:0:
320,192,114171,1,0,0:0:0:0:
192,192,114324,128,0,114630:0:0:0:0:
448,192,114324,1,0,0:0:0:0:
320,192,114630,128,0,114936:0:0:0:0:
64,192,114630,1,0,0:0:0:0:
64,192,114936,128,0,115243:0:0:0:0:
192,192,115089,1,0,0:0:0:0:
320,192,115243,1,0,0:0:0:0:
448,192,115243,1,0,0:0:0:0:
448,192,115549,128,0,115702:0:0:0:0:
192,192,115549,128,0,115855:0:0:0:0:
64,192,115702,1,0,0:0:0:0:
320,192,115855,128,0,116008:0:0:0:0:
448,192,115855,128,0,116161:0:0:0:0:
64,192,116161,128,0,116926:0:0:0:0:
320,192,116161,1,0,0:0:0:0:
192,192,116161,128,0,116467:0:0:0:0:
320,192,116773,1,0,0:0:0:0:
192,192,116926,1,0,0:0:0:0:
320,192,117079,1,0,0:0:0:0:
448,192,117079,1,0,0:0:0:0:
64,192,117232,1,0,0:0:0:0:
192,192,117385,128,0,117692:0:0:0:0:
64,192,117692,128,0,117845:0:0:0:0:
448,192,117692,128,0,117998:0:0:0:0:
192,192,117998,128,0,118304:0:0:0:0:
320,192,118151,128,0,118304:0:0:0:0:
64,192,118304,1,0,0:0:0:0:
192,192,118457,128,0,118610:0:0:0:0:
64,192,118610,128,0,119069:0:0:0:0:
448,192,118610,1,0,0:0:0:0:
320,192,118916,1,0,0:0:0:0:
448,192,118916,1,0,0:0:0:0:
448,192,119222,128,0,119528:0:0:0:0:
64,192,119222,128,0,119375:0:0:0:0:
192,192,119528,128,0,119681:0:0:0:0:
320,192,119528,128,0,119834:0:0:0:0:
64,192,119528,1,0,0:0:0:0:
64,192,119834,1,0,0:0:0:0:
448,192,119834,1,0,0:0:0:0:
192,192,119987,1,0,0:0:0:0:
320,192,119987,1,0,0:0:0:0:
448,192,120141,1,0,0:0:0:0:
64,192,120141,128,0,120294:0:0:0:0:
320,192,120141,128,0,120447:0:0:0:0:
64,192,120447,128,0,120600:0:0:0:0:
320,192,120600,128,0,120906:0:0:0:0:
448,192,120753,1,0,0:0:0:0:
192,192,120753,1,0,0:0:0:0:
64,192,120906,128,0,121212:0:0:0:0:
448,192,121212,1,0,0:0:0:0:
192,192,121212,128,0,121518:0:0:0:0:
320,192,121365,128,0,121518:0:0:0:0:
448,192,121518,128,0,121671:0:0:0:0:
192,192,121671,128,0,121824:0:0:0:0:
64,192,121671,1,0,0:0:0:0:
448,192,121824,128,0,121977:0:0:0:0:
320,192,121977,128,0,122283:0:0:0:0:
64,192,121977,1,0,0:0:0:0:
192,192,122130,128,0,122436:0:0:0:0:
64,192,122283,128,0,122589:0:0:0:0:
320,192,122436,128,0,122589:0:0:0:0:
192,192,122589,128,0,122896:0:0:0:0:
448,192,122589,128,0,122743:0:0:0:0:
320,192,122896,1,0,0:0:0:0:
448,192,122896,128,0,123049:0:0:0:0:
192,192,123049,128,0,123355:0:0:0:0:
320,192,123202,1,0,0:0:0:0:
64,192,123202,1,0,0:0:0:0:
448,192,123355,128,0,123661:0:0:0:0:
320,192,123661,128,0,123967:0:0:0:0:
192,192,123661,1,0,0:0:0:0:
64,192,123814,128,0,123967:0:0:0:0:
448,192,123967,128,0,124120:0:0:0:0:
192,192,124120,128,0,124426:0:0:0:0:
64,192,124120,1,0,0:0:0:0:
320,192,124273,128,0,124426:0:0:0:0:
64,192,124426,128,0,124732:0:0:0:0:
448,192,124426,128,0,124579:0:0:0:0:
320,192,124885,1,0,0:0:0:0:
192,192,125038,128,0,125345:0:0:0:0:
448,192,125038,128,0,125192:0:0:0:0:
64,192,125038,1,0,0:0:0:0:
64,192,125345,128,0,125498:0:0:0:0:
448,192,125498,128,0,125727:0:0:0:0:
192,192,125651,128,0,125804:0:0:0:0:
64,192,125651,1,0,0:0:0:0:
320,192,125804,128,0,125957:0:0:0:0:
64,192,125957,128,0,126110:0:0:0:0:
320,192,126110,128,0,126263:0:0:0:0:
448,192,126110,1,0,0:0:0:0:
192,192,126263,128,0,126569:0:0:0:0:
448,192,126416,128,0,126722:0:0:0:0:
320,192,126569,128,0,126722:0:0:0:0:
64,192,126569,1,0,0:0:0:0:
192,192,126722,128,0,126875:0:0:0:0:
64,192,126875,128,0,127181:0:0:0:0:
448,192,126875,128,0,127028:0:0:0:0:
192,192,127334,1,0,0:0:0:0:
64,192,127487,128,0,127641:0:0:0:0:
320,192,127487,128,0,127794:0:0:0:0:
448,192,127487,1,0,0:0:0:0:
64,192,127794,1,0,0:0:0:0:
192,192,127794,1,0,0:0:0:0:
192,192,127947,1,0,0:0:0:0:
448,192,128100,128,0,128253:0:0:0:0:
320,192,128100,128,0,128214:0:0:0:0:
64,192,128406,128,0,128712:0:0:0:0:
192,192,128406,128,0,128865:0:0:0:0:
448,192,128406,128,0,128559:0:0:0:0:
320,192,128712,128,0,129018:0:0:0:0:
448,192,128865,128,0,129018:0:0:0:0:
192,192,129018,128,0,129324:0:0:0:0:
448,192,129171,128,0,129324:0:0:0:0:
64,192,129324,1,0,0:0:0:0:
320,192,129324,128,0,129630:0:0:0:0:
192,192,129477,128,0,129630:0:0:0:0:
64,192,129630,128,0,129783:0:0:0:0:
448,192,129783,1,0,0:0:0:0:
320,192,129783,1,0,0:0:0:0:
320,192,129936,128,0,130051:0:0:0:0:
448,192,129936,128,0,130089:0:0:0:0:
64,192,129936,1,0,0:0:0:0:
192,192,130243,128,0,130396:0:0:0:0:
320,192,130396,128,0,130702:0:0:0:0:
448,192,130549,1,0,0:0:0:0:
64,192,130549,1,0,0:0:0:0:
192,192,130702,128,0,131161:0:0:0:0:
320,192,131008,1,0,0:0:0:0:
448,192,131008,128,0,131314:0:0:0:0:
64,192,131161,1,0,0:0:0:0:
320,192,131314,128,0,131467:0:0:0:0:
64,192,131467,1,0,0:0:0:0:
192,192,131467,1,0,0:0:0:0:
448,192,131620,128,0,131773:0:0:0:0:
320,192,131773,128,0,131926:0:0:0:0:
64,192,131773,1,0,0:0:0:0:
192,192,131926,128,0,132079:0:0:0:0:
448,192,132079,128,0,132385:0:0:0:0:
320,192,132309,1,0,0:0:0:0:
192,192,132385,128,0,132500:0:0:0:0:
64,192,132385,128,0,132538:0:0:0:0:
320,192,132692,128,0,132845:0:0:0:0:
448,192,132692,1,0,0:0:0:0:
192,192,132845,128,0,133151:0:0:0:0:
64,192,132998,1,0,0:0:0:0:
448,192,132998,1,0,0:0:0:0:
320,192,133151,128,0,133610:0:0:0:0:
192,192,133457,1,0,0:0:0:0:
64,192,133457,128,0,133763:0:0:0:0:
448,192,133610,1,0,0:0:0:0:
192,192,133763,128,0,133916:0:0:0:0:
448,192,133916,1,0,0:0:0:0:
320,192,133916,1,0,0:0:0:0:
64,192,134069,128,0,134222:0:0:0:0:
448,192,134222,1,0,0:0:0:0:
192,192,134222,128,0,134375:0:0:0:0:
320,192,134375,128,0,134528:0:0:0:0:
64,192,134528,128,0,134834:0:0:0:0:
192,192,134758,1,0,0:0:0:0:
320,192,134834,128,0,134987:0:0:0:0:
448,192,134834,128,0,134949:0:0:0:0:
320,192,135141,1,0,0:0:0:0:
192,192,135294,128,0,135447:0:0:0:0:
64,192,135447,1,0,0:0:0:0:
448,192,135447,1,0,0:0:0:0:
320,192,135600,128,0,135753:0:0:0:0:
448,192,135753,128,0,135957:0:0:0:0:
192,192,135855,128,0,136059:0:0:0:0:
320,192,135957,128,0,136059:0:0:0:0:
448,192,136059,128,0,136671:0:0:0:0:
64,192,136059,128,0,136212:0:0:0:0:
320,192,136212,1,0,0:0:0:0:
64,192,136365,1,0,0:0:0:0:
192,192,136365,1,0,0:0:0:0:
320,192,136671,1,0,0:0:0:0:
192,192,136671,1,0,0:0:0:0:
320,192,136977,1,0,0:0:0:0:
192,192,137181,1,0,0:0:0:0:
320,192,137232,1,0,0:0:0:0:
448,192,137283,128,0,137436:0:0:0:0:
64,192,137283,128,0,137398:0:0:0:0:
448,192,137589,128,0,137896:0:0:0:0:
320,192,137589,128,0,137743:0:0:0:0:
320,192,137896,1,0,0:0:0:0:
192,192,137896,1,0,0:0:0:0:
64,192,138049,128,0,138202:0:0:0:0:
448,192,138049,128,0,138163:0:0:0:0:
192,192,138355,128,0,138508:0:0:0:0:
64,192,138355,128,0,138661:0:0:0:0:
192,192,138661,1,0,0:0:0:0:
320,192,138661,128,0,138814:0:0:0:0:
64,192,138814,128,0,138967:0:0:0:0:
448,192,138967,128,0,139120:0:0:0:0:
320,192,138967,1,0,0:0:0:0:
192,192,139120,128,0,139426:0:0:0:0:
64,192,139120,128,0,139579:0:0:0:0:
448,192,139732,1,0,0:0:0:0:
320,192,139732,128,0,140038:0:0:0:0:
64,192,140038,128,0,140192:0:0:0:0:
320,192,140192,128,0,140498:0:0:0:0:
192,192,140345,1,0,0:0:0:0:
64,192,140345,1,0,0:0:0:0:
448,192,140498,128,0,140651:0:0:0:0:
64,192,140651,1,0,0:0:0:0:
192,192,140804,128,0,141110:0:0:0:0:
64,192,141110,128,0,141569:0:0:0:0:
320,192,141569,128,0,141722:0:0:0:0:
448,192,141569,1,0,0:0:0:0:
320,192,141875,1,0,0:0:0:0:
64,192,142181,1,0,0:0:0:0:
192,192,142181,128,0,142947:0:0:0:0:
448,192,142641,128,0,143406:0:0:0:0:
320,192,142794,1,0,0:0:0:0:
64,192,142794,1,0,0:0:0:0:
192,192,143100,1,0,0:0:0:0:
320,192,143712,1,0,0:0:0:0:
192,192,144018,1,0,0:0:0:0:
448,192,144018,1,0,0:0:0:0:
64,192,144324,1,0,0:0:0:0:
448,192,144630,1,0,0:0:0:0:
320,192,144630,128,0,144936:0:0:0:0:
64,192,144936,128,0,145089:0:0:0:0:
320,192,145089,128,0,145396:0:0:0:0:
192,192,145243,1,0,0:0:0:0:
64,192,145243,1,0,0:0:0:0:
448,192,145396,128,0,145549:0:0:0:0:
64,192,145549,1,0,0:0:0:0:
192,192,145702,128,0,146008:0:0:0:0:
64,192,146008,128,0,146467:0:0:0:0:
320,192,146467,128,0,146620:0:0:0:0:
448,192,146467,1,0,0:0:0:0:
320,192,146773,1,0,0:0:0:0:
192,192,146926,1,0,0:0:0:0:
320,192,147003,1,0,0:0:0:0:
64,192,147079,1,0,0:0:0:0:
448,192,147079,128,0,147385:0:0:0:0:
192,192,147385,1,0,0:0:0:0:
320,192,147538,128,0,147845:0:0:0:0:
448,192,147692,1,0,0:0:0:0:
192,192,147692,1,0,0:0:0:0:
64,192,147845,128,0,147998:0:0:0:0:
448,192,147998,128,0,148304:0:0:0:0:
192,192,148304,128,0,148916:0:0:0:0:
320,192,148457,1,0,0:0:0:0:
64,192,148916,1,0,0:0:0:0:
320,192,148916,1,0,0:0:0:0:
320,192,149222,128,0,149528:0:0:0:0:
192,192,149375,128,0,149528:0:0:0:0:
448,192,149528,128,0,149834:0:0:0:0:
64,192,149528,128,0,149681:0:0:0:0:
320,192,149834,128,0,150141:0:0:0:0:
64,192,150141,1,0,0:0:0:0:
192,192,150141,128,0,150294:0:0:0:0:
448,192,150447,128,0,150753:0:0:0:0:
64,192,150447,128,0,150906:0:0:0:0:
320,192,150906,1,0,0:0:0:0:
448,192,150906,1,0,0:0:0:0:
192,192,151059,128,0,151365:0:0:0:0:
448,192,151365,1,0,0:0:0:0:
320,192,151365,128,0,151518:0:0:0:0:
448,192,151671,128,0,152283:0:0:0:0:
192,192,151977,1,0,0:0:0:0:
64,192,151977,128,0,152130:0:0:0:0:
320,192,152283,1,0,0:0:0:0:
192,192,152283,128,0,152436:0:0:0:0:
448,192,152589,1,0,0:0:0:0:
320,192,152589,128,0,152896:0:0:0:0:
448,192,152896,128,0,153202:0:0:0:0:
64,192,152896,128,0,153049:0:0:0:0:
192,192,153049,1,0,0:0:0:0:
320,192,153125,1,0,0:0:0:0:
192,192,153202,1,0,0:0:0:0:
64,192,153278,1,0,0:0:0:0:
320,192,153355,1,0,0:0:0:0:
448,192,153431,1,0,0:0:0:0:
192,192,153508,1,0,0:0:0:0:
320,192,153584,1,0,0:0:0:0:
64,192,153661,1,0,0:0:0:0:
448,192,153737,1,0,0:0:0:0:
192,192,153814,1,0,0:0:0:0:
320,192,153814,1,0,0:0:0:0:
448,192,154426,128,0,154579:0:0:0:0:
192,192,154426,128,0,154732:0:0:0:0:
64,192,154426,1,0,0:0:0:0:
448,192,154732,128,0,155038:0:0:0:0:
320,192,154732,128,0,154885:0:0:0:0:
192,192,155038,1,0,0:0:0:0:
320,192,155038,1,0,0:0:0:0:
192,192,155345,128,0,155804:0:0:0:0:
320,192,155498,1,0,0:0:0:0:
448,192,155651,128,0,155957:0:0:0:0:
64,192,155651,128,0,155804:0:0:0:0:
192,192,155957,128,0,156263:0:0:0:0:
320,192,155957,128,0,156110:0:0:0:0:
64,192,156263,128,0,156569:0:0:0:0:
320,192,156263,128,0,156722:0:0:0:0:
192,192,156722,128,0,156875:0:0:0:0:
64,192,156875,128,0,157181:0:0:0:0:
320,192,156875,1,0,0:0:0:0:
448,192,157028,128,0,157334:0:0:0:0:
192,192,157181,1,0,0:0:0:0:
448,192,157487,1,0,0:0:0:0:
64,192,157487,1,0,0:0:0:0:
192,192,157794,128,0,158253:0:0:0:0:
320,192,157947,1,0,0:0:0:0:
448,192,158100,128,0,158406:0:0:0:0:
64,192,158100,128,0,158253:0:0:0:0:
192,192,158406,128,0,158712:0:0:0:0:
320,192,158406,128,0,158559:0:0:0:0:
64,192,158712,128,0,159018:0:0:0:0:
320,192,158712,128,0,159171:0:0:0:0:
192,192,159171,128,0,159324:0:0:0:0:
448,192,159324,128,0,159477:0:0:0:0:
64,192,159324,128,0,159630:0:0:0:0:
448,192,159630,128,0,159783:0:0:0:0:
320,192,159630,128,0,159783:0:0:0:0:
320,192,159936,1,0,0:0:0:0:
192,192,159936,1,0,0:0:0:0:
192,192,160243,128,0,160702:0:0:0:0:
320,192,160396,1,0,0:0:0:0:
448,192,160549,128,0,160855:0:0:0:0:
64,192,160549,128,0,160702:0:0:0:0:
320,192,160855,128,0,161008:0:0:0:0:
192,192,160855,128,0,161161:0:0:0:0:
320,192,161161,128,0,161467:0:0:0:0:
64,192,161161,128,0,161314:0:0:0:0:
64,192,161467,128,0,161620:0:0:0:0:
192,192,161467,128,0,161620:0:0:0:0:
320,192,161620,1,0,0:0:0:0:
192,192,161697,1,0,0:0:0:0:
448,192,161773,128,0,161926:0:0:0:0:
64,192,161773,128,0,162079:0:0:0:0:
320,192,162079,128,0,162232:0:0:0:0:
448,192,162079,128,0,162385:0:0:0:0:
192,192,162385,128,0,162538:0:0:0:0:
320,192,162385,128,0,162692:0:0:0:0:
64,192,162692,128,0,162998:0:0:0:0:
192,192,162692,128,0,163151:0:0:0:0:
448,192,162692,128,0,162845:0:0:0:0:
320,192,162998,1,0,0:0:0:0:
320,192,163151,1,0,0:0:0:0:
64,192,163304,128,0,163610:0:0:0:0:
192,192,163304,1,0,0:0:0:0:
448,192,163610,1,0,0:0:0:0:
320,192,163610,1,0,0:0:0:0:
192,192,163916,128,0,164222:0:0:0:0:
320,192,164069,1,0,0:0:0:0:
448,192,164069,1,0,0:0:0:0:
448,192,164222,1,0,0:0:0:0:
64,192,164222,1,0,0:0:0:0:
320,192,164222,1,0,0:0:0:0:
320,192,164528,128,0,164681:0:0:0:0:
192,192,164681,128,0,164834:0:0:0:0:
448,192,164834,128,0,165141:0:0:0:0:
64,192,164834,1,0,0:0:0:0:
64,192,165141,1,0,0:0:0:0:
320,192,165294,128,0,165447:0:0:0:0:
448,192,165294,1,0,0:0:0:0:
192,192,165447,128,0,165600:0:0:0:0:
320,192,165600,128,0,165753:0:0:0:0:
448,192,165753,128,0,165906:0:0:0:0:
64,192,165753,1,0,0:0:0:0:
448,192,166059,1,0,0:0:0:0:
64,192,166059,1,0,0:0:0:0:
192,192,166059,128,0,166212:0:0:0:0:
320,192,166212,128,0,166365:0:0:0:0:
192,192,166365,128,0,166518:0:0:0:0:
192,192,166671,1,0,0:0:0:0:
64,192,166671,1,0,0:0:0:0:
320,192,166977,128,0,167130:0:0:0:0:
448,192,166977,1,0,0:0:0:0:
192,192,167130,128,0,167283:0:0:0:0:
448,192,167283,128,0,167589:0:0:0:0:
64,192,167283,1,0,0:0:0:0:
64,192,167589,1,0,0:0:0:0:
320,192,167743,128,0,167896:0:0:0:0:
448,192,167743,1,0,0:0:0:0:
192,192,167896,128,0,168049:0:0:0:0:
320,192,168049,128,0,168202:0:0:0:0:
64,192,168202,1,0,0:0:0:0:
448,192,168202,128,0,168355:0:0:0:0:
320,192,168508,128,0,168661:0:0:0:0:
448,192,168508,1,0,0:0:0:0:
64,192,168508,1,0,0:0:0:0:
192,192,168661,128,0,168814:0:0:0:0:
448,192,168814,1,0,0:0:0:0:
64,192,168814,128,0,168967:0:0:0:0:
192,192,168967,1,0,0:0:0:0:
320,192,168967,1,0,0:0:0:0:
448,192,169120,128,0,169426:0:0:0:0:
64,192,169120,128,0,169273:0:0:0:0:
320,192,169120,1,0,0:0:0:0:
192,192,169426,128,0,169732:0:0:0:0:
320,192,169579,128,0,169885:0:0:0:0:
448,192,169732,1,0,0:0:0:0:
64,192,169732,1,0,0:0:0:0:
192,192,169885,128,0,170345:0:0:0:0:
64,192,170038,128,0,170345:0:0:0:0:
448,192,170192,1,0,0:0:0:0:
320,192,170192,1,0,0:0:0:0:
320,192,170498,1,0,0:0:0:0:
448,192,170651,1,0,0:0:0:0:
192,192,170651,128,0,170957:0:0:0:0:
64,192,170957,1,0,0:0:0:0:
320,192,170957,128,0,171263:0:0:0:0:
64,192,171263,128,0,171569:0:0:0:0:
448,192,171569,1,0,0:0:0:0:
320,192,171569,1,0,0:0:0:0:
192,192,171875,128,0,172181:0:0:0:0:
448,192,171875,128,0,172028:0:0:0:0:
448,192,172181,128,0,172487:0:0:0:0:
320,192,172181,128,0,172334:0:0:0:0:
192,192,172487,1,0,0:0:0:0:
64,192,172487,128,0,173253:0:0:0:0:
320,192,172641,1,0,0:0:0:0:
448,192,172947,1,0,0:0:0:0:
192,192,172947,1,0,0:0:0:0:
192,192,173253,1,0,0:0:0:0:
320,192,173406,128,0,173712:0:0:0:0:
448,192,173406,128,0,173559:0:0:0:0:
64,192,173712,1,0,0:0:0:0:
448,192,173712,1,0,0:0:0:0:
320,192,173865,1,0,0:0:0:0:
192,192,173865,1,0,0:0:0:0:
448,192,174018,128,0,174171:0:0:0:0:
192,192,174018,128,0,174324:0:0:0:0:
64,192,174018,1,0,0:0:0:0:
448,192,174324,128,0,174630:0:0:0:0:
320,192,174324,128,0,174477:0:0:0:0:
192,192,174630,1,0,0:0:0:0:
320,192,174630,1,0,0:0:0:0:
192,192,174936,128,0,175396:0:0:0:0:
320,192,175089,1,0,0:0:0:0:
448,192,175243,128,0,175549:0:0:0:0:
64,192,175243,128,0,175396:0:0:0:0:
192,192,175549,128,0,175855:0:0:0:0:
320,192,175549,128,0,175702:0:0:0:0:
64,192,175855,128,0,176161:0:0:0:0:
320,192,175855,128,0,176314:0:0:0:0:
192,192,176314,128,0,176467:0:0:0:0:
64,192,176467,128,0,176773:0:0:0:0:
320,192,176467,1,0,0:0:0:0:
448,192,176620,128,0,176926:0:0:0:0:
192,192,176773,1,0,0:0:0:0:
448,192,177079,1,0,0:0:0:0:
64,192,177079,1,0,0:0:0:0:
192,192,177385,128,0,177845:0:0:0:0:
320,192,177538,1,0,0:0:0:0:
448,192,177692,128,0,177998:0:0:0:0:
64,192,177692,128,0,177845:0:0:0:0:
192,192,177998,128,0,178304:0:0:0:0:
320,192,177998,128,0,178151:0:0:0:0:
64,192,178304,128,0,178610:0:0:0:0:
320,192,178304,128,0,178763:0:0:0:0:
192,192,178763,128,0,178916:0:0:0:0:
448,192,178916,128,0,179069:0:0:0:0:
64,192,178916,128,0,179222:0:0:0:0:
448,192,179222,128,0,179375:0:0:0:0:
320,192,179222,128,0,179375:0:0:0:0:
320,192,179528,1,0,0:0:0:0:
192,192,179528,1,0,0:0:0:0:
192,192,179834,128,0,180294:0:0:0:0:
320,192,179987,1,0,0:0:0:0:
448,192,180141,128,0,180447:0:0:0:0:
64,192,180141,128,0,180294:0:0:0:0:
320,192,180447,128,0,180600:0:0:0:0:
192,192,180447,128,0,180753:0:0:0:0:
320,192,180753,128,0,181059:0:0:0:0:
64,192,180753,128,0,180906:0:0:0:0:
64,192,181059,128,0,181212:0:0:0:0:
192,192,181059,128,0,181212:0:0:0:0:
320,192,181212,1,0,0:0:0:0:
192,192,181288,1,0,0:0:0:0:
448,192,181365,128,0,181518:0:0:0:0:
64,192,181365,128,0,181671:0:0:0:0:
320,192,181671,128,0,181824:0:0:0:0:
448,192,181671,128,0,181977:0:0:0:0:
192,192,181977,128,0,182130:0:0:0:0:
320,192,181977,128,0,182283:0:0:0:0:
64,192,182283,128,0,182589:0:0:0:0:
192,192,182283,128,0,182743:0:0:0:0:
448,192,182283,128,0,182436:0:0:0:0:
320,192,182589,1,0,0:0:0:0:
320,192,182743,1,0,0:0:0:0:
64,192,182896,128,0,183202:0:0:0:0:
192,192,182896,1,0,0:0:0:0:
448,192,183202,1,0,0:0:0:0:
320,192,183202,128,0,183508:0:0:0:0:
192,192,183508,128,0,183814:0:0:0:0:
320,192,183814,1,0,0:0:0:0:
448,192,183814,1,0,0:0:0:0:
64,192,183814,1,0,0:0:0:0:
320,192,184120,128,0,184273:0:0:0:0:
192,192,184273,128,0,184426:0:0:0:0:
448,192,184426,128,0,184732:0:0:0:0:
64,192,184426,1,0,0:0:0:0:
64,192,184732,1,0,0:0:0:0:
448,192,184885,1,0,0:0:0:0:
320,192,184885,128,0,185038:0:0:0:0:
192,192,185038,128,0,185192:0:0:0:0:
320,192,185192,128,0,185345:0:0:0:0:
64,192,185345,1,0,0:0:0:0:
448,192,185345,128,0,185498:0:0:0:0:
448,192,185651,128,0,186110:0:0:0:0:
64,192,185651,1,0,0:0:0:0:
192,192,185651,128,0,185804:0:0:0:0:
320,192,185804,128,0,185957:0:0:0:0:
192,192,185957,128,0,186110:0:0:0:0:
192,192,186263,1,0,0:0:0:0:
64,192,186263,1,0,0:0:0:0:
320,192,186569,128,0,186722:0:0:0:0:
448,192,186569,1,0,0:0:0:0:
192,192,186722,128,0,186875:0:0:0:0:
448,192,186875,128,0,187181:0:0:0:0:
64,192,186875,1,0,0:0:0:0:
64,192,187181,1,0,0:0:0:0:
448,192,187334,1,0,0:0:0:0:
320,192,187334,128,0,187487:0:0:0:0:
192,192,187487,128,0,187641:0:0:0:0:
320,192,187641,128,0,187794:0:0:0:0:
64,192,187794,1,0,0:0:0:0:
448,192,187794,128,0,187947:0:0:0:0:
448,192,188100,1,0,0:0:0:0:
320,192,188100,128,0,188253:0:0:0:0:
64,192,188100,1,0,0:0:0:0:
192,192,188253,128,0,188406:0:0:0:0:
448,192,188406,1,0,0:0:0:0:
64,192,188406,128,0,188559:0:0:0:0:
320,192,188559,1,0,0:0:0:0:
192,192,188559,1,0,0:0:0:0:
320,192,188712,1,0,0:0:0:0:
448,192,188712,128,0,189018:0:0:0:0:
64,192,188712,128,0,188865:0:0:0:0:
192,192,189018,128,0,189324:0:0:0:0:
320,192,189171,128,0,189477:0:0:0:0:
448,192,189324,1,0,0:0:0:0:
64,192,189324,1,0,0:0:0:0:
192,192,189477,128,0,189783:0:0:0:0:
64,192,189630,128,0,189783:0:0:0:0:
448,192,189783,1,0,0:0:0:0:
320,192,189783,1,0,0:0:0:0:
320,192,190089,1,0,0:0:0:0:
448,192,190243,1,0,0:0:0:0:
192,192,190243,128,0,190549:0:0:0:0:
64,192,190549,1,0,0:0:0:0:
320,192,190549,128,0,190855:0:0:0:0:
64,192,190855,128,0,191161:0:0:0:0:
192,192,191008,1,0,0:0:0:0:
448,192,191161,1,0,0:0:0:0:
320,192,191161,1,0,0:0:0:0:
192,192,191467,128,0,191773:0:0:0:0:
448,192,191467,128,0,191620:0:0:0:0:
448,192,191773,128,0,192079:0:0:0:0:
320,192,191773,128,0,191926:0:0:0:0:
64,192,192079,128,0,192845:0:0:0:0:
320,192,192079,1,0,0:0:0:0:
192,192,192079,128,0,192385:0:0:0:0:
320,192,192692,1,0,0:0:0:0:
192,192,192845,1,0,0:0:0:0:
448,192,192998,1,0,0:0:0:0:
320,192,192998,1,0,0:0:0:0:
64,192,193151,1,0,0:0:0:0:
192,192,193304,128,0,193610:0:0:0:0:
320,192,193457,1,0,0:0:0:0:
448,192,193610,128,0,193916:0:0:0:0:
64,192,193610,128,0,193763:0:0:0:0:
192,192,193916,128,0,194222:0:0:0:0:
320,192,194069,128,0,194222:0:0:0:0:
64,192,194222,1,0,0:0:0:0:
192,192,194375,128,0,194528:0:0:0:0:
448,192,194528,1,0,0:0:0:0:
64,192,194528,128,0,194987:0:0:0:0:
448,192,194834,1,0,0:0:0:0:
320,192,194834,1,0,0:0:0:0:
448,192,195141,128,0,195447:0:0:0:0:
64,192,195141,128,0,195294:0:0:0:0:
320,192,195447,128,0,195753:0:0:0:0:
192,192,195447,128,0,195600:0:0:0:0:
64,192,195447,1,0,0:0:0:0:
448,192,195753,1,0,0:0:0:0:
64,192,195753,1,0,0:0:0:0:
320,192,195906,1,0,0:0:0:0:
192,192,195906,1,0,0:0:0:0:
448,192,196059,1,0,0:0:0:0:
64,192,196059,128,0,196212:0:0:0:0:
320,192,196059,128,0,196365:0:0:0:0:
64,192,196365,128,0,196518:0:0:0:0:
320,192,196518,128,0,196824:0:0:0:0:
448,192,196671,1,0,0:0:0:0:
192,192,196671,1,0,0:0:0:0:
64,192,196824,128,0,197130:0:0:0:0:
448,192,197130,1,0,0:0:0:0:
192,192,197130,128,0,197436:0:0:0:0:
320,192,197283,128,0,197436:0:0:0:0:
448,192,197436,128,0,197589:0:0:0:0:
192,192,197589,128,0,197743:0:0:0:0:
64,192,197589,1,0,0:0:0:0:
448,192,197743,128,0,197896:0:0:0:0:
320,192,197896,128,0,198202:0:0:0:0:
64,192,197896,1,0,0:0:0:0:
192,192,198049,128,0,198355:0:0:0:0:
64,192,198202,128,0,198508:0:0:0:0:
320,192,198355,128,0,198508:0:0:0:0:
192,192,198508,128,0,198814:0:0:0:0:
448,192,198508,128,0,198661:0:0:0:0:
320,192,198814,1,0,0:0:0:0:
448,192,198814,128,0,198967:0:0:0:0:
192,192,198967,128,0,199273:0:0:0:0:
320,192,199120,1,0,0:0:0:0:
64,192,199120,1,0,0:0:0:0:
448,192,199273,128,0,199579:0:0:0:0:
320,192,199579,128,0,199885:0:0:0:0:
192,192,199579,1,0,0:0:0:0:
64,192,199732,128,0,199885:0:0:0:0:
448,192,199885,128,0,200038:0:0:0:0:
192,192,200038,128,0,200345:0:0:0:0:
64,192,200038,1,0,0:0:0:0:
320,192,200192,128,0,200345:0:0:0:0:
64,192,200345,128,0,200651:0:0:0:0:
448,192,200345,128,0,200498:0:0:0:0:
320,192,200804,1,0,0:0:0:0:
192,192,200957,128,0,201263:0:0:0:0:
448,192,200957,128,0,201110:0:0:0:0:
64,192,200957,1,0,0:0:0:0:
64,192,201263,128,0,201416:0:0:0:0:
448,192,201416,128,0,201646:0:0:0:0:
192,192,201569,128,0,201722:0:0:0:0:
64,192,201569,1,0,0:0:0:0:
320,192,201722,128,0,201875:0:0:0:0:
64,192,201875,128,0,202028:0:0:0:0:
320,192,202028,128,0,202181:0:0:0:0:
448,192,202028,1,0,0:0:0:0:
192,192,202181,128,0,202487:0:0:0:0:
448,192,202334,128,0,202641:0:0:0:0:
320,192,202487,128,0,202641:0:0:0:0:
64,192,202487,1,0,0:0:0:0:
192,192,202641,128,0,202794:0:0:0:0:
64,192,202794,128,0,203100:0:0:0:0:
448,192,202794,128,0,202947:0:0:0:0:
192,192,203253,1,0,0:0:0:0:
64,192,203406,128,0,203559:0:0:0:0:
320,192,203406,128,0,203712:0:0:0:0:
448,192,203406,1,0,0:0:0:0:
64,192,203712,1,0,0:0:0:0:
192,192,203712,1,0,0:0:0:0:
192,192,203865,1,0,0:0:0:0:
448,192,204018,128,0,204171:0:0:0:0:
320,192,204018,128,0,204133:0:0:0:0:
64,192,204324,128,0,204630:0:0:0:0:
192,192,204324,128,0,204783:0:0:0:0:
448,192,204324,128,0,204477:0:0:0:0:
320,192,204630,128,0,204936:0:0:0:0:
448,192,204783,128,0,204936:0:0:0:0:
192,192,204936,128,0,205243:0:0:0:0:
448,192,205089,128,0,205243:0:0:0:0:
64,192,205243,1,0,0:0:0:0:
320,192,205243,128,0,205549:0:0:0:0:
192,192,205396,128,0,205549:0:0:0:0:
64,192,205549,128,0,205702:0:0:0:0:
448,192,205702,1,0,0:0:0:0:
320,192,205702,1,0,0:0:0:0:
320,192,205855,128,0,205970:0:0:0:0:
448,192,205855,128,0,206008:0:0:0:0:
64,192,205855,1,0,0:0:0:0:
192,192,206161,128,0,206314:0:0:0:0:
320,192,206314,128,0,206620:0:0:0:0:
448,192,206467,1,0,0:0:0:0:
64,192,206467,1,0,0:0:0:0:
192,192,206620,128,0,207079:0:0:0:0:
320,192,206926,1,0,0:0:0:0:
448,192,206926,128,0,207232:0:0:0:0:
64,192,207079,1,0,0:0:0:0:
320,192,207232,128,0,207385:0:0:0:0:
64,192,207385,1,0,0:0:0:0:
192,192,207385,1,0,0:0:0:0:
448,192,207538,128,0,207692:0:0:0:0:
320,192,207692,128,0,207845:0:0:0:0:
64,192,207692,1,0,0:0:0:0:
192,192,207845,128,0,207998:0:0:0:0:
448,192,207998,128,0,208304:0:0:0:0:
320,192,208227,1,0,0:0:0:0:
192,192,208304,128,0,208419:0:0:0:0:
64,192,208304,128,0,208457:0:0:0:0:
320,192,208610,128,0,208763:0:0:0:0:
448,192,208610,1,0,0:0:0:0:
192,192,208763,128,0,209069:0:0:0:0:
64,192,208916,1,0,0:0:0:0:
448,192,208916,1,0,0:0:0:0:
320,192,209069,128,0,209528:0:0:0:0:
192,192,209375,1,0,0:0:0:0:
64,192,209375,128,0,209681:0:0:0:0:
448,192,209528,1,0,0:0:0:0:
192,192,209681,128,0,209834:0:0:0:0:
448,192,209834,1,0,0:0:0:0:
320,192,209834,1,0,0:0:0:0:
64,192,209987,128,0,210141:0:0:0:0:
448,192,210141,1,0,0:0:0:0:
192,192,210141,128,0,210294:0:0:0:0:
320,192,210294,128,0,210447:0:0:0:0:
64,192,210447,128,0,210753:0:0:0:0:
192,192,210676,1,0,0:0:0:0:
320,192,210753,128,0,210906:0:0:0:0:
448,192,210753,128,0,210868:0:0:0:0:
320,192,211059,1,0,0:0:0:0:
192,192,211212,128,0,211365:0:0:0:0:
64,192,211365,1,0,0:0:0:0:
448,192,211365,1,0,0:0:0:0:
320,192,211518,128,0,211671:0:0:0:0:
448,192,211671,128,0,211875:0:0:0:0:
192,192,211773,128,0,211977:0:0:0:0:
320,192,211875,128,0,211977:0:0:0:0:
448,192,211977,128,0,212589:0:0:0:0:
64,192,211977,128,0,212130:0:0:0:0:
320,192,212130,1,0,0:0:0:0:
64,192,212283,1,0,0:0:0:0:
192,192,212283,1,0,0:0:0:0:
320,192,212589,1,0,0:0:0:0:
192,192,212589,1,0,0:0:0:0:
320,192,212896,1,0,0:0:0:0:
192,192,213100,1,0,0:0:0:0:
320,192,213151,1,0,0:0:0:0:
448,192,213202,128,0,213355:0:0:0:0:
64,192,213202,128,0,213317:0:0:0:0:
448,192,213508,128,0,213814:0:0:0:0:
320,192,213508,128,0,213661:0:0:0:0:
320,192,213814,1,0,0:0:0:0:
192,192,213814,1,0,0:0:0:0:
64,192,213967,128,0,214120:0:0:0:0:
448,192,213967,128,0,214082:0:0:0:0:
192,192,214273,128,0,214426:0:0:0:0:
64,192,214273,128,0,214579:0:0:0:0:
192,192,214579,1,0,0:0:0:0:
320,192,214579,128,0,214732:0:0:0:0:
64,192,214732,128,0,214885:0:0:0:0:
448,192,214885,128,0,215038:0:0:0:0:
320,192,214885,1,0,0:0:0:0:
192,192,215038,128,0,215345:0:0:0:0:
64,192,215038,128,0,215498:0:0:0:0:
320,192,215651,128,0,215957:0:0:0:0:
64,192,215651,1,0,0:0:0:0:
448,192,215957,128,0,216263:0:0:0:0:
192,192,216569,128,0,216875:0:0:0:0:
448,192,216875,128,0,217181:0:0:0:0:
64,192,217181,128,0,217487:0:0:0:0:
320,192,217487,128,0,217947:0:0:0:0:
192,192,217947,128,0,218100:0:0:0:0:
64,192,218100,128,0,218253:0:0:0:0:
320,192,218100,1,0,0:0:0:0:
448,192,218253,128,0,218559:0:0:0:0:
192,192,219018,128,0,219324:0:0:0:0:
448,192,219324,128,0,219630:0:0:0:0:
64,192,219630,128,0,219936:0:0:0:0:
320,192,219936,128,0,220396:0:0:0:0:
192,192,220396,128,0,220549:0:0:0:0:
64,192,220549,128,0,220702:0:0:0:0:
448,192,220549,1,0,0:0:0:0:
448,192,220855,128,0,221161:0:0:0:0:
192,192,221467,128,0,221773:0:0:0:0:
448,192,221773,128,0,222079:0:0:0:0:
64,192,222079,128,0,222385:0:0:0:0:
320,192,222385,128,0,222692:0:0:0:0:
192,192,222692,128,0,222998:0:0:0:0:
64,192,222998,128,0,223304:0:0:0:0:
448,192,222998,1,0,0:0:0:0:
320,192,223304,128,0,223457:0:0:0:0:
448,192,223610,128,0,223916:0:0:0:0:
64,192,223916,1,0,0:0:0:0:
192,192,223916,128,0,224375:0:0:0:0:
320,192,224528,128,0,224681:0:0:0:0:
448,192,224834,128,0,225141:0:0:0:0:
192,192,224834,1,0,0:0:0:0:
64,192,225141,128,0,225447:0:0:0:0:
192,192,225447,1,0,0:0:0:0:
320,192,225447,1,0,0:0:0:0:
448,192,225447,1,0,0:0:0:0:
320,192,225753,128,0,225906:0:0:0:0:
192,192,225906,128,0,226059:0:0:0:0:
64,192,226059,1,0,0:0:0:0:
448,192,226059,128,0,226365:0:0:0:0:
192,192,226212,1,0,0:0:0:0:
64,192,226365,1,0,0:0:0:0:
320,192,226518,128,0,226671:0:0:0:0:
192,192,226671,128,0,226824:0:0:0:0:
64,192,226824,1,0,0:0:0:0:
320,192,226824,128,0,226977:0:0:0:0:
448,192,226977,128,0,227130:0:0:0:0:
192,192,227130,1,0,0:0:0:0:
448,192,227283,1,0,0:0:0:0:
320,192,227283,128,0,227436:0:0:0:0:
64,192,227436,128,0,227589:0:0:0:0:
192,192,227589,128,0,227743:0:0:0:0:
448,192,227896,1,0,0:0:0:0:
320,192,227896,1,0,0:0:0:0:
320,192,228202,128,0,228355:0:0:0:0:
192,192,228355,128,0,228508:0:0:0:0:
448,192,228508,128,0,228814:0:0:0:0:
64,192,228508,1,0,0:0:0:0:
192,192,228661,1,0,0:0:0:0:
64,192,228814,1,0,0:0:0:0:
320,192,228967,128,0,229120:0:0:0:0:
192,192,229120,128,0,229273:0:0:0:0:
64,192,229273,1,0,0:0:0:0:
320,192,229273,128,0,229426:0:0:0:0:
448,192,229426,128,0,229732:0:0:0:0:
320,192,229732,128,0,229885:0:0:0:0:
64,192,229732,1,0,0:0:0:0:
192,192,229885,128,0,230038:0:0:0:0:
64,192,230038,128,0,230192:0:0:0:0:
448,192,230345,128,0,230651:0:0:0:0:
64,192,230345,128,0,230498:0:0:0:0:
192,192,230651,128,0,230957:0:0:0:0:
320,192,230804,128,0,231110:0:0:0:0:
448,192,230957,1,0,0:0:0:0:
64,192,230957,1,0,0:0:0:0:
192,192,231110,128,0,231569:0:0:0:0:
64,192,231263,128,0,231569:0:0:0:0:
320,192,231416,1,0,0:0:0:0:
448,192,231569,1,0,0:0:0:0:
320,192,231722,1,0,0:0:0:0:
192,192,231875,128,0,232181:0:0:0:0:
448,192,232181,1,0,0:0:0:0:
320,192,232181,128,0,232487:0:0:0:0:
64,192,232487,128,0,232794:0:0:0:0:
192,192,232641,1,0,0:0:0:0:
448,192,232794,1,0,0:0:0:0:
320,192,232794,1,0,0:0:0:0:
192,192,233100,128,0,233406:0:0:0:0:
448,192,233100,128,0,233253:0:0:0:0:
448,192,233406,128,0,233712:0:0:0:0:
320,192,233406,128,0,233559:0:0:0:0:
192,192,233712,128,0,234018:0:0:0:0:
64,192,233712,128,0,234630:0:0:0:0:
320,192,234018,128,0,234171:0:0:0:0:
448,192,234018,1,0,0:0:0:0:
448,192,234324,1,0,0:0:0:0:
320,192,234324,128,0,234477:0:0:0:0:
448,192,234630,128,0,234783:0:0:0:0:
320,192,234630,128,0,234936:0:0:0:0:
64,192,234936,1,0,0:0:0:0:
448,192,234936,1,0,0:0:0:0:
320,192,235089,1,0,0:0:0:0:
192,192,235089,1,0,0:0:0:0:
448,192,235243,128,0,235396:0:0:0:0:
192,192,235243,128,0,235549:0:0:0:0:
64,192,235243,1,0,0:0:0:0:
448,192,235549,128,0,235855:0:0:0:0:
320,192,235549,128,0,235702:0:0:0:0:
64,192,235702,128,0,235855:0:0:0:0:
192,192,235855,1,0,0:0:0:0:
320,192,235855,1,0,0:0:0:0:
192,192,236161,128,0,236620:0:0:0:0:
320,192,236314,128,0,236467:0:0:0:0:
448,192,236467,128,0,236773:0:0:0:0:
64,192,236467,128,0,236620:0:0:0:0:
192,192,236773,128,0,237079:0:0:0:0:
320,192,236773,128,0,236926:0:0:0:0:
64,192,237079,128,0,237385:0:0:0:0:
320,192,237079,128,0,237538:0:0:0:0:
192,192,237538,128,0,237692:0:0:0:0:
64,192,237692,128,0,237998:0:0:0:0:
320,192,237692,1,0,0:0:0:0:
448,192,237845,128,0,238151:0:0:0:0:
192,192,237998,1,0,0:0:0:0:
448,192,238304,1,0,0:0:0:0:
64,192,238304,1,0,0:0:0:0:
192,192,238610,128,0,239069:0:0:0:0:
320,192,238763,128,0,238916:0:0:0:0:
448,192,238916,128,0,239222:0:0:0:0:
64,192,238916,128,0,239069:0:0:0:0:
192,192,239222,128,0,239528:0:0:0:0:
320,192,239222,128,0,239375:0:0:0:0:
64,192,239528,128,0,239834:0:0:0:0:
320,192,239528,128,0,239987:0:0:0:0:
192,192,239987,128,0,240141:0:0:0:0:
448,192,240141,128,0,240294:0:0:0:0:
64,192,240141,128,0,240447:0:0:0:0:
320,192,240447,128,0,240600:0:0:0:0:
448,192,240447,128,0,240753:0:0:0:0:
64,192,240600,128,0,240753:0:0:0:0:
320,192,240753,1,0,0:0:0:0:
192,192,240753,1,0,0:0:0:0:
192,192,241059,128,0,241518:0:0:0:0:
320,192,241212,128,0,241365:0:0:0:0:
448,192,241365,128,0,241671:0:0:0:0:
64,192,241365,128,0,241518:0:0:0:0:
320,192,241671,128,0,241824:0:0:0:0:
192,192,241671,128,0,241977:0:0:0:0:
320,192,241977,128,0,242283:0:0:0:0:
64,192,241977,128,0,242130:0:0:0:0:
64,192,242283,128,0,242436:0:0:0:0:
192,192,242283,128,0,242436:0:0:0:0:
320,192,242436,1,0,0:0:0:0:
192,192,242513,1,0,0:0:0:0:
448,192,242589,128,0,242743:0:0:0:0:
64,192,242589,128,0,242896:0:0:0:0:
320,192,242896,128,0,243049:0:0:0:0:
448,192,242896,128,0,243202:0:0:0:0:
192,192,243202,128,0,243355:0:0:0:0:
320,192,243202,128,0,243508:0:0:0:0:
64,192,243508,128,0,243814:0:0:0:0:
192,192,243508,128,0,243967:0:0:0:0:
448,192,243508,128,0,243661:0:0:0:0:
320,192,243814,1,0,0:0:0:0:
320,192,243967,1,0,0:0:0:0:
64,192,244120,128,0,244426:0:0:0:0:
192,192,244120,1,0,0:0:0:0:
320,192,244426,128,0,244732:0:0:0:0:
448,192,244426,128,0,244579:0:0:0:0:
192,192,244732,128,0,245038:0:0:0:0:
320,192,245038,1,0,0:0:0:0:
448,192,245038,1,0,0:0:0:0:
64,192,245038,1,0,0:0:0:0:
320,192,245345,128,0,245498:0:0:0:0:
192,192,245498,128,0,245651:0:0:0:0:
448,192,245651,128,0,245957:0:0:0:0:
64,192,245651,1,0,0:0:0:0:
64,192,245957,1,0,0:0:0:0:
448,192,246110,1,0,0:0:0:0:
320,192,246110,128,0,246263:0:0:0:0:
192,192,246263,128,0,246416:0:0:0:0:
320,192,246416,128,0,246569:0:0:0:0:
64,192,246569,1,0,0:0:0:0:
448,192,246569,128,0,246722:0:0:0:0:
448,192,246875,128,0,247334:0:0:0:0:
64,192,246875,1,0,0:0:0:0:
192,192,246875,128,0,247028:0:0:0:0:
320,192,247028,128,0,247181:0:0:0:0:
192,192,247181,128,0,247334:0:0:0:0:
64,192,247487,1,0,0:0:0:0:
192,192,247487,1,0,0:0:0:0:
320,192,247794,128,0,247947:0:0:0:0:
448,192,247794,1,0,0:0:0:0:
192,192,247947,128,0,248100:0:0:0:0:
448,192,248100,128,0,248406:0:0:0:0:
64,192,248100,1,0,0:0:0:0:
64,192,248406,1,0,0:0:0:0:
448,192,248559,1,0,0:0:0:0:
320,192,248559,128,0,248712:0:0:0:0:
192,192,248712,128,0,248865:0:0:0:0:
320,192,248865,128,0,249018:0:0:0:0:
64,192,249018,1,0,0:0:0:0:
448,192,249018,128,0,249171:0:0:0:0:
448,192,249324,1,0,0:0:0:0:
320,192,249324,128,0,249477:0:0:0:0:
64,192,249324,1,0,0:0:0:0:
192,192,249477,128,0,249630:0:0:0:0:
64,192,249630,128,0,249783:0:0:0:0:
448,192,249630,1,0,0:0:0:0:
192,192,249783,1,0,0:0:0:0:
320,192,249783,1,0,0:0:0:0:
320,192,249936,1,0,0:0:0:0:
448,192,249936,128,0,250243:0:0:0:0:
64,192,249936,128,0,250089:0:0:0:0:
192,192,250243,128,0,250549:0:0:0:0:
320,192,250396,128,0,250702:0:0:0:0:
448,192,250549,1,0,0:0:0:0:
64,192,250549,1,0,0:0:0:0:
192,192,250702,128,0,251008:0:0:0:0:
64,192,250855,128,0,251008:0:0:0:0:
448,192,251008,1,0,0:0:0:0:
320,192,251008,1,0,0:0:0:0:
320,192,251314,1,0,0:0:0:0:
448,192,251467,1,0,0:0:0:0:
192,192,251467,128,0,251773:0:0:0:0:
64,192,251773,1,0,0:0:0:0:
320,192,251773,128,0,252079:0:0:0:0:
64,192,252079,128,0,252385:0:0:0:0:
192,192,252232,1,0,0:0:0:0:
448,192,252385,1,0,0:0:0:0:
320,192,252385,1,0,0:0:0:0:
192,192,252692,128,0,252998:0:0:0:0:
448,192,252692,128,0,252845:0:0:0:0:
64,192,252845,1,0,0:0:0:0:
448,192,252998,128,0,253304:0:0:0:0:
320,192,252998,128,0,253151:0:0:0:0:
192,192,253304,128,0,253610:0:0:0:0:
320,192,253304,1,0,0:0:0:0:
64,192,253304,128,0,254069:0:0:0:0:
320,192,253916,1,0,0:0:0:0:
192,192,254069,1,0,0:0:0:0:
448,192,254222,1,0,0:0:0:0:
320,192,254222,1,0,0:0:0:0:
64,192,254375,1,0,0:0:0:0:
192,192,254528,128,0,254834:0:0:0:0:
320,192,254681,1,0,0:0:0:0:
448,192,254834,128,0,255141:0:0:0:0:
64,192,254834,128,0,254987:0:0:0:0:
192,192,255141,128,0,255447:0:0:0:0:
320,192,255294,128,0,255447:0:0:0:0:
64,192,255447,1,0,0:0:0:0:
192,192,255600,128,0,255753:0:0:0:0:
448,192,255753,1,0,0:0:0:0:
64,192,255753,128,0,256212:0:0:0:0:
448,192,256059,1,0,0:0:0:0:
320,192,256059,1,0,0:0:0:0:
448,192,256365,128,0,256671:0:0:0:0:
64,192,256365,128,0,256518:0:0:0:0:
320,192,256671,128,0,256977:0:0:0:0:
192,192,256671,128,0,256824:0:0:0:0:
64,192,256671,1,0,0:0:0:0:
448,192,256977,1,0,0:0:0:0:
64,192,256977,1,0,0:0:0:0:
320,192,257130,1,0,0:0:0:0:
192,192,257130,1,0,0:0:0:0:
320,192,257283,128,0,257589:0:0:0:0:
64,192,257283,128,0,257436:0:0:0:0:
448,192,257283,1,0,0:0:0:0:
64,192,257589,128,0,257743:0:0:0:0:
320,192,257743,128,0,258049:0:0:0:0:
192,192,257896,1,0,0:0:0:0:
448,192,257896,1,0,0:0:0:0:
64,192,258049,128,0,258355:0:0:0:0:
192,192,258355,128,0,258661:0:0:0:0:
448,192,258355,1,0,0:0:0:0:
320,192,258508,128,0,258661:0:0:0:0:
448,192,258661,128,0,258814:0:0:0:0:
64,192,258814,1,0,0:0:0:0:
192,192,258814,128,0,258967:0:0:0:0:
448,192,258967,128,0,259120:0:0:0:0:
64,192,259120,1,0,0:0:0:0:
320,192,259120,128,0,259426:0:0:0:0:
192,192,259273,128,0,259579:0:0:0:0:
64,192,259426,128,0,259732:0:0:0:0:
320,192,259579,128,0,259732:0:0:0:0:
448,192,259732,128,0,259885:0:0:0:0:
192,192,259732,128,0,260038:0:0:0:0:
448,192,260038,128,0,260192:0:0:0:0:
320,192,260038,1,0,0:0:0:0:
192,192,260192,128,0,260498:0:0:0:0:
64,192,260345,1,0,0:0:0:0:
320,192,260345,1,0,0:0:0:0:
448,192,260498,128,0,260804:0:0:0:0:
192,192,260804,1,0,0:0:0:0:
320,192,260804,128,0,261110:0:0:0:0:
64,192,260957,128,0,261110:0:0:0:0:
448,192,261110,128,0,261263:0:0:0:0:
64,192,261263,1,0,0:0:0:0:
192,192,261263,128,0,261569:0:0:0:0:
320,192,261416,128,0,261569:0:0:0:0:
448,192,261569,128,0,261722:0:0:0:0:
64,192,261569,128,0,261875:0:0:0:0:
320,192,262028,1,0,0:0:0:0:
64,192,262181,1,0,0:0:0:0:
448,192,262181,128,0,262334:0:0:0:0:
192,192,262181,128,0,262487:0:0:0:0:
64,192,262487,128,0,262641:0:0:0:0:
448,192,262641,128,0,262870:0:0:0:0:
64,192,262794,1,0,0:0:0:0:
192,192,262794,128,0,262947:0:0:0:0:
320,192,262947,128,0,263100:0:0:0:0:
64,192,263100,128,0,263253:0:0:0:0:
448,192,263253,1,0,0:0:0:0:
320,192,263253,128,0,263406:0:0:0:0:
192,192,263406,128,0,263712:0:0:0:0:
448,192,263559,128,0,263865:0:0:0:0:
64,192,263712,1,0,0:0:0:0:
320,192,263712,128,0,263865:0:0:0:0:
192,192,263865,128,0,264018:0:0:0:0:
448,192,264018,128,0,264171:0:0:0:0:
64,192,264018,128,0,264324:0:0:0:0:
192,192,264477,1,0,0:0:0:0:
448,192,264630,1,0,0:0:0:0:
320,192,264630,128,0,264936:0:0:0:0:
64,192,264630,128,0,264783:0:0:0:0:
192,192,264936,1,0,0:0:0:0:
64,192,264936,1,0,0:0:0:0:
192,192,265089,1,0,0:0:0:0:
320,192,265243,128,0,265357:0:0:0:0:
448,192,265243,128,0,265396:0:0:0:0:
448,192,265549,128,0,265702:0:0:0:0:
192,192,265549,128,0,266008:0:0:0:0:
64,192,265549,128,0,265855:0:0:0:0:
320,192,265855,128,0,266161:0:0:0:0:
448,192,266008,128,0,266161:0:0:0:0:
192,192,266161,128,0,266467:0:0:0:0:
448,192,266314,128,0,266467:0:0:0:0:
320,192,266467,128,0,266773:0:0:0:0:
64,192,266467,1,0,0:0:0:0:
192,192,266620,128,0,266773:0:0:0:0:
64,192,266773,128,0,266926:0:0:0:0:
320,192,266926,1,0,0:0:0:0:
448,192,266926,1,0,0:0:0:0:
64,192,267079,1,0,0:0:0:0:
448,192,267079,128,0,267232:0:0:0:0:
320,192,267079,128,0,267194:0:0:0:0:
192,192,267385,128,0,267538:0:0:0:0:
320,192,267538,128,0,267845:0:0:0:0:
64,192,267692,1,0,0:0:0:0:
448,192,267692,1,0,0:0:0:0:
192,192,267845,128,0,268304:0:0:0:0:
448,192,268151,128,0,268457:0:0:0:0:
320,192,268151,1,0,0:0:0:0:
64,192,268304,1,0,0:0:0:0:
320,192,268457,128,0,268610:0:0:0:0:
192,192,268610,1,0,0:0:0:0:
64,192,268610,1,0,0:0:0:0:
448,192,268763,128,0,268916:0:0:0:0:
64,192,268916,1,0,0:0:0:0:
320,192,268916,128,0,269069:0:0:0:0:
192,192,269069,128,0,269222:0:0:0:0:
448,192,269222,128,0,269528:0:0:0:0:
320,192,269452,1,0,0:0:0:0:
64,192,269528,128,0,269681:0:0:0:0:
192,192,269528,128,0,269643:0:0:0:0:
448,192,269834,1,0,0:0:0:0:
320,192,269834,128,0,269987:0:0:0:0:
192,192,269987,128,0,270294:0:0:0:0:
448,192,270141,1,0,0:0:0:0:
64,192,270141,1,0,0:0:0:0:
320,192,270294,128,0,270753:0:0:0:0:
64,192,270600,128,0,270906:0:0:0:0:
192,192,270600,1,0,0:0:0:0:
448,192,270753,1,0,0:0:0:0:
192,192,270906,128,0,271059:0:0:0:0:
320,192,271059,1,0,0:0:0:0:
448,192,271059,1,0,0:0:0:0:
64,192,271212,128,0,271365:0:0:0:0:
192,192,271365,128,0,271518:0:0:0:0:
448,192,271365,1,0,0:0:0:0:
320,192,271518,128,0,271671:0:0:0:0:
64,192,271671,128,0,271977:0:0:0:0:
192,192,271901,1,0,0:0:0:0:
448,192,271977,128,0,272092:0:0:0:0:
320,192,271977,128,0,272130:0:0:0:0:
320,192,272283,1,0,0:0:0:0:
192,192,272436,128,0,272589:0:0:0:0:
448,192,272589,1,0,0:0:0:0:
64,192,272589,1,0,0:0:0:0:
320,192,272743,128,0,272896:0:0:0:0:
448,192,272896,128,0,273100:0:0:0:0:
192,192,272998,128,0,273202:0:0:0:0:
320,192,273100,128,0,273202:0:0:0:0:
64,192,273202,128,0,273355:0:0:0:0:
448,192,273202,128,0,273814:0:0:0:0:
320,192,273355,1,0,0:0:0:0:
192,192,273508,1,0,0:0:0:0:
64,192,273508,1,0,0:0:0:0:
192,192,273814,1,0,0:0:0:0:
320,192,273814,1,0,0:0:0:0:
448,192,274120,1,0,0:0:0:0:
192,192,274273,1,0,0:0:0:0:
64,192,274273,1,0,0:0:0:0:
192,192,274426,1,0,0:0:0:0:
448,192,274426,128,0,274732:0:0:0:0:
64,192,274426,128,0,274579:0:0:0:0:
192,192,274732,128,0,275038:0:0:0:0:
320,192,274885,128,0,275192:0:0:0:0:
192,192,275192,128,0,275804:0:0:0:0:
64,192,275345,128,0,275957:0:0:0:0:
192,192,275957,128,0,276263:0:0:0:0:
320,192,276263,128,0,276569:0:0:0:0:
448,192,276569,128,0,276875:0:0:0:0:
320,192,276875,128,0,277181:0:0:0:0:
64,192,276875,128,0,277028:0:0:0:0:
64,192,277181,128,0,277334:0:0:0:0:
320,192,277334,128,0,277641:0:0:0:0:
192,192,277641,128,0,277947:0:0:0:0:
64,192,277947,128,0,278253:0:0:0:0:
320,192,278100,128,0,278253:0:0:0:0:
448,192,278253,128,0,278406:0:0:0:0:
192,192,278406,128,0,278559:0:0:0:0:
448,192,278559,128,0,278712:0:0:0:0:
320,192,278712,128,0,279018:0:0:0:0:
64,192,278865,128,0,279171:0:0:0:0:
192,192,279018,128,0,279324:0:0:0:0:
448,192,279171,128,0,279324:0:0:0:0:
64,192,279324,128,0,279630:0:0:0:0:
320,192,279324,128,0,279477:0:0:0:0:
320,192,279630,128,0,279783:0:0:0:0:
64,192,279783,128,0,280089:0:0:0:0:
192,192,280089,128,0,280396:0:0:0:0:
320,192,280396,128,0,280702:0:0:0:0:
64,192,280549,128,0,280702:0:0:0:0:
448,192,280702,128,0,280855:0:0:0:0:
192,192,280855,128,0,281008:0:0:0:0:
320,192,281008,128,0,281161:0:0:0:0:
64,192,281161,128,0,281467:0:0:0:0:
448,192,281773,128,0,281926:0:0:0:0:
192,192,281773,128,0,282079:0:0:0:0:
64,192,282079,128,0,282232:0:0:0:0:
448,192,282232,128,0,282462:0:0:0:0:
192,192,282385,128,0,282538:0:0:0:0:
320,192,282538,128,0,282692:0:0:0:0:
64,192,282692,128,0,282845:0:0:0:0:
320,192,282845,128,0,282998:0:0:0:0:
192,192,282998,128,0,283304:0:0:0:0:
448,192,283151,128,0,283457:0:0:0:0:
320,192,283304,128,0,283457:0:0:0:0:
64,192,283457,128,0,283610:0:0:0:0:
192,192,283610,128,0,283916:0:0:0:0:
320,192,284222,128,0,284528:0:0:0:0:
64,192,284222,128,0,284375:0:0:0:0:
192,192,284375,128,0,284528:0:0:0:0:
64,192,284528,128,0,284681:0:0:0:0:
448,192,284681,128,0,284987:0:0:0:0:
192,192,284987,128,0,285294:0:0:0:0:
320,192,285294,128,0,285447:0:0:0:0:
192,192,285447,128,0,285600:0:0:0:0:
448,192,285447,128,0,285753:0:0:0:0:
64,192,285600,128,0,285753:0:0:0:0:
320,192,285753,128,0,285906:0:0:0:0:
448,192,285906,128,0,286059:0:0:0:0:
192,192,286059,128,0,286212:0:0:0:0:
320,192,286212,128,0,286365:0:0:0:0:
64,192,286365,128,0,286671:0:0:0:0:
192,192,286595,1,0,0:0:0:0:
448,192,286671,128,0,286824:0:0:0:0:
320,192,286671,128,0,286786:0:0:0:0:
192,192,286977,128,0,287130:0:0:0:0:
320,192,287130,128,0,287436:0:0:0:0:
448,192,287283,1,0,0:0:0:0:
192,192,287436,128,0,287896:0:0:0:0:
64,192,287589,1,0,0:0:0:0:
448,192,287743,128,0,288202:0:0:0:0:
320,192,287896,1,0,0:0:0:0:
64,192,288202,128,0,288355:0:0:0:0:
448,192,288431,1,0,0:0:0:0:
320,192,288508,128,0,288661:0:0:0:0:
192,192,288661,128,0,288814:0:0:0:0:
448,192,288814,128,0,289120:0:0:0:0:
320,192,289044,1,0,0:0:0:0:
64,192,289120,128,0,289273:0:0:0:0:
192,192,289120,128,0,289235:0:0:0:0:
320,192,289426,128,0,289579:0:0:0:0:
192,192,289579,128,0,289885:0:0:0:0:
64,192,289732,1,0,0:0:0:0:
320,192,289885,128,0,290345:0:0:0:0:
448,192,290038,1,0,0:0:0:0:
64,192,290192,128,0,290651:0:0:0:0:
192,192,290345,1,0,0:0:0:0:
448,192,290651,128,0,290804:0:0:0:0:
192,192,290957,128,0,291110:0:0:0:0:
320,192,291110,128,0,291263:0:0:0:0:
64,192,291263,128,0,291569:0:0:0:0:
192,192,291493,1,0,0:0:0:0:
448,192,291569,128,0,291684:0:0:0:0:
320,192,291569,128,0,291722:0:0:0:0:
320,192,291875,1,0,0:0:0:0:
192,192,292028,128,0,292181:0:0:0:0:
64,192,292181,1,0,0:0:0:0:
320,192,292334,128,0,292487:0:0:0:0:
448,192,292487,1,0,0:0:0:0:
192,192,292589,1,0,0:0:0:0:
320,192,292692,1,0,0:0:0:0:
64,192,292794,128,0,292947:0:0:0:0:
448,192,292794,128,0,293406:0:0:0:0:
192,192,292832,1,0,0:0:0:0:
64,192,293100,1,0,0:0:0:0:
320,192,293406,1,0,0:0:0:0:
320,192,293712,1,0,0:0:0:0:
192,192,293916,1,0,0:0:0:0:
320,192,293967,1,0,0:0:0:0:
64,192,294018,128,0,294133:0:0:0:0:
448,192,294018,128,0,294171:0:0:0:0:
192,192,294324,128,0,294477:0:0:0:0:
320,192,294630,128,0,294783:0:0:0:0:
448,192,294936,128,0,295089:0:0:0:0:
64,192,294936,128,0,295549:0:0:0:0:
320,192,294975,1,0,0:0:0:0:
192,192,295243,1,0,0:0:0:0:
320,192,295549,128,0,296008:0:0:0:0:
192,192,295855,128,0,296391:0:0:0:0:
320,192,296161,128,0,296391:0:0:0:0:
