osu file format v14

[General]
AudioFilename: audio.mp3
AudioLeadIn: 0
PreviewTime: 184664
Countdown: 0
SampleSet: Soft
StackLeniency: 0.7
Mode: 0
LetterboxInBreaks: 0
WidescreenStoryboard: 1

[Editor]
DistanceSpacing: 0.9
BeatDivisor: 2
GridSize: 32
TimelineZoom: 1

[Metadata]
Title:Red Swan
TitleUnicode:Red Swan
Artist:YOSHIKI feat. HYDE
ArtistUnicode:YOSHIKI feat. HYDE
Creator:tomadoi
Version:Normal
Source:進撃の巨人
Tags:shingeki no kyojin attack on titan eren jaeger shiinoha kotone ending season 3 three anime japanese english full version kowari
BeatmapID:2204004
BeatmapSetID:1053817

[Difficulty]
HPDrainRate:4
CircleSize:3.7
OverallDifficulty:4.5
ApproachRate:5
SliderMultiplier:1.2
SliderTickRate:1

[Events]
//Background and Video events
0,0,"maybe4.jpg",0,0
//Break Periods
2,51677,64823
2,102587,114823
//Storyboard Layer 0 (Background)
//Storyboard Layer 1 (Fail)
//Storyboard Layer 2 (Pass)
//Storyboard Layer 3 (Foreground)
//Storyboard Layer 4 (Overlay)
//Storyboard Sound Samples

[TimingPoints]
569,454.545454545455,4,2,1,32,1,0
6023,-200,4,2,1,32,0,0
7841,-125,4,2,1,72,0,0
22387,-142.857142857143,4,2,1,62,0,0
49659,-142.857142857143,4,2,1,74,0,0
52387,-142.857142857143,4,2,1,62,0,0
53978,-142.857142857143,4,2,1,36,0,0
66023,-125,4,2,1,56,0,0
80569,-100,4,2,1,82,0,0
96023,-100,4,2,1,36,0,0
116023,-142.857142857143,4,2,1,55,0,0
116932,-142.857142857143,4,2,1,56,0,0
130341,-142.857142857143,4,2,1,90,0,0
130796,-142.857142857143,4,2,1,69,0,0
131478,-125,4,2,1,74,0,0
156137,-125,4,2,1,84,0,0
156932,-111.111111111111,4,2,1,82,0,0
171478,-100,4,2,1,82,0,0
186023,-166.666666666667,4,2,1,90,0,0
186705,-166.666666666667,4,2,1,56,0,0
200569,-100,4,2,1,82,0,0
214205,-100,4,2,1,86,0,0
214659,-100,4,2,1,90,0,0
215114,-90.9090909090909,4,2,1,92,0,0
228296,-90.9090909090909,4,2,1,82,0,0
228750,-90.9090909090909,4,2,1,84,0,0
229205,-90.9090909090909,4,2,1,90,0,0
229659,-90.9090909090909,4,2,1,92,0,0
244546,-90.9090909090909,4,2,1,48,0,0
251478,-200,4,2,1,38,0,0
255114,-200,4,2,1,50,0,0
257841,-142.857142857143,4,2,1,56,0,0
258296,-142.857142857143,4,2,1,62,0,0

[Colours]
Combo1 : 0,221,221
Combo2 : 192,192,192
Combo3 : 0,221,0
Combo4 : 128,128,128

[HitObjects]
69,73,6023,6,0,B|186:72|146:137|266:126,1,210,2|0,0:2|0:2,0:0:0:0:
299,161,7841,2,0,L|294:219,1,48,6|0,3:2|3:2,0:0:0:0:
320,249,8296,2,0,P|363:229|421:235,1,96,8|4,0:2|0:3,0:0:0:0:
482,298,9205,1,8,0:2:0:0:
495,203,9659,6,0,P|488:182|483:154,1,48,2|0,3:2|0:0,0:0:0:0:
448,122,10114,2,0,P|460:78|464:24,1,96,8|4,0:2|0:3,0:0:0:0:
423,2,10796,1,0,3:2:0:0:
423,2,11023,2,0,L|371:14,1,48,8|0,0:2|3:2,0:0:0:0:
338,43,11478,6,0,P|295:50|226:24,1,96,2|8,3:2|0:2,0:0:0:0:
164,89,12387,1,2,3:2:0:0:
164,89,12614,1,0,3:2:0:0:
164,89,12841,2,0,P|169:109|174:148,1,48,8|0,0:2|0:2,0:0:0:0:
151,179,13296,2,0,B|102:186|102:186|70:215|70:215|11:223,2,144,2|10|8,3:2|0:3|0:2,0:0:0:0:
241,244,15114,6,0,P|232:266|227:300,1,48,4|0,3:2|3:2,0:0:0:0:
251,332,15569,2,0,P|298:320|348:320,1,96,8|4,0:2|3:3,0:0:0:0:
388,341,16250,1,0,3:0:0:0:
388,341,16478,1,8,0:2:0:0:
462,280,16932,6,0,P|453:254|447:185,1,96,0|8,3:2|0:2,0:0:0:0:
416,148,17614,1,8,0:3:0:0:
416,148,17841,2,0,P|425:122|431:53,1,96,4|8,0:3|0:2,0:0:0:0:
350,2,18750,6,0,P|343:23|340:51,1,48,0|0,3:2|3:2,0:0:0:0:
306,83,19205,2,0,L|207:101,1,96,8|4,0:2|0:3,0:0:0:0:
182,138,19887,1,0,3:0:0:0:
182,138,20114,2,0,B|189:165|189:165|185:207|185:207|191:233,1,96,8|0,0:2|3:2,0:0:0:0:
147,317,21023,1,8,0:2:0:0:
60,274,21478,2,0,P|63:252|65:222,1,48,2|0,3:2|3:2,0:0:0:0:
50,180,21932,2,0,P|51:156|54:132,1,48,10|8,0:2|0:3,0:0:0:0:
82,100,22387,6,0,B|177:100|147:145|246:142,1,167.999994873047,6|0,3:2|0:0,0:0:0:0:
300,82,23750,1,8,0:2:0:0:
393,112,24205,2,0,P|413:109|434:105,1,41.9999987182618,0|0,3:2|3:2,0:0:0:0:
468,81,24659,1,8,0:2:0:0:
511,153,25114,2,0,B|504:175|504:175|503:216|503:216|494:245,1,83.9999974365235,6|10,0:3|0:2,0:0:0:0:
476,271,25796,1,0,0:0:0:0:
476,271,26023,6,0,L|305:304,1,167.999994873047,2|4,3:2|0:3,0:0:0:0:
281,332,27159,1,0,3:2:0:0:
281,332,27387,2,0,L|226:323,1,41.9999987182618,8|0,0:2|0:2,0:0:0:0:
203,303,27841,2,0,L|114:321,1,83.9999974365235,0|8,3:2|0:2,0:0:0:0:
54,267,28750,1,4,0:3:0:0:
54,267,28978,1,0,3:2:0:0:
54,267,29205,2,0,P|60:237|63:212,1,41.9999987182618,10|0,0:2|0:0,0:0:0:0:
88,193,29659,6,0,P|148:189|230:259,2,167.999994873047,6|0|0,3:2|0:0|3:2,0:0:0:0:
47,180,31705,1,0,3:2:0:0:
47,180,31932,1,8,0:2:0:0:
86,105,32387,2,0,P|81:81|79:57,2,41.9999987182618,4|0|10,0:3|3:2|0:2,0:0:0:0:
168,89,33296,6,0,P|228:93|310:23,2,167.999994873047,2|6|0,3:2|0:3|3:2,0:0:0:0:
138,58,35341,1,0,3:2:0:0:
138,58,35569,1,10,0:2:0:0:
208,12,36023,1,2,3:2:0:0:
270,68,36478,1,8,0:2:0:0:
358,19,36932,6,0,P|368:64|366:191,1,167.999994873047,6|4,3:2|0:3,0:0:0:0:
346,221,38069,1,0,3:2:0:0:
346,221,38296,2,0,L|342:264,1,41.9999987182618,8|0,0:2|0:2,0:0:0:0:
317,296,38750,2,0,B|382:285|373:321|448:311,1,125.999996154785,0|2,3:2|3:2,0:0:0:0:
476,291,39659,1,6,0:3:0:0:
494,208,40114,1,8,0:2:0:0:
438,144,40569,6,0,P|370:132|296:62,1,167.999994873047,2|0,3:2|0:0,0:0:0:0:
229,115,41932,1,8,0:2:0:0:
159,67,42387,2,0,P|135:72|113:82,1,41.9999987182618,0|0,3:2|3:2,0:0:0:0:
95,113,42841,1,8,0:2:0:0:
39,175,43296,2,0,P|15:170|-7:160,2,41.9999987182618,4|0|8,0:3|3:2|0:2,0:0:0:0:
64,208,43978,1,0,3:2:0:0:
64,208,44205,6,0,B|94:299|42:287|77:377,1,167.999994873047,4|4,3:2|0:3,0:0:0:0:
154,345,45569,1,8,0:2:0:0:
233,372,46023,2,0,P|241:345|243:311,1,41.9999987182618,0|0,3:2|3:2,0:0:0:0:
233,290,46478,2,0,P|222:251|218:200,1,83.9999974365235,8|4,0:2|0:3,0:0:0:0:
270,142,47387,2,0,P|276:115|277:89,1,41.9999987182618,8|0,0:0|0:0,0:0:0:0:
258,63,47841,6,0,P|310:59|395:147,1,167.999994873047,4|4,3:2|0:3,0:0:0:0:
346,202,49205,1,8,0:2:0:0:
400,265,49659,2,0,B|304:264|344:212|246:207,2,167.999994873047,4|8|6,3:2|0:2|3:2,0:0:0:0:
42,138,66023,6,0,P|52:84|52:27,1,96,2|0,0:2|0:2,0:0:0:0:
23,5,66705,2,0,B|161:-13|112:76|268:64,1,240,2|0,0:2|0:2,0:0:0:0:
331,112,68296,2,0,P|366:88|477:88,1,144,2|2,0:2|0:2,0:0:0:0:
512,211,69659,6,0,P|389:91|182:105,1,384,2|0,0:2|0:2,0:0:0:0:
65,249,72387,2,0,B|70:285|70:285|51:353,1,96,2|2,0:2|0:2,0:0:0:0:
144,375,73296,2,0,B|214:365|214:365|242:325|242:325|329:310,2,192,2|2|0,0:2|0:2|0:0,0:0:0:0:
262,224,76023,2,0,L|282:128,1,96,2|0,0:2|0:0,0:0:0:0:
261,36,76932,2,0,L|279:335,1,288,6|0,0:2|0:2,0:0:0:0:
354,382,78750,1,2,0:2:0:0:
50,382,80569,6,0,P|60:323|57:256,1,120,6|8,3:2|0:2,0:0:0:0:
33,222,81250,1,2,3:0:0:0:
33,222,81478,2,0,B|139:238|98:178|222:192,1,180,2|0,0:0|0:2,0:0:0:0:
297,218,82614,1,2,3:2:0:0:
297,218,82841,2,0,P|291:186|293:142,1,60,10|2,0:2|3:2,0:0:0:0:
313,115,83296,2,0,B|350:121|350:121|384:139|384:139|431:146,1,120,2|8,3:2|0:2,0:0:0:0:
499,82,84205,6,0,P|460:126|435:303,1,240,6|0,3:2|3:2,0:0:0:0:
505,364,85569,1,8,0:2:0:0:
448,286,86023,2,0,P|422:278|389:276,1,60,0|0,3:2|3:2,0:0:0:0:
349,303,86478,1,8,0:2:0:0:
270,247,86932,2,0,P|288:200|288:113,1,120,0|8,3:2|0:2,0:0:0:0:
255,98,87614,1,8,0:3:0:0:
255,98,87841,6,0,B|111:98|176:179|30:187,2,240,4|2|0,3:2|3:2|3:2,0:0:0:0:
336,47,90114,1,8,0:2:0:0:
412,104,90569,2,0,P|404:133|399:165,1,60,0|0,3:2|3:2,0:0:0:0:
422,204,91023,2,0,P|430:233|435:265,1,60,10|6,0:2|0:3,0:0:0:0:
409,303,91478,6,0,P|297:312|183:379,2,240,6|2|0,3:2|0:0|3:2,0:0:0:0:
365,217,93750,1,8,0:2:0:0:
436,152,94205,2,0,P|449:112|460:22,1,120,8|0,0:2|3:2,0:0:0:0:
422,5,94887,1,0,3:2:0:0:
422,5,95114,1,6,3:2:0:0:
256,192,95341,12,2,102387,0:2:0:0:
22,255,116023,5,2,0:2:0:0:
100,284,116478,1,2,0:2:0:0:
164,229,116932,2,0,P|154:171|151:78,1,125.999996154785,2|2,0:2|0:2,0:0:0:0:
261,45,118296,2,0,P|266:71|267:102,1,41.9999987182618,2|2,0:2|0:2,0:0:0:0:
259,127,118750,1,2,0:2:0:0:
342,121,119205,1,2,0:2:0:0:
425,115,119659,2,0,L|434:69,1,41.9999987182618,2|2,0:2|0:2,0:0:0:0:
512,184,120569,6,0,P|421:200|291:327,1,251.999992309571,2|0,0:2|0:0,0:0:0:0:
290,342,122159,1,2,0:2:0:0:
290,342,122387,2,0,P|296:162|297:78,1,251.999992309571,2|0,0:2|0:0,0:0:0:0:
235,33,124205,1,2,0:2:0:0:
169,85,124659,1,2,0:2:0:0:
169,85,124887,2,0,B|97:89|117:122|43:126,1,125.999996154785,2|2,0:2|0:2,0:0:0:0:
5,195,126023,6,0,P|31:224|48:279,1,83.9999974365235,2|2,0:2|0:2,0:0:0:0:
126,290,126932,2,0,P|120:314|111:330,1,41.9999987182618,2|2,0:2|0:2,0:0:0:0:
224,271,127841,2,0,L|328:289,1,83.9999974365235,2|2,0:2|0:2,0:0:0:0:
333,317,128523,1,2,0:2:0:0:
333,317,128750,2,0,L|502:354,1,167.999994873047,2|0,0:2|0:0,0:0:0:0:
432,197,130569,1,8,0:2:0:0:
432,197,130796,2,0,B|425:175|425:175|430:136|430:136|422:111,1,83.9999974365235,0|0,3:2|3:2,0:0:0:0:
443,78,131478,5,4,3:2:0:0:
286,189,132387,1,8,0:2:0:0:
203,140,132841,2,0,P|200:113|203:83,1,48,2|0,0:2|0:2,0:0:0:0:
215,46,133296,2,0,B|134:34|153:88|53:78,1,144,2|2,3:2|3:2,0:0:0:0:
40,49,134205,1,8,0:2:0:0:
13,141,134659,1,2,0:2:0:0:
88,200,135114,6,0,P|112:260|124:343,1,144,4|0,3:2|3:2,0:0:0:0:
96,377,136023,1,8,0:2:0:0:
18,320,136478,1,2,0:2:0:0:
75,243,136932,2,0,B|165:237|133:285|234:274,1,144,2|0,3:2|3:2,0:0:0:0:
254,251,137841,1,10,0:2:0:0:
333,305,138296,1,0,0:2:0:0:
430,251,138750,6,0,P|421:158|423:98,2,144,6|2|0,3:2|3:2|0:0,0:0:0:0:
361,319,140569,2,0,P|339:321|312:329,1,48,0|0,3:2|3:2,0:0:0:0:
229,283,141250,1,0,3:2:0:0:
229,283,141478,2,0,P|182:289|131:300,1,96,8|2,0:2|0:2,0:0:0:0:
96,327,142159,1,0,3:2:0:0:
96,327,142387,6,0,L|113:167,1,144,6|0,3:2|3:2,0:0:0:0:
92,139,143296,1,8,0:2:0:0:
162,74,143750,2,0,P|188:79|215:83,1,48,0|0,0:2|3:2,0:0:0:0:
246,113,144205,1,2,3:2:0:0:
246,113,144432,2,0,P|286:91|353:91,1,96,0|2,3:2|3:2,0:0:0:0:
376,111,145114,2,0,P|398:120|423:127,1,48,8|0,0:2|3:2,0:0:0:0:
483,200,145796,1,0,3:2:0:0:
483,200,146023,6,0,P|472:278|468:346,1,144,6|0,3:2|3:2,0:0:0:0:
496,381,146932,1,8,0:2:0:0:
369,236,147841,2,0,P|367:210|365:181,1,48,0|0,3:2|3:2,0:0:0:0:
301,116,148523,1,0,3:2:0:0:
301,116,148750,2,0,B|274:122|274:122|246:141|246:141|211:146,1,96,8|2,0:2|0:2,0:0:0:0:
170,171,149432,1,0,3:2:0:0:
170,171,149659,6,0,P|173:91|174:20,1,144,6|0,3:2|3:2,0:0:0:0:
132,2,150569,1,8,0:2:0:0:
34,107,151250,1,0,3:2:0:0:
34,107,151478,2,0,P|57:107|97:117,1,48,4|0,3:2|3:2,0:0:0:0:
148,179,152159,1,0,3:2:0:0:
148,179,152387,2,0,P|143:202|143:226,1,48,8|0,0:2|3:2,0:0:0:0:
165,269,152841,2,0,P|164:292|160:316,1,48,8|0,0:3|3:0,0:0:0:0:
131,366,153296,1,12,3:2:0:0:
438,374,156932,6,0,P|429:321|428:254,1,107.999996704102,6|8,3:1|0:2,0:0:0:0:
401,225,157614,1,0,3:2:0:0:
401,225,157841,2,0,P|410:172|411:105,1,107.999996704102,2|8,3:1|0:2,0:0:0:0:
341,50,158750,2,0,B|444:50|398:95|497:95,2,161.999995056153,2|2|10,3:1|3:1|0:1,0:0:0:0:
304,82,160341,1,0,0:0:0:0:
304,82,160569,6,0,P|261:58|200:60,1,107.999996704102,6|8,3:1|0:2,0:0:0:0:
187,154,161478,2,0,P|138:159|89:195,1,107.999996704102,2|8,3:1|0:2,0:0:0:0:
75,238,162159,1,4,0:3:0:0:
75,238,162387,2,0,P|88:129|87:64,2,161.999995056153,2|2|10,3:1|3:1|0:1,0:0:0:0:
51,280,163978,1,8,0:3:0:0:
51,280,164205,6,0,B|173:266|130:337|256:327,1,215.999993408203,6|0,3:1|3:2,0:0:0:0:
329,263,165569,1,8,0:2:0:0:
263,192,166023,2,0,B|282:164|282:164|269:83,1,107.999996704102,2|8,3:1|0:2,0:0:0:0:
252,45,166705,1,0,3:2:0:0:
252,45,166932,2,0,L|366:60,1,107.999996704102,0|10,3:2|0:1,0:0:0:0:
451,26,167841,6,0,P|462:86|469:248,1,215.999993408203,6|0,3:1|0:0,0:0:0:0:
496,334,169205,1,10,0:1:0:0:
496,334,169432,1,6,0:3:0:0:
496,334,169659,2,0,P|470:338|435:349,1,53.9999983520508,2|0,3:1|3:2,0:0:0:0:
404,374,170114,2,0,P|363:359|341:292,1,107.999996704102,8|8,0:2|0:2,0:0:0:0:
258,247,171023,2,0,P|232:251|204:265,1,53.9999983520508,8|8,0:2|0:3,0:0:0:0:
171,294,171478,6,0,P|180:219|182:142,1,120,6|8,3:1|0:2,0:0:0:0:
161,131,172159,1,0,3:2:0:0:
161,131,172387,2,0,L|37:155,1,120,2|8,3:1|0:2,0:0:0:0:
14,245,173296,6,0,P|44:255|70:271,1,60,2|0,3:1|3:2,0:0:0:0:
95,308,173750,1,8,0:2:0:0:
95,308,173978,2,0,B|165:304|146:272|218:268,1,120,2|0,3:1|3:2,0:0:0:0:
245,296,174659,2,0,P|236:323|235:359,1,60,10|0,0:1|0:0,0:0:0:0:
269,384,175114,6,0,P|366:321|492:308,1,240,6|0,3:1|0:0,0:0:0:0:
444,221,176478,1,8,0:2:0:0:
444,221,176705,1,6,0:1:0:0:
444,221,176932,2,0,B|456:187|456:187|448:132|448:132|463:89,1,120,2|8,3:1|0:2,0:0:0:0:
408,22,177841,2,0,P|378:23|346:36,1,60,0|0,3:2|3:2,0:0:0:0:
313,64,178296,2,0,P|283:63|251:50,1,60,8|8,0:2|0:3,0:0:0:0:
220,9,178750,6,0,P|236:111|246:254,1,240,6|0,3:1|3:2,0:0:0:0:
188,321,180114,2,0,P|161:317|127:305,1,60,10|4,0:1|0:3,0:0:0:0:
121,259,180569,2,0,B|258:249|211:333|351:317,1,240,2|0,3:1|3:2,0:0:0:0:
457,361,181932,2,0,P|452:330|452:294,1,60,8|0,0:2|0:0,0:0:0:0:
409,258,182387,6,0,P|424:198|432:15,1,240,6|0,3:1|3:2,0:0:0:0:
343,67,183750,1,10,0:1:0:0:
343,67,183978,1,10,0:1:0:0:
343,67,184205,2,0,P|310:71|279:81,1,60,10|8,0:0|3:2,0:0:0:0:
252,114,184659,5,10,0:1:0:0:
180,33,185114,1,6,0:1:0:0:
89,91,185569,1,0,0:0:0:0:
27,5,186023,1,6,3:1:0:0:
27,5,186705,6,0,P|39:94|49:193,1,179.999994506836,2|0,0:2|0:0,0:0:0:0:
18,334,188978,1,2,0:2:0:0:
18,334,189659,2,0,B|184:326|104:244|282:232,1,287.999991210938,2|2,0:2|0:2,0:0:0:0:
389,198,192387,2,0,B|393:219|393:219|385:251|385:251|390:270,1,71.9999978027344,2|2,0:2|0:2,0:0:0:0:
440,352,193296,6,0,L|274:334,2,143.999995605469,2|2|0,0:2|0:2|0:0,0:0:0:0:
505,239,196023,1,2,0:2:0:0:
394,171,196932,2,0,P|273:159|180:5,1,287.999991210938,2|2,0:2|0:2,0:0:0:0:
17,84,200569,6,0,P|48:88|92:101,1,60,6|0,3:2|3:2,0:0:0:0:
105,131,201023,2,0,B|92:165|92:165|102:214|102:214|87:253,1,120,8|0,0:2|0:0,0:0:0:0:
76,291,201705,1,0,3:2:0:0:
76,291,201932,1,8,0:2:0:0:
148,371,202387,2,0,P|177:360|212:355,1,60,0|0,3:2|3:2,0:0:0:0:
248,329,202841,2,0,P|277:333|305:344,1,60,10|2,0:2|3:2,0:0:0:0:
338,309,203296,2,0,P|332:261|328:204,2,90,2|0|4,3:2|0:0|0:3,0:0:0:0:
380,330,204205,6,0,P|446:327|487:167,1,240,6|0,3:2|0:0,0:0:0:0:
443,104,205569,1,8,0:2:0:0:
367,163,206023,2,0,P|335:169|305:174,1,60,0|0,3:2|3:2,0:0:0:0:
268,145,206478,1,8,0:2:0:0:
198,211,206932,2,0,P|203:242|206:279,1,60,0|0,3:2|3:2,0:0:0:0:
251,299,207387,2,0,P|245:330|243:367,1,60,10|10,0:2|0:3,0:0:0:0:
195,383,207841,6,0,B|94:385|133:321|20:332,1,180,6|0,3:2|0:0,0:0:0:0:
0,291,208750,2,0,P|17:235|26:99,1,180,2|4,3:2|0:3,0:0:0:0:
13,69,209659,1,0,3:2:0:0:
97,22,210114,1,8,0:2:0:0:
171,82,210569,2,0,P|201:91|234:95,1,60,0|0,0:0|3:2,0:0:0:0:
275,80,211023,1,10,0:2:0:0:
358,32,211478,6,0,P|413:82|434:189,1,180,6|2,3:2|3:2,0:0:0:0:
416,226,212387,2,0,B|376:220|376:220|280:250|280:250|240:242,1,180,2|4,3:2|0:3,0:0:0:0:
205,210,213296,2,0,B|199:192|199:192|203:174|203:174|196:151,1,60,0|0,3:2|3:2,0:0:0:0:
169,112,213750,1,10,0:2:0:0:
70,156,214205,1,2,3:2:0:0:
108,256,214659,2,0,P|114:286|116:322,1,60,10|10,0:2|0:2,0:0:0:0:
115,374,215114,5,4,3:2:0:0:
115,374,215341,1,0,3:2:0:0:
115,374,215569,2,0,B|223:372|181:301|311:311,1,198.000006042481,8|0,0:2|3:2,0:0:0:0:
353,327,216478,1,8,0:2:0:0:
468,361,216932,6,0,P|462:329|462:287,1,66.0000020141602,0|0,3:2|3:2,0:0:0:0:
426,247,217387,1,10,0:2:0:0:
476,139,217841,1,2,3:2:0:0:
389,57,218296,2,0,P|371:90|363:132,1,66.0000020141602,10|6,0:2|0:3,0:0:0:0:
329,165,218750,2,0,P|265:114|142:112,1,198.000006042481,4|0,3:2|3:2,0:0:0:0:
108,67,219659,2,0,P|114:35|115:-11,2,66.0000020141602,0|0|8,3:2|3:2|0:2,0:0:0:0:
33,159,220569,6,0,P|42:189|46:230,1,66.0000020141602,0|0,3:2|3:2,0:0:0:0:
35,281,221023,1,8,0:2:0:0:
128,354,221478,2,0,L|199:365,1,66.0000020141602,0|2,3:2|3:2,0:0:0:0:
232,319,221932,1,10,0:2:0:0:
212,262,222159,1,10,0:3:0:0:
245,212,222387,6,0,P|332:210|423:299,1,198.000006042481,6|2,3:2|3:2,0:0:0:0:
393,321,223296,2,0,B|365:205|444:244|412:119,1,198.000006042481,2|4,3:2|0:3,0:0:0:0:
391,75,224205,6,0,P|361:69|318:49,1,66.0000020141602,0|0,3:2|3:2,0:0:0:0:
301,2,224659,1,8,0:2:0:0:
245,107,225114,2,0,P|210:115|178:127,1,66.0000020141602,0|0,3:2|3:2,0:0:0:0:
144,171,225569,2,0,P|155:202|162:234,1,66.0000020141602,10|0,0:2|0:0,0:0:0:0:
126,281,226023,6,0,B|235:259|211:335|322:311,1,198.000006042481,6|2,3:2|3:2,0:0:0:0:
368,338,226932,2,0,P|351:223|339:131,1,198.000006042481,0|4,0:0|0:3,0:0:0:0:
379,97,227841,1,0,3:2:0:0:
444,196,228296,1,14,0:2:0:0:
341,255,228750,2,0,P|310:244|273:239,1,66.0000020141602,10|0,0:2|3:2,0:0:0:0:
228,273,229205,1,10,0:2:0:0:
169,263,229432,1,10,0:2:0:0:
132,303,229659,6,0,B|188:163|82:196|158:40,1,264.000008056641,4|0,3:2|3:2,0:0:0:0:
264,0,231023,1,8,0:2:0:0:
334,96,231478,1,0,3:2:0:0:
231,156,231932,2,0,P|199:160|164:168,1,66.0000020141602,10|0,0:2|3:2,0:0:0:0:
133,217,232387,2,0,P|137:249|145:284,1,66.0000020141602,2|0,3:2|3:2,0:0:0:0:
194,313,232841,1,8,0:2:0:0:
240,275,233069,1,6,0:3:0:0:
294,298,233296,6,0,P|370:336|487:324,1,198.000006042481,4|0,3:2|3:0,0:0:0:0:
510,275,234205,1,0,3:2:0:0:
437,180,234659,1,8,0:2:0:0:
492,75,235114,2,0,P|464:63|408:59,1,66.0000020141602,0|0,3:2|3:2,0:0:0:0:
381,93,235569,1,8,0:2:0:0:
279,32,236023,2,0,P|251:44|195:48,1,66.0000020141602,0|0,3:2|3:2,0:0:0:0:
175,93,236478,1,10,0:2:0:0:
120,70,236705,1,10,0:3:0:0:
72,105,236932,6,0,B|91:147|91:147|73:264|73:264|92:303,1,198.000006042481,6|2,3:2|3:2,0:0:0:0:
81,353,237841,2,0,P|134:295|260:286,1,198.000006042481,2|4,0:0|0:3,0:0:0:0:
268,337,238750,2,0,P|296:358|348:369,1,66.0000020141602,0|0,3:2|3:2,0:0:0:0:
379,343,239205,1,8,0:2:0:0:
492,378,239659,2,0,P|484:346|478:300,1,66.0000020141602,0|0,3:2|3:2,0:0:0:0:
448,262,240114,1,10,0:2:0:0:
481,212,240341,1,6,0:3:0:0:
445,163,240569,6,0,B|330:170|381:106|246:112,1,198.000006042481,4|0,3:2|3:2,0:0:0:0:
213,150,241478,2,0,P|133:144|72:45,1,198.000006042481,0|0,3:2|0:0,0:0:0:0:
103,1,242387,1,4,3:2:0:0:
206,59,242841,1,8,0:2:0:0:
316,13,243296,2,0,P|306:47|300:88,1,66.0000020141602,10|10,0:3|0:3,0:0:0:0:
345,116,243750,2,0,P|355:150|361:191,1,66.0000020141602,8|4,0:3|0:3,0:0:0:0:
330,231,244205,1,6,3:2:0:0:
256,192,244432,12,2,249659,0:2:0:0:
165,384,251478,6,0,L|148:259,1,120,2|2,0:2|0:2,0:0:0:0:
252,294,253296,2,0,L|265:198,1,90,2|2,0:2|0:2,0:0:0:0:
199,85,255114,2,0,P|157:106|78:107,1,120,2|2,0:2|0:2,0:0:0:0:
21,195,256932,2,0,P|55:214|106:223,1,90,2|2,0:2|0:2,0:0:0:0:
144,208,257841,6,0,B|154:241|154:241|146:296|146:296|161:342,1,125.999996154785,2|0,0:2|0:2,0:0:0:0:
