osu file format v14

[General]
AudioFilename: audio.mp3
AudioLeadIn: 0
PreviewTime: 184664
Countdown: 0
SampleSet: Soft
StackLeniency: 0.7
Mode: 0
LetterboxInBreaks: 0
WidescreenStoryboard: 0

[Editor]
DistanceSpacing: 0.5
BeatDivisor: 8
GridSize: 32
TimelineZoom: 1.4

[Metadata]
Title:Red Swan
TitleUnicode:Red Swan
Artist:YOSHIKI feat. HYDE
ArtistUnicode:YOSHIKI feat. HYDE
Creator:tomadoi
Version:Memories
Source:進撃の巨人
Tags:shingeki no kyojin attack on titan eren jaeger shiinoha kotone ending season 3 three anime japanese english full version kowari
BeatmapID:2202052
BeatmapSetID:1053817

[Difficulty]
HPDrainRate:6.5
CircleSize:4.5
OverallDifficulty:7.5
ApproachRate:8.5
SliderMultiplier:1.6
SliderTickRate:1

[Events]
//Background and Video events
0,0,"maybe4.jpg",0,0
//Break Periods
//Storyboard Layer 0 (Background)
//Storyboard Layer 1 (Fail)
//Storyboard Layer 2 (Pass)
//Storyboard Layer 3 (Foreground)
//Storyboard Layer 4 (Overlay)
//Storyboard Sound Samples

[TimingPoints]
569,454.545454545455,4,2,1,32,1,0
569,-166.666666666667,4,2,1,32,0,0
7841,-111.111111111111,4,2,1,72,0,0
22387,-99.9999999999999,4,2,1,62,0,0
25569,-83.3333333333333,4,2,1,62,0,0
26023,-100,4,2,1,62,0,0
32841,-83.3333333333333,4,2,1,62,0,0
33296,-100,4,2,1,62,0,0
36932,-83.3333333333333,4,2,1,62,0,0
37614,-100,4,2,1,62,0,0
47387,-83.3333333333333,4,2,1,62,0,0
47841,-100,4,2,1,62,0,0
49659,-47.6190476190476,4,2,1,74,0,0
50569,-71.4285714285714,4,2,1,74,0,0
52387,-1000,4,2,1,36,0,0
53978,-166.666666666667,4,2,1,36,0,0
58750,-200,4,2,1,36,0,0
64205,-250,4,2,1,36,0,0
66023,-166.666666666667,4,2,1,56,0,0
66705,-250,4,2,1,56,0,0
68296,-200,4,2,1,56,0,0
69659,-250,4,2,1,56,0,0
72387,-200,4,2,1,56,0,0
73296,-166.666666666667,4,2,1,56,0,0
74205,-250.000000000001,4,2,1,56,0,0
76023,-200.000000000001,4,2,1,56,0,0
76932,-166.666666666667,4,2,1,56,0,0
78750,-142.857142857143,4,2,1,56,0,0
79659,-111.111111111111,4,2,1,56,0,0
80569,-90.9090909090908,4,2,1,82,0,0
83750,-71.4285714285714,4,2,1,82,0,0
84205,-90.9090909090909,4,2,1,82,0,0
87387,-76.9230769230769,4,2,1,82,0,0
87841,-90.9090909090909,4,2,1,82,0,0
96023,-1000,4,2,1,36,0,0
97614,-333.333333333333,4,2,1,36,0,0
100569,-250,4,2,1,36,0,0
102387,-333.333333333333,4,2,1,36,0,0
116023,-200,4,2,1,55,0,0
116478,-142.857142857143,4,2,1,55,0,0
116932,-166.666666666667,4,2,1,56,0,0
121250,-250.000000000001,4,2,1,56,0,0
124887,-166.666666666667,4,2,1,56,0,0
126023,-200.000000000001,4,2,1,56,0,0
128523,-250.000000000001,4,2,1,56,0,0
130341,-100,4,2,1,90,0,0
130796,-142.857142857143,4,2,1,69,0,0
131478,-125,4,2,1,74,0,0
138750,-111.111111111111,4,2,1,74,0,0
150569,-200,4,2,1,74,0,0
151478,-111.111111111111,4,2,1,74,0,0
153296,-333.333333333332,4,2,1,74,0,0
156137,-83.3333333333333,4,2,1,84,0,0
156932,-90.9090909090909,4,2,1,82,0,0
160114,-71.4285714285714,4,2,1,82,0,0
160569,-90.9090909090909,4,2,1,82,0,0
163750,-71.4285714285714,4,2,1,82,0,0
163978,-58.8235294117647,4,2,1,82,0,0
166023,-90.9090909090909,4,2,1,82,0,0
167387,-76.9230769230769,4,2,1,82,0,0
167841,-83.3333333333333,4,2,1,82,0,0
168296,-90.9090909090909,4,2,1,82,0,0
169432,-66.6666666666667,4,2,1,82,0,0
170796,-200,4,2,1,82,0,0
171023,-83.3333333333333,4,2,1,82,0,0
171250,-200,4,2,1,82,0,0
171478,-76.9230769230769,4,2,1,82,0,0
174659,-66.6666666666667,4,2,1,82,0,0
175114,-83.3333333333333,4,2,1,82,0,0
176932,-111.111111111111,4,2,1,82,0,0
178750,-83.3333333333333,4,2,1,82,0,0
179205,-66.6666666666667,4,2,1,82,0,0
180569,-90.9090909090909,4,2,1,82,0,0
181932,-58.8235294117647,4,2,1,82,0,0
182387,-90.9090909090909,4,2,1,82,0,0
184432,-125,4,2,1,82,0,0
184887,-166.666666666667,4,2,1,82,0,0
185341,-76.923076923077,4,2,1,82,0,0
185796,-125,4,2,1,82,0,0
186023,-125,4,2,1,90,0,1
186705,-333.333333333333,4,2,1,56,0,0
188523,-200,4,2,1,56,0,0
188978,-142.857142857143,4,2,1,56,0,0
189659,-333.333333333333,4,2,1,56,0,0
192387,-200,4,2,1,56,0,0
193296,-142.857142857143,4,2,1,56,0,0
194205,-111.111111111111,4,2,1,56,0,0
196023,-200,4,2,1,56,0,0
196932,-166.666666666667,4,2,1,56,0,0
198750,-200,4,2,1,56,0,0
200569,-83.3333333333333,4,2,1,82,0,0
207387,-62.5,4,2,1,82,0,0
207614,-55.5555555555556,4,2,1,82,0,0
207841,-83.3333333333333,4,2,1,82,0,0
209432,-66.6666666666667,4,2,1,82,0,0
209659,-83.3333333333333,4,2,1,82,0,0
213296,-111.111111111111,4,2,1,82,0,0
213750,-76.9230769230769,4,2,1,82,0,0
214205,-62.5,4,2,1,86,0,0
214659,-50,4,2,1,90,0,0
215114,-71.4285714285714,4,2,1,92,0,0
215909,-62.5,4,2,1,92,0,0
216250,-55.5555555555556,4,2,1,92,0,0
216478,-66.6666666666667,4,2,1,92,0,0
216932,-83.3333333333333,4,2,1,92,0,0
218296,-62.5,4,2,1,92,0,0
218750,-76.9230769230769,4,2,1,92,0,0
219546,-62.5,4,2,1,92,0,0
219887,-55.5555555555556,4,2,1,92,0,0
220341,-76.9230769230769,4,2,1,92,0,0
221932,-62.5,4,2,1,92,0,0
222159,-50,4,2,1,92,0,0
222387,-76.9230769230769,4,2,1,92,0,0
223750,-83.3333333333333,4,2,1,92,0,0
225569,-55.5555555555556,4,2,1,92,0,0
226023,-100,4,2,1,92,0,0
228296,-66.6666666666667,4,2,1,82,0,0
228750,-52.6315789473684,4,2,1,84,0,0
229205,-41.6666666666667,4,2,1,90,0,0
229659,-76.9230769230769,4,2,1,92,0,0
231478,-100,4,2,1,92,0,0
232273,-66.6666666666667,4,2,1,92,0,0
232614,-50,4,2,1,92,0,0
232841,-71.4285714285714,4,2,1,92,0,0
234091,-111.111111111111,4,2,1,92,0,0
234432,-55.5555555555555,4,2,1,92,0,0
235114,-83.3333333333333,4,2,1,92,0,0
236478,-62.5,4,2,1,92,0,0
236705,-52.6315789473684,4,2,1,92,0,0
236932,-71.4285714285714,4,2,1,92,0,0
238296,-90.9090909090909,4,2,1,92,0,0
240114,-58.8235294117647,4,2,1,92,0,0
240341,-47.6190476190476,4,2,1,92,0,0
240569,-100,4,2,1,92,0,0
241364,-66.6666666666667,4,2,1,92,0,0
241705,-50,4,2,1,92,0,0
241932,-45.4545454545455,4,2,1,92,0,0
242614,-66.6666666666667,4,2,1,92,0,0
244546,-166.666666666667,4,2,1,48,0,0
246023,-500,4,2,1,48,0,0
250341,-111.111111111111,4,2,1,48,0,0
251478,-499.999999999997,4,2,1,38,0,0
255114,-499.999999999997,4,2,1,50,0,0
256932,-142.857142857143,4,2,1,50,0,0
257841,-249.999999999999,4,2,1,56,0,0
258296,-99.9999999999999,4,2,1,62,0,0

[Colours]
Combo1 : 0,221,221
Combo2 : 192,192,192
Combo3 : 0,221,0
Combo4 : 128,128,128

[HitObjects]
94,76,569,5,2,0:2:0:0:
155,121,1478,1,2,0:2:0:0:
253,29,2387,5,2,0:2:0:0:
253,29,3069,1,2,0:2:0:0:
418,308,4205,5,2,0:2:0:0:
357,263,5114,1,2,0:2:0:0:
259,355,6023,5,2,0:2:0:0:
259,355,6705,2,0,P|268:227|271:156,1,191.999994140625,2|0,0:2|0:2,0:0:0:0:
270,163,7841,6,0,P|304:172|342:178,1,71.9999978027344,6|0,3:2|3:2,0:0:0:0:
341,177,8296,1,8,0:2:0:0:
150,167,8523,1,8,0:3:0:0:
150,167,8637,1,8,0:3:0:0:
150,167,8750,2,0,P|131:162|113:160,2,35.9999989013672,4|4|4,0:3|0:3|3:0,0:0:0:0:
44,313,9205,2,0,P|49:280|51:240,1,71.9999978027344,8|0,0:2|0:2,0:0:0:0:
125,342,9546,5,0,3:2:0:0:
125,342,9659,2,0,B|212:344|175:376|266:383,1,143.999995605469,2|8,3:2|0:2,0:0:0:0:
430,347,10455,5,8,0:3:0:0:
430,347,10569,2,0,P|433:328|441:300,1,35.9999989013672,4|4,0:3|0:3,0:0:0:0:
376,207,10796,2,0,P|371:224|368:242,1,35.9999989013672,0|0,3:2|3:0,0:0:0:0:
367,242,11023,2,0,P|331:237|295:227,1,71.9999978027344,8|0,0:2|3:2,0:0:0:0:
169,201,11364,5,0,3:2:0:0:
169,201,11478,2,0,P|205:196|241:186,2,71.9999978027344,2|0|8,3:2|3:2|0:2,0:0:0:0:
112,153,12159,1,0,0:2:0:0:
27,324,12387,1,2,3:2:0:0:
33,296,12500,1,0,3:2:0:0:
32,267,12614,1,0,3:2:0:0:
184,384,12841,2,0,P|178:352|177:307,1,71.9999978027344,8|0,0:2|0:2,0:0:0:0:
243,234,13182,5,0,3:2:0:0:
243,234,13296,1,2,3:2:0:0:
327,252,13523,1,0,3:2:0:0:
411,270,13750,1,8,0:2:0:0:
198,171,13978,5,10,0:3:0:0:
153,184,14091,1,8,0:3:0:0:
108,197,14205,1,4,3:3:0:0:
63,210,14319,1,4,3:3:0:0:
18,223,14432,1,0,3:0:0:0:
241,106,14659,5,8,0:2:0:0:
204,44,15000,1,8,0:2:0:0:
204,44,15114,2,0,P|169:52|133:55,1,71.9999978027344,4|0,3:2|3:2,0:0:0:0:
382,99,15569,2,0,P|417:96|452:88,1,71.9999978027344,8|8,0:2|0:3,0:0:0:0:
452,88,15909,1,8,0:3:0:0:
452,88,16023,1,4,3:3:0:0:
452,88,16137,1,4,3:3:0:0:
452,88,16250,1,0,3:0:0:0:
249,128,16478,2,0,P|235:163|236:202,1,71.9999978027344,8|0,0:2|0:2,0:0:0:0:
304,253,16819,5,0,3:2:0:0:
304,253,16932,2,0,B|388:235|361:279|452:263,1,143.999995605469,0|8,3:2|0:2,0:0:0:0:
242,368,17614,1,8,0:3:0:0:
249,343,17728,1,8,0:3:0:0:
250,318,17841,1,4,0:3:0:0:
177,85,18069,1,0,3:2:0:0:
177,85,18296,2,0,P|166:118|165:157,1,71.9999978027344,8|0,0:2|0:2,0:0:0:0:
223,218,18637,5,0,3:2:0:0:
223,218,18750,1,0,3:2:0:0:
148,245,18978,1,0,3:2:0:0:
73,272,19205,1,8,0:2:0:0:
14,234,19432,5,8,0:3:0:0:
52,243,19546,1,8,0:3:0:0:
90,252,19659,1,4,0:3:0:0:
128,261,19773,1,4,0:3:0:0:
166,270,19887,1,0,3:0:0:0:
323,384,20114,2,0,B|333:350|333:350|324:315,1,71.9999978027344,8|0,0:2|0:2,0:0:0:0:
258,250,20455,5,0,3:2:0:0:
258,250,20569,2,0,B|248:216|248:216|257:181,2,71.9999978027344,0|0|8,3:2|3:2|0:2,0:0:0:0:
379,90,21250,1,0,3:2:0:0:
379,90,21364,1,8,0:2:0:0:
379,90,21478,2,0,L|334:97,1,35.9999989013672,2|0,3:2|3:2,0:0:0:0:
461,238,21705,5,0,3:2:0:0:
471,199,21819,1,0,3:2:0:0:
482,161,21932,2,0,L|445:151,1,35.9999989013672,10|8,0:2|0:2,0:0:0:0:
368,79,22159,2,0,L|333:88,1,35.9999989013672,8|8,0:3|0:3,0:0:0:0:
164,165,22387,6,0,P|112:135|119:29,1,160,6|8,3:2|0:2,0:0:0:0:
182,17,23069,1,4,0:3:0:0:
184,32,23182,1,4,0:3:0:0:
26,55,23409,1,0,3:2:0:0:
24,40,23522,1,0,3:2:0:0:
111,47,23750,1,8,0:2:0:0:
111,47,23978,2,0,B|115:61|115:61|113:74|113:74|117:88,1,40,4|4,0:3|0:3,0:0:0:0:
244,160,24205,5,0,3:2:0:0:
227,230,24432,1,0,3:2:0:0:
210,300,24659,1,8,0:2:0:0:
261,365,24887,5,8,0:3:0:0:
261,365,25000,1,8,0:3:0:0:
261,365,25114,2,0,L|304:357,1,40,6|4,0:3|0:3,0:0:0:0:
153,347,25341,2,0,L|113:354,1,40,0|0,3:2|0:2,0:0:0:0:
18,384,25569,6,0,B|-19:343|-2:274|48:260,1,143.999995605469,10|0,0:2|0:2,0:0:0:0:
41,262,26023,6,0,B|37:234|37:234|42:217|42:217|35:182,2,80,2|0|8,3:2|3:2|0:2,0:0:0:0:
77,89,26705,1,8,0:3:0:0:
113,88,26819,1,8,0:3:0:0:
146,99,26932,1,4,0:3:0:0:
167,127,27046,1,4,0:3:0:0:
175,161,27159,1,0,3:2:0:0:
397,87,27387,2,0,P|356:105|333:138,1,80,8|0,0:2|0:2,0:0:0:0:
272,188,27728,5,0,3:2:0:0:
281,196,27841,1,0,3:2:0:0:
405,328,28069,2,0,P|394:291|391:245,1,80,0|8,3:2|0:2,0:0:0:0:
188,379,28637,1,8,0:3:0:0:
206,352,28750,1,4,0:3:0:0:
215,321,28864,1,4,0:3:0:0:
218,289,28978,1,0,3:2:0:0:
309,359,29205,1,10,0:2:0:0:
368,32,29546,5,0,3:2:0:0:
368,32,29659,1,6,3:2:0:0:
382,102,29887,1,0,3:2:0:0:
396,172,30114,1,8,0:2:0:0:
453,235,30341,5,6,0:3:0:0:
455,223,30455,1,4,0:3:0:0:
304,252,30682,1,0,3:2:0:0:
302,264,30796,1,0,3:2:0:0:
384,349,31023,6,0,P|381:313|381:266,1,80,8|0,0:2|0:2,0:0:0:0:
225,375,31364,5,0,3:2:0:0:
211,383,31478,2,0,P|214:347|214:300,1,80,0|0,3:2|3:2,0:0:0:0:
215,304,31932,1,8,0:2:0:0:
16,316,32159,5,8,0:3:0:0:
51,310,32273,1,8,0:3:0:0:
58,331,32387,1,4,0:3:0:0:
79,323,32500,1,4,0:3:0:0:
124,339,32614,1,0,3:2:0:0:
215,304,32841,6,0,P|213:232|215:156,1,143.999995605469,10|0,0:2|3:2,0:0:0:0:
214,160,33296,1,2,3:2:0:0:
290,184,33523,1,0,3:2:0:0:
365,207,33750,1,8,0:2:0:0:
142,85,34091,5,8,0:3:0:0:
126,89,34205,1,6,0:3:0:0:
56,107,34432,1,0,3:2:0:0:
56,107,34659,2,0,P|46:59|50:13,1,80,8|0,0:2|0:2,0:0:0:0:
47,28,35000,2,0,L|2:32,1,40,0|0,3:2|3:2,0:0:0:0:
216,74,35341,5,0,3:2:0:0:
216,74,35569,2,0,P|257:79|297:87,1,80,10|2,0:2|0:2,0:0:0:0:
379,167,35909,5,8,0:2:0:0:
364,181,36023,2,0,P|360:161|357:133,2,40,2|0|4,3:2|3:2|0:3,0:0:0:0:
443,251,36364,5,10,0:2:0:0:
405,281,36478,1,8,0:2:0:0:
360,264,36591,1,8,0:2:0:0:
322,294,36705,1,10,0:3:0:0:
366,311,36819,5,4,0:3:0:0:
366,311,36932,2,0,B|354:247|270:210|209:255,1,191.999994140625,6|8,3:2|0:2,0:0:0:0:
44,366,37614,1,8,0:3:0:0:
62,334,37728,1,8,0:3:0:0:
69,298,37841,1,4,0:3:0:0:
69,261,37955,1,4,0:3:0:0:
56,227,38069,1,0,3:2:0:0:
151,116,38296,2,0,P|146:152|145:195,1,80,8|0,0:2|0:2,0:0:0:0:
238,94,38637,5,0,3:2:0:0:
251,80,38750,2,0,B|345:74|309:34|411:33,1,160,0|10,3:2|0:2,0:0:0:0:
401,33,39432,1,2,3:2:0:0:
493,199,39659,1,6,0:3:0:0:
481,173,39773,1,4,0:3:0:0:
481,144,39887,1,2,3:2:0:0:
295,270,40114,2,0,P|310:234|314:190,1,80,8|0,0:2|0:2,0:0:0:0:
402,239,40455,5,0,3:2:0:0:
405,255,40569,1,2,3:2:0:0:
420,325,40796,1,0,3:2:0:0:
475,279,41023,1,8,0:2:0:0:
332,355,41250,5,4,0:3:0:0:
346,360,41364,1,4,0:3:0:0:
238,216,41591,1,0,3:2:0:0:
224,211,41705,1,0,3:2:0:0:
134,318,41932,5,8,0:2:0:0:
134,318,42159,2,0,P|155:314|177:313,1,40,0|0,3:2|3:2,0:0:0:0:
35,369,42387,6,0,P|52:335|51:293,2,80,0|0|8,3:2|3:2|0:2,0:0:0:0:
19,137,43069,1,8,0:3:0:0:
42,163,43182,1,8,0:3:0:0:
73,180,43296,1,4,0:3:0:0:
106,190,43409,1,4,0:3:0:0:
142,190,43523,1,0,3:2:0:0:
19,137,43750,1,8,0:2:0:0:
273,243,43978,1,0,3:2:0:0:
252,199,44091,1,0,3:2:0:0:
256,150,44205,5,4,3:2:0:0:
340,173,44432,1,0,3:2:0:0:
424,196,44659,1,8,0:2:0:0:
213,84,44887,1,8,0:3:0:0:
213,84,45000,1,8,0:3:0:0:
213,84,45114,2,0,L|206:42,2,40,4|4|0,0:3|0:3|3:2,0:0:0:0:
52,247,45569,2,0,P|85:227|135:222,1,80,8|0,0:2|0:2,0:0:0:0:
231,251,45909,5,0,3:2:0:0:
240,261,46023,2,0,P|233:301|230:342,1,80,0|0,3:2|3:2,0:0:0:0:
19,162,46478,2,0,P|26:202|29:243,1,80,8|0,0:2|0:2,0:0:0:0:
222,80,46932,1,4,0:3:0:0:
209,113,47046,1,4,0:3:0:0:
208,148,47159,1,0,3:2:0:0:
1,52,47387,6,0,B|88:60|48:8|152:19,1,143.999995605469,8|0,0:0|3:2,0:0:0:0:
136,17,47841,1,4,3:2:0:0:
218,44,48069,1,0,3:2:0:0:
299,70,48296,1,8,0:2:0:0:
443,149,48523,5,8,0:3:0:0:
407,156,48637,1,8,0:3:0:0:
370,180,48750,1,4,0:3:0:0:
335,190,48864,1,4,0:3:0:0:
335,190,48978,1,0,3:2:0:0:
130,294,49205,6,0,B|157:303|157:303|182:302|182:302|208:313,1,80,8|0,0:2|0:2,0:0:0:0:
239,384,49546,5,0,3:2:0:0:
239,384,49659,2,0,B|208:285|267:311|245:220,1,167.999994873047,4|0,3:2|3:2,0:0:0:0:
249,137,50000,5,8,0:2:0:0:
263,117,50114,1,8,0:2:0:0:
247,100,50228,1,8,0:2:0:0:
266,71,50341,1,0,3:2:0:0:
246,28,50455,6,0,B|272:40|272:40|306:37|306:37|336:52,1,83.9999974365235,0|8,3:2|0:2,0:0:0:0:
171,118,50682,1,8,0:2:0:0:
171,118,50796,2,0,L|137:128,1,27.9999991455078,8|8,0:3|0:3,0:0:0:0:
326,208,51023,5,8,0:3:0:0:
354,203,51137,1,8,0:3:0:0:
375,240,51250,1,4,0:3:0:0:
420,234,51364,1,4,0:3:0:0:
459,270,51478,1,6,3:2:0:0:
49,76,52387,6,0,L|43:44,1,32,2|2,0:2|0:2,0:0:0:0:
124,45,53978,6,0,B|266:39|198:129|357:122,1,239.999992675781,2|6,0:2|0:2,0:0:0:0:
341,122,56023,1,2,0:2:0:0:
480,20,56932,5,2,0:2:0:0:
478,7,57614,1,2,0:2:0:0:
108,343,58750,6,0,P|127:265|130:178,2,160,2|2|2,0:2|0:2|0:2,0:0:0:0:
17,378,61250,1,2,0:2:0:0:
469,206,62387,1,2,0:2:0:0:
469,206,63296,1,2,0:2:0:0:
469,206,64205,2,0,P|371:210|267:214,1,192,2|2,0:2|0:2,0:0:0:0:
71,287,66023,6,0,P|79:250|83:183,1,95.9999970703126,2|0,0:2|0:2,0:0:0:0:
315,361,66705,2,0,P|300:292|298:202,1,160,2|0,0:2|0:2,0:0:0:0:
372,52,68296,5,2,0:2:0:0:
428,103,68523,2,0,L|478:116,1,40,2|2,0:2|0:2,0:0:0:0:
299,203,68978,2,0,L|210:224,1,80,2|2,0:2|0:2,0:0:0:0:
357,153,69659,6,0,P|411:177|465:354,1,256,2|0,0:2|0:2,0:0:0:0:
246,60,72387,2,0,B|256:43|256:43|300:37|300:37|313:19,1,80,2|2,0:2|0:2,0:0:0:0:
195,171,73296,6,0,B|169:157|169:157|79:180|79:180|50:168,1,143.999995605469,2|2,0:2|0:2,0:0:0:0:
97,86,74205,2,0,L|55:280,1,192,2|0,0:2|0:2,0:0:0:0:
56,273,75796,1,2,0:2:0:0:
238,367,76023,2,0,L|178:354,2,60,2|2|2,0:2|0:2|0:2,0:0:0:0:
66,361,76932,6,0,L|359:314,1,287.999991210938,6|0,0:2|0:2,0:0:0:0:
232,219,78523,1,2,0:2:0:0:
453,384,78750,6,0,B|412:290|477:315|438:220,1,167.999994873047,2|0,0:2|0:2,0:0:0:0:
120,247,79659,6,0,B|111:194|150:160|150:160|163:163|163:163|216:121|193:57,1,215.999993408203,2|0,0:2|0:2,0:0:0:0:
196,69,80569,6,0,P|237:81|289:87,1,88.000002685547,6|0,3:2|3:2,0:0:0:0:
142,0,81023,1,8,0:2:0:0:
55,152,81250,5,2,3:0:0:0:
59,134,81364,1,8,0:2:0:0:
237,227,81591,1,8,0:2:0:0:
233,209,81705,1,0,3:2:0:0:
40,349,81932,2,0,P|53:313|58:259,1,88.000002685547,8|0,0:2|0:2,0:0:0:0:
169,337,82273,5,0,3:2:0:0:
169,337,82387,2,0,B|191:346|191:346|233:344|233:344|261:354,1,88.000002685547,0|2,3:2|3:2,0:0:0:0:
326,334,82841,2,0,B|348:343|348:343|390:341|390:341|410:348,1,88.000002685547,10|2,0:2|3:2,0:0:0:0:
410,348,83182,1,8,0:2:0:0:
410,348,83296,1,2,3:2:0:0:
410,348,83409,1,8,0:2:0:0:
410,348,83523,1,0,3:2:0:0:
237,226,83750,6,0,L|218:44,1,167.999994873047,8|0,0:2|3:2,0:0:0:0:
219,58,84205,1,6,3:2:0:0:
327,96,84432,1,0,3:2:0:0:
434,133,84659,1,8,0:2:0:0:
508,51,84887,5,0,3:2:0:0:
481,50,85000,1,8,0:2:0:0:
457,61,85114,1,0,3:2:0:0:
288,216,85341,1,0,3:2:0:0:
264,227,85455,1,0,3:2:0:0:
237,226,85568,1,8,0:2:0:0:
225,63,85796,2,0,B|228:75|228:75|227:98|227:98|231:114,1,44.0000013427735,4|4,0:3|0:3,0:0:0:0:
145,178,86023,6,0,L|50:159,1,88.000002685547,0|0,3:2|3:2,0:0:0:0:
58,160,86478,1,8,0:2:0:0:
288,347,86819,1,8,0:2:0:0:
262,354,86932,1,0,3:2:0:0:
236,361,87046,1,8,0:2:0:0:
213,374,87159,1,0,3:2:0:0:
213,374,87273,1,0,3:2:0:0:
213,374,87387,2,0,L|224:310,1,51.999997619629,8|8,0:2|0:2,0:0:0:0:
413,244,87614,2,0,L|402:180,1,51.999997619629,8|8,0:3|0:3,0:0:0:0:
292,87,87841,6,0,P|302:51|308:-2,1,88.000002685547,4|0,3:2|3:2,0:0:0:0:
404,192,88296,1,8,0:2:0:0:
489,148,88523,1,2,3:2:0:0:
469,122,88637,1,8,0:2:0:0:
444,103,88750,1,2,3:2:0:0:
414,96,88864,1,8,0:2:0:0:
383,98,88978,1,0,3:2:0:0:
404,192,89205,1,8,0:2:0:0:
277,56,89432,5,4,0:3:0:0:
292,87,89546,1,4,0:3:0:0:
295,121,89659,1,0,3:2:0:0:
182,335,89887,1,0,3:2:0:0:
182,335,90114,2,0,P|165:299|162:250,1,88.000002685547,8|0,0:2|3:2,0:0:0:0:
161,251,90455,1,8,0:2:0:0:
132,271,90569,1,0,3:2:0:0:
97,275,90682,1,8,0:2:0:0:
62,266,90796,1,0,3:2:0:0:
321,307,91023,5,10,0:2:0:0:
391,342,91250,1,6,0:3:0:0:
391,342,91364,1,4,0:3:0:0:
391,342,91478,2,0,P|431:333|482:333,1,88.000002685547,6|0,3:2|3:2,0:0:0:0:
477,332,91932,1,8,0:2:0:0:
439,193,92159,5,0,3:2:0:0:
435,210,92273,1,8,0:2:0:0:
256,364,92500,1,8,3:2:0:0:
252,347,92614,1,0,3:2:0:0:
228,237,92841,2,0,L|321:252,1,88.000002685547,8|4,0:2|0:3,0:0:0:0:
179,176,93182,5,4,0:3:0:0:
179,176,93296,2,0,B|152:74|211:100|188:-4,1,176.000005371094,0|8,3:2|0:2,0:0:0:0:
350,141,93978,1,10,0:3:0:0:
319,124,94091,1,8,0:3:0:0:
284,118,94205,2,0,P|257:124|232:141,1,44.0000013427735,8|8,0:2|0:2,0:0:0:0:
179,176,94432,2,0,P|164:199|158:229,1,44.0000013427735,6|4,0:3|0:3,0:0:0:0:
291,384,94659,5,0,3:2:0:0:
311,344,94773,1,0,3:2:0:0:
278,308,94887,1,0,3:2:0:0:
302,266,95000,1,0,3:2:0:0:
271,222,95114,1,6,3:2:0:0:
483,365,96023,6,0,L|512:377,1,32,2|2,0:2|0:2,0:0:0:0:
311,344,97614,2,0,L|189:372,1,119.999996337891,2|2,0:2|0:2,0:0:0:0:
311,344,99659,1,2,0:2:0:0:
372,180,100569,6,0,B|365:162|365:162|380:109|380:109|370:79,1,96,2|2,0:2|0:2,0:0:0:0:
77,294,102387,6,0,B|84:276|84:276|69:223|69:223|79:193,1,96,2|2,0:2|0:2,0:0:0:0:
157,121,104205,1,2,0:2:0:0:
157,121,104887,1,2,0:2:0:0:
101,0,106023,5,2,0:2:0:0:
256,192,106250,12,0,115569,0:2:0:0:
298,43,116023,6,0,L|349:55,1,40,2|0,0:2|0:2,0:0:0:0:
417,136,116478,2,0,L|475:117,1,55.9999982910157,2|0,0:2|0:2,0:0:0:0:
470,118,116932,6,0,L|461:224,1,95.9999970703126,2|2,0:2|0:2,0:0:0:0:
499,281,117614,1,2,0:2:0:0:
499,281,118069,1,2,0:2:0:0:
448,384,118296,2,0,L|454:331,1,47.9999985351563,2|2,0:2|0:2,0:0:0:0:
300,285,118750,5,2,0:2:0:0:
215,304,119205,1,2,0:2:0:0:
130,323,119659,5,2,0:2:0:0:
45,342,119887,2,0,L|63:198,1,143.999995605469,2|2,0:2|0:2,0:0:0:0:
128,160,120796,1,2,0:2:0:0:
24,135,121023,1,2,0:2:0:0:
89,93,121250,2,0,P|140:123|213:125,1,128,2|2,0:2|0:2,0:0:0:0:
332,215,122387,6,0,P|450:183|481:59,1,256,2|2,0:2|0:2,0:0:0:0:
426,26,124432,1,0,0:2:0:0:
343,89,124659,1,2,0:2:0:0:
216,25,124887,2,0,P|222:87|218:175,1,143.999995605469,2|2,0:2|0:2,0:0:0:0:
52,252,126023,6,0,P|68:233|91:224,1,40,2|0,0:2|0:2,0:0:0:0:
163,330,126478,2,0,P|160:305|170:282,1,40,2|0,0:2|0:2,0:0:0:0:
326,379,126932,1,2,0:2:0:0:
326,379,127159,2,0,P|306:357|294:292,1,80,2|0,0:2|0:2,0:0:0:0:
494,250,127841,5,2,0:2:0:0:
476,323,128069,1,2,0:2:0:0:
402,306,128296,1,2,0:2:0:0:
419,233,128524,1,2,0:2:0:0:
419,233,128750,2,0,B|353:243|321:197|323:185|325:175|283:136|222:141,1,224,2|0,0:2|3:2,0:0:0:0:
200,156,130417,2,0,L|202:127,2,26.6666666666667,0|0|8,3:2|3:2|0:2,0:0:0:0:
27,310,130796,2,0,P|62:280|137:282,1,111.999996582031,0|0,3:2|3:2,0:0:0:0:
243,376,131478,5,4,3:2:0:0:
243,376,131932,1,2,0:2:0:0:
243,376,132387,1,8,0:2:0:0:
128,50,132841,2,0,P|118:80|117:121,1,64,2|0,0:2|0:2,0:0:0:0:
180,165,133296,5,2,3:2:0:0:
303,139,133523,2,0,B|237:133|252:168|174:164,1,128,0|2,3:2|3:2,0:0:0:0:
389,214,134205,1,8,0:2:0:0:
389,214,134659,1,2,0:2:0:0:
432,5,135114,6,0,P|476:35|484:114,1,128,4|0,3:2|0:2,0:0:0:0:
487,105,135796,1,0,3:2:0:0:
327,256,136023,2,0,L|466:245,2,128,8|2|2,0:2|0:2|3:2,0:0:0:0:
268,208,137159,1,0,3:2:0:0:
59,357,137614,5,0,3:2:0:0:
116,306,137841,2,0,L|183:318,1,64,10|0,0:2|0:2,0:0:0:0:
54,253,138296,2,0,L|42:190,1,64,0|0,0:2|3:2,0:0:0:0:
209,37,138750,6,0,B|232:23|232:23|306:57|306:57|337:48,1,143.999995605469,6|0,3:2|0:2,0:0:0:0:
209,37,139432,1,2,3:2:0:0:
351,308,139659,6,0,P|404:275|401:120,1,215.999993408203,8|0,0:2|0:2,0:0:0:0:
255,225,140569,5,0,3:2:0:0:
196,271,140796,2,0,B|114:272|146:316|54:328,1,143.999995605469,0|0,3:2|3:2,0:0:0:0:
255,225,141478,2,0,P|290:227|324:256,2,71.9999978027344,8|2|2,0:2|0:2|0:2,0:0:0:0:
248,342,142159,1,0,3:2:0:0:
422,175,142387,6,0,B|448:85|397:111|428:24,1,143.999995605469,6|0,3:2|0:2,0:0:0:0:
492,70,143069,1,0,3:2:0:0:
209,113,143296,2,0,P|263:106|357:129,1,143.999995605469,8|0,0:2|0:2,0:0:0:0:
209,113,143978,1,0,3:2:0:0:
80,207,144205,6,0,P|93:169|92:125,1,71.9999978027344,2|0,3:2|3:2,0:0:0:0:
51,81,144887,1,2,3:2:0:0:
160,236,145114,5,8,0:2:0:0:
40,288,145341,2,0,P|75:246|178:244,1,143.999995605469,0|0,3:2|3:2,0:0:0:0:
276,97,146023,6,0,P|346:99|395:149,1,143.999995605469,6|0,3:2|0:2,0:0:0:0:
395,149,146705,1,0,3:2:0:0:
258,169,146932,2,0,B|245:131|245:131|260:69|260:69|244:25,1,143.999995605469,8|0,0:2|0:2,0:0:0:0:
457,303,147841,5,0,3:2:0:0:
257,371,148069,2,0,B|339:388|311:334|408:357,1,143.999995605469,0|0,3:2|3:2,0:0:0:0:
197,325,148750,2,0,P|205:290|203:254,2,71.9999978027344,8|0|2,0:2|0:2|0:2,0:0:0:0:
242,111,149432,5,0,3:2:0:0:
506,236,149659,2,0,P|451:171|317:178,1,215.999993408203,6|0,3:2|3:2,0:0:0:0:
120,347,150569,6,0,P|83:360|33:353,1,80,8|0,0:2|0:2,0:0:0:0:
42,356,151250,1,0,3:2:0:0:
215,214,151478,5,4,3:2:0:0:
226,355,151705,2,0,B|215:308|215:308|226:267|226:267|214:205,1,143.999995605469,0|0,3:2|3:2,0:0:0:0:
79,56,152387,5,8,0:2:0:0:
50,136,152614,1,0,3:2:0:0:
132,161,152841,1,8,0:3:0:0:
334,70,153069,5,0,3:0:0:0:
434,46,153296,2,0,P|422:159|414:322,1,275.999991577149,12|2,3:2|0:2,0:0:0:0:
512,374,156137,6,0,B|382:396|427:289|287:314,1,239.999992675781,2|0,0:2|0:2,0:0:0:0:
146,384,156932,5,6,3:1:0:0:
159,297,157159,1,0,3:2:0:0:
172,210,157387,1,8,0:2:0:0:
93,142,157614,5,0,3:2:0:0:
72,149,157728,2,0,L|26:135,1,44.0000013427735,8|2,0:2|3:1,0:0:0:0:
28,226,157955,1,8,0:2:0:0:
45,231,158069,1,0,3:2:0:0:
281,107,158296,2,0,P|274:62|272:16,1,88.000002685547,8|4,0:2|0:3,0:0:0:0:
364,147,158637,5,4,0:3:0:0:
364,147,158750,2,0,P|407:149|451:156,1,88.000002685547,2|0,3:1|0:2,0:0:0:0:
451,156,159205,1,8,0:2:0:0:
417,75,159432,1,2,3:1:0:0:
417,75,159546,1,8,0:2:0:0:
394,296,159773,1,8,0:2:0:0:
394,296,159887,1,0,3:2:0:0:
147,373,160114,6,0,B|233:370|202:311|300:315,1,167.999994873047,10|0,0:1|3:2,0:0:0:0:
298,314,160569,2,0,P|292:272|292:225,1,88.000002685547,6|0,3:1|3:2,0:0:0:0:
164,51,161023,1,8,0:2:0:0:
87,105,161250,1,0,3:2:0:0:
113,133,161364,1,8,0:2:0:0:
150,146,161478,1,2,3:1:0:0:
189,145,161591,1,8,0:2:0:0:
224,126,161705,1,0,3:2:0:0:
87,105,161932,1,8,0:2:0:0:
14,283,162159,5,4,0:3:0:0:
14,283,162273,1,4,0:3:0:0:
14,283,162387,2,0,P|22:240|23:190,1,88.000002685547,2|0,3:1|3:2,0:0:0:0:
23,195,162841,1,8,0:2:0:0:
306,382,163069,1,2,3:1:0:0:
306,382,163182,1,8,0:2:0:0:
270,363,163296,1,0,3:2:0:0:
231,354,163409,1,8,0:2:0:0:
192,363,163523,5,0,3:2:0:0:
192,363,163637,1,0,3:2:0:0:
192,363,163750,2,0,B|186:346|186:346|190:317|190:317|186:302,1,55.9999982910157,10|8,0:1|0:2,0:0:0:0:
319,178,163978,6,0,B|326:157|326:157|322:126|322:126|328:109,1,68.0000012969971,8|8,0:3|0:3,0:0:0:0:
211,12,164205,5,6,3:1:0:0:
119,39,164432,1,0,3:2:0:0:
27,66,164659,1,8,0:2:0:0:
309,84,164887,5,0,3:2:0:0:
352,101,165000,1,8,0:2:0:0:
395,118,165114,1,0,3:2:0:0:
438,135,165228,1,8,0:2:0:0:
481,152,165341,1,0,3:2:0:0:
205,206,165569,5,8,0:2:0:0:
146,251,165796,1,6,0:1:0:0:
146,251,165909,1,4,0:3:0:0:
146,251,166023,2,0,L|46:278,1,88.000002685547,2|0,3:1|3:2,0:0:0:0:
11,220,166478,1,8,0:2:0:0:
242,384,166706,1,0,3:2:0:0:
228,356,166819,1,8,0:2:0:0:
233,325,166932,2,0,L|286:313,2,44.0000013427735,0|8|0,3:2|0:2|3:2,0:0:0:0:
442,375,167387,6,0,P|445:345|450:317,1,51.999997619629,10|0,0:1|0:2,0:0:0:0:
370,169,167614,2,0,P|363:193|361:222,1,51.999997619629,6|4,0:1|0:3,0:0:0:0:
361,219,167841,2,0,L|423:231,1,47.9999985351563,6|0,3:1|0:2,0:0:0:0:
321,86,168069,2,0,L|273:77,1,47.9999985351563,2|0,3:1|0:2,0:0:0:0:
124,19,168296,6,0,P|131:59|131:110,1,88.000002685547,10|0,0:1|3:2,0:0:0:0:
131,106,168637,1,10,0:1:0:0:
36,309,168864,1,10,0:1:0:0:
36,309,168978,2,0,P|31:287|29:252,1,44.0000013427735,2|0,3:2|3:2,0:0:0:0:
79,189,169205,5,10,0:1:0:0:
79,189,169432,2,0,B|102:197|102:197|111:206|111:206|139:214,1,60.0000022888184,6|4,0:3|0:3,0:0:0:0:
265,293,169659,5,2,3:1:0:0:
192,313,169887,1,0,3:2:0:0:
119,334,170114,1,8,0:2:0:0:
119,334,170341,1,2,3:2:0:0:
331,215,170569,5,8,0:2:0:0:
361,228,170682,1,8,0:2:0:0:
375,235,170796,2,0,L|381:255,1,20,4|4,0:3|0:3,0:0:0:0:
173,133,171023,5,8,0:2:0:0:
126,146,171137,1,8,0:2:0:0:
108,155,171250,2,0,L|102:175,1,20,8|8,0:3|0:3,0:0:0:0:
251,383,171478,6,0,P|246:299|247:171,1,207.999990478516,6|8,3:1|0:2,0:0:0:0:
394,49,172159,1,0,3:2:0:0:
394,49,172273,2,0,B|375:53|375:53|365:62|365:62|338:68,1,51.999997619629,8|2,0:2|3:1,0:0:0:0:
183,1,172500,1,8,0:2:0:0:
183,1,172614,1,0,3:2:0:0:
254,81,172841,1,8,0:2:0:0:
102,186,173069,5,4,0:3:0:0:
102,186,173182,1,4,0:3:0:0:
102,186,173296,2,0,P|114:133|114:82,1,103.999995239258,2|0,3:1|3:2,0:0:0:0:
114,83,173750,1,8,0:2:0:0:
310,252,173978,1,2,3:1:0:0:
285,217,174091,1,8,0:2:0:0:
273,177,174205,1,0,3:2:0:0:
270,134,174319,1,8,0:2:0:0:
282,95,174432,1,0,3:2:0:0:
502,329,174659,6,0,B|470:317|470:317|366:349|366:349|307:325,1,180.000006866455,10|0,0:1|3:2,0:0:0:0:
331,335,175114,1,6,3:1:0:0:
353,251,175341,1,0,3:2:0:0:
374,166,175569,1,8,0:2:0:0:
318,116,175796,5,0,3:2:0:0:
318,116,175909,1,8,0:2:0:0:
506,221,176137,1,8,0:2:0:0:
506,221,176250,1,0,3:2:0:0:
331,335,176478,5,8,0:2:0:0:
149,378,176705,1,6,0:1:0:0:
157,350,176819,1,4,0:3:0:0:
165,324,176932,2,0,P|200:323|235:333,2,71.9999978027344,2|0|8,3:1|3:2|0:2,0:0:0:0:
480,360,177728,1,8,0:2:0:0:
453,334,177842,1,0,3:2:0:0:
418,322,177955,1,8,0:2:0:0:
382,322,178069,2,0,P|362:329|347:342,1,35.9999989013672,0|0,3:2|3:2,0:0:0:0:
248,204,178296,5,8,0:2:0:0:
229,164,178409,1,8,0:2:0:0:
251,134,178523,1,8,0:3:0:0:
230,86,178637,1,8,0:3:0:0:
254,42,178750,6,0,B|286:49|286:49|311:72|311:72|353:78,1,95.9999970703126,6|0,3:1|3:2,0:0:0:0:
136,188,179205,6,0,B|95:195|95:195|64:224|64:224|13:232,1,120.000004577637,8|0,0:2|3:2,0:0:0:0:
28,229,179546,1,8,0:2:0:0:
57,259,179659,1,0,3:2:0:0:
69,299,179773,1,8,0:2:0:0:
62,340,179887,1,0,3:2:0:0:
90,129,180114,5,10,0:1:0:0:
33,88,180341,1,4,0:3:0:0:
33,88,180455,1,4,0:3:0:0:
33,88,180569,2,0,P|21:50|19:-5,1,88.000002685547,2|0,3:1|3:2,0:0:0:0:
214,208,181023,5,8,0:2:0:0:
290,144,181250,1,0,3:2:0:0:
267,122,181364,1,8,0:2:0:0:
238,109,181478,1,0,3:2:0:0:
207,107,181591,1,8,0:2:0:0:
177,116,181705,1,0,3:2:0:0:
498,4,181932,6,0,P|433:21|398:148,1,204.000003890991,8|0,0:2|3:2,0:0:0:0:
394,140,182387,1,6,3:1:0:0:
380,227,182614,1,0,3:2:0:0:
367,313,182841,1,8,0:2:0:0:
63,286,183182,5,8,0:2:0:0:
100,266,183296,1,0,3:2:0:0:
141,272,183409,2,0,P|151:296|156:325,2,44.0000013427735,8|0|0,0:2|3:2|3:2,0:0:0:0:
186,202,183750,5,10,0:1:0:0:
164,158,183864,1,8,0:2:0:0:
192,113,183978,1,10,0:1:0:0:
166,67,184091,1,8,0:2:0:0:
190,33,184205,2,0,L|245:46,1,44.0000013427735,10|8,0:0|0:0,0:0:0:0:
335,186,184432,5,8,3:2:0:0:
342,169,184546,1,8,3:2:0:0:
350,153,184659,2,0,L|394:143,1,32,10|8,0:1|0:3,0:0:0:0:
458,85,184887,5,6,0:3:0:0:
463,98,185001,1,4,0:3:0:0:
470,111,185114,2,0,L|496:116,1,23.9999992675781,6|4,0:1|0:3,0:0:0:0:
278,261,185341,6,0,L|120:246,1,155.999992858887,2|0,3:1|0:2,0:0:0:0:
428,218,185796,2,0,L|469:211,1,32,0|0,3:2|0:2,0:0:0:0:
295,246,186023,5,6,3:1:0:0:
512,366,186705,2,0,P|430:369|370:313,1,167.999994873047,2|2,0:2|0:2,0:0:0:0:
308,270,188523,2,0,P|316:255|320:228,1,40,2|2,0:2|0:2,0:0:0:0:
227,340,188978,2,0,P|178:343|129:389,1,111.999996582031,2|2,0:2|0:2,0:0:0:0:
310,208,189659,6,0,P|283:163|287:18,1,191.999994140625,2|2,0:2|0:2,0:0:0:0:
11,320,192387,2,0,P|25:287|25:228,1,80,2|2,0:2|0:2,0:0:0:0:
153,285,193296,6,0,B|249:274|217:322|315:316,1,167.999994873047,2|2,0:2|0:2,0:0:0:0:
459,382,194205,2,0,P|446:203|223:100,1,431.999986816407,2|0,0:2|0:2,0:0:0:0:
188,48,195796,1,2,0:2:0:0:
77,174,196023,5,2,0:2:0:0:
80,157,196364,1,2,0:2:0:0:
83,140,196705,1,2,0:2:0:0:
158,171,196932,6,0,B|208:205|282:173|285:149|280:131|366:99|430:144,1,287.999991210938,2|2,0:2|0:2,0:0:0:0:
425,141,198523,1,2,0:2:0:0:
245,371,198750,6,0,P|241:291|231:211,1,160,2|2,0:2|0:2,0:0:0:0:
121,320,200569,6,0,P|77:325|19:338,1,95.9999970703126,6|0,3:2|3:2,0:0:0:0:
26,335,201023,1,8,0:2:0:0:
147,174,201250,1,2,3:2:0:0:
147,174,201364,1,8,0:2:0:0:
300,303,201591,1,8,0:2:0:0:
300,303,201705,1,0,3:2:0:0:
183,262,201932,5,8,0:2:0:0:
253,184,202159,2,0,B|258:200|258:200|255:218|255:218|261:238,1,47.9999985351563,4|4,0:3|0:3,0:0:0:0:
379,341,202387,6,0,P|421:317|470:316,1,95.9999970703126,0|0,3:2|3:2,0:0:0:0:
253,184,202841,2,0,P|294:207|341:209,1,95.9999970703126,10|2,0:2|3:2,0:0:0:0:
341,209,203182,1,8,0:2:0:0:
329,172,203296,1,2,3:2:0:0:
333,134,203409,1,8,0:2:0:0:
360,106,203523,1,0,3:2:0:0:
430,170,203750,1,8,0:2:0:0:
243,24,203978,5,4,0:3:0:0:
243,24,204091,1,4,0:3:0:0:
243,24,204205,2,0,P|247:69|249:123,1,95.9999970703126,6|0,3:2|3:2,0:0:0:0:
320,71,204659,1,8,0:2:0:0:
149,43,204887,1,0,3:2:0:0:
149,43,205000,1,8,0:2:0:0:
381,21,205228,1,8,0:2:0:0:
381,21,205341,1,0,3:2:0:0:
248,119,205569,2,0,P|249:166|253:214,1,95.9999970703126,8|4,0:2|0:3,0:0:0:0:
325,335,205909,5,4,0:3:0:0:
325,335,206023,2,0,P|288:320|232:324,1,95.9999970703126,0|0,3:2|3:2,0:0:0:0:
232,323,206478,1,8,0:2:0:0:
18,279,206705,1,0,3:2:0:0:
45,304,206819,1,8,0:2:0:0:
80,319,206932,1,0,3:2:0:0:
118,323,207046,1,8,0:2:0:0:
154,312,207159,5,0,3:2:0:0:
154,312,207273,1,0,3:2:0:0:
154,312,207387,2,0,B|147:295|147:295|151:268|151:268|145:248,1,64,10|8,0:2|0:2,0:0:0:0:
39,130,207614,6,0,B|46:111|46:111|43:78|43:78|51:60,1,71.9999978027344,10|8,0:3|0:3,0:0:0:0:
115,24,207841,6,0,L|221:42,1,95.9999970703126,6|0,3:2|3:2,0:0:0:0:
209,40,208296,1,8,0:2:0:0:
459,223,208637,1,8,0:2:0:0:
435,192,208750,1,2,3:2:0:0:
426,154,208864,1,8,0:2:0:0:
437,117,208978,1,0,3:2:0:0:
459,223,209205,1,8,0:2:0:0:
305,326,209432,2,0,B|324:319|324:319|352:324|352:324|371:317,1,60.0000022888184,4|4,0:3|0:3,0:0:0:0:
382,343,209659,6,0,B|355:334|355:334|333:309|333:309|292:297,1,95.9999970703126,0|0,3:2|3:2,0:0:0:0:
338,231,210114,1,8,0:2:0:0:
227,359,210341,1,0,3:2:0:0:
227,359,210455,1,8,0:2:0:0:
74,285,210682,1,8,0:2:0:0:
74,285,210796,1,0,3:2:0:0:
188,148,211023,2,0,P|194:196|205:253,1,95.9999970703126,10|6,0:2|0:3,0:0:0:0:
34,124,211364,5,4,0:3:0:0:
34,124,211478,1,6,3:2:0:0:
127,101,211705,1,0,3:2:0:0:
220,78,211932,1,8,0:2:0:0:
445,164,212159,5,2,3:2:0:0:
445,164,212273,2,0,L|394:149,1,47.9999985351563,8|2,0:2|3:2,0:0:0:0:
335,188,212500,1,8,0:2:0:0:
335,188,212614,2,0,L|284:173,1,47.9999985351563,0|0,3:2|3:2,0:0:0:0:
161,291,212841,6,0,L|260:273,1,95.9999970703126,8|4,0:2|0:3,0:0:0:0:
307,370,213182,5,4,0:3:0:0:
307,370,213296,2,0,L|231:354,1,71.9999978027344,0|0,3:2|3:2,0:0:0:0:
68,384,213750,6,0,P|76:364|83:332,1,51.999997619629,10|0,0:2|0:2,0:0:0:0:
235,256,213978,5,0,3:2:0:0:
235,256,214091,1,8,0:2:0:0:
235,256,214205,2,0,P|229:230|213:192,1,64,2|8,3:2|0:2,0:0:0:0:
325,55,214432,5,0,3:2:0:0:
325,55,214546,1,0,3:2:0:0:
325,55,214659,2,0,P|298:28|252:11,1,80,10|8,0:2|0:2,0:0:0:0:
122,144,214887,2,0,P|150:116|187:101,1,80,10|8,0:2|0:2,0:0:0:0:
420,48,215114,5,4,3:2:0:0:
399,157,215341,1,0,3:2:0:0:
378,266,215569,1,8,0:2:0:0:
195,354,215796,5,0,3:2:0:0:
195,354,215909,2,0,B|214:349|214:349|236:331|236:331|264:326,1,64,8|0,0:2|3:2,0:0:0:0:
378,266,216137,5,8,0:2:0:0:
378,266,216250,2,0,B|354:261|354:261|334:241|334:241|302:236,1,71.9999978027344,0|0,3:2|3:2,0:0:0:0:
117,143,216478,6,0,B|100:83|100:83|141:29,1,120.000004577637,8|4,0:2|0:3,0:0:0:0:
212,194,216819,5,4,0:3:0:0:
212,194,216932,2,0,P|169:176|108:178,1,95.9999970703126,0|0,3:2|3:2,0:0:0:0:
65,229,217387,1,10,0:2:0:0:
294,105,217614,1,0,3:2:0:0:
320,138,217728,1,8,0:2:0:0:
357,159,217841,1,2,3:2:0:0:
399,168,217955,1,8,0:2:0:0:
440,155,218069,1,0,3:2:0:0:
146,34,218296,6,0,P|118:52|102:85,1,64,10|8,0:2|0:2,0:0:0:0:
120,175,218523,2,0,P|112:205|121:236,1,64,6|4,0:3|0:3,0:0:0:0:
232,361,218750,6,0,P|203:336|131:329,1,103.999995239258,4|0,3:2|3:2,0:0:0:0:
31,375,219205,1,8,0:2:0:0:
229,191,219432,5,0,3:2:0:0:
229,191,219546,2,0,P|221:221|217:259,1,64,8|0,0:2|3:2,0:0:0:0:
18,79,219773,5,8,0:2:0:0:
18,79,219887,2,0,P|26:109|30:152,1,71.9999978027344,0|0,3:2|3:2,0:0:0:0:
166,57,220114,5,8,0:2:0:0:
15,230,220341,1,4,0:3:0:0:
8,214,220455,1,4,0:3:0:0:
29,149,220569,6,0,B|64:160|64:160|98:157|98:157|141:169,1,103.999995239258,0|0,3:2|3:2,0:0:0:0:
129,165,221023,1,8,0:2:0:0:
360,384,221364,1,8,0:2:0:0:
353,348,221478,1,0,3:2:0:0:
348,312,221591,1,8,0:2:0:0:
341,276,221705,6,0,B|359:282|359:282|381:280|381:280|401:288,1,51.999997619629,2|0,3:2|3:2,0:0:0:0:
225,152,221932,6,0,B|246:145|246:145|268:146|268:146|293:138,1,64,10|8,0:2|0:2,0:0:0:0:
55,299,222159,6,0,B|80:307|80:307|109:305|109:305|134:315,1,80,10|8,0:3|0:3,0:0:0:0:
239,384,222387,6,0,P|235:335|237:273,1,103.999995239258,6|0,3:2|3:2,0:0:0:0:
236,280,222841,1,8,0:2:0:0:
253,24,223069,1,2,3:2:0:0:
265,41,223182,1,8,0:2:0:0:
240,73,223296,1,2,3:2:0:0:
265,109,223409,1,8,0:2:0:0:
246,151,223523,1,0,3:2:0:0:
400,206,223750,6,0,P|446:201|497:206,1,95.9999970703126,8|4,0:2|0:3,0:0:0:0:
332,169,224091,5,4,0:3:0:0:
332,169,224205,1,0,3:2:0:0:
349,263,224432,1,0,3:2:0:0:
366,357,224659,1,8,0:2:0:0:
403,119,225000,1,8,0:2:0:0:
409,82,225113,1,0,3:2:0:0:
416,45,225227,1,8,0:2:0:0:
422,7,225341,1,0,3:2:0:0:
153,331,225569,6,0,B|72:356|-16:294|12:200,1,215.999993408203,10|4,0:2|0:3,0:0:0:0:
7,222,226023,2,0,L|98:238,1,80,6|0,3:2|3:2,0:0:0:0:
86,236,226478,1,8,0:2:0:0:
34,333,226705,1,2,3:2:0:0:
34,333,226819,1,8,0:2:0:0:
78,100,227046,1,8,0:2:0:0:
78,100,227160,1,0,3:2:0:0:
206,217,227387,1,8,0:2:0:0:
133,174,227614,5,4,0:3:0:0:
133,174,227728,1,4,0:3:0:0:
133,174,227841,1,0,3:2:0:0:
276,191,228069,1,0,3:2:0:0:
481,121,228296,6,0,P|484:89|492:56,1,60.0000022888184,14|0,0:2|0:2,0:0:0:0:
319,286,228523,5,0,3:2:0:0:
319,286,228637,1,0,3:2:0:0:
319,286,228750,2,0,P|308:255|305:212,1,75.9999979705811,10|8,0:2|0:2,0:0:0:0:
107,84,228978,5,0,3:2:0:0:
107,84,229091,1,0,3:2:0:0:
107,84,229205,2,0,P|126:45|168:8,1,95.9999970703126,10|8,0:2|0:2,0:0:0:0:
372,145,229432,2,0,P|350:102|314:70,1,95.9999970703126,10|8,0:2|0:2,0:0:0:0:
60,183,229659,5,4,3:2:0:0:
78,283,229887,1,0,3:2:0:0:
96,384,230114,1,8,0:2:0:0:
406,273,230341,5,0,3:2:0:0:
378,303,230455,1,8,0:2:0:0:
339,320,230569,1,0,3:2:0:0:
297,321,230682,1,8,0:2:0:0:
259,302,230796,1,0,3:2:0:0:
491,372,231023,1,8,0:2:0:0:
456,105,231250,5,4,0:3:0:0:
456,105,231364,1,4,0:3:0:0:
456,105,231478,2,0,P|447:141|440:196,2,80,0|0|10,3:2|3:2|0:2,0:0:0:0:
268,214,232159,5,0,3:2:0:0:
268,214,232273,2,0,B|286:219|286:219|307:236|307:236|332:242,1,60.0000022888184,8|2,0:2|3:2,0:0:0:0:
152,93,232500,5,8,0:2:0:0:
152,93,232614,2,0,B|176:86|176:86|197:69|197:69|232:61,1,80,0|2,3:2|3:2,0:0:0:0:
7,265,232841,6,0,B|46:274|46:274|68:298|68:298|126:312,1,111.999996582031,8|6,0:2|0:3,0:0:0:0:
167,370,233182,5,4,0:3:0:0:
167,370,233296,1,4,3:2:0:0:
141,238,233523,1,0,3:2:0:0:
115,106,233750,1,8,0:2:0:0:
26,170,233978,5,0,3:0:0:0:
26,170,234091,2,0,L|76:180,1,35.9999989013672,8|0,0:2|3:2,0:0:0:0:
296,120,234319,5,8,0:2:0:0:
296,120,234432,2,0,L|376:107,1,71.9999978027344,0|0,3:2|3:2,0:0:0:0:
490,193,234659,5,8,0:2:0:0:
213,15,234887,1,4,0:3:0:0:
200,40,235000,1,4,0:3:0:0:
200,68,235114,1,0,3:2:0:0:
227,179,235341,1,0,3:2:0:0:
254,290,235569,1,8,0:2:0:0:
492,374,235909,1,8,0:2:0:0:
457,347,236023,1,0,3:2:0:0:
414,339,236137,1,8,0:2:0:0:
370,364,236250,5,0,3:2:0:0:
371,354,236364,1,0,3:2:0:0:
372,344,236478,2,0,P|403:329|439:328,1,64,10|8,0:2|0:2,0:0:0:0:
185,238,236705,2,0,P|196:205|231:176,1,75.9999979705811,10|8,0:3|0:3,0:0:0:0:
47,377,236932,6,0,P|10:346|4:274,1,111.999996582031,6|0,3:2|3:2,0:0:0:0:
71,178,237387,1,8,0:2:0:0:
18,118,237614,5,2,3:2:0:0:
18,118,237728,1,8,0:2:0:0:
148,347,237955,1,8,0:2:0:0:
148,347,238069,1,0,3:2:0:0:
85,266,238296,6,0,P|129:269|181:270,1,88.000002685547,8|4,0:2|0:3,0:0:0:0:
298,147,238637,5,4,0:3:0:0:
298,147,238750,1,0,3:2:0:0:
316,233,238978,1,0,3:2:0:0:
334,319,239205,1,8,0:2:0:0:
114,40,239546,1,8,0:2:0:0:
106,82,239659,1,0,3:2:0:0:
98,125,239773,1,8,0:2:0:0:
90,167,239887,1,0,3:2:0:0:
303,38,240114,6,0,B|286:30|286:30|249:36|249:36|225:26,1,68.0000012969971,10|0,0:2|0:2,0:0:0:0:
80,189,240341,6,0,B|63:197|63:197|13:195|13:195|-8:205,1,83.9999974365235,6|4,0:3|0:3,0:0:0:0:
172,120,240569,6,0,L|187:199,2,80,4|0|8,3:2|3:2|0:2,0:0:0:0:
79,343,241250,5,0,3:2:0:0:
79,343,241364,2,0,P|107:328|142:322,1,60.0000022888184,8|0,0:2|3:2,0:0:0:0:
293,204,241591,5,8,0:2:0:0:
293,204,241705,2,0,P|323:213|360:248,1,80,0|0,3:2|3:2,0:0:0:0:
232,281,241932,6,0,P|299:248|489:228,1,264.000008056641,8|0,0:2|3:2,0:0:0:0:
485,227,242387,1,4,3:2:0:0:
139,31,242614,1,0,3:2:0:0:
169,59,242728,1,0,3:2:0:0:
208,71,242841,1,8,0:2:0:0:
250,74,242955,1,8,0:2:0:0:
290,62,243069,1,8,0:2:0:0:
313,46,243182,2,0,L|310:82,1,30.0000011444092,10|8,0:2|0:2,0:0:0:0:
370,133,243296,5,10,0:3:0:0:
378,173,243409,1,8,0:3:0:0:
384,200,243523,1,10,0:3:0:0:
180,330,243750,5,8,0:3:0:0:
138,304,243864,1,8,0:3:0:0:
102,325,243978,1,4,0:3:0:0:
72,312,244091,1,4,0:3:0:0:
58,321,244205,1,6,3:2:0:0:
169,211,244546,6,0,P|294:230|371:390,1,311.999990478516,2|2,0:2|0:2,0:0:0:0:
378,194,246705,6,0,P|375:151|375:114,1,80,2|2,0:2|0:2,0:0:0:0:
332,58,248750,1,2,0:2:0:0:
459,147,249659,5,2,0:2:0:0:
459,147,250341,2,0,P|299:160|97:183,1,359.999989013672,2|2,0:2|0:2,0:0:0:0:
10,360,252387,5,2,0:2:0:0:
10,360,253296,2,0,P|15:337|17:306,1,48,2|2,0:2|0:2,0:0:0:0:
215,340,255114,5,2,0:2:0:0:
215,340,256023,1,2,0:2:0:0:
215,340,256932,2,0,P|211:254|181:170,1,167.999994873047,2|2,0:2|0:2,0:0:0:0:
247,126,257841,6,0,L|289:136,1,32,2|0,0:2|0:2,0:0:0:0:
367,242,258296,6,0,L|451:224,1,80,2|0,0:2|0:2,0:0:0:0:
