osu file format v14

[General]
AudioFilename: audio.mp3
AudioLeadIn: 0
PreviewTime: 184664
Countdown: 0
SampleSet: Soft
StackLeniency: 0.7
Mode: 0
LetterboxInBreaks: 0
WidescreenStoryboard: 1

[Editor]
DistanceSpacing: 1
BeatDivisor: 8
GridSize: 32
TimelineZoom: 1

[Metadata]
Title:Red Swan
TitleUnicode:Red Swan
Artist:YOSHIKI feat. HYDE
ArtistUnicode:YOSHIKI feat. HYDE
Creator:tomadoi
Version:Easy
Source:進撃の巨人
Tags:shingeki no kyojin attack on titan eren jaeger shiinoha kotone ending season 3 three anime japanese english full version kowari
BeatmapID:2204002
BeatmapSetID:1053817

[Difficulty]
HPDrainRate:3
CircleSize:3
OverallDifficulty:2.5
ApproachRate:3
SliderMultiplier:1
SliderTickRate:1

[Events]
//Background and Video events
0,0,"maybe4.jpg",0,0
//Break Periods
2,51678,64583
2,102587,115492
//Storyboard Layer 0 (Background)
//Storyboard Layer 1 (Fail)
//Storyboard Layer 2 (Pass)
//Storyboard Layer 3 (Foreground)
//Storyboard Layer 4 (Overlay)
//Storyboard Sound Samples

[TimingPoints]
569,454.545454545455,4,2,1,32,1,0
7841,-100,4,2,1,72,0,0
22387,-100,4,2,1,62,0,0
49659,-100,4,2,1,74,0,0
52387,-100,4,2,1,62,0,0
53978,-100,4,2,1,36,0,0
66023,-111.111111111111,4,2,1,56,0,0
80569,-100,4,2,1,82,0,0
96023,-100,4,2,1,36,0,0
116023,-100,4,2,1,55,0,0
116932,-111.111111111111,4,2,1,56,0,0
130341,-111.111111111111,4,2,1,90,0,0
130796,-111.111111111111,4,2,1,69,0,0
131478,-111.111111111111,4,2,1,74,0,0
156137,-111.111111111111,4,2,1,84,0,0
156932,-100,4,2,1,82,0,0
186023,-100,4,2,1,90,0,0
186705,-100,4,2,1,56,0,0
189659,-111.111111111111,4,2,1,56,0,0
200569,-100,4,2,1,82,0,0
214205,-100,4,2,1,86,0,0
214659,-100,4,2,1,90,0,0
215114,-100,4,2,1,92,0,0
228296,-100,4,2,1,82,0,0
228750,-100,4,2,1,84,0,0
229205,-100,4,2,1,90,0,0
229659,-100,4,2,1,92,0,0
244546,-100,4,2,1,48,0,0
251478,-100,4,2,1,38,0,0
253296,-111.111111111111,4,2,1,38,0,0
255114,-111.111111111111,4,2,1,50,0,0
257841,-99.9999999999999,4,2,1,56,0,0
258296,-99.9999999999999,4,2,1,62,0,0

[Colours]
Combo1 : 0,221,221
Combo2 : 192,192,192
Combo3 : 0,221,0
Combo4 : 128,128,128

[HitObjects]
19,307,7841,6,0,B|133:291|116:362|227:355,1,200,6|4,3:2|0:3,0:0:0:0:
281,303,9205,1,8,0:2:0:0:
362,341,9659,2,0,B|382:310|382:310|381:177|381:177|401:144,1,200,2|4,3:2|0:3,0:0:0:0:
344,77,11023,2,0,L|294:87,1,50,8|0,0:2|3:2,0:0:0:0:
262,118,11478,6,0,B|141:118|199:59|72:59,1,200,2|2,3:2|3:2,0:0:0:0:
9,119,12841,1,8,0:2:0:0:
83,169,13296,2,0,P|73:256|13:348,1,200,2|4,3:2|3:3,0:0:0:0:
97,384,14659,2,0,P|119:374|146:366,1,50,8|0,0:2|0:0,0:0:0:0:
174,333,15114,6,0,L|379:370,1,200,4|4,3:2|3:3,0:0:0:0:
439,309,16478,1,8,0:2:0:0:
392,232,16932,2,0,B|370:194|370:194|409:33,1,200,0|4,3:2|0:3,0:0:0:0:
492,68,18296,2,0,L|477:131,1,50,8|0,0:2|0:2,0:0:0:0:
442,141,18750,6,0,B|331:166|361:103|251:100,1,200,0|4,3:2|0:3,0:0:0:0:
180,153,20114,1,8,0:2:0:0:
102,107,20569,2,0,P|66:151|46:291,1,200,0|2,3:2|3:2,0:0:0:0:
117,342,21932,2,0,P|133:319|141:284,1,50,10|8,0:2|0:3,0:0:0:0:
144,253,22387,6,0,B|261:239|228:311|375:289,1,200,6|0,3:2|0:0,0:0:0:0:
405,350,23750,1,8,0:2:0:0:
492,327,24205,2,0,P|504:280|508:222,1,100,0|8,3:2|0:2,0:0:0:0:
422,199,25114,2,0,P|402:155|410:99,1,100,6|10,0:3|0:2,0:0:0:0:
447,84,25796,1,2,0:0:0:0:
447,84,26023,6,0,P|367:82|278:-1,1,200,2|4,3:2|0:3,0:0:0:0:
216,68,27387,1,8,0:2:0:0:
132,33,27841,2,0,B|118:62|118:62|135:131,1,100,0|8,3:2|0:2,0:0:0:0:
210,175,28750,2,0,B|224:204|224:204|207:273,1,100,4|10,0:3|0:2,0:0:0:0:
189,311,29432,1,2,0:0:0:0:
189,311,29659,6,0,B|120:286|120:286|63:298|63:298|-6:273,2,200,6|0|0,3:2|0:0|3:2,0:0:0:0:
263,361,31932,1,8,0:2:0:0:
342,318,32387,2,0,L|447:296,1,100,4|10,0:3|0:2,0:0:0:0:
478,321,33069,1,2,0:0:0:0:
478,321,33296,6,0,P|449:276|461:128,2,200,2|6|0,3:2|0:3|3:2,0:0:0:0:
410,380,35569,1,10,0:2:0:0:
339,324,36023,2,0,P|353:273|350:224,1,100,2|8,3:2|0:2,0:0:0:0:
278,171,36932,6,0,P|215:170|119:60,1,200,6|4,3:2|0:3,0:0:0:0:
184,12,38296,1,8,0:2:0:0:
253,68,38750,2,0,P|250:117|229:165,1,100,0|10,3:2|0:2,0:0:0:0:
197,194,39432,1,2,3:2:0:0:
197,194,39659,2,0,P|200:243|221:291,1,100,6|8,0:3|0:2,0:0:0:0:
294,340,40569,6,0,B|196:308|209:368|96:358,1,200,2|0,3:2|0:0,0:0:0:0:
34,296,41932,1,8,0:2:0:0:
92,227,42387,2,0,P|106:177|103:125,1,100,0|8,3:2|0:2,0:0:0:0:
59,50,43296,2,0,L|168:36,1,100,4|8,0:3|0:2,0:0:0:0:
198,16,43978,1,2,3:2:0:0:
198,16,44205,6,0,P|245:56|391:69,2,200,4|4|0,3:2|0:3|3:2,0:0:0:0:
131,76,46478,1,8,0:2:0:0:
200,132,46932,2,0,P|212:176|217:235,1,100,4|8,0:3|0:0,0:0:0:0:
199,271,47614,1,2,0:0:0:0:
199,271,47841,6,0,P|296:288|362:371,2,200,4|4|4,3:2|0:3|3:2,0:0:0:0:
44,364,50569,2,0,P|22:324|8:153,1,200,8|6,0:2|3:2,0:0:0:0:
181,46,66023,6,0,B|95:49|135:77|43:80,2,134.999995880127,2|2|0,0:2|0:2|0:0,0:0:0:0:
422,19,68296,2,0,P|430:65|432:110,1,89.999997253418,2|2,0:2|0:2,0:0:0:0:
409,142,68978,2,0,P|411:186|419:231,1,89.999997253418,2|2,0:2|0:2,0:0:0:0:
442,264,69659,2,0,P|352:255|111:376,1,359.999989013672,2|0,0:2|0:2,0:0:0:0:
25,235,72387,2,0,P|35:180|33:131,1,89.999997253418,2|2,0:2|0:2,0:0:0:0:
118,123,73296,6,0,B|355:126|211:226|471:223,1,359.999989013672,2|0,0:2|0:0,0:0:0:0:
404,49,76023,1,2,0:2:0:0:
255,150,76932,2,0,P|269:233|276:344,1,179.999994506836,6|0,0:2|0:0,0:0:0:0:
102,375,78750,1,2,0:2:0:0:
32,28,80569,6,0,P|86:32|194:127,1,200,6|0,3:2|0:0,0:0:0:0:
166,209,81932,1,8,0:2:0:0:
231,271,82387,2,0,P|284:257|334:259,1,100,0|10,3:2|0:2,0:0:0:0:
409,298,83296,2,0,P|430:254|433:184,1,100,2|8,3:2|0:2,0:0:0:0:
478,175,83978,1,2,0:0:0:0:
478,175,84205,6,0,P|407:168|324:65,1,200,6|0,3:2|3:2,0:0:0:0:
264,9,85569,1,8,0:2:0:0:
214,84,86023,2,0,P|180:112|119:125,1,100,0|8,3:2|0:2,0:0:0:0:
84,109,86705,1,2,0:0:0:0:
84,109,86932,2,0,L|101:214,1,100,0|8,3:2|0:2,0:0:0:0:
61,288,87841,6,0,P|128:332|270:327,2,200,4|2|0,3:2|3:2|3:2,0:0:0:0:
109,212,90114,1,8,0:2:0:0:
56,138,90569,2,0,P|38:97|33:35,1,100,0|10,3:2|0:2,0:0:0:0:
113,4,91478,2,0,B|226:24|185:70|295:77,1,200,6|0,3:2|0:0,0:0:0:0:
370,27,92841,1,8,0:2:0:0:
442,80,93296,6,0,L|424:185,1,100,0|8,3:2|0:2,0:0:0:0:
397,214,93978,1,10,0:3:0:0:
397,214,94205,2,0,L|415:319,1,100,8|0,0:2|3:2,0:0:0:0:
486,365,95114,1,6,3:2:0:0:
256,192,95569,12,2,102387,0:2:0:0:
337,144,116932,5,2,0:2:0:0:
236,236,117614,2,0,P|159:227|74:90,1,224.999993133545,2|2,0:2|0:2,0:0:0:0:
399,270,120569,5,2,0:2:0:0:
271,314,121250,2,0,P|259:245|348:122,1,224.999993133545,2|2,0:2|0:2,0:0:0:0:
54,339,124205,2,0,P|86:309|147:302,1,89.999997253418,2|2,0:2|0:2,0:0:0:0:
171,317,124887,2,0,P|183:248|94:125,1,224.999993133545,2|2,0:2|0:2,0:0:0:0:
247,25,126932,1,2,0:2:0:0:
354,169,127841,6,0,L|450:207,1,89.999997253418,2|2,0:2|0:2,0:0:0:0:
464,238,128523,2,0,L|234:273,1,224.999993133545,2|0,0:2|0:0,0:0:0:0:
94,376,130569,1,8,0:2:0:0:
15,214,131478,6,0,P|28:124|118:72,1,179.999994506836,4|8,3:2|0:2,0:0:0:0:
175,118,132841,1,2,0:2:0:0:
247,64,133296,2,0,B|330:55|298:23|380:16,2,134.999995880127,2|2|2,3:2|3:2|0:2,0:0:0:0:
185,129,135114,2,0,P|195:215|198:320,1,179.999994506836,4|8,3:2|0:2,0:0:0:0:
271,359,136478,1,2,0:2:0:0:
350,316,136932,2,0,P|421:332|466:383,2,134.999995880127,2|0|0,3:2|3:2|0:2,0:0:0:0:
279,371,138750,6,0,B|179:378|207:326|95:331,1,179.999994506836,6|8,3:2|0:2,0:0:0:0:
253,225,140569,2,0,B|353:232|325:180|437:185,1,179.999994506836,0|8,3:2|0:2,0:0:0:0:
500,135,141932,1,2,0:2:0:0:
437,70,142387,2,0,P|360:72|279:5,1,179.999994506836,6|8,3:2|0:2,0:0:0:0:
119,88,144205,2,0,P|131:128|138:196,1,89.999997253418,2|0,3:2|0:0,0:0:0:0:
169,207,144887,2,0,P|156:250|150:294,1,89.999997253418,2|0,3:2|3:2,0:0:0:0:
169,335,145569,1,0,0:0:0:0:
252,368,146023,6,0,P|297:319|415:285,1,179.999994506836,6|8,3:2|0:2,0:0:0:0:
502,135,147841,2,0,B|411:115|417:173|312:163,1,179.999994506836,0|8,3:2|0:2,0:0:0:0:
253,113,149205,1,2,0:2:0:0:
185,172,149659,6,0,P|94:190|27:257,1,179.999994506836,6|8,3:2|0:2,0:0:0:0:
196,321,151478,2,0,P|225:233|201:141,1,179.999994506836,4|8,3:2|0:2,0:0:0:0:
152,78,152841,1,8,0:3:0:0:
65,104,153296,1,12,3:2:0:0:
320,315,156932,6,0,B|436:316|394:259|528:273,2,200,6|2|2,3:1|3:1|3:1,0:0:0:0:
199,225,159432,1,2,3:1:0:0:
392,66,160569,2,0,P|402:163|406:270,2,200,6|2|2,3:1|3:1|3:1,0:0:0:0:
269,152,163069,2,0,P|196:158|132:117,1,150,2|10,3:1|0:1,0:0:0:0:
46,69,164205,6,0,P|37:157|22:368,1,300,6|8,3:1|0:2,0:0:0:0:
116,334,166023,2,0,B|236:324|202:382|323:378,1,200,2|0,3:1|3:2,0:0:0:0:
391,323,167387,2,0,P|385:303|384:270,1,50,10|6,0:1|0:1,0:0:0:0:
409,230,167841,6,0,L|310:215,1,100,6|10,3:1|0:1,0:0:0:0:
235,281,168750,2,0,L|136:296,1,100,2|10,0:0|0:1,0:0:0:0:
61,229,169659,2,0,P|34:186|44:34,1,200,2|8,3:1|0:2,0:0:0:0:
135,14,171023,2,0,L|195:28,1,50,8|8,0:2|0:3,0:0:0:0:
227,50,171478,6,0,B|342:52|296:-7|428:4,2,200,6|2|2,3:1|3:1|3:1,0:0:0:0:
110,144,173978,2,0,P|100:194|98:250,1,100,2|0,3:1|3:2,0:0:0:0:
129,281,174659,1,10,0:1:0:0:
85,368,175114,2,0,P|149:382|310:234,1,300,6|8,3:1|0:2,0:0:0:0:
281,198,176705,1,6,0:1:0:0:
281,198,176932,6,0,P|273:88|273:-1,1,200,2|0,3:1|3:2,0:0:0:0:
359,48,178296,1,8,0:2:0:0:
276,103,178750,2,0,B|154:101|205:160|77:160,1,200,6|0,3:1|3:2,0:0:0:0:
24,235,180114,2,0,P|31:260|35:288,1,50,10|4,0:1|0:3,0:0:0:0:
6,326,180569,6,0,P|52:360|195:367,1,200,2|0,3:1|3:2,0:0:0:0:
268,306,181932,1,8,0:2:0:0:
356,353,182387,2,0,P|376:243|380:140,1,200,6|0,3:1|3:2,0:0:0:0:
469,110,183750,2,0,P|463:83|461:56,1,50,10|10,0:1|0:1,0:0:0:0:
480,14,184205,1,10,0:0:0:0:
256,192,184432,12,6,186023,3:1:0:0:
471,156,189659,6,0,P|312:200|168:333,1,359.999989013672,2|2,0:2|0:2,0:0:0:0:
29,216,192387,2,0,B|38:189|38:189|36:146|36:146|53:106,1,89.9999972534181,2|2,0:2|0:2,0:0:0:0:
26,40,193296,2,0,P|185:84|329:217,1,359.999989013672,2|0,0:2|0:0,0:0:0:0:
400,377,196023,1,2,0:2:0:0:
465,209,196932,2,0,B|254:203|345:330|123:327,1,359.999989013672,2|2,0:2|0:2,0:0:0:0:
21,189,199659,1,2,0:2:0:0:
0,331,200569,6,0,P|68:331|151:216,1,200,6|0,3:2|0:0,0:0:0:0:
122,151,201932,1,8,0:2:0:0:
189,91,202387,2,0,P|236:104|294:114,1,100,0|10,3:2|0:2,0:0:0:0:
367,74,203296,2,0,P|388:120|384:177,1,100,2|8,3:2|0:2,0:0:0:0:
415,203,203978,1,4,0:3:0:0:
415,203,204205,6,0,P|356:219|261:326,1,200,6|0,3:2|0:0,0:0:0:0:
193,262,205569,1,8,0:2:0:0:
141,335,206023,2,0,L|38:358,1,100,0|8,3:2|0:2,0:0:0:0:
0,280,206932,2,0,B|27:238|27:238|18:176,1,100,0|10,3:2|0:2,0:0:0:0:
41,148,207614,1,10,0:3:0:0:
41,148,207841,6,0,P|136:146|235:210,2,200,6|2|0,3:2|3:2|3:2,0:0:0:0:
0,65,210114,1,8,0:2:0:0:
76,16,210569,2,0,P|120:35|183:36,1,100,0|10,0:0|0:2,0:0:0:0:
259,17,211478,2,0,P|254:119|238:223,2,200,6|2|0,3:2|3:2|3:2,0:0:0:0:
339,56,213750,1,10,0:2:0:0:
418,13,214205,1,2,3:2:0:0:
479,78,214659,1,10,0:2:0:0:
434,156,215114,6,0,P|406:198|386:350,1,200,4|0,3:2|3:2,0:0:0:0:
300,310,216478,1,8,0:2:0:0:
216,342,216932,2,0,P|200:304|203:236,1,100,0|10,3:2|0:2,0:0:0:0:
264,183,217841,2,0,L|362:199,1,100,2|10,3:2|0:2,0:0:0:0:
412,190,218523,1,6,0:3:0:0:
412,190,218750,6,0,B|426:93|426:93|470:60|468:0,1,200,4|0,3:2|3:2,0:0:0:0:
378,13,220114,1,8,0:2:0:0:
311,74,220569,2,0,P|282:56|208:52,1,100,0|8,3:2|0:2,0:0:0:0:
139,95,221478,2,0,P|151:141|154:203,1,100,0|10,3:2|0:2,0:0:0:0:
134,233,222159,1,10,0:3:0:0:
134,233,222387,6,0,P|192:244|262:369,2,200,6|2|0,3:2|3:2|3:2,0:0:0:0:
73,166,224659,1,8,0:2:0:0:
133,99,225114,2,0,P|182:99|233:71,1,100,0|10,3:2|0:2,0:0:0:0:
292,137,226023,2,0,B|410:130|378:186|488:186,2,200,6|0|0,3:2|0:0|3:2,0:0:0:0:
226,199,228296,1,14,0:2:0:0:
255,284,228750,1,10,0:2:0:0:
344,296,229205,1,10,0:2:0:0:
407,231,229659,6,0,P|379:149|403:33,1,200,4|0,3:2|3:2,0:0:0:0:
312,64,231023,1,8,0:2:0:0:
231,23,231478,2,0,B|197:27|197:27|173:45|173:45|133:51,1,100,0|10,3:2|0:2,0:0:0:0:
61,98,232387,2,0,P|56:145|42:209,1,100,2|8,3:2|0:2,0:0:0:0:
72,232,233069,1,6,0:3:0:0:
72,232,233296,6,0,P|127:239|209:358,2,200,4|0|0,3:2|3:2|3:2,0:0:0:0:
107,149,235569,1,8,0:2:0:0:
64,69,236023,2,0,P|103:50|170:43,1,100,0|10,3:2|0:2,0:0:0:0:
191,73,236705,1,10,0:3:0:0:
191,73,236932,2,0,P|289:87|393:115,2,200,6|0|0,3:2|0:0|3:2,0:0:0:0:
138,146,239205,1,8,0:2:0:0:
209,200,239659,2,0,B|228:240|228:240|208:304,1,100,0|10,3:2|0:2,0:0:0:0:
270,361,240569,6,0,P|337:308|458:303,1,200,4|0,3:2|3:2,0:0:0:0:
424,213,241932,1,8,0:2:0:0:
478,141,242387,2,0,P|485:93|489:35,1,100,4|8,3:2|0:2,0:0:0:0:
459,7,243069,1,8,0:2:0:0:
459,7,243296,2,0,P|409:10|359:17,1,100,10|8,0:3|0:3,0:0:0:0:
303,88,244205,1,6,3:2:0:0:
256,192,244659,12,2,251478,0:2:0:0:
9,128,253296,6,0,P|56:142|112:234,1,134.999995880127,2|2,0:2|0:2,0:0:0:0:
266,333,255114,2,0,L|452:358,1,179.999994506836,2|2,0:2|0:2,0:0:0:0:
443,194,256932,2,0,L|303:175,1,134.999995880127,2|2,0:2|0:2,0:0:0:0:
279,141,257841,6,0,B|264:60|314:80|291:-6,1,150,2|0,0:2|0:2,0:0:0:0:
