osu file format v14

[General]
AudioFilename: audio.mp3
AudioLeadIn: 0
PreviewTime: 57407
Countdown: 0
SampleSet: Soft
StackLeniency: 0.5
Mode: 2
LetterboxInBreaks: 0
WidescreenStoryboard: 1

[Editor]
Bookmarks: 703,7975,15248,22521,29793,37066,42521,44339,57066,58884,66157,73430,77066,80703,84339,87975,89793
DistanceSpacing: 1
BeatDivisor: 4
GridSize: 4
TimelineZoom: 2.599999

[Metadata]
Title:Red Swan (TV Size)
TitleUnicode:Red Swan (TV Size)
Artist:YOSHIKI feat. HYDE
ArtistUnicode:YOSHIKI feat. HYDE
Creator:zerokt
Version:Eren
Source:進撃の巨人
Tags:rew0825 attack on titan shingeki no kyojin season 3 three opening op anime japanese mikasa levi armin uprising arc japan eren
BeatmapID:3199669
BeatmapSetID:1567062

[Difficulty]
HPDrainRate:5
CircleSize:4
OverallDifficulty:9
ApproachRate:9
SliderMultiplier:2.19
SliderTickRate:2

[Events]
//Background and Video events
0,0,"istilllovemikasa.jpg",0,0
Video,0,"ilovemikasa.mp4"
//Break Periods
//Storyboard Layer 0 (Background)
//Storyboard Layer 1 (Fail)
//Storyboard Layer 2 (Pass)
//Storyboard Layer 3 (Foreground)
//Storyboard Layer 4 (Overlay)
//Storyboard Sound Samples

[TimingPoints]
703,454.545454545455,4,2,69,75,1,0
703,-100,4,2,69,75,0,0
15248,-100,4,2,69,75,0,0
29793,-100,4,2,69,75,0,0
44339,-100,4,2,69,60,0,0
73430,-100,4,2,69,85,0,0
87975,-100,4,2,69,35,0,0
89339,-100,4,2,69,15,0,0
89793,-100,4,2,69,5,0,0

[Colours]
Combo1 : 128,0,0
Combo2 : 253,0,6

[HitObjects]
206,62,703,6,0,P|146:59|66:63,1,109.5,6|0,1:2|1:2,0:0:0:0:
276,150,1157,2,0,P|283:209|279:296,1,109.5,8|0,0:0|1:2,0:0:0:0:
223,259,1498,1,8,0:0:0:0:
113,138,1612,2,0,P|110:177|113:220,1,54.75,2|8,1:2|0:0,0:0:0:0:
168,341,1839,2,0,P|211:342|249:340,1,54.75,0|0,1:2|0:0,0:0:0:0:
333,106,2066,2,0,P|336:167|333:236,1,109.5,8|0,0:0|1:0,0:0:0:0:
278,217,2407,1,8,0:0:0:0:
89,86,2521,6,0,P|87:140|92:225,1,109.5,2|0,1:2|1:0,0:0:0:0:
266,111,2975,2,0,P|236:108|211:109,1,54.75,8|0,0:0|0:0,0:0:0:0:
323,258,3203,1,2,1:2:0:0:
378,257,3316,2,0,P|380:295|377:311,1,54.75,8|0,0:0|1:2,0:0:0:0:
322,41,3543,1,8,0:0:0:0:
256,42,3657,1,0,1:0:0:0:
433,71,3884,2,0,P|436:132|435:196,1,109.5,8|0,0:0|1:0,0:0:0:0:
134,118,4339,6,0,P|133:176|137:237,1,109.5,2|0,1:2|1:2,0:0:0:0:
318,177,4793,2,0,P|319:235|317:305,1,109.5,8|0,0:0|1:2,0:0:0:0:
262,176,5134,1,8,0:0:0:0:
152,112,5248,2,0,P|151:146|152:166,1,54.75,2|8,1:2|0:0,0:0:0:0:
207,310,5475,2,0,P|243:313|262:310,1,54.75,0|0,1:2|0:0,0:0:0:0:
375,90,5703,2,0,P|379:149|378:209,1,109.5,8|0,0:0|1:0,0:0:0:0:
323,92,6043,1,8,0:0:0:0:
134,282,6157,6,0,P|129:227|134:155,1,109.5,2|0,1:2|1:0,0:0:0:0:
310,118,6611,2,0,P|279:116|255:119,1,54.75,8|0,0:0|0:0,0:0:0:0:
366,292,6839,1,2,1:2:0:0:
421,291,6952,2,0,P|423:326|420:365,1,54.75,8|0,0:0|1:2,0:0:0:0:
311,298,7179,2,0,P|309:243|312:189,1,109.5,8|0,0:0|0:0,0:0:0:0:
422,108,7520,2,0,P|424:167|422:259,1,109.5,8|0,0:0|1:0,0:0:0:0:
366,217,7862,1,8,0:0:0:0:
171,214,7975,6,0,P|168:279|171:323,1,109.5,6|0,1:2|1:2,0:0:0:0:
347,135,8430,2,0,P|401:132|493:132,1,109.5,8|0,0:0|1:2,0:0:0:0:
401,128,8771,1,8,0:0:0:0:
289,228,8885,2,0,P|268:226|204:230,1,54.75,0|8,1:2|0:0,0:0:0:0:
289,228,9112,2,0,P|333:224|370:227,1,54.75,0|0,1:2|0:0,0:0:0:0:
232,47,9339,2,0,P|236:114|232:157,1,109.5,8|0,0:0|1:0,0:0:0:0:
286,160,9680,1,8,0:0:0:0:
97,232,9794,6,0,P|92:295|97:357,1,109.5,2|0,1:2|1:0,0:0:0:0:
274,290,10248,2,0,P|308:287|353:288,1,54.75,8|0,0:0|0:0,0:0:0:0:
219,105,10475,1,2,1:2:0:0:
164,104,10589,2,0,P|162:146|165:178,1,54.75,8|0,0:0|1:2,0:0:0:0:
276,199,10816,1,8,0:0:0:0:
330,192,10930,2,0,P|334:232|329:262,1,54.75,0|0,1:0|0:0,0:0:0:0:
217,315,11157,2,0,P|159:310|107:313,1,109.5,8|0,0:0|1:0,0:0:0:0:
410,161,11612,6,0,P|414:228|411:282,1,109.5,2|0,1:2|1:0,0:0:0:0:
233,113,12066,2,0,P|176:107|87:110,1,109.5,8|0,0:0|1:2,0:0:0:0:
179,106,12407,1,8,0:0:0:0:
289,174,12521,2,0,P|323:173|374:176,1,54.75,2|8,1:2|0:0,0:0:0:0:
288,175,12748,2,0,P|249:172|207:174,1,54.75,0|0,1:2|0:0,0:0:0:0:
344,293,12975,2,0,P|398:287|484:293,1,109.5,8|0,0:0|1:0,0:0:0:0:
398,295,13316,1,8,0:0:0:0:
210,309,13430,6,0,P|184:311|150:310,1,54.75,2|0,1:2|0:0,0:0:0:0:
210,309,13657,2,0,P|245:310|264:309,1,54.75,0|0,1:0|0:0,0:0:0:0:
210,309,13884,2,0,L|124:308,1,54.75,8|0,0:0|0:0,0:0:0:0:
347,144,14112,2,0,P|383:141|422:145,1,54.75,0|8,1:2|0:0,0:0:0:0:
210,164,14339,1,2,1:2:0:0:
156,163,14453,1,8,0:0:0:0:
210,181,14566,1,0,1:0:0:0:
266,181,14680,1,0,1:2:0:0:
75,241,14793,1,10,0:0:0:0:
21,242,14906,1,8,0:0:0:0:
75,257,15020,1,0,1:2:0:0:
130,258,15133,1,0,1:2:0:0:
391,213,15248,6,0,P|395:278|392:332,1,109.5,6|0,1:2|1:2,0:0:0:0:
214,236,15703,2,0,P|274:241|360:233,1,109.5,8|0,0:0|0:0,0:0:0:0:
268,229,16044,1,8,0:0:0:0:
159,173,16157,2,0,P|156:143|159:98,1,54.75,2|8,1:2|0:0,0:0:0:0:
213,114,16384,2,0,P|243:112|267:112,1,54.75,0|0,1:2|0:0,0:0:0:0:
154,230,16612,2,0,P|98:230|44:226,1,109.5,8|0,0:0|0:0,0:0:0:0:
98,218,16953,1,8,0:0:0:0:
298,106,17066,6,0,P|300:165|299:237,1,109.5,2|0,1:2|1:0,0:0:0:0:
115,323,17521,2,0,P|112:269|117:214,1,109.5,8|0,0:0|1:2,0:0:0:0:
171,216,17862,1,8,0:0:0:0:
305,88,17976,2,0,P|336:85|387:88,1,54.75,2|0,1:2|0:0,0:0:0:0:
305,88,18203,2,0,P|268:86|212:91,1,54.75,0|2,1:0|0:0,0:0:0:0:
360,170,18430,2,0,P|419:163|469:171,1,109.5,8|2,0:0|1:2,0:0:0:0:
183,145,18884,6,0,P|126:139|37:142,1,109.5,2|0,1:2|1:2,0:0:0:0:
129,143,19225,1,0,0:0:0:0:
175,297,19339,2,0,P|229:292|284:299,1,109.5,8|0,0:0|0:0,0:0:0:0:
229,293,19680,1,8,0:0:0:0:
120,254,19793,2,0,P|90:260|35:254,1,54.75,2|8,1:2|0:0,0:0:0:0:
119,246,20020,2,0,P|149:250|204:246,1,54.75,0|0,1:2|0:0,0:0:0:0:
287,222,20248,2,0,P|289:285|284:380,1,109.5,8|0,0:0|1:0,0:0:0:0:
230,330,20589,1,8,0:0:0:0:
42,224,20703,6,0,P|40:174|44:114,1,109.5,2|0,1:2|0:0,0:0:0:0:
220,113,21157,2,0,P|161:106|89:115,1,109.5,8|2,0:0|1:2,0:0:0:0:
164,115,21498,1,8,0:0:0:0:
273,248,21612,2,0,P|303:244|327:248,1,54.75,0|8,1:2|0:0,0:0:0:0:
273,254,21839,2,0,P|238:251|218:254,1,54.75,2|0,1:2|0:0,0:0:0:0:
107,316,22066,2,0,P|104:258|108:177,1,109.5,10|0,0:0|1:0,0:0:0:0:
174,202,22407,1,8,0:0:0:0:
367,329,22521,6,0,P|369:280|366:219,1,109.5,6|0,1:2|1:2,0:0:0:0:
196,135,22975,2,0,P|250:127|305:132,1,109.5,8|2,0:0|1:2,0:0:0:0:
250,132,23316,1,8,0:0:0:0:
138,216,23430,2,0,P|169:211|223:214,1,54.75,2|8,1:2|0:0,0:0:0:0:
247,212,23657,2,0,P|277:209|302:212,1,54.75,0|0,1:2|0:0,0:0:0:0:
190,55,23884,2,0,P|135:54|58:58,1,109.5,8|0,0:0|1:0,0:0:0:0:
135,54,24225,1,8,0:0:0:0:
323,276,24339,6,0,P|384:272|446:273,1,109.5,2|0,1:2|1:0,0:0:0:0:
253,105,24793,2,0,P|188:101|144:107,1,109.5,8|2,0:0|1:2,0:0:0:0:
197,107,25134,1,8,0:0:0:0:
88,170,25248,1,0,1:2:0:0:
33,172,25362,1,8,0:0:0:0:
33,226,25475,1,0,1:0:0:0:
87,227,25589,1,0,0:0:0:0:
197,340,25702,2,0,P|252:342|307:340,1,109.5,10|0,0:0|1:2,0:0:0:0:
21,204,26157,6,0,P|18:262|21:318,1,109.5,2|0,1:2|1:2,0:0:0:0:
199,122,26612,2,0,P|256:117|308:119,1,109.5,8|0,0:0|0:0,0:0:0:0:
253,120,26953,1,8,0:0:0:0:
141,270,27067,2,0,P|112:273|86:271,1,54.75,2|0,1:2|0:0,0:0:0:0:
141,270,27294,2,0,P|180:275|228:270,1,54.75,0|0,1:2|0:0,0:0:0:0:
308,99,27521,2,0,P|373:92|428:98,1,109.5,8|0,0:0|1:0,0:0:0:0:
362,103,27862,1,8,0:0:0:0:
175,170,27975,6,0,P|119:175|61:172,1,109.5,2|0,1:2|1:0,0:0:0:0:
247,330,28429,2,0,P|195:332|138:328,1,109.5,8|0,0:0|1:2,0:0:0:0:
191,317,28771,1,8,0:0:0:0:
376,100,28884,1,2,1:2:0:0:
436,100,28998,1,8,0:0:0:0:
442,101,29112,1,0,1:2:0:0:
382,102,29225,1,2,1:2:0:0:
195,282,29339,1,8,0:0:0:0:
140,283,29453,1,8,0:0:0:0:
337,274,29566,1,2,1:2:0:0:
391,274,29680,1,0,1:2:0:0:
171,189,29793,6,0,P|114:182|39:188,1,109.5,6|0,1:2|1:2,0:0:0:0:
241,119,30248,2,0,P|298:113|387:116,1,109.5,8|0,0:0|0:0,0:0:0:0:
295,112,30589,1,8,0:0:0:0:
404,155,30702,2,0,P|432:154|458:159,1,54.75,2|8,1:2|0:0,0:0:0:0:
403,165,30930,2,0,P|377:172|349:163,1,54.75,0|0,1:2|0:0,0:0:0:0:
241,233,31157,2,0,P|181:241|131:237,1,109.5,8|0,0:0|0:0,0:0:0:0:
186,235,31498,1,8,0:0:0:0:
375,127,31612,6,0,P|435:129|484:127,1,109.5,2|0,1:2|0:0,0:0:0:0:
306,269,32066,2,0,P|248:272|174:271,1,109.5,10|2,0:0|1:2,0:0:0:0:
251,266,32407,1,8,0:0:0:0:
362,124,32521,2,0,P|367:173|363:211,1,54.75,2|0,1:2|0:0,0:0:0:0:
307,183,32748,2,0,P|274:188|214:186,1,54.75,2|0,1:2|0:0,0:0:0:0:
362,49,32975,2,0,P|416:44|471:50,1,109.5,8|0,0:0|1:2,0:0:0:0:
186,126,33430,6,0,P|126:132|40:123,1,109.5,2|0,1:2|0:0,0:0:0:0:
132,124,33771,1,0,0:0:0:0:
242,184,33885,2,0,P|300:191|351:186,1,109.5,8|0,0:0|1:2,0:0:0:0:
296,180,34226,1,8,0:0:0:0:
186,279,34339,2,0,P|155:283|101:279,1,54.75,0|8,1:2|0:0,0:0:0:0:
76,275,34566,2,0,P|74:241|79:197,1,54.75,0|0,1:2|0:0,0:0:0:0:
189,81,34793,2,0,P|137:79|44:79,1,109.5,8|0,0:0|0:0,0:0:0:0:
133,83,35134,1,8,0:0:0:0:
331,237,35248,6,0,P|390:237|449:227,1,109.5,2|0,1:2|0:0,0:0:0:0:
263,97,35702,2,0,P|317:102|394:99,1,109.5,8|2,0:0|1:2,0:0:0:0:
319,99,36043,1,8,0:0:0:0:
208,168,36157,2,0,P|179:166|154:168,1,54.75,2|8,1:2|0:0,0:0:0:0:
208,168,36384,2,0,P|242:165|263:168,1,54.75,0|0,1:2|1:2,0:0:0:0:
152,316,36611,2,0,P|91:319|27:318,1,109.5,10|10,0:0|0:2,0:0:0:0:
97,315,36952,1,8,0:2:0:0:
320,312,37066,6,0,P|383:311|447:306,1,109.5,6|0,1:2|1:2,0:0:0:0:
252,183,37520,2,0,P|195:183|143:186,1,109.5,8|2,0:0|1:2,0:0:0:0:
197,182,37861,1,8,0:0:0:0:
307,264,37975,2,0,P|344:256|392:262,1,54.75,2|8,1:2|0:0,0:0:0:0:
307,264,38202,2,0,P|276:257|252:264,1,54.75,0|0,1:2|0:0,0:0:0:0:
142,75,38429,2,0,P|83:81|10:78,1,109.5,8|0,0:0|1:0,0:0:0:0:
87,80,38770,1,8,0:0:0:0:
278,191,38884,6,0,P|337:198|401:188,1,109.5,2|0,1:2|1:0,0:0:0:0:
210,286,39338,2,0,P|265:290|319:284,1,109.5,8|2,0:0|1:2,0:0:0:0:
268,264,39679,1,8,0:0:0:0:
157,73,39793,1,2,1:2:0:0:
102,75,39907,1,8,0:0:0:0:
102,129,40020,1,0,1:2:0:0:
156,130,40134,1,0,0:0:0:0:
266,178,40247,2,0,P|209:175|156:178,1,109.5,10|2,0:0|1:2,0:0:0:0:
442,162,40702,6,0,P|447:220|442:276,1,109.5,2|0,1:2|1:2,0:0:0:0:
261,240,41157,2,0,P|258:302|262:368,1,109.5,8|0,0:0|0:0,0:0:0:0:
316,347,41498,1,8,0:0:0:0:
427,162,41612,2,0,P|432:205|427:253,1,54.75,0|0,1:2|0:0,0:0:0:0:
371,217,41839,2,0,P|338:223|316:217,1,54.75,0|0,1:2|0:0,0:0:0:0:
208,215,42066,2,0,P|148:223|98:215,1,109.5,8|0,0:0|1:0,0:0:0:0:
153,212,42407,1,8,0:0:0:0:
340,81,42520,6,0,P|399:78|462:81,1,109.5,2|0,1:2|1:0,0:0:0:0:
271,160,42975,2,0,P|328:155|383:157,1,109.5,8|0,0:0|1:2,0:0:0:0:
325,159,43316,1,8,0:0:0:0:
136,316,43429,1,2,1:2:0:0:
76,316,43543,1,8,0:0:0:0:
70,317,43657,1,0,1:2:0:0:
130,318,43770,1,0,1:2:0:0:
320,57,43884,1,10,0:0:0:0:
375,58,43998,1,0,1:2:0:0:
175,152,44111,1,10,0:2:0:0:
121,152,44225,1,8,0:2:0:0:
351,333,44339,6,0,P|418:314|339:234,1,219,6|0,1:2|0:0,0:0:0:0:
136,260,45248,2,0,P|133:151|136:8,1,219,2|0,0:0|0:0,0:0:0:0:
244,36,45930,1,0,0:0:0:0:
424,164,46157,6,0,P|472:252|376:312,1,219,2|0,0:2|0:0,0:0:0:0:
216,272,46839,2,0,P|339:267|452:272,1,219,2|0,0:0|0:0,0:0:0:0:
324,276,47521,1,0,0:0:0:0:
432,276,47748,1,0,0:0:0:0:
148,336,47975,6,0,P|81:317|160:237,1,219,2|0,0:2|0:0,0:0:0:0:
256,228,48657,1,0,0:0:0:0:
432,224,48884,2,0,P|434:172|432:104,1,109.5,2|0,0:2|0:0,0:0:0:0:
248,220,49339,2,0,P|193:223|139:220,1,109.5,0|0,0:0|0:0,0:0:0:0:
424,164,49793,6,0,P|472:252|376:312,1,219,2|0,0:2|0:0,0:0:0:0:
216,272,50475,2,0,P|104:236|112:92,1,219,2|0,0:0|0:0,0:0:0:0:
260,136,51157,1,0,0:0:0:0:
152,136,51384,1,0,0:0:0:0:
440,184,51612,6,0,P|472:260|348:288,1,219,2|0,0:2|0:0,0:0:0:0:
260,300,52294,1,0,0:0:0:0:
440,248,52521,2,0,P|444:191|440:128,1,109.5,2|0,0:2|0:0,0:0:0:0:
264,296,52976,2,0,P|322:298|373:296,1,109.5,0|0,0:0|0:0,0:0:0:0:
88,136,53430,6,0,P|40:224|136:284,1,219,2|0,0:2|0:0,0:0:0:0:
296,244,54112,2,0,P|178:240|52:244,1,219,2|0,0:2|0:0,0:0:0:0:
256,128,54794,1,0,0:0:0:0:
364,128,55021,1,0,0:0:0:0:
72,184,55248,6,0,P|40:260|164:288,1,219,2|0,0:2|0:0,0:0:0:0:
320,292,55930,1,0,0:0:0:0:
144,108,56157,2,0,P|140:170|144:217,1,109.5,2|0,0:2|0:0,0:0:0:0:
327,196,56612,2,0,P|333:261|327:305,1,109.5,0|0,0:0|0:0,0:0:0:0:
41,122,57066,6,0,P|38:182|41:250,1,109.5,2|0,0:2|0:0,0:0:0:0:
224,308,57521,1,2,0:2:0:0:
333,308,57748,1,2,0:2:0:0:
151,220,57976,1,2,0:2:0:0:
436,224,58203,2,0,P|487:152|397:80,1,219,2|0,0:2|0:0,0:0:0:0:
120,208,58884,6,0,P|116:280|236:344,1,219,2|0,0:2|0:0,0:0:0:0:
412,208,59566,2,0,P|416:280|296:344,1,219,2|0,0:0|0:0,0:0:0:0:
124,327,60248,2,0,P|116:265|124:167,1,109.5,0|0,0:0|0:0,0:0:0:0:
416,200,60703,6,0,P|421:144|416:40,1,109.5,2|0,0:2|0:0,0:0:0:0:
240,320,61157,1,2,0:2:0:0:
348,316,61384,1,2,0:2:0:0:
240,300,61612,1,2,0:2:0:0:
420,104,61839,2,0,P|495:159|419:213,1,219,2|2,0:2|0:2,0:0:0:0:
132,208,62521,6,0,P|71:212|0:208,2,109.5,2|0|0,0:2|0:0|0:0,0:0:0:0:
312,316,63203,2,0,P|256:310|188:316,1,109.5,2|2,0:2|0:2,0:0:0:0:
380,204,63657,2,0,P|443:201|504:204,1,109.5,0|0,0:0|0:0,0:0:0:0:
380,208,64112,1,2,0:2:0:0:
96,336,64339,6,0,P|18:283|93:227,1,219,2|0,0:2|0:0,0:0:0:0:
204,228,65021,1,0,0:0:0:0:
24,224,65248,2,0,P|20:170|24:96,1,109.5,2|0,0:2|0:0,0:0:0:0:
200,120,65703,2,0,P|143:113|90:120,1,109.5,2|0,0:2|0:0,0:0:0:0:
380,228,66157,6,0,P|454:284|376:337,1,219,2|0,0:2|0:0,0:0:0:0:
200,336,66839,1,2,0:2:0:0:
376,337,67066,2,0,P|454:284|380:228,1,219,2|0,0:2|0:0,0:0:0:0:
96,112,67975,6,0,P|21:168|99:221,1,219,2|0,0:2|0:0,0:0:0:0:
208,212,68657,1,2,0:2:0:0:
384,288,68884,2,0,P|299:292|192:288,2,164.25,2|2|2,0:2|0:2|0:2,0:0:0:0:
96,184,69793,6,0,P|18:131|93:74,1,219,2|0,0:2|0:0,0:0:0:0:
204,68,70475,1,2,0:2:0:0:
380,124,70703,2,0,P|454:181|436:332,1,219,2|0,0:2|0:0,0:0:0:0:
348,308,71384,1,2,0:2:0:0:
52,320,71612,6,0,P|48:210|52:56,1,219,2|0,0:2|0:0,0:0:0:0:
447,320,72521,2,0,P|451:208|447:56,1,219,2|0,0:2|0:0,0:0:0:0:
339,100,73203,1,0,0:0:0:0:
44,104,73430,6,0,P|42:165|44:240,1,109.5,6|0,1:2|1:2,0:0:0:0:
224,296,73884,2,0,P|165:296|114:298,1,109.5,8|2,0:0|1:2,0:0:0:0:
168,292,74225,1,8,0:0:0:0:
276,224,74339,2,0,P|310:219|352:220,1,54.75,2|8,1:2|0:0,0:0:0:0:
220,80,74566,2,0,P|188:84|166:82,1,54.75,0|0,1:2|0:0,0:0:0:0:
356,124,74793,2,0,P|412:118|472:120,1,109.5,8|0,0:0|1:0,0:0:0:0:
412,124,75134,1,8,0:0:0:0:
212,272,75248,5,0,1:2:0:0:
104,264,75475,1,2,1:2:0:0:
284,316,75703,2,0,P|340:312|412:312,1,109.5,10|2,0:0|1:2,0:0:0:0:
340,308,76044,1,8,0:0:0:0:
228,180,76157,2,0,P|263:184|283:180,1,54.75,2|8,1:2|0:0,0:0:0:0:
396,168,76385,2,0,P|398:211|396:260,1,54.75,0|2,1:0|0:0,0:0:0:0:
204,172,76612,2,0,P|200:237|200:316,1,109.5,8|2,0:0|1:2,0:0:0:0:
256,288,76953,1,8,0:0:0:0:
472,224,77066,6,0,P|477:283|476:352,1,109.5,6|0,1:2|1:2,0:0:0:0:
299,303,77521,2,0,B|245:300|245:300|189:306,1,109.5,8|0,0:0|0:0,0:0:0:0:
134,306,77862,1,8,0:0:0:0:
244,192,77975,2,0,P|274:192|299:192,1,54.75,0|8,1:2|0:0,0:0:0:0:
188,41,78203,2,0,P|185:81|188:133,1,54.75,0|0,1:2|0:0,0:0:0:0:
376,109,78430,2,0,P|435:105|524:107,1,109.5,8|0,0:0|0:0,0:0:0:0:
430,107,78771,1,8,0:0:0:0:
217,315,78884,6,0,P|160:311|69:313,1,109.5,2|0,1:2|1:0,0:0:0:0:
291,224,79339,2,0,P|322:224|370:222,1,54.75,10|0,0:0|0:0,0:0:0:0:
292,209,79566,1,2,1:2:0:0:
180,109,79680,2,0,P|178:151|181:183,1,54.75,8|2,0:0|1:2,0:0:0:0:
291,300,79907,1,8,0:0:0:0:
345,293,80021,2,0,P|348:338|344:363,1,54.75,0|0,1:0|1:2,0:0:0:0:
157,295,80248,2,0,P|99:298|47:293,1,109.5,10|2,0:0|1:2,0:0:0:0:
342,76,80703,6,0,P|400:82|452:78,1,109.5,6|0,1:2|1:2,0:0:0:0:
276,298,81157,2,0,P|223:302|166:301,1,109.5,8|2,0:0|1:2,0:0:0:0:
111,301,81498,1,8,0:0:0:0:
221,198,81611,2,0,P|256:203|276:198,1,54.75,2|8,1:2|0:0,0:0:0:0:
392,260,81839,2,0,P|395:302|392:359,1,54.75,0|0,1:2|0:0,0:0:0:0:
205,90,82066,2,0,P|150:92|57:88,1,109.5,8|0,0:0|1:0,0:0:0:0:
151,88,82407,1,8,0:0:0:0:
339,284,82521,6,0,P|397:286|469:285,1,109.5,2|0,1:2|1:2,0:0:0:0:
267,168,82975,2,0,P|325:163|395:164,1,109.5,8|0,0:0|1:2,0:0:0:0:
431,63,83316,1,8,0:0:0:0:
319,268,83430,2,0,P|293:271|264:268,1,54.75,0|8,1:2|0:0,0:0:0:0:
374,332,83657,2,0,P|408:329|429:332,1,54.75,0|0,1:0|0:0,0:0:0:0:
240,109,83884,2,0,P|179:111|119:103,1,109.5,10|0,0:0|1:2,0:0:0:0:
186,90,84225,1,8,0:0:0:0:
375,188,84339,6,0,P|433:200|488:219,1,109.5,6|0,1:2|1:2,0:0:0:0:
302,331,84793,2,0,P|243:321|196:302,1,109.5,8|2,0:0|1:2,0:0:0:0:
251,303,85134,1,8,0:0:0:0:
362,144,85248,2,0,P|395:143|417:144,1,54.75,2|8,1:2|0:0,0:0:0:0:
307,218,85475,2,0,P|280:220|252:218,1,54.75,0|0,1:2|0:0,0:0:0:0:
442,217,85702,2,0,P|464:273|482:335,1,109.5,8|0,0:0|1:0,0:0:0:0:
423,331,86043,1,8,0:0:0:0:
190,331,86157,6,0,P|135:330|56:327,1,109.5,2|0,1:2|1:0,0:0:0:0:
259,194,86612,2,0,P|316:199|392:192,1,109.5,8|2,0:0|1:2,0:0:0:0:
180,83,86953,1,8,0:0:0:0:
126,84,87066,1,0,1:2:0:0:
180,83,87180,1,8,0:0:0:0:
370,83,87293,1,2,1:2:0:0:
424,82,87407,1,0,1:2:0:0:
424,248,87521,1,10,0:0:0:0:
369,248,87634,1,8,0:0:0:0:
177,248,87748,2,0,P|151:242|122:248,1,54.75,2|0,1:2|1:2,0:0:0:0:
369,248,87975,5,4,0:0:0:0:
256,192,88203,12,0,89793,0:0:0:0:
