osu file format v14

[General]
AudioFilename: audio.mp3
AudioLeadIn: 0
PreviewTime: 57136
Countdown: 0
SampleSet: Normal
StackLeniency: 0.7
Mode: 1
LetterboxInBreaks: 0
WidescreenStoryboard: 1

[Editor]
Bookmarks: 14977,29522
DistanceSpacing: 1.7
BeatDivisor: 4
GridSize: 16
TimelineZoom: 1.15

[Metadata]
Title:Red Swan (TV Size)
TitleUnicode:Red Swan (TV Size)
Artist:YOSHIKI feat. HYDE
ArtistUnicode:YOSHIKI feat. HYDE
Creator:Ognjen3800
Version:meiqth's Lite Muzukashii
Source:進撃の巨人
Tags:attack on titan aot shingeki no kyojin snk s3 season 3 three 3rd third opening op anime japanese english zoe zoë hange ハンジ・ゾエ erwin smith エルヴィン・スミス levi リヴァイ eren yeager エレン・イェーガー mikasa ackerman ミカサ・アッカーマン armin arlert アルミン・アルレルト meiqth e_s_i_a [-e_s_i_a-] esia [-esia-] symphonic rock j-rock jrock XJAPAN X-JAPAN ft. featuring
BeatmapID:3992234
BeatmapSetID:1932262

[Difficulty]
HPDrainRate:7
CircleSize:2
OverallDifficulty:4
ApproachRate:10
SliderMultiplier:1.4
SliderTickRate:1

[Events]
//Background and Video events
0,0,"AOT.jpg",0,100
//Break Periods
2,44276,56808
//Storyboard Layer 0 (Background)
//Storyboard Layer 1 (Fail)
//Storyboard Layer 2 (Pass)
//Storyboard Layer 3 (Foreground)
//Storyboard Layer 4 (Overlay)
//Storyboard Sound Samples

[TimingPoints]
440,454.545454545455,4,1,0,75,1,0
440,-100,4,1,0,75,0,0
15204,-100,4,1,0,70,0,0
44295,-100,4,1,0,65,0,0
59068,-100,4,1,0,70,0,0
73167,-100,4,1,0,80,0,1
87712,-100,4,1,0,80,0,0

[HitObjects]
255,192,440,5,8,0:0:0:0:
255,192,1121,1,8,0:0:0:0:
255,192,1349,1,0,0:0:0:0:
255,192,1803,1,8,0:0:0:0:
255,192,2030,1,0,0:0:0:0:
255,192,2258,1,8,0:0:0:0:
255,192,2712,1,8,0:0:0:0:
255,192,2940,1,0,0:0:0:0:
255,192,3394,1,0,0:0:0:0:
255,192,3621,1,8,0:0:0:0:
255,192,4076,1,8,0:0:0:0:
255,192,4530,1,0,0:0:0:0:
255,192,4758,1,0,0:0:0:0:
255,192,4985,1,8,0:0:0:0:
255,192,5440,1,0,0:0:0:0:
255,192,5667,1,8,0:0:0:0:
255,192,5894,1,0,0:0:0:0:
255,192,6349,1,8,0:0:0:0:
255,192,6576,1,0,0:0:0:0:
255,192,7030,1,0,0:0:0:0:
255,192,7258,1,8,0:0:0:0:
255,192,7712,1,12,0:0:0:0:
255,192,8394,1,0,0:0:0:0:
255,192,8621,1,8,0:0:0:0:
255,192,9075,1,0,0:0:0:0:
255,192,9302,1,0,0:0:0:0:
255,192,9530,1,8,0:0:0:0:
255,192,9984,1,8,0:0:0:0:
255,192,10212,1,0,0:0:0:0:
255,192,10666,1,0,0:0:0:0:
255,192,10893,1,8,0:0:0:0:
255,192,11348,1,8,0:0:0:0:
255,192,11802,1,0,0:0:0:0:
255,192,12030,1,0,0:0:0:0:
255,192,12257,1,8,0:0:0:0:
255,192,12712,1,8,0:0:0:0:
255,192,12939,1,8,0:0:0:0:
255,192,13166,1,0,0:0:0:0:
255,192,13621,1,8,0:0:0:0:
255,192,13848,1,0,0:0:0:0:
255,192,14076,1,8,0:0:0:0:
255,192,14190,1,8,0:0:0:0:
255,192,14303,1,8,0:0:0:0:
255,192,14530,1,0,0:0:0:0:
255,192,14984,1,12,0:0:0:0:
255,192,15667,1,0,0:0:0:0:
255,192,15894,1,0,0:0:0:0:
255,192,16349,1,8,0:0:0:0:
255,192,16803,1,0,0:0:0:0:
255,192,17258,1,8,0:0:0:0:
255,192,17712,1,0,0:0:0:0:
255,192,17940,1,0,0:0:0:0:
255,192,18167,1,8,0:0:0:0:
255,192,18621,1,8,0:0:0:0:
255,192,19303,1,0,0:0:0:0:
255,192,19530,1,8,0:0:0:0:
255,192,19985,1,0,0:0:0:0:
255,192,20440,1,8,0:0:0:0:
255,192,20894,1,0,0:0:0:0:
255,192,21349,1,8,0:0:0:0:
255,192,21576,1,0,0:0:0:0:
255,192,21803,1,8,0:0:0:0:
255,192,22258,1,4,0:0:0:0:
255,192,22940,1,0,0:0:0:0:
255,192,23167,1,8,0:0:0:0:
255,192,23621,1,0,0:0:0:0:
255,192,24076,1,8,0:0:0:0:
255,192,24530,1,8,0:0:0:0:
255,192,24985,1,0,0:0:0:0:
255,192,25440,1,8,0:0:0:0:
255,192,25667,1,0,0:0:0:0:
255,192,25894,1,8,0:0:0:0:
255,192,26576,1,8,0:0:0:0:
255,192,26803,1,0,0:0:0:0:
255,192,27258,1,8,0:0:0:0:
255,192,27712,1,0,0:0:0:0:
255,192,28394,1,0,0:0:0:0:
255,192,28621,1,8,0:0:0:0:
255,192,28849,1,8,0:0:0:0:
255,192,29076,1,0,0:0:0:0:
255,192,29190,1,0,0:0:0:0:
255,192,29303,1,0,0:0:0:0:
255,192,29530,1,12,0:0:0:0:
255,192,30212,1,0,0:0:0:0:
255,192,30440,1,8,0:0:0:0:
255,192,30667,1,8,0:0:0:0:
255,192,30894,1,0,0:0:0:0:
255,192,31349,1,8,0:0:0:0:
255,192,31803,1,0,0:0:0:0:
255,192,32030,1,0,0:0:0:0:
255,192,32258,1,8,0:0:0:0:
255,192,32485,1,0,0:0:0:0:
255,192,32712,1,8,0:0:0:0:
255,192,33167,1,0,0:0:0:0:
255,192,33849,1,8,0:0:0:0:
255,192,34076,1,0,0:0:0:0:
255,192,34303,1,0,0:0:0:0:
255,192,34530,1,8,0:0:0:0:
255,192,34985,1,0,0:0:0:0:
255,192,35440,1,8,0:0:0:0:
255,192,35894,1,0,0:0:0:0:
255,192,36121,1,8,0:0:0:0:
255,192,36349,1,0,0:0:0:0:
255,192,36576,1,0,0:0:0:0:
255,192,36803,1,12,0:0:0:0:
255,192,37258,1,0,0:0:0:0:
255,192,37485,1,8,0:0:0:0:
255,192,37712,1,0,0:0:0:0:
255,192,38167,1,8,0:0:0:0:
255,192,38621,1,0,0:0:0:0:
255,192,39303,1,0,0:0:0:0:
255,192,39530,1,8,0:0:0:0:
255,192,39985,1,0,0:0:0:0:
255,192,40212,1,0,0:0:0:0:
255,192,40440,1,8,0:0:0:0:
255,192,41121,1,8,0:0:0:0:
255,192,41349,1,0,0:0:0:0:
255,192,41803,1,8,0:0:0:0:
255,192,42030,1,8,0:0:0:0:
255,192,42258,1,0,0:0:0:0:
255,192,42940,1,0,0:0:0:0:
255,192,43167,1,8,0:0:0:0:
255,192,43394,1,0,0:0:0:0:
255,192,43508,1,0,0:0:0:0:
255,192,43621,1,0,0:0:0:0:
255,192,43849,1,8,0:0:0:0:
255,192,44076,1,4,0:0:0:0:
255,192,57258,5,8,0:0:0:0:
255,192,57485,1,0,0:0:0:0:
255,192,57712,1,8,0:0:0:0:
255,192,58621,5,4,0:0:0:0:
255,192,59303,1,8,0:0:0:0:
255,192,60440,1,0,0:0:0:0:
255,192,60894,1,8,0:0:0:0:
255,192,61121,1,8,0:0:0:0:
255,192,61349,1,0,0:0:0:0:
255,192,61576,1,8,0:0:0:0:
255,192,62030,1,8,0:0:0:0:
255,192,62258,1,0,0:0:0:0:
255,192,63167,1,8,0:0:0:0:
255,192,64076,1,8,0:0:0:0:
255,192,64758,1,0,0:0:0:0:
255,192,64985,1,8,0:0:0:0:
255,192,65440,1,8,0:0:0:0:
255,192,65894,1,0,0:0:0:0:
255,192,66576,1,8,0:0:0:0:
255,192,66803,1,0,0:0:0:0:
255,192,67712,1,8,0:0:0:0:
255,192,68394,1,0,0:0:0:0:
255,192,68621,1,8,0:0:0:0:
255,192,68962,1,8,0:0:0:0:
255,192,69303,1,0,0:0:0:0:
255,192,69530,1,8,0:0:0:0:
255,192,70440,1,8,0:0:0:0:
255,192,71121,1,0,0:0:0:0:
255,192,71349,1,8,0:0:0:0:
255,192,72258,1,0,0:0:0:0:
255,192,73167,1,12,0:0:0:0:
255,192,73621,1,8,0:0:0:0:
255,192,73962,1,8,0:0:0:0:
255,192,74190,1,0,0:0:0:0:
255,192,74530,1,8,0:0:0:0:
255,192,74871,1,8,0:0:0:0:
255,192,74985,1,8,0:0:0:0:
255,192,75212,1,0,0:0:0:0:
255,192,75440,1,8,0:0:0:0:
255,192,75780,1,0,0:0:0:0:
255,192,76008,1,0,0:0:0:0:
255,192,76349,1,8,0:0:0:0:
255,192,76803,1,4,0:0:0:0:
255,192,77258,1,8,0:0:0:0:
255,192,77599,1,8,0:0:0:0:
255,192,77826,1,0,0:0:0:0:
255,192,78167,1,8,0:0:0:0:
255,192,78508,1,0,0:0:0:0:
255,192,78621,1,0,0:0:0:0:
255,192,79076,1,8,0:0:0:0:
255,192,79417,1,0,0:0:0:0:
255,192,79644,1,0,0:0:0:0:
255,192,79985,1,8,0:0:0:0:
255,192,80212,1,0,0:0:0:0:
255,192,80440,1,12,0:0:0:0:
255,192,80894,1,8,0:0:0:0:
255,192,81235,1,0,0:0:0:0:
255,192,81462,1,0,0:0:0:0:
255,192,81803,1,8,0:0:0:0:
255,192,82144,1,0,0:0:0:0:
255,192,82258,1,0,0:0:0:0:
255,192,82712,1,8,0:0:0:0:
255,192,83053,1,8,0:0:0:0:
255,192,83280,1,0,0:0:0:0:
255,192,83621,1,8,0:0:0:0:
255,192,84076,1,4,0:0:0:0:
255,192,84530,1,8,0:0:0:0:
255,192,84871,1,0,0:0:0:0:
255,192,85099,1,0,0:0:0:0:
255,192,85440,1,8,0:0:0:0:
255,192,85780,1,0,0:0:0:0:
255,192,85894,1,0,0:0:0:0:
255,192,86349,1,8,0:0:0:0:
255,192,86690,1,8,0:0:0:0:
255,192,86803,1,8,0:0:0:0:
255,192,87030,1,0,0:0:0:0:
255,192,87258,1,8,0:0:0:0:
255,192,87371,1,8,0:0:0:0:
255,192,87485,1,8,0:0:0:0:
256,192,87712,1,0,0:0:0:0:
