osu file format v14

[General]
AudioFilename: audio.mp3
AudioLeadIn: 0
PreviewTime: 57136
Countdown: 0
SampleSet: Normal
StackLeniency: 0.7
Mode: 1
LetterboxInBreaks: 0
WidescreenStoryboard: 1

[Editor]
DistanceSpacing: 1.7
BeatDivisor: 4
GridSize: 16
TimelineZoom: 1.5

[Metadata]
Title:Red Swan (TV Size)
TitleUnicode:Red Swan (TV Size)
Artist:YOSHIKI feat. HYDE
ArtistUnicode:YOSHIKI feat. HYDE
Creator:Ognjen3800
Version:Oni
Source:進撃の巨人
Tags:attack on titan aot shingeki no kyojin snk s3 season 3 three 3rd third opening op anime japanese english zoe zoë hange ハンジ・ゾエ erwin smith エルヴィン・スミス levi リヴァイ eren yeager エレン・イェーガー mikasa ackerman ミカサ・アッカーマン armin arlert アルミン・アルレルト meiqth e_s_i_a [-e_s_i_a-] esia [-esia-] symphonic rock j-rock jrock XJAPAN X-JAPAN ft. featuring
BeatmapID:3992227
BeatmapSetID:1932262

[Difficulty]
HPDrainRate:6
CircleSize:5
OverallDifficulty:5
ApproachRate:5
SliderMultiplier:1.4
SliderTickRate:1

[Events]
//Background and Video events
0,0,"AOT.jpg",0,100
//Break Periods
//Storyboard Layer 0 (Background)
//Storyboard Layer 1 (Fail)
//Storyboard Layer 2 (Pass)
//Storyboard Layer 3 (Foreground)
//Storyboard Layer 4 (Overlay)
//Storyboard Sound Samples

[TimingPoints]
440,454.545454545455,4,1,0,75,1,0
440,-100,4,1,0,75,0,0
15204,-100,4,1,0,70,0,0
44295,-100,4,1,0,65,0,0
59068,-100,4,1,0,70,0,0
73167,-100,4,1,0,80,0,1
87712,-100,4,1,0,80,0,0

[HitObjects]
255,192,440,5,8,0:0:0:0:
255,192,667,1,0,0:0:0:0:
255,192,894,1,8,0:0:0:0:
255,192,1235,1,0,0:0:0:0:
255,192,1462,1,8,0:0:0:0:
255,192,1576,1,0,0:0:0:0:
255,192,1803,1,8,0:0:0:0:
255,192,2030,1,0,0:0:0:0:
255,192,2144,1,0,0:0:0:0:
255,192,2258,1,8,0:0:0:0:
255,192,2485,1,0,0:0:0:0:
255,192,2712,1,8,0:0:0:0:
255,192,2826,1,0,0:0:0:0:
255,192,3053,1,0,0:0:0:0:
255,192,3280,1,8,0:0:0:0:
255,192,3394,1,0,0:0:0:0:
255,192,3621,1,8,0:0:0:0:
255,192,4076,1,8,0:0:0:0:
255,192,4303,1,0,0:0:0:0:
255,192,4530,1,8,0:0:0:0:
255,192,4871,1,0,0:0:0:0:
255,192,5098,1,8,0:0:0:0:
255,192,5212,1,0,0:0:0:0:
255,192,5440,1,8,0:0:0:0:
255,192,5667,1,0,0:0:0:0:
255,192,5780,1,0,0:0:0:0:
255,192,5894,1,8,0:0:0:0:
255,192,6121,1,0,0:0:0:0:
255,192,6349,1,8,0:0:0:0:
255,192,6462,1,0,0:0:0:0:
255,192,6690,1,0,0:0:0:0:
255,192,6917,1,8,0:0:0:0:
255,192,7030,1,0,0:0:0:0:
255,192,7144,1,0,0:0:0:0:
255,192,7258,1,8,0:0:0:0:
255,192,7485,1,0,0:0:0:0:
255,192,7599,1,0,0:0:0:0:
255,192,7712,1,12,0:0:0:0:
255,192,8167,1,8,0:0:0:0:
255,192,8508,1,0,0:0:0:0:
255,192,8735,1,8,0:0:0:0:
255,192,8849,1,0,0:0:0:0:
255,192,9076,1,8,0:0:0:0:
255,192,9303,1,8,0:0:0:0:
255,192,9417,1,0,0:0:0:0:
255,192,9530,1,8,0:0:0:0:
255,192,9758,1,0,0:0:0:0:
255,192,9985,1,8,0:0:0:0:
255,192,10099,1,0,0:0:0:0:
255,192,10326,1,8,0:0:0:0:
255,192,10553,1,0,0:0:0:0:
255,192,10667,1,0,0:0:0:0:
255,192,10894,1,8,0:0:0:0:
255,192,11121,1,0,0:0:0:0:
255,192,11349,1,8,0:0:0:0:
255,192,11803,1,8,0:0:0:0:
255,192,12144,1,0,0:0:0:0:
255,192,12371,1,8,0:0:0:0:
255,192,12485,1,0,0:0:0:0:
255,192,12712,1,8,0:0:0:0:
255,192,12940,1,0,0:0:0:0:
255,192,13053,1,0,0:0:0:0:
255,192,13167,1,0,0:0:0:0:
255,192,13394,1,8,0:0:0:0:
255,192,13621,1,8,0:0:0:0:
255,192,13849,1,0,0:0:0:0:
255,192,13962,1,0,0:0:0:0:
255,192,14076,1,8,0:0:0:0:
255,192,14190,1,8,0:0:0:0:
255,192,14303,1,0,0:0:0:0:
255,192,14530,1,8,0:0:0:0:
255,192,14758,1,8,0:0:0:0:
255,192,14871,1,8,0:0:0:0:
255,192,14985,1,4,0:0:0:0:
255,192,15440,1,8,0:0:0:0:
255,192,15781,1,0,0:0:0:0:
255,192,16008,1,8,0:0:0:0:
255,192,16121,1,0,0:0:0:0:
255,192,16349,1,8,0:0:0:0:
255,192,16576,1,0,0:0:0:0:
255,192,16690,1,0,0:0:0:0:
255,192,16803,1,8,0:0:0:0:
255,192,17030,1,0,0:0:0:0:
255,192,17258,1,8,0:0:0:0:
255,192,17485,1,0,0:0:0:0:
255,192,17599,1,0,0:0:0:0:
255,192,17826,1,8,0:0:0:0:
255,192,17940,1,0,0:0:0:0:
255,192,18167,1,8,0:0:0:0:
255,192,18394,1,0,0:0:0:0:
255,192,18621,1,8,0:0:0:0:
255,192,19076,1,8,0:0:0:0:
255,192,19417,1,0,0:0:0:0:
255,192,19530,1,0,0:0:0:0:
255,192,19644,1,8,0:0:0:0:
255,192,19985,1,8,0:0:0:0:
255,192,20212,1,8,0:0:0:0:
255,192,20326,1,0,0:0:0:0:
255,192,20440,1,8,0:0:0:0:
255,192,20667,1,0,0:0:0:0:
255,192,20894,1,8,0:0:0:0:
255,192,21121,1,0,0:0:0:0:
255,192,21235,1,0,0:0:0:0:
255,192,21462,1,8,0:0:0:0:
255,192,21576,1,0,0:0:0:0:
255,192,21803,1,8,0:0:0:0:
255,192,22030,1,0,0:0:0:0:
255,192,22144,1,0,0:0:0:0:
255,192,22258,1,12,0:0:0:0:
255,192,22485,1,0,0:0:0:0:
255,192,22712,1,8,0:0:0:0:
255,192,23053,1,8,0:0:0:0:
255,192,23280,1,8,0:0:0:0:
255,192,23394,1,0,0:0:0:0:
255,192,23621,1,8,0:0:0:0:
255,192,23849,1,0,0:0:0:0:
255,192,23962,1,0,0:0:0:0:
255,192,24076,1,8,0:0:0:0:
255,192,24303,1,0,0:0:0:0:
255,192,24530,1,8,0:0:0:0:
255,192,24758,1,0,0:0:0:0:
255,192,24871,1,0,0:0:0:0:
255,192,25099,1,8,0:0:0:0:
255,192,25212,1,0,0:0:0:0:
255,192,25440,1,8,0:0:0:0:
255,192,25667,1,0,0:0:0:0:
255,192,25894,1,8,0:0:0:0:
255,192,26349,1,8,0:0:0:0:
255,192,26576,1,0,0:0:0:0:
255,192,26690,1,0,0:0:0:0:
255,192,26917,1,8,0:0:0:0:
255,192,27030,1,0,0:0:0:0:
255,192,27258,1,8,0:0:0:0:
255,192,27485,1,0,0:0:0:0:
255,192,27599,1,8,0:0:0:0:
255,192,27712,1,0,0:0:0:0:
255,192,27940,1,0,0:0:0:0:
255,192,28167,1,8,0:0:0:0:
255,192,28394,1,0,0:0:0:0:
255,192,28508,1,0,0:0:0:0:
255,192,28621,1,8,0:0:0:0:
255,192,28849,1,0,0:0:0:0:
255,192,29076,1,8,0:0:0:0:
255,192,29190,1,8,0:0:0:0:
255,192,29303,1,8,0:0:0:0:
255,192,29417,1,8,0:0:0:0:
255,192,29530,1,4,0:0:0:0:
255,192,29985,1,8,0:0:0:0:
255,192,30326,1,0,0:0:0:0:
255,192,30440,1,0,0:0:0:0:
255,192,30553,1,8,0:0:0:0:
255,192,30780,1,0,0:0:0:0:
255,192,30894,1,8,0:0:0:0:
255,192,31121,1,0,0:0:0:0:
255,192,31349,1,8,0:0:0:0:
255,192,31576,1,0,0:0:0:0:
255,192,31803,1,8,0:0:0:0:
255,192,32030,1,0,0:0:0:0:
255,192,32144,1,0,0:0:0:0:
255,192,32371,1,8,0:0:0:0:
255,192,32485,1,0,0:0:0:0:
255,192,32712,1,8,0:0:0:0:
255,192,32940,1,0,0:0:0:0:
255,192,33167,1,8,0:0:0:0:
255,192,33621,1,8,0:0:0:0:
255,192,33962,1,0,0:0:0:0:
255,192,34076,1,0,0:0:0:0:
255,192,34190,1,8,0:0:0:0:
255,192,34417,1,0,0:0:0:0:
255,192,34530,1,8,0:0:0:0:
255,192,34758,1,0,0:0:0:0:
255,192,34985,1,8,0:0:0:0:
255,192,35212,1,0,0:0:0:0:
255,192,35440,1,8,0:0:0:0:
255,192,35553,1,0,0:0:0:0:
255,192,35780,1,8,0:0:0:0:
255,192,35894,1,0,0:0:0:0:
255,192,36008,1,8,0:0:0:0:
255,192,36235,1,0,0:0:0:0:
255,192,36349,1,8,0:0:0:0:
255,192,36576,1,0,0:0:0:0:
255,192,36690,1,0,0:0:0:0:
255,192,36803,1,12,0:0:0:0:
255,192,37258,1,8,0:0:0:0:
255,192,37599,1,8,0:0:0:0:
255,192,37713,1,0,0:0:0:0:
255,192,37826,1,8,0:0:0:0:
255,192,38167,1,8,0:0:0:0:
255,192,38394,1,0,0:0:0:0:
255,192,38508,1,0,0:0:0:0:
255,192,38622,1,8,0:0:0:0:
255,192,38849,1,0,0:0:0:0:
255,192,39076,1,8,0:0:0:0:
255,192,39303,1,0,0:0:0:0:
255,192,39417,1,0,0:0:0:0:
255,192,39644,1,8,0:0:0:0:
255,192,39872,1,0,0:0:0:0:
255,192,39985,1,8,0:0:0:0:
255,192,40212,1,0,0:0:0:0:
255,192,40326,1,0,0:0:0:0:
255,192,40440,1,8,0:0:0:0:
255,192,40667,1,0,0:0:0:0:
255,192,40895,1,8,0:0:0:0:
255,192,41236,1,0,0:0:0:0:
255,192,41463,1,8,0:0:0:0:
255,192,41576,1,0,0:0:0:0:
255,192,41804,1,8,0:0:0:0:
255,192,42030,1,0,0:0:0:0:
255,192,42144,1,8,0:0:0:0:
255,192,42257,1,0,0:0:0:0:
255,192,42485,1,0,0:0:0:0:
255,192,42712,1,8,0:0:0:0:
255,192,42826,1,0,0:0:0:0:
255,192,43053,1,8,0:0:0:0:
255,192,43167,1,0,0:0:0:0:
255,192,43280,1,8,0:0:0:0:
255,192,43508,1,0,0:0:0:0:
255,192,43621,1,8,0:0:0:0:
255,192,43848,1,0,0:0:0:0:
255,192,43962,1,0,0:0:0:0:
255,192,44075,1,12,0:0:0:0:
255,192,44530,1,0,0:0:0:0:
255,192,44985,1,8,0:0:0:0:
255,192,45894,1,8,0:0:0:0:
255,192,46349,1,0,0:0:0:0:
255,192,46576,1,8,0:0:0:0:
255,192,47258,1,0,0:0:0:0:
255,192,47712,1,8,0:0:0:0:
255,192,48167,1,0,0:0:0:0:
255,192,48621,1,8,0:0:0:0:
255,192,49530,1,8,0:0:0:0:
255,192,49985,1,0,0:0:0:0:
255,192,50212,1,8,0:0:0:0:
255,192,50667,1,8,0:0:0:0:
255,192,50894,1,0,0:0:0:0:
255,192,51349,1,8,0:0:0:0:
255,192,51803,1,0,0:0:0:0:
255,192,52258,1,8,0:0:0:0:
255,192,53167,1,8,0:0:0:0:
255,192,53621,1,0,0:0:0:0:
255,192,53849,1,8,0:0:0:0:
255,192,54303,1,0,0:0:0:0:
255,192,54530,1,8,0:0:0:0:
255,192,54985,1,8,0:0:0:0:
255,192,55440,1,0,0:0:0:0:
255,192,55894,1,8,0:0:0:0:
255,192,56803,1,8,0:0:0:0:
255,192,57258,1,0,0:0:0:0:
255,192,57485,1,8,0:0:0:0:
255,192,57712,1,0,0:0:0:0:
255,192,57940,1,0,0:0:0:0:
255,192,58621,1,0,0:0:0:0:
255,192,59303,1,8,0:0:0:0:
255,192,59758,1,0,0:0:0:0:
255,192,59985,1,0,0:0:0:0:
255,192,60440,1,8,0:0:0:0:
255,192,60894,1,8,0:0:0:0:
255,192,61121,1,8,0:0:0:0:
255,192,61349,1,0,0:0:0:0:
255,192,61576,1,8,0:0:0:0:
255,192,62030,1,8,0:0:0:0:
255,192,62258,1,0,0:0:0:0:
255,192,62940,1,0,0:0:0:0:
255,192,63167,1,8,0:0:0:0:
255,192,63621,1,0,0:0:0:0:
255,192,64076,1,8,0:0:0:0:
255,192,64530,1,0,0:0:0:0:
255,192,64758,1,8,0:0:0:0:
255,192,64985,1,0,0:0:0:0:
255,192,65440,1,8,0:0:0:0:
255,192,65894,1,8,0:0:0:0:
255,192,66576,1,0,0:0:0:0:
255,192,66803,1,8,0:0:0:0:
255,192,67258,1,0,0:0:0:0:
255,192,67712,1,8,0:0:0:0:
255,192,67940,1,0,0:0:0:0:
255,192,68394,1,0,0:0:0:0:
255,192,68621,1,8,0:0:0:0:
255,192,68962,1,0,0:0:0:0:
255,192,69303,1,0,0:0:0:0:
255,192,69530,1,8,0:0:0:0:
255,192,69985,1,0,0:0:0:0:
255,192,70440,1,8,0:0:0:0:
255,192,70667,1,0,0:0:0:0:
255,192,71121,1,0,0:0:0:0:
255,192,71349,1,8,0:0:0:0:
255,192,72258,1,0,0:0:0:0:
255,192,73167,1,12,0:0:0:0:
255,192,73621,1,8,0:0:0:0:
255,192,73962,1,0,0:0:0:0:
255,192,74190,1,8,0:0:0:0:
255,192,74303,1,0,0:0:0:0:
255,192,74530,1,8,0:0:0:0:
255,192,74758,1,0,0:0:0:0:
255,192,74871,1,0,0:0:0:0:
255,192,74985,1,8,0:0:0:0:
255,192,75212,1,0,0:0:0:0:
255,192,75440,1,8,0:0:0:0:
255,192,75553,1,0,0:0:0:0:
255,192,75780,1,0,0:0:0:0:
255,192,76008,1,8,0:0:0:0:
255,192,76121,1,0,0:0:0:0:
255,192,76235,1,0,0:0:0:0:
255,192,76349,1,8,0:0:0:0:
255,192,76576,1,0,0:0:0:0:
255,192,76803,1,12,0:0:0:0:
255,192,77258,1,8,0:0:0:0:
255,192,77599,1,0,0:0:0:0:
255,192,77826,1,8,0:0:0:0:
255,192,77940,1,0,0:0:0:0:
255,192,78167,1,8,0:0:0:0:
255,192,78394,1,0,0:0:0:0:
255,192,78508,1,0,0:0:0:0:
255,192,78621,1,8,0:0:0:0:
255,192,78849,1,0,0:0:0:0:
255,192,79076,1,8,0:0:0:0:
255,192,79190,1,8,0:0:0:0:
255,192,79303,1,0,0:0:0:0:
255,192,79417,1,0,0:0:0:0:
255,192,79644,1,8,0:0:0:0:
255,192,79758,1,0,0:0:0:0:
255,192,79985,1,8,0:0:0:0:
255,192,80212,1,0,0:0:0:0:
255,192,80440,1,12,0:0:0:0:
255,192,80894,1,8,0:0:0:0:
255,192,81235,1,0,0:0:0:0:
255,192,81462,1,8,0:0:0:0:
255,192,81576,1,0,0:0:0:0:
255,192,81803,1,8,0:0:0:0:
255,192,82030,1,0,0:0:0:0:
255,192,82144,1,0,0:0:0:0:
255,192,82258,1,8,0:0:0:0:
255,192,82485,1,0,0:0:0:0:
255,192,82712,1,8,0:0:0:0:
255,192,82826,1,0,0:0:0:0:
255,192,83053,1,0,0:0:0:0:
255,192,83280,1,8,0:0:0:0:
255,192,83394,1,8,0:0:0:0:
255,192,83508,1,0,0:0:0:0:
255,192,83621,1,8,0:0:0:0:
255,192,83849,1,0,0:0:0:0:
255,192,84076,1,12,0:0:0:0:
255,192,84530,1,8,0:0:0:0:
255,192,84871,1,0,0:0:0:0:
255,192,85099,1,8,0:0:0:0:
255,192,85212,1,0,0:0:0:0:
255,192,85440,1,8,0:0:0:0:
255,192,85667,1,0,0:0:0:0:
255,192,85780,1,0,0:0:0:0:
255,192,85894,1,8,0:0:0:0:
255,192,86121,1,0,0:0:0:0:
255,192,86349,1,8,0:0:0:0:
255,192,86462,1,8,0:0:0:0:
255,192,86690,1,0,0:0:0:0:
255,192,86917,1,8,0:0:0:0:
255,192,87030,1,0,0:0:0:0:
255,192,87144,1,0,0:0:0:0:
255,192,87258,1,8,0:0:0:0:
255,192,87485,1,8,0:0:0:0:
255,192,87599,1,8,0:0:0:0:
256,192,87712,5,0,0:0:0:0:
