osu file format v14

[General]
AudioFilename: audio.ogg
AudioLeadIn: 0
PreviewTime: 55121
Countdown: 0
SampleSet: Soft
StackLeniency: 0.7
Mode: 3
LetterboxInBreaks: 0
SpecialStyle: 0
WidescreenStoryboard: 1

[Editor]
Bookmarks: 1731,13731,16731,19731,31731,43731,55731,67731,73731,79731,91731,96793
DistanceSpacing: 0.8
BeatDivisor: 16
GridSize: 4
TimelineZoom: 0.1

[Metadata]
Title:Idol x Bling-Bang-Bang-Born (CosmicMashups Mashup) (Short Ver.)
TitleUnicode:アイドル x Bling-Bang-Bang-Born (CosmicMashups Mashup) (Short Ver.)
Artist:YOASOBI x Creepy Nuts
ArtistUnicode:YOASOBI x Creepy Nuts
Creator:Flade
Version:Hyper
Source:
Tags:jersey club japanese rap j-rap jrap hip-hop hip hop hiphop jpop j-pop pop anime opening クリーピーナッツ mashle: magic and muscles - the divine visionary candidate exam arc 2nd second season マッシュル-mashle- 神覚者候補選抜試験編 第2期 kami satoru-sha kouho senbatsu shiken-hen brim bam bom brim-bam-bam-bom bling bang born 【推しの子】 【oshi no ko】oshi no ko aidoru my favorite idol their idol’s children 幾田りら ikuta lilas ikura aka akasaka 赤坂 アカ hajime komoto 甲本一 ayase angki
BeatmapID:4459815
BeatmapSetID:2121315

[Difficulty]
HPDrainRate:7.7
CircleSize:4
OverallDifficulty:7.7
ApproachRate:5
SliderMultiplier:1.6
SliderTickRate:1

[Events]
//Background and Video events
Video,-90,"video.avi"
0,0,"bg.jpg",0,0
//Break Periods
//Storyboard Layer 0 (Background)
//Storyboard Layer 1 (Fail)
//Storyboard Layer 2 (Pass)
//Storyboard Layer 3 (Foreground)
//Storyboard Layer 4 (Overlay)
//Storyboard Sound Samples

[TimingPoints]
1731,375,4,2,1,50,1,0
55731,-100,4,2,1,50,0,1
73731,-100,4,2,1,50,0,0

[HitObjects]
448,192,231,5,0,0:0:0:0:
320,192,324,1,0,0:0:0:0:
192,192,418,1,0,0:0:0:0:
64,192,512,1,0,0:0:0:0:
192,192,606,1,0,0:0:0:0:
320,192,699,1,0,0:0:0:0:
448,192,793,1,0,0:0:0:0:
64,192,887,1,0,0:0:0:0:
192,192,981,1,0,0:0:0:0:
320,192,1074,1,0,0:0:0:0:
448,192,1168,1,0,0:0:0:0:
320,192,1262,1,0,0:0:0:0:
192,192,1356,1,0,0:0:0:0:
64,192,1449,1,0,0:0:0:0:
448,192,1543,1,0,0:0:0:0:
320,192,1637,1,0,0:0:0:0:
64,192,1731,128,2,1918:0:0:0:0:
192,192,1731,128,0,1918:0:0:0:0:
448,192,1918,1,0,0:0:0:0:
64,192,2106,128,0,2293:0:0:0:0:
192,192,2199,128,0,2293:0:0:0:0:
448,192,2293,128,0,2481:0:0:0:0:
320,192,2387,128,0,2481:0:0:0:0:
64,192,2481,1,8,0:3:0:0:
192,192,2481,1,0,0:0:0:0:
64,192,2574,1,0,0:0:0:0:
320,192,2668,1,0,0:0:0:0:
192,192,2762,1,0,0:0:0:0:
64,192,2856,1,0,0:0:0:0:
448,192,2856,1,0,0:0:0:0:
192,192,3043,1,0,0:0:0:0:
448,192,3137,1,0,0:0:0:0:
64,192,3231,1,0,0:0:0:0:
320,192,3231,1,0,0:0:0:0:
320,192,3418,1,0,0:0:0:0:
64,192,3606,128,2,3793:0:0:0:0:
448,192,3606,128,0,3793:0:0:0:0:
192,192,3793,1,0,0:0:0:0:
192,192,3887,1,0,0:0:0:0:
64,192,3981,1,8,0:3:0:0:
320,192,3981,1,0,0:0:0:0:
448,192,4074,1,0,0:0:0:0:
64,192,4168,128,2,4356:0:0:0:0:
192,192,4168,128,0,4356:0:0:0:0:
320,192,4262,1,0,0:0:0:0:
320,192,4356,1,0,0:0:0:0:
448,192,4543,1,0,0:0:0:0:
64,192,4731,128,2,4918:0:0:0:0:
320,192,4731,128,0,4918:0:0:0:0:
192,192,4918,1,0,0:0:0:0:
192,192,5012,1,0,0:0:0:0:
448,192,5106,128,0,5293:0:0:0:0:
320,192,5199,128,0,5293:0:0:0:0:
64,192,5293,128,0,5481:0:0:0:0:
192,192,5387,128,0,5481:0:0:0:0:
320,192,5481,1,8,0:3:0:0:
448,192,5481,1,0,0:0:0:0:
448,192,5574,1,0,0:0:0:0:
64,192,5668,1,0,0:0:0:0:
192,192,5762,1,0,0:0:0:0:
320,192,5856,1,0,0:0:0:0:
448,192,5856,1,0,0:0:0:0:
64,192,6043,1,0,0:0:0:0:
448,192,6137,1,0,0:0:0:0:
192,192,6231,1,0,0:0:0:0:
320,192,6231,1,0,0:0:0:0:
192,192,6418,1,0,0:0:0:0:
320,192,6606,128,2,6793:0:0:0:0:
448,192,6606,128,0,6793:0:0:0:0:
64,192,6699,1,0,0:0:0:0:
64,192,6793,1,0,0:0:0:0:
192,192,6981,1,8,0:3:0:0:
320,192,6981,1,0,0:0:0:0:
448,192,7074,1,0,0:0:0:0:
64,192,7168,128,2,7356:0:0:0:0:
192,192,7168,128,0,7356:0:0:0:0:
320,192,7262,1,0,0:0:0:0:
320,192,7356,1,0,0:0:0:0:
64,192,7543,1,0,0:0:0:0:
448,192,7637,1,0,0:0:0:0:
192,192,7731,128,2,7918:0:0:0:0:
320,192,7731,128,0,7918:0:0:0:0:
64,192,7918,1,0,0:0:0:0:
448,192,8106,128,0,8293:0:0:0:0:
320,192,8199,128,0,8293:0:0:0:0:
64,192,8293,128,0,8481:0:0:0:0:
192,192,8387,128,0,8481:0:0:0:0:
320,192,8481,1,8,0:3:0:0:
448,192,8481,1,0,0:0:0:0:
448,192,8574,1,0,0:0:0:0:
64,192,8668,1,0,0:0:0:0:
192,192,8762,1,0,0:0:0:0:
320,192,8856,1,0,0:0:0:0:
448,192,8856,1,0,0:0:0:0:
64,192,9043,1,0,0:0:0:0:
448,192,9137,1,0,0:0:0:0:
192,192,9231,1,0,0:0:0:0:
320,192,9231,1,0,0:0:0:0:
64,192,9418,1,0,0:0:0:0:
320,192,9606,128,2,9793:0:0:0:0:
448,192,9606,128,0,9793:0:0:0:0:
192,192,9699,1,0,0:0:0:0:
192,192,9793,1,0,0:0:0:0:
64,192,9981,1,8,0:3:0:0:
448,192,9981,1,0,0:0:0:0:
320,192,10074,1,0,0:0:0:0:
64,192,10168,128,2,10356:0:0:0:0:
192,192,10168,128,0,10356:0:0:0:0:
448,192,10262,1,0,0:0:0:0:
448,192,10356,1,0,0:0:0:0:
192,192,10543,1,0,0:0:0:0:
320,192,10731,128,2,10918:0:0:0:0:
448,192,10731,128,0,10918:0:0:0:0:
64,192,10824,1,0,0:0:0:0:
64,192,10918,1,0,0:0:0:0:
448,192,11106,128,0,11293:0:0:0:0:
320,192,11199,128,0,11293:0:0:0:0:
64,192,11293,128,0,11481:0:0:0:0:
192,192,11387,128,0,11481:0:0:0:0:
320,192,11481,1,8,0:3:0:0:
448,192,11481,1,0,0:0:0:0:
320,192,11574,1,0,0:0:0:0:
64,192,11668,1,0,0:0:0:0:
192,192,11762,1,0,0:0:0:0:
320,192,11856,1,0,0:0:0:0:
448,192,11856,1,0,0:0:0:0:
64,192,12043,1,0,0:0:0:0:
320,192,12137,1,0,0:0:0:0:
64,192,12231,1,0,0:0:0:0:
192,192,12231,1,0,0:0:0:0:
448,192,12418,1,0,0:0:0:0:
320,192,12512,1,0,0:0:0:0:
64,192,12606,128,2,12793:0:0:0:0:
192,192,12606,128,0,12793:0:0:0:0:
448,192,12699,1,0,0:0:0:0:
448,192,12793,1,0,0:0:0:0:
320,192,12887,1,0,0:0:0:0:
64,192,12981,1,8,0:3:0:0:
448,192,12981,1,0,0:0:0:0:
192,192,13074,1,0,0:0:0:0:
320,192,13168,128,2,13356:0:0:0:0:
448,192,13168,128,0,13356:0:0:0:0:
64,192,13262,1,0,0:0:0:0:
64,192,13356,1,0,0:0:0:0:
192,192,13449,1,0,0:0:0:0:
320,192,13543,1,0,0:0:0:0:
192,192,13637,1,0,0:0:0:0:
64,192,13731,128,2,14293:0:0:0:0:
448,192,13731,128,0,14106:0:0:0:0:
320,192,14106,128,0,14293:0:0:0:0:
192,192,14481,128,2,14856:0:0:0:0:
448,192,14481,128,0,14856:0:0:0:0:
320,192,14856,128,0,15231:0:0:0:0:
64,192,15043,128,4,15418:0:0:0:0:
192,192,15043,128,2,15231:0:0:0:0:
320,192,15418,128,2,15606:0:0:0:0:
448,192,15418,128,0,15793:0:0:0:0:
64,192,15793,128,2,15981:0:0:0:0:
320,192,15793,128,0,16168:0:0:0:0:
192,192,15981,128,2,16356:0:0:0:0:
448,192,15981,128,0,16168:0:0:0:0:
64,192,16356,128,8,16731:0:1:0:0:
448,192,16356,128,0,16731:0:0:0:0:
192,192,16731,1,2,0:3:0:0:
320,192,16731,128,4,17106:0:0:0:0:
64,192,17012,1,2,0:3:0:0:
448,192,17012,1,0,0:0:0:0:
192,192,17106,128,0,17481:0:0:0:0:
64,192,17293,1,2,0:3:0:0:
320,192,17293,1,0,0:0:0:0:
448,192,17481,128,0,17856:0:0:0:0:
192,192,17668,1,2,0:3:0:0:
320,192,17668,1,0,0:0:0:0:
64,192,17856,128,0,18231:0:0:0:0:
192,192,18043,1,2,0:3:0:0:
320,192,18043,1,0,0:0:0:0:
320,192,18231,128,2,18606:0:3:0:0:
448,192,18231,1,0,0:0:0:0:
64,192,18512,1,2,0:3:0:0:
448,192,18512,1,0,0:0:0:0:
192,192,18606,128,0,18981:0:0:0:0:
64,192,18793,1,2,0:3:0:0:
320,192,18793,1,0,0:0:0:0:
448,192,18981,128,0,19356:0:0:0:0:
64,192,19168,1,2,0:3:0:0:
320,192,19168,1,0,0:0:0:0:
64,192,19262,1,0,0:0:0:0:
192,192,19356,1,0,0:0:0:0:
320,192,19543,1,2,0:3:0:0:
448,192,19543,1,0,0:0:0:0:
192,192,19637,1,0,0:0:0:0:
64,192,19731,1,4,0:0:0:0:
448,192,19731,1,2,0:0:0:0:
320,192,19918,1,0,0:0:0:0:
64,192,20106,1,2,0:0:0:0:
192,192,20106,1,8,0:0:0:0:
192,192,20199,1,0,0:0:0:0:
448,192,20293,1,0,0:0:0:0:
64,192,20481,1,2,0:0:0:0:
320,192,20481,1,0,0:0:0:0:
192,192,20668,1,0,0:0:0:0:
320,192,20856,1,2,0:0:0:0:
448,192,20856,1,8,0:0:0:0:
448,192,20949,1,0,0:0:0:0:
64,192,21043,1,0,0:0:0:0:
192,192,21137,1,0,0:0:0:0:
320,192,21231,1,2,0:0:0:0:
448,192,21231,1,0,0:0:0:0:
64,192,21418,1,0,0:0:0:0:
64,192,21512,1,0,0:0:0:0:
192,192,21606,1,2,0:0:0:0:
320,192,21606,1,8,0:0:0:0:
448,192,21699,1,0,0:0:0:0:
192,192,21793,1,0,0:0:0:0:
64,192,21981,1,2,0:0:0:0:
320,192,21981,1,0,0:0:0:0:
448,192,22168,1,0,0:0:0:0:
192,192,22356,1,2,0:0:0:0:
320,192,22356,1,8,0:0:0:0:
192,192,22449,1,0,0:0:0:0:
448,192,22543,1,0,0:0:0:0:
320,192,22637,1,0,0:0:0:0:
64,192,22731,1,2,0:0:0:0:
192,192,22731,1,0,0:0:0:0:
448,192,22918,1,0,0:0:0:0:
448,192,23012,1,0,0:0:0:0:
64,192,23106,1,2,0:0:0:0:
320,192,23106,1,8,0:0:0:0:
192,192,23199,1,0,0:0:0:0:
448,192,23293,1,0,0:0:0:0:
192,192,23481,1,2,0:0:0:0:
320,192,23481,1,0,0:0:0:0:
64,192,23668,1,0,0:0:0:0:
320,192,23856,1,2,0:0:0:0:
448,192,23856,1,8,0:0:0:0:
320,192,23949,1,0,0:0:0:0:
64,192,24043,1,0,0:0:0:0:
192,192,24137,1,0,0:0:0:0:
64,192,24231,1,2,0:0:0:0:
448,192,24231,1,0,0:0:0:0:
320,192,24418,1,0,0:0:0:0:
64,192,24606,1,2,0:0:0:0:
192,192,24606,1,8,0:0:0:0:
64,192,24699,1,0,0:0:0:0:
448,192,24793,1,0,0:0:0:0:
192,192,24981,1,2,0:0:0:0:
320,192,24981,1,0,0:0:0:0:
64,192,25168,1,0,0:0:0:0:
320,192,25356,1,2,0:0:0:0:
448,192,25356,1,8,0:0:0:0:
320,192,25449,1,0,0:0:0:0:
192,192,25543,1,0,0:0:0:0:
64,192,25731,128,2,25918:0:0:0:0:
448,192,25731,128,0,25918:0:0:0:0:
192,192,25918,1,0,0:0:0:0:
320,192,26012,1,0,0:0:0:0:
64,192,26106,1,2,0:0:0:0:
448,192,26106,1,8,0:0:0:0:
64,192,26199,1,0,0:0:0:0:
192,192,26293,1,0,0:0:0:0:
320,192,26387,1,0,0:0:0:0:
64,192,26481,1,2,0:0:0:0:
448,192,26481,1,0,0:0:0:0:
320,192,26668,1,0,0:0:0:0:
64,192,26856,1,2,0:0:0:0:
448,192,26856,1,8,0:0:0:0:
448,192,26949,1,0,0:0:0:0:
192,192,27043,1,0,0:0:0:0:
64,192,27231,1,2,0:0:0:0:
320,192,27231,1,0,0:0:0:0:
448,192,27418,1,0,0:0:0:0:
64,192,27606,1,2,0:0:0:0:
192,192,27606,1,8,0:0:0:0:
192,192,27699,1,0,0:0:0:0:
320,192,27793,1,0,0:0:0:0:
64,192,27981,1,2,0:0:0:0:
448,192,27981,1,0,0:0:0:0:
192,192,28168,1,0,0:0:0:0:
320,192,28356,1,2,0:0:0:0:
448,192,28356,1,8,0:0:0:0:
320,192,28449,1,0,0:0:0:0:
64,192,28543,1,0,0:0:0:0:
192,192,28637,1,0,0:0:0:0:
320,192,28731,1,2,0:0:0:0:
448,192,28731,1,0,0:0:0:0:
64,192,28918,1,0,0:0:0:0:
448,192,29012,1,0,0:0:0:0:
192,192,29106,1,2,0:0:0:0:
320,192,29106,1,8,0:0:0:0:
64,192,29199,1,0,0:0:0:0:
448,192,29293,1,0,0:0:0:0:
192,192,29481,1,2,0:0:0:0:
320,192,29481,1,0,0:0:0:0:
192,192,29606,1,0,0:0:0:0:
448,192,29762,1,0,0:0:0:0:
64,192,29856,1,2,0:0:0:0:
448,192,29856,1,8,0:0:0:0:
320,192,29949,1,0,0:0:0:0:
192,192,30043,1,0,0:0:0:0:
192,192,30137,1,0,0:0:0:0:
64,192,30231,1,2,0:0:0:0:
448,192,30231,1,0,0:0:0:0:
320,192,30324,1,0,0:0:0:0:
192,192,30512,1,0,0:0:0:0:
320,192,30606,1,2,0:0:0:0:
448,192,30606,1,8,0:0:0:0:
64,192,30699,1,0,0:0:0:0:
192,192,30793,1,0,0:0:0:0:
192,192,30981,1,2,0:0:0:0:
320,192,30981,1,0,0:0:0:0:
448,192,31074,1,0,0:0:0:0:
64,192,31168,1,0,0:0:0:0:
64,192,31356,1,2,0:0:0:0:
192,192,31356,1,8,0:0:0:0:
320,192,31543,1,0,0:0:0:0:
192,192,31637,1,0,0:0:0:0:
64,192,31731,128,4,31918:0:0:0:0:
448,192,31731,128,2,31918:0:0:0:0:
320,192,31918,1,0,0:0:0:0:
320,192,32012,1,0,0:0:0:0:
64,192,32106,1,2,0:0:0:0:
192,192,32106,1,8,0:0:0:0:
448,192,32199,1,0,0:0:0:0:
320,192,32293,1,0,0:0:0:0:
192,192,32481,1,2,0:0:0:0:
448,192,32481,1,0,0:0:0:0:
64,192,32668,1,0,0:0:0:0:
64,192,32762,1,0,0:0:0:0:
192,192,32856,1,2,0:0:0:0:
320,192,32856,1,8,0:0:0:0:
448,192,33043,1,0,0:0:0:0:
448,192,33137,1,0,0:0:0:0:
64,192,33231,1,2,0:0:0:0:
320,192,33231,1,0,0:0:0:0:
192,192,33418,1,0,0:0:0:0:
192,192,33512,1,0,0:0:0:0:
320,192,33606,1,2,0:0:0:0:
448,192,33606,1,8,0:0:0:0:
64,192,33699,1,0,0:0:0:0:
192,192,33793,1,0,0:0:0:0:
64,192,33981,1,2,0:0:0:0:
448,192,33981,1,0,0:0:0:0:
192,192,34168,1,0,0:0:0:0:
320,192,34356,1,2,0:0:0:0:
448,192,34356,1,8,0:0:0:0:
320,192,34449,1,0,0:0:0:0:
64,192,34543,1,0,0:0:0:0:
192,192,34637,1,0,0:0:0:0:
320,192,34731,1,2,0:0:0:0:
448,192,34731,1,0,0:0:0:0:
64,192,34918,1,0,0:0:0:0:
64,192,35012,1,0,0:0:0:0:
192,192,35106,1,2,0:0:0:0:
448,192,35106,1,8,0:0:0:0:
320,192,35199,1,0,0:0:0:0:
64,192,35293,1,0,0:0:0:0:
192,192,35481,1,2,0:0:0:0:
320,192,35481,1,0,0:0:0:0:
64,192,35668,1,0,0:0:0:0:
192,192,35762,1,0,0:0:0:0:
320,192,35856,1,2,0:0:0:0:
448,192,35856,1,8,0:0:0:0:
448,192,35949,1,0,0:0:0:0:
192,192,36043,1,0,0:0:0:0:
320,192,36137,1,0,0:0:0:0:
64,192,36231,1,2,0:0:0:0:
448,192,36231,1,0,0:0:0:0:
192,192,36418,1,0,0:0:0:0:
320,192,36512,1,0,0:0:0:0:
64,192,36606,1,2,0:0:0:0:
192,192,36606,1,8,0:0:0:0:
64,192,36699,1,0,0:0:0:0:
448,192,36793,1,0,0:0:0:0:
192,192,36981,1,2,0:0:0:0:
320,192,36981,1,0,0:0:0:0:
448,192,37074,1,0,0:0:0:0:
64,192,37168,1,8,0:3:0:0:
192,192,37168,1,0,0:0:0:0:
320,192,37262,1,8,0:3:0:0:
448,192,37262,1,0,0:0:0:0:
64,192,37356,1,2,0:0:0:0:
192,192,37356,1,8,0:0:0:0:
320,192,37543,1,2,0:0:0:0:
448,192,37543,1,0,0:0:0:0:
64,192,37731,128,2,37918:0:0:0:0:
448,192,37731,128,4,37918:0:0:0:0:
192,192,37918,1,0,0:0:0:0:
320,192,38012,1,0,0:0:0:0:
64,192,38106,1,2,0:0:0:0:
448,192,38106,1,8,0:0:0:0:
448,192,38199,1,0,0:0:0:0:
192,192,38293,1,0,0:0:0:0:
64,192,38481,1,2,0:0:0:0:
320,192,38481,1,0,0:0:0:0:
192,192,38668,1,0,0:0:0:0:
192,192,38762,1,0,0:0:0:0:
320,192,38856,1,2,0:0:0:0:
448,192,38856,1,8,0:0:0:0:
64,192,38949,1,0,0:0:0:0:
192,192,39043,1,0,0:0:0:0:
64,192,39231,1,2,0:0:0:0:
448,192,39231,1,0,0:0:0:0:
320,192,39324,1,0,0:0:0:0:
192,192,39418,1,0,0:0:0:0:
64,192,39606,1,8,0:0:0:0:
320,192,39606,1,2,0:0:0:0:
320,192,39699,1,0,0:0:0:0:
192,192,39793,1,0,0:0:0:0:
320,192,39981,1,2,0:0:0:0:
448,192,39981,1,0,0:0:0:0:
64,192,40168,1,0,0:0:0:0:
192,192,40262,1,0,0:0:0:0:
64,192,40356,1,2,0:0:0:0:
320,192,40356,1,8,0:0:0:0:
448,192,40543,1,0,0:0:0:0:
192,192,40731,1,2,0:0:0:0:
320,192,40731,1,0,0:0:0:0:
64,192,40918,1,0,0:0:0:0:
64,192,41012,1,0,0:0:0:0:
192,192,41106,1,8,0:0:0:0:
448,192,41106,1,2,0:0:0:0:
320,192,41293,1,0,0:0:0:0:
64,192,41481,1,2,0:0:0:0:
192,192,41481,1,0,0:0:0:0:
448,192,41668,1,0,0:0:0:0:
448,192,41762,1,0,0:0:0:0:
64,192,41856,1,2,0:0:0:0:
320,192,41856,1,8,0:0:0:0:
192,192,42043,1,0,0:0:0:0:
64,192,42231,1,2,0:0:0:0:
448,192,42231,1,0,0:0:0:0:
320,192,42418,1,0,0:0:0:0:
320,192,42512,1,0,0:0:0:0:
64,192,42606,1,8,0:0:0:0:
192,192,42606,1,2,0:0:0:0:
448,192,42699,1,0,0:0:0:0:
64,192,42793,1,8,0:3:0:0:
320,192,42793,1,0,0:0:0:0:
192,192,42887,1,8,0:3:0:0:
320,192,42981,1,2,0:0:0:0:
448,192,42981,1,0,0:0:0:50:tom01.wav
64,192,43168,1,0,0:0:0:50:tom02.wav
192,192,43168,1,0,0:0:0:0:
320,192,43356,1,10,0:0:0:0:
448,192,43356,1,0,0:0:0:50:tom03.wav
64,192,43449,1,0,0:0:0:0:
192,192,43637,1,0,0:0:0:0:
64,192,43731,1,2,0:0:0:0:
320,192,43731,128,0,43918:0:0:0:0:
192,192,43918,128,0,44106:0:0:0:0:
448,192,44106,128,0,44293:0:0:0:0:
64,192,44293,128,2,44481:0:0:0:0:
320,192,44293,1,0,0:0:0:0:
192,192,44481,1,2,0:0:0:0:
448,192,44481,128,0,44668:0:0:0:0:
320,192,44668,128,0,44856:0:0:0:0:
64,192,44856,128,8,45043:0:0:0:0:
448,192,44856,1,0,0:0:0:50:special voice.wav
192,192,45043,128,2,45231:0:0:0:0:
320,192,45043,1,0,0:0:0:0:
448,192,45231,128,0,45418:0:0:0:0:
64,192,45418,1,2,0:0:0:0:
320,192,45418,1,0,0:0:0:0:
192,192,45606,128,0,45793:0:0:0:0:
320,192,45793,1,2,0:0:0:0:
448,192,45793,1,0,0:0:0:0:
64,192,45981,128,2,46168:0:0:0:0:
192,192,45981,1,0,0:0:0:0:
192,192,46356,1,8,0:0:0:0:
320,192,46356,128,0,46543:0:0:0:50:special voice.wav
64,192,46543,128,0,46731:0:0:0:0:
320,192,46731,1,2,0:0:0:0:
448,192,46731,128,0,46918:0:0:0:0:
192,192,46918,1,0,0:0:0:0:
320,192,47106,128,0,47293:0:0:0:0:
192,192,47293,128,2,47481:0:0:0:0:
448,192,47293,1,0,0:0:0:0:
64,192,47481,128,2,47668:0:0:0:0:
320,192,47481,1,0,0:0:0:0:
192,192,47856,1,8,0:0:0:0:
320,192,47856,128,0,48043:0:0:0:50:special voice.wav
64,192,48231,1,2,0:0:0:0:
448,192,48231,128,0,48418:0:0:0:0:
320,192,48418,1,0,0:0:0:0:
192,192,48606,128,2,48793:0:0:0:0:
448,192,48606,1,0,0:0:0:0:
320,192,48793,128,0,48981:0:0:0:0:
64,192,48981,1,2,0:0:0:0:
192,192,48981,1,0,0:0:0:0:
64,192,49074,1,2,0:0:0:0:
320,192,49168,1,2,0:0:0:0:
448,192,49168,1,0,0:0:0:0:
448,192,49262,1,2,0:0:0:0:
64,192,49356,1,8,0:0:0:0:
192,192,49356,1,0,0:0:0:50:special voice.wav
64,192,49731,1,2,0:0:0:0:
448,192,49731,128,0,49918:0:0:0:0:
192,192,49918,128,0,50106:0:0:0:0:
320,192,50106,128,10,50293:0:0:0:0:
448,192,50106,1,0,0:0:0:50:special voice.wav
64,192,50293,128,0,50481:0:0:0:0:
192,192,50481,1,2,0:0:0:0:
448,192,50481,128,0,50668:0:0:0:0:
320,192,50668,128,0,50856:0:0:0:0:
64,192,50856,128,10,51043:0:0:0:0:
448,192,50856,1,0,0:0:0:50:special voice.wav
192,192,51043,128,0,51231:0:0:0:0:
320,192,51231,128,2,51418:0:0:0:0:
448,192,51231,1,8,0:1:0:0:
64,192,51418,128,0,51606:0:0:0:0:
320,192,51606,1,2,0:0:0:0:
448,192,51606,128,8,51793:0:1:0:0:
64,192,51793,1,0,0:0:0:0:
192,192,51981,128,2,52168:0:0:0:0:
320,192,51981,1,8,0:1:0:0:
448,192,52168,1,0,0:0:0:0:
64,192,52356,128,2,52543:0:0:0:0:
192,192,52356,1,8,0:1:0:0:
448,192,52543,128,0,52731:0:0:0:0:
192,192,52731,1,2,0:0:0:0:
320,192,52731,128,8,52918:0:0:0:0:
64,192,52918,1,8,0:1:0:0:
192,192,53012,1,0,0:0:0:0:
320,192,53106,1,8,0:1:0:0:
448,192,53106,128,0,53293:0:0:0:0:
64,192,53293,1,2,0:0:0:0:
192,192,53293,128,8,53481:0:0:0:0:
320,192,53481,128,2,53668:0:0:0:0:
448,192,53481,1,0,0:0:0:0:
64,192,53668,1,8,0:3:0:0:
192,192,53668,1,0,0:0:0:0:
448,192,53762,1,0,0:0:0:50:tom01.wav
320,192,53856,1,0,0:0:0:50:tom02.wav
192,192,53949,1,0,0:0:0:50:tom03.wav
64,192,54043,1,2,0:0:0:0:
448,192,54043,1,8,0:0:0:0:
320,192,54231,128,0,54418:0:0:0:0:
64,192,54418,128,2,54606:0:0:0:0:
192,192,54418,1,8,0:0:0:0:
192,192,54793,1,2,0:0:0:0:
320,192,54793,1,8,0:0:0:0:
192,192,54981,1,2,0:0:0:0:
448,192,54981,1,0,0:0:0:0:
320,192,55168,128,0,55356:0:0:0:0:
192,192,55356,128,0,55543:0:0:0:0:
64,192,55543,128,0,55731:0:0:0:0:
320,192,55731,1,4,0:1:0:0:
448,192,55731,1,2,0:0:0:0:
192,192,55824,1,0,0:0:0:0:
448,192,55918,1,0,0:0:0:0:
64,192,56012,1,0,0:0:0:0:
192,192,56012,1,0,0:0:0:0:
320,192,56106,1,2,0:0:0:0:
448,192,56106,1,8,0:0:0:0:
64,192,56199,1,0,0:0:0:0:
192,192,56293,1,0,0:0:0:0:
320,192,56293,1,0,0:0:0:0:
448,192,56387,1,0,0:0:0:0:
64,192,56481,1,2,0:0:0:0:
192,192,56481,1,0,0:0:0:0:
320,192,56574,1,0,0:0:0:0:
64,192,56668,1,0,0:0:0:0:
320,192,56762,1,0,0:0:0:0:
448,192,56762,1,0,0:0:0:0:
64,192,56856,1,8,0:0:0:0:
192,192,56856,1,2,0:0:0:0:
448,192,56949,1,0,0:0:0:0:
192,192,57043,1,0,0:0:0:0:
320,192,57043,1,0,0:0:0:0:
64,192,57137,1,0,0:0:0:0:
192,192,57231,1,2,0:0:0:0:
448,192,57231,1,0,0:0:0:0:
320,192,57324,1,0,0:0:0:0:
64,192,57418,1,0,0:0:0:0:
192,192,57512,1,0,0:0:0:0:
448,192,57512,1,0,0:0:0:0:
64,192,57606,1,2,0:0:0:0:
320,192,57606,1,8,0:0:0:0:
448,192,57699,1,0,0:0:0:0:
192,192,57793,1,0,0:0:0:0:
320,192,57793,1,0,0:0:0:0:
64,192,57887,1,0,0:0:0:0:
320,192,57981,1,2,0:0:0:0:
448,192,57981,128,0,58168:0:0:0:0:
192,192,58168,1,0,0:0:0:0:
320,192,58262,1,0,0:0:0:0:
64,192,58356,128,8,58543:0:0:0:0:
448,192,58356,1,2,0:0:0:0:
192,192,58543,128,0,58731:0:0:0:0:
64,192,58731,1,2,0:0:0:0:
320,192,58731,1,0,0:0:0:0:
192,192,58824,1,0,0:0:0:0:
448,192,58918,1,0,0:0:0:0:
64,192,59012,1,0,0:0:0:0:
192,192,59012,1,0,0:0:0:0:
320,192,59106,1,2,0:0:0:0:
448,192,59106,1,8,0:0:0:0:
64,192,59199,1,0,0:0:0:0:
192,192,59293,1,0,0:0:0:0:
320,192,59293,1,0,0:0:0:0:
448,192,59387,1,0,0:0:0:0:
64,192,59481,1,2,0:0:0:0:
192,192,59481,1,0,0:0:0:0:
320,192,59574,1,0,0:0:0:0:
64,192,59668,1,0,0:0:0:0:
192,192,59762,1,0,0:0:0:0:
448,192,59762,1,0,0:0:0:0:
64,192,59856,1,8,0:0:0:0:
320,192,59856,1,2,0:0:0:0:
448,192,59949,1,0,0:0:0:0:
192,192,60043,1,0,0:0:0:0:
320,192,60043,1,0,0:0:0:0:
64,192,60137,1,0,0:0:0:0:
192,192,60231,1,2,0:0:0:0:
448,192,60231,1,0,0:0:0:0:
320,192,60324,1,0,0:0:0:0:
448,192,60418,1,0,0:0:0:0:
64,192,60512,1,0,0:0:0:0:
192,192,60512,1,0,0:0:0:0:
320,192,60606,1,2,0:0:0:0:
448,192,60606,1,8,0:0:0:0:
64,192,60699,1,0,0:0:0:0:
192,192,60793,1,0,0:0:0:0:
320,192,60793,1,0,0:0:0:0:
448,192,60887,1,0,0:0:0:0:
64,192,60981,128,2,61168:0:0:0:0:
192,192,60981,128,4,61168:0:0:0:0:
320,192,61168,1,8,0:3:0:0:
448,192,61168,1,0,0:0:0:0:
64,192,61262,1,8,0:3:0:0:
192,192,61356,128,4,61543:0:3:0:0:
320,192,61356,128,2,61543:0:0:0:0:
64,192,61543,1,8,0:3:0:0:
448,192,61543,1,0,0:0:0:0:
320,192,61637,1,8,0:3:0:0:
192,192,61731,1,2,0:0:0:0:
448,192,61731,1,4,0:1:0:0:
64,192,61824,1,0,0:0:0:0:
320,192,61918,1,0,0:0:0:0:
64,192,62012,1,0,0:0:0:0:
192,192,62012,1,0,0:0:0:0:
320,192,62106,1,8,0:0:0:0:
448,192,62106,1,2,0:0:0:0:
192,192,62199,1,0,0:0:0:0:
64,192,62293,1,0,0:0:0:0:
448,192,62293,1,0,0:0:0:0:
320,192,62387,1,0,0:0:0:0:
192,192,62481,1,2,0:0:0:0:
448,192,62481,1,0,0:0:0:0:
64,192,62574,1,0,0:0:0:0:
320,192,62668,1,0,0:0:0:0:
64,192,62762,1,0,0:0:0:0:
448,192,62762,1,0,0:0:0:0:
192,192,62856,1,2,0:0:0:0:
320,192,62856,1,8,0:0:0:0:
448,192,62949,1,0,0:0:0:0:
64,192,63043,1,0,0:0:0:0:
192,192,63043,1,0,0:0:0:0:
320,192,63137,1,0,0:0:0:0:
64,192,63231,1,2,0:0:0:0:
448,192,63231,1,0,0:0:0:0:
192,192,63324,1,0,0:0:0:0:
320,192,63418,1,0,0:0:0:0:
64,192,63512,1,0,0:0:0:0:
192,192,63512,1,0,0:0:0:0:
320,192,63606,1,8,0:0:0:0:
448,192,63606,1,2,0:0:0:0:
64,192,63699,1,0,0:0:0:0:
192,192,63793,1,0,0:0:0:0:
448,192,63793,1,0,0:0:0:0:
320,192,63887,1,0,0:0:0:0:
64,192,63981,128,2,64168:0:0:0:0:
448,192,63981,1,0,0:0:0:0:
320,192,64168,1,0,0:0:0:0:
192,192,64262,1,0,0:0:0:0:
64,192,64356,1,2,0:0:0:0:
448,192,64356,1,8,0:0:0:0:
320,192,64449,1,0,0:0:0:0:
192,192,64543,1,0,0:0:0:0:
448,192,64543,1,0,0:0:0:0:
64,192,64637,1,0,0:0:0:0:
320,192,64731,1,2,0:0:0:0:
448,192,64731,1,0,0:0:0:0:
192,192,64824,1,0,0:0:0:0:
64,192,64918,128,0,65106:0:0:0:0:
192,192,65106,1,8,0:0:0:0:
320,192,65106,1,2,0:0:0:0:
448,192,65199,1,0,0:0:0:0:
64,192,65293,1,0,0:0:0:0:
192,192,65293,1,0,0:0:0:0:
320,192,65387,1,0,0:0:0:0:
64,192,65481,1,2,0:0:0:0:
448,192,65481,128,0,65668:0:0:0:0:
192,192,65668,1,0,0:0:0:0:
320,192,65762,1,0,0:0:0:0:
64,192,65856,1,2,0:0:0:0:
448,192,65856,1,8,0:0:0:0:
320,192,65949,1,0,0:0:0:0:
192,192,66043,128,0,66231:0:0:0:0:
64,192,66231,1,2,0:0:0:0:
320,192,66231,1,0,0:0:0:0:
448,192,66324,1,0,0:0:0:0:
192,192,66418,1,0,0:0:0:0:
320,192,66418,1,0,0:0:0:0:
64,192,66512,1,0,0:0:0:0:
192,192,66606,1,8,0:0:0:0:
448,192,66606,128,2,66793:0:0:0:0:
320,192,66793,1,0,0:0:0:0:
192,192,66887,1,0,0:0:0:0:
64,192,66981,128,2,67168:0:0:0:0:
448,192,66981,1,0,0:0:0:0:
320,192,67168,1,8,0:3:0:0:
448,192,67168,1,0,0:0:0:0:
192,192,67262,1,8,0:3:0:0:
64,192,67356,1,2,0:0:0:0:
320,192,67356,128,8,67543:0:0:0:0:
192,192,67543,1,8,0:3:0:0:
448,192,67543,1,0,0:0:0:0:
320,192,67637,1,8,0:3:0:0:
64,192,67731,1,2,0:0:0:0:
192,192,67731,1,4,0:1:0:0:
448,192,67824,1,0,0:0:0:0:
192,192,67918,1,0,0:0:0:0:
64,192,68012,1,0,0:0:0:0:
320,192,68106,1,10,0:0:0:0:
448,192,68106,1,0,0:0:0:50:special voice.wav
192,192,68199,1,0,0:0:0:0:
64,192,68293,1,0,0:0:0:0:
320,192,68387,1,0,0:0:0:0:
192,192,68481,1,2,0:0:0:0:
448,192,68481,1,0,0:0:0:0:
448,192,68574,1,0,0:0:0:0:
64,192,68668,1,0,0:0:0:0:
192,192,68762,1,0,0:0:0:0:
320,192,68762,1,0,0:0:0:0:
64,192,68856,1,10,0:0:0:0:
448,192,68856,1,0,0:0:0:50:special voice.wav
192,192,68949,1,0,0:0:0:0:
192,192,69043,1,0,0:0:0:0:
448,192,69137,1,0,0:0:0:0:
64,192,69231,1,2,0:0:0:0:
320,192,69231,1,0,0:0:0:0:
192,192,69324,1,0,0:0:0:0:
448,192,69418,1,0,0:0:0:0:
320,192,69512,1,0,0:0:0:0:
192,192,69606,1,10,0:0:0:0:
448,192,69606,1,0,0:0:0:50:special voice.wav
64,192,69699,1,0,0:0:0:0:
320,192,69793,1,0,0:0:0:0:
192,192,69887,1,0,0:0:0:0:
64,192,69981,1,2,0:0:0:0:
320,192,69981,1,0,0:0:0:0:
448,192,70074,1,0,0:0:0:0:
192,192,70168,1,0,0:0:0:0:
320,192,70262,1,0,0:0:0:0:
64,192,70356,1,10,0:0:0:0:
448,192,70356,1,0,0:0:0:50:special voice.wav
192,192,70543,1,0,0:0:0:0:
320,192,70637,1,0,0:0:0:0:
64,192,70731,1,2,0:0:0:0:
448,192,70731,1,0,0:0:0:0:
192,192,70824,1,0,0:0:0:0:
64,192,70918,1,0,0:0:0:0:
320,192,71012,1,0,0:0:0:0:
192,192,71106,1,10,0:0:0:0:
448,192,71106,1,0,0:0:0:50:special voice.wav
320,192,71199,1,0,0:0:0:0:
448,192,71293,1,0,0:0:0:0:
64,192,71387,1,0,0:0:0:0:
192,192,71481,1,2,0:0:0:0:
320,192,71481,1,0,0:0:0:0:
192,192,71574,1,0,0:0:0:0:
448,192,71668,1,0,0:0:0:0:
192,192,71762,1,0,0:0:0:0:
320,192,71762,1,0,0:0:0:0:
64,192,71856,1,10,0:0:0:0:
448,192,71856,1,0,0:0:0:50:special voice.wav
320,192,71949,1,0,0:0:0:0:
64,192,72043,1,2,0:0:0:0:
192,192,72043,1,0,0:0:0:0:
448,192,72137,1,0,0:0:0:0:
320,192,72231,1,0,0:0:0:0:
64,192,72418,1,8,0:3:0:0:
448,192,72418,1,0,0:0:0:0:
64,192,72606,1,2,0:0:0:0:
320,192,72606,1,8,0:3:0:0:
192,192,72793,1,8,0:3:0:0:
448,192,72793,1,0,0:0:0:0:
192,192,72981,1,8,0:3:0:0:
320,192,72981,1,0,0:0:0:50:tom02.wav
64,192,73168,1,8,0:3:0:0:
448,192,73168,1,0,0:0:0:50:tom03.wav
192,192,73262,1,0,0:0:0:0:
64,192,73356,1,2,0:0:0:0:
320,192,73356,1,0,0:0:0:50:special voice.wav
64,192,73731,1,2,0:0:0:0:
192,192,73731,1,0,0:0:0:0:
320,192,73824,1,0,0:0:0:0:
192,192,73918,1,0,0:0:0:0:
64,192,74012,1,0,0:0:0:0:
320,192,74106,1,2,0:0:0:0:
448,192,74106,1,0,0:0:0:0:
192,192,74199,1,0,0:0:0:0:
320,192,74293,1,0,0:0:0:0:
448,192,74387,1,0,0:0:0:0:
64,192,74481,1,2,0:0:0:0:
192,192,74481,1,0,0:0:0:0:
64,192,74574,1,0,0:0:0:0:
448,192,74762,1,0,0:0:0:0:
64,192,74856,1,2,0:0:0:0:
192,192,74856,1,0,0:0:0:0:
320,192,74949,1,0,0:0:0:0:
320,192,75043,1,0,0:0:0:0:
64,192,75137,1,0,0:0:0:0:
192,192,75231,1,2,0:0:0:0:
448,192,75231,1,0,0:0:0:0:
448,192,75418,1,0,0:0:0:0:
192,192,75606,1,2,0:0:0:0:
320,192,75606,1,0,0:0:0:0:
192,192,75793,1,0,0:0:0:0:
320,192,75887,1,0,0:0:0:0:
64,192,75981,1,2,0:0:0:0:
448,192,75981,1,0,0:0:0:0:
320,192,76168,1,0,0:0:0:0:
192,192,76356,1,2,0:0:0:0:
320,192,76356,1,0,0:0:0:0:
64,192,76543,1,0,0:0:0:0:
192,192,76637,1,0,0:0:0:0:
320,192,76731,1,2,0:0:0:0:
448,192,76731,1,0,0:0:0:0:
448,192,76918,1,0,0:0:0:0:
64,192,77106,1,2,0:0:0:0:
192,192,77106,1,0,0:0:0:0:
64,192,77293,1,0,0:0:0:0:
192,192,77481,1,2,0:0:0:0:
320,192,77481,1,0,0:0:0:0:
320,192,77574,1,0,0:0:0:0:
64,192,77762,1,0,0:0:0:0:
192,192,77856,1,2,0:0:0:0:
448,192,77856,1,0,0:0:0:0:
320,192,77949,1,0,0:0:0:0:
64,192,78043,1,8,0:3:0:0:
192,192,78043,1,0,0:0:0:0:
448,192,78137,1,0,0:0:0:0:
320,192,78231,1,0,0:0:0:0:
320,192,78418,1,0,0:0:0:0:
192,192,78606,1,0,0:0:0:0:
192,192,78793,1,0,0:0:0:0:
320,192,78887,1,0,0:0:0:0:
64,192,78981,1,2,0:0:0:0:
448,192,78981,1,0,0:0:0:0:
192,192,79168,1,8,0:0:0:0:
448,192,79168,1,0,0:0:0:0:
320,192,79262,1,8,0:3:0:0:
64,192,79356,1,2,0:0:0:0:
192,192,79356,1,8,0:0:0:0:
320,192,79449,1,8,0:3:0:0:
448,192,79449,1,0,0:0:0:0:
64,192,79543,1,8,0:3:0:0:
192,192,79543,1,0,0:0:0:0:
320,192,79637,1,8,0:3:0:0:
448,192,79637,1,0,0:0:0:0:
64,192,79731,1,2,0:0:0:0:
192,192,79731,128,4,80106:0:1:0:0:
448,192,79918,128,0,80106:0:0:0:0:
64,192,80106,1,10,0:0:0:0:
320,192,80106,1,0,0:0:0:50:special voice.wav
192,192,80293,128,0,80481:0:0:0:0:
320,192,80481,1,2,0:0:0:0:
448,192,80481,1,0,0:0:0:0:
192,192,80668,128,0,80856:0:0:0:0:
64,192,80856,1,10,0:0:0:0:
448,192,80856,1,0,0:0:0:50:special voice.wav
320,192,81043,128,0,81231:0:0:0:0:
64,192,81231,128,2,81418:0:0:0:0:
448,192,81231,1,0,0:0:0:0:
192,192,81418,128,0,81606:0:0:0:0:
64,192,81606,1,10,0:0:0:0:
320,192,81606,128,0,81793:0:0:0:50:special voice.wav
448,192,81793,128,0,81981:0:0:0:0:
64,192,81981,1,2,0:0:0:0:
320,192,81981,1,0,0:0:0:0:
192,192,82168,128,0,82356:0:0:0:0:
64,192,82356,128,10,82543:0:0:0:0:
448,192,82356,1,0,0:0:0:50:special voice.wav
320,192,82543,128,0,82731:0:0:0:0:
192,192,82731,1,2,0:0:0:0:
448,192,82731,128,0,82918:0:0:0:0:
64,192,82918,128,0,83106:0:0:0:0:
320,192,83106,1,10,0:0:0:0:
448,192,83106,1,0,0:0:0:50:special voice.wav
320,192,83199,1,0,0:0:0:0:
192,192,83293,128,0,83481:0:0:0:0:
320,192,83481,1,2,0:0:0:0:
448,192,83481,1,0,0:0:0:0:
192,192,83668,128,0,83856:0:0:0:0:
64,192,83856,1,10,0:0:0:0:
448,192,83856,1,0,0:0:0:50:special voice.wav
64,192,83949,1,0,0:0:0:0:
320,192,84043,128,0,84231:0:0:0:0:
192,192,84231,128,2,84418:0:0:0:0:
448,192,84231,1,0,0:0:0:0:
320,192,84324,1,0,0:0:0:0:
64,192,84418,128,0,84606:0:0:0:0:
320,192,84606,128,10,84793:0:0:0:0:
448,192,84606,1,0,0:0:0:50:special voice.wav
192,192,84699,1,0,0:0:0:0:
448,192,84793,128,0,84981:0:0:0:0:
64,192,84981,1,2,0:0:0:0:
320,192,84981,1,0,0:0:0:0:
192,192,85074,1,0,0:0:0:0:
320,192,85168,128,0,85356:0:0:0:0:
64,192,85356,128,10,85543:0:0:0:0:
448,192,85356,1,0,0:0:0:50:special voice.wav
192,192,85449,1,0,0:0:0:0:
320,192,85543,1,0,0:0:0:0:
64,192,85731,1,2,0:0:0:0:
192,192,85731,128,0,85918:0:0:0:0:
448,192,85918,128,0,86106:0:0:0:0:
192,192,86106,1,10,0:0:0:0:
320,192,86106,1,0,0:0:0:50:special voice.wav
64,192,86293,128,0,86481:0:0:0:0:
192,192,86481,1,2,0:0:0:0:
448,192,86481,1,0,0:0:0:0:
64,192,86668,128,0,86856:0:0:0:0:
192,192,86856,1,10,0:0:0:0:
320,192,86856,1,0,0:0:0:50:special voice.wav
64,192,87043,128,0,87231:0:0:0:0:
320,192,87231,128,2,87418:0:0:0:0:
448,192,87231,1,0,0:0:0:0:
192,192,87418,128,0,87606:0:0:0:0:
64,192,87606,128,10,87793:0:0:0:0:
448,192,87606,1,0,0:0:0:50:special voice.wav
320,192,87793,128,0,87981:0:0:0:0:
64,192,87981,1,2,0:0:0:0:
192,192,87981,1,0,0:0:0:0:
448,192,88168,128,0,88356:0:0:0:0:
64,192,88356,128,10,88543:0:0:0:0:
320,192,88356,1,0,0:0:0:50:special voice.wav
192,192,88543,128,0,88731:0:0:0:0:
64,192,88731,1,2,0:0:0:0:
320,192,88731,128,0,88918:0:0:0:0:
448,192,88918,128,0,89106:0:0:0:0:
192,192,89106,1,10,0:0:0:0:
320,192,89106,1,0,0:0:0:50:special voice.wav
64,192,89293,128,0,89481:0:0:0:0:
320,192,89481,1,2,0:0:0:0:
448,192,89481,1,0,0:0:0:0:
64,192,89668,128,0,89856:0:0:0:0:
192,192,89856,1,10,0:0:0:0:
448,192,89856,1,0,0:0:0:50:special voice.wav
64,192,90043,128,0,90231:0:0:0:0:
192,192,90231,128,2,90418:0:0:0:0:
320,192,90231,1,0,0:0:0:0:
448,192,90418,128,0,90606:0:0:0:0:
64,192,90606,128,10,90793:0:0:0:0:
192,192,90606,1,0,0:0:0:50:special voice.wav
320,192,90793,128,0,90981:0:0:0:0:
64,192,90981,1,2,0:0:0:0:
448,192,90981,1,0,0:0:0:0:
192,192,91168,128,0,91356:0:0:0:0:
320,192,91356,1,10,0:0:0:0:
448,192,91356,128,0,91543:0:0:0:50:special voice.wav
192,192,91543,1,0,0:0:0:0:
64,192,91731,1,2,0:0:0:0:
320,192,91731,1,4,0:0:0:0:
448,192,91731,1,0,0:0:0:0:
320,192,92106,1,2,0:0:0:0:
448,192,92106,1,0,0:0:0:0:
320,192,92293,1,0,0:0:0:0:
64,192,92481,1,2,0:0:0:0:
192,192,92481,1,0,0:0:0:0:
192,192,92668,1,0,0:0:0:0:
64,192,92856,1,2,0:0:0:0:
448,192,92856,1,0,0:0:0:0:
448,192,93043,1,0,0:0:0:0:
64,192,93231,1,2,0:0:0:0:
320,192,93231,1,0,0:0:0:0:
64,192,93418,1,0,0:0:0:0:
192,192,93606,1,2,0:0:0:0:
448,192,93606,1,0,0:0:0:0:
448,192,93793,1,0,0:0:0:0:
64,192,93981,1,2,0:0:0:0:
192,192,93981,1,0,0:0:0:0:
192,192,94168,1,0,0:0:0:0:
320,192,94356,1,2,0:0:0:0:
448,192,94356,1,0,0:0:0:0:
320,192,94543,1,0,0:0:0:0:
64,192,94731,1,2,0:0:0:0:
448,192,94731,1,0,0:0:0:0:
64,192,94918,1,0,0:0:0:0:
192,192,95106,1,2,0:0:0:0:
320,192,95106,1,0,0:0:0:0:
320,192,95293,1,0,0:0:0:0:
192,192,95481,1,2,0:0:0:0:
448,192,95481,1,0,0:0:0:0:
192,192,95668,1,0,0:0:0:0:
320,192,95668,1,0,0:0:0:0:
64,192,95856,1,2,0:0:0:0:
448,192,95856,1,0,0:0:0:0:
64,192,96043,1,0,0:0:0:0:
320,192,96043,1,0,0:0:0:0:
320,192,96231,1,2,0:0:0:0:
448,192,96231,1,0,0:0:0:0:
192,192,96324,1,0,0:0:0:0:
448,192,96418,1,0,0:0:0:0:
64,192,96512,1,2,0:0:0:0:
192,192,96512,1,0,0:0:0:0:
320,192,96606,1,0,0:0:0:0:
64,192,96699,1,0,0:0:0:0:
192,192,96793,1,2,0:0:0:0:
448,192,96793,1,0,0:0:0:0:
