osu file format v14

[General]
AudioFilename: audio.ogg
AudioLeadIn: 0
PreviewTime: 58478
Countdown: 0
SampleSet: Soft
StackLeniency: 0.4
Mode: 0
LetterboxInBreaks: 0
WidescreenStoryboard: 1

[Editor]
Bookmarks: 40052,74884
DistanceSpacing: 0.4
BeatDivisor: 4
GridSize: 32
TimelineZoom: 2.799999

[Metadata]
Title:Yuusha (TV Size)
TitleUnicode:勇者 (TV Size)
Artist:YOASOBI
ArtistUnicode:YOASOBI
Creator:Kanui
Version:Kyutei's Insane
Source:葬送のフリーレン
Tags:anya_melfissa shingyouji_yuni Clammbon Ayyri eiri- Annabel kyutei anya melfissa shingyouji yuni pnky -_nilou_- syndicate_ nilou Sousou no Frieren at the Funeral Beyond Journey's End japanese pop jpop j-pop anime opening female vocals ayase ikura lilas ikuta 幾田りら electronic
BeatmapID:4360073
BeatmapSetID:2067467

[Difficulty]
HPDrainRate:5
CircleSize:3.8
OverallDifficulty:8
ApproachRate:9
SliderMultiplier:1.6
SliderTickRate:1

[Events]
//Background and Video events
0,0,"bg.jpg",0,0
Video,0,"video.avi"
//Break Periods
2,29867,37145
2,48329,52145
//Storyboard Layer 0 (Background)
//Storyboard Layer 1 (Fail)
//Storyboard Layer 2 (Pass)
//Storyboard Layer 3 (Foreground)
//Storyboard Layer 4 (Overlay)
//Storyboard Sound Samples

[TimingPoints]
822,288.461538461539,4,2,1,40,1,0
822,-250,4,2,1,40,0,0
1254,-333.333333333333,4,2,1,40,0,0
1543,-125,4,2,1,40,0,0
3129,-250,4,2,1,40,0,0
3562,-166.666666666667,4,2,1,40,0,0
3850,-125,4,2,1,40,0,0
5437,-250,4,2,1,40,0,0
5870,-333.333333333333,4,2,1,40,0,0
6158,-125,4,2,1,40,0,0
9475,-100,4,2,1,40,0,0
9980,-100,4,2,1,5,0,0
10052,-166.666666666667,4,2,1,55,0,0
10485,-250.000000000001,4,2,1,55,0,0
11350,-111.111111111111,4,2,1,55,0,0
12360,-166.666666666667,4,2,1,55,0,0
12793,-111.111111111111,4,2,1,55,0,0
14668,-166.666666666666,4,2,1,55,0,0
15100,-111.111111111111,4,2,1,55,0,0
15677,-249.999999999999,4,2,1,55,0,0
16254,-100,4,2,1,55,0,0
17408,-250,4,2,1,55,0,0
17697,-125,4,2,1,55,0,0
18273,-166.666666666667,4,2,1,55,0,0
19716,-100,4,2,1,55,0,0
20148,-100,4,2,6,55,0,0
20221,-100,4,2,6,5,0,0
20293,-100,4,2,6,55,0,0
20366,-100,4,2,6,5,0,0
20437,-100,4,2,1,70,0,0
21158,-250,4,2,1,70,0,0
21591,-100,4,2,1,70,0,0
21807,-100,4,2,1,5,0,0
21879,-100,4,2,1,70,0,0
22168,-250,4,2,1,70,0,0
22456,-125,4,2,1,70,0,0
22745,-100,4,2,1,70,0,0
23466,-250,4,2,1,70,0,0
23898,-100,4,2,1,70,0,0
24692,-100,4,2,1,5,0,0
24764,-100,4,2,1,70,0,0
25052,-83.3333333333333,4,2,1,70,0,0
25773,-250,4,2,1,70,0,0
26206,-100,4,2,1,70,0,0
26422,-100,4,2,1,5,0,0
26495,-100,4,2,1,70,0,0
26783,-250,4,2,1,70,0,0
27360,-100,4,2,1,70,0,0
28081,-250,4,2,1,70,0,0
28514,-100,4,2,1,70,0,0
29307,-100,4,2,1,5,0,0
29379,-500,4,2,1,70,0,0
29668,-166.666666666667,4,2,1,40,0,0
37745,-166.666666666667,4,2,1,40,0,0
38322,-100,4,2,1,55,0,0
38610,-100,4,2,6,55,0,0
38682,-100,4,2,6,55,0,0
38754,-71.4285714285714,4,2,6,55,0,0
38826,-100,4,2,6,55,0,0
38898,-100,4,2,1,55,0,0
40052,-250,4,2,1,55,0,0
40341,-166.666666666667,4,2,1,55,0,0
40629,-125,4,2,1,55,0,0
40918,-100,4,2,1,55,0,0
41206,-100,4,2,1,55,0,0
41639,-100,4,2,1,55,0,0
42360,-250,4,2,1,55,0,0
42648,-166.666666666667,4,2,1,55,0,0
42937,-125,4,2,1,55,0,0
45389,-100,4,2,1,55,0,0
45822,-125,4,2,1,55,0,0
47120,-100,4,2,1,55,0,0
48129,-100,4,2,1,40,0,0
52745,-100,4,2,1,55,0,0
56783,-166.666666666667,4,2,1,55,0,0
59091,-55.5555555555556,4,2,1,70,0,0
59451,-100,4,2,1,5,0,0
59523,-71.4285714285714,4,2,1,70,0,0
59740,-100,4,2,1,5,0,0
59812,-83.3333333333333,4,2,6,70,0,0
60677,-66.6666666666667,4,2,6,70,0,0
61831,-83.3333333333333,4,2,6,80,0,0
62047,-83.3333333333333,4,2,6,5,0,0
62120,-83.3333333333333,4,2,6,80,0,0
63201,-83.3333333333333,4,2,6,5,0,0
63273,-83.3333333333333,4,2,6,80,0,0
64211,-100,4,2,6,5,0,0
64283,-62.5,4,2,6,80,0,0
65437,-100,4,2,6,80,0,0
65725,-71.4285714285714,4,2,6,80,0,0
66230,-100,4,2,6,5,0,0
66302,-71.4285714285714,4,2,6,80,0,0
66519,-71.4285714285714,4,2,6,5,0,0
66591,-55.5555555555556,4,2,1,80,0,0
66663,-55.5555555555556,4,2,6,80,0,0
66807,-100,4,2,6,5,0,0
66879,-100,4,2,6,80,0,0
67384,-100,4,2,6,80,0,0
67456,-100,4,2,6,80,0,0
68394,-100,4,2,6,5,0,0
68466,-100,4,2,6,80,0,0
68754,-83.3333333333333,4,2,6,80,0,0
70124,-100,4,2,6,5,0,0
70197,-83.3333333333333,4,2,6,80,0,0
71278,-83.3333333333333,4,2,6,5,0,0
71350,-83.3333333333333,4,2,6,80,0,0
72432,-83.3333333333333,4,2,6,5,0,0
72504,-83.3333333333333,4,2,6,80,0,0
73442,-100,4,2,6,5,0,0
73514,-83.3333333333333,4,2,6,80,0,0
73730,-83.3333333333333,4,2,6,5,0,0
73802,-83.3333333333333,4,2,6,80,0,0
74596,-83.3333333333333,4,2,6,5,0,0
74668,-83.3333333333333,4,2,6,80,0,0
75749,-100,4,2,6,5,0,0
75822,-83.3333333333333,4,2,6,80,0,0
76110,-250,4,2,6,80,0,0
76326,-100,4,2,6,5,0,0
76398,-250,4,2,6,80,0,0
78129,-55.5555555555556,4,2,1,70,0,0
78201,-55.5555555555556,4,2,6,70,0,0
78346,-100,4,2,6,5,0,0
78418,-71.4285714285714,4,2,6,70,0,0
79283,-50,4,2,6,70,0,0
79499,-100,4,2,6,5,0,0
79572,-71.4285714285714,4,2,6,70,0,0
81230,-100,4,2,6,5,0,0
81302,-71.4285714285714,4,2,6,70,0,0
81807,-71.4285714285714,4,2,6,5,0,0
81880,-71.4285714285714,4,2,6,70,0,0
82961,-71.4285714285714,4,2,6,5,0,0
83033,-55.5555555555556,4,2,6,70,0,0
84115,-55.5555555555556,4,2,6,5,0,0
84187,-55.5555555555556,4,2,6,70,0,0
85269,-55.5555555555556,4,2,6,5,0,0
85341,-55.5555555555556,4,2,6,70,0,0
86422,-55.5555555555556,4,2,6,5,0,0
86494,-55.5555555555556,4,2,6,70,0,0
87360,-100,4,2,1,40,0,0
87793,-100,4,2,6,50,0,0

[Colours]
Combo1 : 253,187,177
Combo2 : 127,155,227
Combo3 : 237,153,255
Combo4 : 175,120,176

[HitObjects]
17,367,822,5,2,0:0:0:0:
17,367,966,2,0,L|35:336,1,32,2|0,0:0|0:0,0:0:0:0:
1,197,1254,2,0,L|-1:186,2,11.9999996337891,2|2|8,0:0|0:0|0:2,0:0:0:0:
68,325,1543,2,0,L|59:256,1,64,2|0,0:0|0:0,0:0:0:0:
113,112,1831,1,2,0:0:0:0:
137,236,3129,5,2,0:0:0:0:
137,236,3273,2,0,L|175:213,1,32,2|0,0:0|0:0,0:0:0:0:
194,142,3562,2,0,L|255:137,1,47.9999985351563,2|8,0:0|0:2,0:0:0:0:
336,60,3850,2,0,L|409:67,1,64,2|0,0:0|0:0,0:0:0:0:
496,13,4139,5,2,0:0:0:0:
496,13,4860,1,10,0:2:0:0:
456,355,5437,5,2,0:0:0:0:
456,355,5581,2,0,L|441:324,1,32,2|2,0:0|0:0,0:0:0:0:
356,372,5870,2,0,P|357:362|358:353,2,11.9999996337891,2|2|8,0:0|0:0|0:2,0:0:0:0:
512,259,6158,2,0,L|459:224,1,64,2|0,0:0|0:0,0:0:0:0:
352,200,6447,1,2,0:0:0:0:
89,69,7456,5,2,0:0:0:0:
36,58,7600,1,2,0:0:0:0:
19,7,7745,1,2,0:0:0:0:
101,150,7889,5,2,0:0:0:0:
188,148,8177,1,2,0:0:0:0:
259,278,8466,1,2,0:0:0:0:
456,355,8754,1,2,0:0:0:0:
450,19,9475,6,0,P|414:102|454:20,1,280,8|0,0:1|0:1,0:0:0:0:
368,99,10052,6,0,L|319:84,2,47.9999985351563,4|0|0,3:1|0:0|0:0,0:0:0:0:
262,19,10485,2,0,L|259:3,2,16,2|2|8,0:0|0:0|0:2,0:0:0:0:
151,142,10773,1,2,0:0:0:0:
76,126,10918,1,2,0:2:0:0:
16,176,11062,1,4,0:3:0:0:
283,377,11350,6,0,L|291:342,2,35.9999989013672,2|2|0,0:0|0:0|3:0,0:0:0:0:
214,306,11639,2,0,L|192:216,1,71.9999978027344,2|8,0:0|0:0,0:0:0:0:
272,143,11927,1,2,0:0:0:0:
412,279,12072,5,8,0:3:0:0:
412,279,12216,1,4,0:3:0:0:
399,368,12360,6,0,L|452:351,2,47.9999985351563,0|0|2,3:0|0:0|0:0,0:0:0:0:
378,184,12793,2,0,L|460:198,1,71.9999978027344,2|8,0:0|0:0,0:0:0:0:
502,123,13081,1,2,0:0:0:0:
444,71,13225,1,2,0:0:0:0:
477,1,13370,1,4,0:3:0:0:
298,42,13658,6,0,B|270:53|270:53|260:43,2,35.9999989013672,2|2|0,0:0|0:0|3:0,0:0:0:0:
203,105,13947,2,0,B|151:91|151:91|145:66,1,71.9999978027344,2|8,0:0|0:0,0:0:0:0:
66,12,14235,2,0,L|53:91,1,71.9999978027344,4|2,0:3|0:2,0:0:0:0:
115,184,14523,5,4,0:3:0:0:
178,234,14668,2,0,L|188:281,2,47.9999985351563,2|0|2,3:2|0:0|0:0,0:0:0:0:
1,338,15100,1,2,0:0:0:0:
78,326,15245,1,8,0:2:0:0:
139,375,15389,1,2,0:0:0:0:
354,248,15677,6,0,L|348:287,1,32,0|0,3:0|0:0,0:0:0:0:
392,348,15966,2,0,L|396:371,2,16,2|2|0,0:0|0:0|3:0,0:0:0:0:
298,189,16254,2,0,L|280:105,1,80,2|8,0:0|0:0,0:0:0:0:
308,16,16543,1,2,0:0:0:0:
423,178,16687,5,8,0:3:0:0:
483,228,16831,1,4,0:3:0:0:
510,207,16903,1,4,0:3:0:0:
500,175,16975,1,2,3:2:0:0:
423,178,17120,1,2,0:0:0:0:
191,170,17408,5,2,0:0:0:0:
135,115,17552,1,10,0:0:0:0:
64,147,17697,2,0,L|73:211,1,64,2|2,0:0|0:0,0:0:0:0:
15,274,17985,1,0,3:0:0:0:
15,274,18129,1,2,0:0:0:0:
192,369,18273,6,0,L|198:337,2,23.9999992675781,2|2|0,0:0|0:0|3:0,0:0:0:0:
293,257,18562,2,0,L|284:192,1,47.9999985351563,2|8,0:0|0:0,0:0:0:0:
232,50,18850,1,2,3:2:0:0:
232,50,18995,1,2,0:2:0:0:
345,146,19139,5,8,0:3:0:0:
345,146,19211,1,4,0:3:0:0:
345,146,19283,1,10,0:0:0:0:
409,201,19427,2,0,L|436:194,3,23.9999992675781,2|2|2|2,0:0|0:0|3:2|0:0,0:0:0:0:
453,172,19716,2,0,L|509:182,2,40,8|2|2,0:0|0:0|0:0,0:0:0:0:
14,193,20148,5,8,0:0:0:0:
14,193,20292,1,8,0:0:0:0:
157,225,20437,6,0,B|71:288|32:368|32:368|70:330|75:238,1,320,6|0,3:1|3:0,0:0:0:0:
87,146,21158,2,0,L|77:107,2,32,0|10|2,0:0|0:2|0:0,0:0:0:0:
171,329,21591,6,0,B|223:333|263:369|263:369|296:358,1,120,2|0,3:2|0:0,0:0:0:0:
316,347,21879,2,0,B|305:366|305:366|322:299,1,80,2|10,0:0|0:2,0:0:0:0:
445,327,22168,6,0,L|414:333,1,32,2|0,3:2|0:0,0:0:0:0:
389,205,22456,2,0,L|452:209,1,64,10|0,0:2|0:0,0:0:0:0:
512,21,22745,6,0,P|436:72|288:69,1,240,2|8,3:2|0:2,0:0:0:0:
254,0,23322,1,2,3:2:0:0:
173,107,23466,2,0,L|180:149,2,32,0|10|2,0:0|0:0|0:2,0:0:0:0:
11,216,23898,6,0,B|8:197|8:197|86:169|126:260,1,160,2|2,3:2|0:0,0:0:0:0:
50,285,24331,1,8,0:2:0:0:
186,365,24475,6,0,P|227:356|277:351,1,80,2|0,3:1|0:0,0:0:0:0:
511,219,24764,2,0,P|470:228|420:233,1,80,8|2,0:2|0:0,0:0:0:0:
279,268,25052,6,0,B|288:258|288:258|349:301|356:361|356:361|320:303|370:148|370:148|397:159,1,383.99998828125,2|2,3:1|3:2,0:0:0:0:
484,47,25773,2,0,L|490:7,2,32,0|10|2,0:0|0:2|0:0,0:0:0:0:
368,11,26206,6,0,B|328:40|269:41|269:41|258:63,1,120,2|0,3:2|0:0,0:0:0:0:
203,104,26495,2,0,B|145:88|145:88|138:59,1,80,2|8,0:0|0:2,0:0:0:0:
43,6,26783,2,0,L|49:40,2,32,2|0|10,3:2|0:0|0:2,0:0:0:0:
0,216,27360,6,0,P|99:221|202:314,1,240,2|8,3:2|0:2,0:0:0:0:
316,384,27937,1,2,3:2:0:0:
341,230,28081,2,0,L|346:188,2,32,0|10|2,0:0|0:2|0:0,0:0:0:0:
484,340,28514,6,0,P|445:334|405:325,1,80,2|0,3:2|0:0,0:0:0:0:
185,190,28802,2,0,P|224:184|264:175,1,80,2|8,0:0|0:2,0:0:0:0:
492,87,29091,2,0,B|507:108|487:134|423:133|403:84,1,120,8|0,0:1|0:0,0:0:0:0:
363,31,29379,2,0,L|367:-2,1,32,8|4,0:0|3:1,0:0:0:0:
37,362,37745,5,0,3:0:0:0:
37,362,37889,1,0,3:0:0:0:
99,142,38177,1,0,3:0:0:0:
38,91,38322,2,0,L|19:1,1,80,8|0,0:1|0:0,0:0:0:0:
2,219,38610,6,0,L|50:236,1,40,8|0,0:0|0:0,0:0:0:0:
61,275,38754,2,0,L|134:259,1,55.9999982910157,8|0,0:0|0:0,0:0:0:0:
193,310,38898,6,0,B|287:293|328:375|328:375,1,160,4|2,3:1|0:0,0:0:0:0:
506,277,39331,2,0,P|466:274|420:265,1,80,8|2,0:2|3:2,0:0:0:0:
319,133,39620,1,2,0:0:0:0:
287,201,39764,1,8,0:2:0:0:
341,254,39908,1,2,0:0:0:0:
498,30,40052,6,0,L|458:40,1,32,0|2,3:2|0:0,0:0:0:0:
431,9,40341,2,0,L|369:-1,1,47.9999985351563,2|10,0:0|0:2,0:0:0:0:
450,134,40629,2,0,L|398:180,1,64,0|2,3:0|0:0,0:0:0:0:
236,128,40918,5,8,0:0:0:0:
37,40,41206,6,0,B|129:82|180:-5|180:-5,1,160,0|2,3:0|0:0,0:0:0:0:
78,171,41639,2,0,P|39:162|0:156,1,80,8|0,0:0|3:0,0:0:0:0:
132,293,41927,1,2,0:0:0:0:
192,243,42072,1,8,0:0:0:0:
165,172,42216,1,2,0:0:0:0:
8,370,42360,6,0,L|46:346,1,32,0|0,3:0|0:0,0:0:0:0:
27,305,42648,2,0,L|51:251,1,47.9999985351563,2|10,0:0|0:0,0:0:0:0:
200,341,42937,2,0,L|276:308,1,64,0|2,3:0|0:0,0:0:0:0:
253,178,43225,5,10,0:0:0:0:
484,368,43514,6,0,P|458:321|443:230,1,128,0|2,3:0|0:0,0:0:0:0:
416,319,43947,1,10,0:0:0:0:
493,138,44091,1,2,3:2:0:0:
346,91,44235,5,2,0:0:0:0:
369,176,44379,1,8,0:0:0:0:
468,33,44523,1,2,0:0:0:0:
468,33,44596,1,2,0:0:0:0:
468,33,44668,2,0,P|437:31|404:21,1,64,0|2,3:0|0:0,0:0:0:0:
269,155,44956,2,0,P|237:157|207:167,1,64,0|10,0:0|0:0,0:0:0:0:
40,16,45245,2,0,P|70:75|73:145,1,128,0|8,3:0|0:0,0:0:0:0:
74,135,45822,5,2,3:2:0:0:
0,352,46110,1,2,0:0:0:0:
0,352,46254,2,0,B|95:325|95:325|121:344,1,128,8|2,0:0|0:0,0:0:0:0:
191,372,46687,6,0,L|261:359,1,64,10|2,0:0|0:0,0:0:0:0:
435,207,46975,1,2,3:2:0:0:
383,376,47120,2,0,P|372:344|362:290,1,80,2|0,0:0|0:0,0:0:0:0:
223,119,47408,2,0,P|234:151|244:205,1,80,10|0,0:0|3:0,0:0:0:0:
307,243,47697,1,2,0:0:0:0:
484,73,47841,2,0,B|395:102|347:15|347:15,1,160,10|0,0:0|3:0,0:0:0:0:
70,77,52745,5,4,3:1:0:0:
70,77,52889,2,0,B|167:107|212:4|212:4,1,160,2|8,0:0|0:0,0:0:0:0:
96,184,53322,2,0,P|54:178|1:166,1,80,2|0,0:0|3:0,0:0:0:0:
170,359,53610,2,0,P|176:317|188:264,1,80,10|0,0:0|0:0,0:0:0:0:
226,139,53898,5,2,3:2:0:0:
362,199,54043,1,0,3:0:0:0:
448,21,54187,5,10,0:0:0:0:
374,49,54331,1,8,0:0:0:0:
489,221,54475,6,0,P|480:181|476:142,1,80,2|0,0:0|3:0,0:0:0:0:
267,368,54764,2,0,P|276:328|280:289,1,80,10|2,0:0|0:0,0:0:0:0:
485,380,55052,6,0,L|457:330,5,53.3333333333333,2|2|2|10|2|2,3:2|0:0|0:0|0:0|0:0|0:0,0:0:0:0:
406,341,55629,2,0,L|390:283,2,53.3333333333333,2|2|2,0:0|0:0|0:0,0:0:0:0:
318,178,55918,2,0,L|323:124,2,53.3333333333333,10|2|2,0:0|0:0|0:0,0:0:0:0:
273,47,56206,2,0,L|287:2,7,40,2|2|2|2|10|2|10|2,3:2|0:0|0:0|0:0|0:0|0:0|0:0|0:0,0:0:0:0:
172,88,56783,6,2,B|57:119|21:5|21:5,1,191.999994140625,2|2,0:1|3:2,0:1:0:0:
21,5,57648,1,8,3:2:0:0:
171,178,57937,1,0,3:0:0:0:
91,379,58225,1,8,0:0:0:0:
15,243,58514,5,0,0:0:0:0:
423,250,59091,6,0,P|409:367|428:251,1,359.999989013672,8|0,0:1|0:0,0:0:0:0:
319,335,59523,6,0,B|190:364|190:364|163:329,1,167.999994873047,4|0,3:1|0:0,0:0:0:0:
14,366,59812,6,0,L|28:306,3,47.9999985351563,2|0|8|0,1:2|1:0|1:2|1:0,0:0:0:0:
63,285,60100,2,0,L|54:221,3,47.9999985351563,2|0|10|0,1:2|1:2|1:2|1:0,0:0:0:0:
84,162,60389,2,0,L|55:111,3,47.9999985351563,2|0|10|0,1:2|1:2|1:2|1:0,0:0:0:0:
25,11,60677,5,2,1:2:0:0:
25,11,60749,1,0,1:2:0:0:
25,11,60822,2,0,L|98:31,1,60.0000022888184,8|0,1:2|1:2,0:0:0:0:
155,82,60966,1,2,1:2:0:0:
155,82,61038,1,0,1:2:0:0:
155,82,61110,2,0,L|226:67,1,60.0000022888184,8|0,1:2|1:2,0:0:0:0:
302,127,61254,1,2,1:2:0:0:
302,127,61326,1,0,1:0:0:0:
302,127,61398,2,0,L|366:92,1,60.0000022888184,10|0,1:2|1:0,0:0:0:0:
469,17,61543,6,0,P|456:43|447:81,3,60.0000022888184,2|0|10|0,1:2|1:0|1:2|1:0,0:0:0:0:
482,187,61831,6,0,P|447:276|440:383,1,191.999994140625,4|2,3:1|3:2,0:0:0:0:
278,223,62264,2,0,P|326:218|394:199,1,95.9999970703126,10|2,0:0|0:0,0:0:0:0:
286,379,62552,1,2,0:0:0:0:
225,333,62697,1,2,3:2:0:0:
149,351,62841,1,10,0:0:0:0:
1,218,62985,6,0,B|112:174|173:275|173:275,1,191.999994140625,2|2,3:2|0:0,0:0:0:0:
101,102,63418,2,0,P|93:65|85:3,1,95.9999970703126,10|0,0:0|0:0,0:0:0:0:
12,64,63706,1,2,3:2:0:0:
12,64,63850,1,0,3:0:0:0:
194,139,63995,2,0,B|283:162|314:82|314:82,1,143.999995605469,10|0,0:0|0:0,0:0:0:0:
491,14,64283,6,0,B|385:81|419:205|419:205|472:186,1,256,6|0,3:2|1:0,0:0:0:0:
509,355,64860,2,0,P|454:321|250:323,1,256,6|0,3:2|1:0,0:0:0:0:
22,384,65437,6,0,P|41:354|53:303,1,80,6|0,3:2|0:0,0:0:0:0:
118,240,65725,2,0,P|119:191|99:123,1,111.999996582031,0|0,1:0|1:0,0:0:0:0:
39,1,66014,6,0,P|123:45|211:35,1,167.999994873047,6|0,3:2|0:0,0:0:0:0:
267,9,66302,1,4,0:3:0:0:
492,157,66591,6,0,P|430:237|421:357,1,215.999993408203,4|0,3:1|0:0,0:0:0:0:
419,348,66879,2,0,P|461:363|504:369,1,80,10|0,1:2|1:0,0:0:0:0:
329,222,67168,2,0,P|276:237|192:248,1,120,2|0,0:0|3:0,0:0:0:0:
211,246,67456,1,8,0:0:0:0:
364,0,67600,2,0,P|405:52|513:30,1,160,2|0,3:2|3:0,0:0:0:0:
383,143,68033,1,10,0:0:0:0:
22,18,68322,6,0,L|28:57,1,40,2|0,3:2|0:0,0:0:0:0:
94,158,68466,1,8,0:0:0:0:
94,158,68538,1,8,0:0:0:0:
94,158,68610,2,0,L|85:211,1,40,8|8,0:0|0:0,0:0:0:0:
0,292,68754,6,0,B|113:249|160:362|160:362,1,191.999994140625,4|2,3:1|3:2,0:0:0:0:
275,152,69187,2,0,P|231:163|173:168,1,95.9999970703126,8|2,0:0|0:0,0:0:0:0:
373,357,69475,1,2,3:2:0:0:
404,286,69619,1,2,3:2:0:0:
351,227,69764,1,10,0:0:0:0:
266,384,69908,6,0,P|260:332|241:237,1,143.999995605469,2|0,3:2|0:0,0:0:0:0:
242,242,70197,1,2,3:2:0:0:
512,331,70341,2,0,P|502:283|496:236,1,95.9999970703126,8|2,0:0|0:0,0:0:0:0:
512,116,70629,5,2,3:2:0:0:
411,148,70773,1,2,3:2:0:0:
324,87,70918,1,10,0:0:0:0:
426,51,71062,1,2,3:2:0:0:
109,14,71350,5,2,3:2:0:0:
220,147,71495,2,0,P|170:145|122:132,1,95.9999970703126,10|2,0:0|0:0,0:0:0:0:
0,292,71783,1,2,3:2:0:0:
76,308,71927,1,2,3:2:0:0:
132,256,72072,1,8,0:0:0:0:
259,307,72216,6,0,B|370:269|422:376|422:376,1,191.999994140625,2|2,3:2|3:2,0:0:0:0:
512,212,72648,2,0,P|469:222|403:226,1,95.9999970703126,10|0,0:0|0:0,0:0:0:0:
313,125,72937,1,2,3:2:0:0:
313,125,73081,1,0,3:0:0:0:
423,4,73225,2,0,P|451:44|447:154,1,143.999995605469,10|0,0:0|0:0,0:0:0:0:
454,136,73514,1,2,3:2:0:0:
88,197,73802,6,0,P|32:281|53:397,1,191.999994140625,10|2,0:0|3:2,0:0:0:0:
119,295,74235,1,0,3:2:0:0:
57,104,74379,2,0,P|43:57|34:2,1,95.9999970703126,10|0,0:0|0:0,0:0:0:0:
193,216,74668,6,0,P|227:238|288:243,1,95.9999970703126,2|0,3:2|0:0,0:0:0:0:
473,47,74956,2,0,P|380:37|314:110,1,191.999994140625,10|2,0:2|3:2,0:0:0:0:
497,239,75389,1,0,3:2:0:0:
410,375,75533,2,0,P|405:315|382:219,1,143.999995605469,10|0,0:0|0:0,0:0:0:0:
386,233,75822,1,2,3:2:0:0:
276,14,76110,6,0,P|239:7|216:0,1,48,8|0,0:0|0:0,0:0:0:0:
229,4,76398,1,2,3:2:0:0:
260,164,76543,1,0,3:0:0:0:
154,302,76686,1,10,0:0:0:0:
154,302,76831,1,2,0:0:0:0:
209,369,76975,2,0,P|256:360|303:354,2,96,2|4|0,3:2|0:3|3:0,0:0:0:0:
97,160,78129,6,0,B|117:50|117:50|-16:-13,1,215.999993408203,4|0,3:1|0:0,0:0:0:0:
23,6,78418,2,0,L|41:75,3,55.9999982910157,8|0|0|0,0:2|1:0|1:2|1:0,0:0:0:0:
183,119,78706,2,0,B|241:191|241:191|284:188,1,111.999996582031,0|0,3:2|0:0,0:0:0:0:
24,282,78995,2,0,L|22:339,3,55.9999982910157,8|0|0|0,0:2|1:0|1:0|1:0,0:0:0:0:
225,302,79283,6,0,B|131:363|131:363|293:333,1,240,0|0,3:2|0:2,0:0:0:0:
326,381,79572,2,0,B|342:355|342:355|333:309,12,55.9999982910157,8|0|0|0|0|0|0|0|8|0|0|0|0,0:0|1:0|1:0|1:0|3:0|1:0|1:0|1:0|0:0|1:0|1:0|1:0|3:0,0:0:0:0:
502,2,80725,6,0,L|471:54,3,55.9999982910157,8|0|0|0,0:0|1:0|1:2|1:0,0:0:0:0:
447,18,81014,2,0,B|384:83|384:83|489:103,1,167.999994873047,0|0,3:2|0:0,0:0:0:0:
482,172,81302,2,0,L|481:230,3,55.9999982910157,8|0|0|0,0:2|1:0|1:0|1:0,0:0:0:0:
375,210,81591,5,0,3:2:0:0:
375,210,81735,1,0,0:0:0:0:
238,126,81879,2,0,L|183:170,12,55.9999982910157,8|0|0|0|0|0|0|0|8|0|0|0|0,0:0|1:0|1:0|1:0|3:0|1:0|1:0|1:0|0:0|1:0|1:0|1:0|3:0,0:0:0:0:
0,0,83033,6,0,B|17:93|17:93|71:80,2,143.999995605469,10|2|2,0:0|1:2|3:2,0:0:0:0:
118,200,83610,6,0,B|159:263|159:263|228:243,2,143.999995605469,10|2|2,0:0|1:2|3:2,0:0:0:0:
378,232,84187,6,0,B|431:265|431:265|433:301,3,71.9999978027344,8|0|0|0,0:0|1:0|1:0|1:0,0:0:0:0:
430,356,84475,6,0,L|500:372,8,71.9999978027344,0|0|0|0|8|0|0|0|0,3:0|1:0|1:0|1:0|0:0|1:0|1:0|1:0|3:2,0:0:0:0:
487,15,85341,6,0,B|488:50|488:50|368:73,2,143.999995605469,10|2|2,0:0|1:2|3:2,0:0:0:0:
254,156,85918,6,0,B|276:246|276:246|216:243,2,143.999995605469,10|2|2,0:0|1:2|3:2,0:0:0:0:
148,287,86495,6,0,B|144:324|144:324|103:333,3,71.9999978027344,8|0|0|0,0:0|1:0|1:0|1:0,0:0:0:0:
37,365,86783,6,0,B|-2:344|-2:344|1:284,3,71.9999978027344,0|0|0|0,3:2|1:0|1:0|1:0,0:0:0:0:
33,238,87072,5,8,0:0:0:0:
69,54,87216,1,8,0:0:0:0:
0,134,87360,5,2,0:0:0:0:
0,134,87504,1,2,0:0:0:0:
286,62,87793,5,0,3:2:0:0:
305,40,87866,1,0,3:2:0:0:
294,10,87938,1,8,0:2:0:0:
215,24,88082,1,0,3:0:0:0:
254,156,88370,5,2,3:2:0:0:
254,156,88658,1,0,3:0:0:0:
289,363,88802,1,12,0:0:0:0:
